  0
SECTION
  2
HEADER
  9
$ACADVER
  1
AC1032
  9
$ACADMAINTVER
 90
        4
  9
$DWGCODEPAGE
  3
ANSI_932
  9
$LASTSAVEDBY
  1
Hiroki Noike
  9
$REQUIREDVERSIONS
160
                 0
  9
$INSBASE
 10
0.0
 20
0.0
 30
0.0
  9
$EXTMIN
 10
1174.477725560749
 20
-295.5209073185706
 30
0.0
  9
$EXTMAX
 10
1753.635992272127
 20
113.9791251669969
 30
0.0
  9
$LIMMIN
 10
0.0
 20
0.0
  9
$LIMMAX
 10
420.0
 20
297.0
  9
$ORTHOMODE
 70
     0
  9
$REGENMODE
 70
     1
  9
$FILLMODE
 70
     1
  9
$QTEXTMODE
 70
     0
  9
$MIRRTEXT
 70
     0
  9
$LTSCALE
 40
8.4
  9
$ATTMODE
 70
     1
  9
$TEXTSIZE
 40
0.2
  9
$TRACEWID
 40
0.05
  9
$TEXTSTYLE
  7
STANDARD
  9
$CLAYER
  8
0
  9
$CELTYPE
  6
CONTINUOUS
  9
$CECOLOR
 62
   256
  9
$CELTSCALE
 40
1.0
  9
$DISPSILH
 70
     0
  9
$DIMSCALE
 40
1.0
  9
$DIMASZ
 40
0.18
  9
$DIMEXO
 40
0.0625
  9
$DIMDLI
 40
0.38
  9
$DIMRND
 40
0.0
  9
$DIMDLE
 40
0.0
  9
$DIMEXE
 40
0.18
  9
$DIMTP
 40
0.0
  9
$DIMTM
 40
0.0
  9
$DIMTXT
 40
0.18
  9
$DIMCEN
 40
0.09
  9
$DIMTSZ
 40
0.0
  9
$DIMTOL
 70
     0
  9
$DIMLIM
 70
     0
  9
$DIMTIH
 70
     1
  9
$DIMTOH
 70
     1
  9
$DIMSE1
 70
     0
  9
$DIMSE2
 70
     0
  9
$DIMTAD
 70
     0
  9
$DIMZIN
 70
     0
  9
$DIMBLK
  1

  9
$DIMASO
 70
     1
  9
$DIMSHO
 70
     1
  9
$DIMPOST
  1

  9
$DIMAPOST
  1

  9
$DIMALT
 70
     0
  9
$DIMALTD
 70
     2
  9
$DIMALTF
 40
25.4
  9
$DIMLFAC
 40
1.0
  9
$DIMTOFL
 70
     0
  9
$DIMTVP
 40
0.0
  9
$DIMTIX
 70
     0
  9
$DIMSOXD
 70
     0
  9
$DIMSAH
 70
     0
  9
$DIMBLK1
  1

  9
$DIMBLK2
  1

  9
$DIMSTYLE
  2
STANDARD
  9
$DIMCLRD
 70
     0
  9
$DIMCLRE
 70
     0
  9
$DIMCLRT
 70
     0
  9
$DIMTFAC
 40
1.0
  9
$DIMGAP
 40
0.09
  9
$DIMJUST
 70
     0
  9
$DIMSD1
 70
     0
  9
$DIMSD2
 70
     0
  9
$DIMTOLJ
 70
     1
  9
$DIMTZIN
 70
     0
  9
$DIMALTZ
 70
     0
  9
$DIMALTTZ
 70
     0
  9
$DIMUPT
 70
     0
  9
$DIMDEC
 70
     4
  9
$DIMTDEC
 70
     4
  9
$DIMALTU
 70
     2
  9
$DIMALTTD
 70
     2
  9
$DIMTXSTY
  7
STANDARD
  9
$DIMAUNIT
 70
     0
  9
$DIMADEC
 70
     0
  9
$DIMALTRND
 40
0.0
  9
$DIMAZIN
 70
     0
  9
$DIMDSEP
 70
    46
  9
$DIMATFIT
 70
     3
  9
$DIMFRAC
 70
     0
  9
$DIMLDRBLK
  1

  9
$DIMLUNIT
 70
     2
  9
$DIMLWD
 70
    -2
  9
$DIMLWE
 70
    -2
  9
$DIMTMOVE
 70
     0
  9
$DIMFXL
 40
1.0
  9
$DIMFXLON
 70
     0
  9
$DIMJOGANG
 40
0.7853981633974483
  9
$DIMTFILL
 70
     0
  9
$DIMTFILLCLR
 70
     0
  9
$DIMARCSYM
 70
     0
  9
$DIMLTYPE
  6

  9
$DIMLTEX1
  6

  9
$DIMLTEX2
  6

  9
$DIMTXTDIRECTION
 70
     0
  9
$LUNITS
 70
     2
  9
$LUPREC
 70
     4
  9
$SKETCHINC
 40
0.1
  9
$FILLETRAD
 40
0.0
  9
$AUNITS
 70
     0
  9
$AUPREC
 70
     0
  9
$MENU
  1
.
  9
$ELEVATION
 40
0.0
  9
$PELEVATION
 40
0.0
  9
$THICKNESS
 40
0.0
  9
$LIMCHECK
 70
     0
  9
$CHAMFERA
 40
0.0
  9
$CHAMFERB
 40
0.0
  9
$CHAMFERC
 40
0.0
  9
$CHAMFERD
 40
0.0
  9
$SKPOLY
 70
     0
  9
$TDCREATE
 40
2455000.691788183
  9
$TDUCREATE
 40
2455000.316788183
  9
$TDUPDATE
 40
2459744.571296875
  9
$TDUUPDATE
 40
2459744.196296875
  9
$TDINDWG
 40
0.1264080903
  9
$TDUSRTIMER
 40
0.0008424421
  9
$USRTIMER
 70
     1
  9
$ANGBASE
 50
0.0
  9
$ANGDIR
 70
     0
  9
$PDMODE
 70
     0
  9
$PDSIZE
 40
0.0
  9
$PLINEWID
 40
0.0
  9
$SPLFRAME
 70
     0
  9
$SPLINETYPE
 70
     6
  9
$SPLINESEGS
 70
     8
  9
$HANDSEED
  5
12AC
  9
$SURFTAB1
 70
     6
  9
$SURFTAB2
 70
     6
  9
$SURFTYPE
 70
     6
  9
$SURFU
 70
     6
  9
$SURFV
 70
     6
  9
$UCSBASE
  2

  9
$UCSNAME
  2

  9
$UCSORG
 10
0.0
 20
0.0
 30
0.0
  9
$UCSXDIR
 10
1.0
 20
0.0
 30
0.0
  9
$UCSYDIR
 10
0.0
 20
1.0
 30
0.0
  9
$UCSORTHOREF
  2

  9
$UCSORTHOVIEW
 70
     0
  9
$UCSORGTOP
 10
0.0
 20
0.0
 30
0.0
  9
$UCSORGBOTTOM
 10
0.0
 20
0.0
 30
0.0
  9
$UCSORGLEFT
 10
0.0
 20
0.0
 30
0.0
  9
$UCSORGRIGHT
 10
0.0
 20
0.0
 30
0.0
  9
$UCSORGFRONT
 10
0.0
 20
0.0
 30
0.0
  9
$UCSORGBACK
 10
0.0
 20
0.0
 30
0.0
  9
$PUCSBASE
  2

  9
$PUCSNAME
  2

  9
$PUCSORG
 10
0.0
 20
0.0
 30
0.0
  9
$PUCSXDIR
 10
1.0
 20
0.0
 30
0.0
  9
$PUCSYDIR
 10
0.0
 20
1.0
 30
0.0
  9
$PUCSORTHOREF
  2

  9
$PUCSORTHOVIEW
 70
     0
  9
$PUCSORGTOP
 10
0.0
 20
0.0
 30
0.0
  9
$PUCSORGBOTTOM
 10
0.0
 20
0.0
 30
0.0
  9
$PUCSORGLEFT
 10
0.0
 20
0.0
 30
0.0
  9
$PUCSORGRIGHT
 10
0.0
 20
0.0
 30
0.0
  9
$PUCSORGFRONT
 10
0.0
 20
0.0
 30
0.0
  9
$PUCSORGBACK
 10
0.0
 20
0.0
 30
0.0
  9
$USERI1
 70
     0
  9
$USERI2
 70
     0
  9
$USERI3
 70
     0
  9
$USERI4
 70
     0
  9
$USERI5
 70
     0
  9
$USERR1
 40
0.0
  9
$USERR2
 40
0.0
  9
$USERR3
 40
0.0
  9
$USERR4
 40
0.0
  9
$USERR5
 40
0.0
  9
$WORLDVIEW
 70
     1
  9
$SHADEDGE
 70
     3
  9
$SHADEDIF
 70
    70
  9
$TILEMODE
 70
     1
  9
$MAXACTVP
 70
    64
  9
$PINSBASE
 10
0.0
 20
0.0
 30
0.0
  9
$PLIMCHECK
 70
     0
  9
$PEXTMIN
 10
1.000000000000000E+20
 20
1.000000000000000E+20
 30
1.000000000000000E+20
  9
$PEXTMAX
 10
-1.000000000000000E+20
 20
-1.000000000000000E+20
 30
-1.000000000000000E+20
  9
$PLIMMIN
 10
0.0
 20
0.0
  9
$PLIMMAX
 10
0.0
 20
0.0
  9
$UNITMODE
 70
     0
  9
$VISRETAIN
 70
     1
  9
$PLINEGEN
 70
     0
  9
$PSLTSCALE
 70
     1
  9
$TREEDEPTH
 70
  3020
  9
$CMLSTYLE
  2
STANDARD
  9
$CMLJUST
 70
     0
  9
$CMLSCALE
 40
1.0
  9
$PROXYGRAPHICS
 70
     1
  9
$MEASUREMENT
 70
     0
  9
$CELWEIGHT
370
    -1
  9
$ENDCAPS
280
     0
  9
$JOINSTYLE
280
     0
  9
$LWDISPLAY
290
     0
  9
$INSUNITS
 70
     0
  9
$HYPERLINKBASE
  1

  9
$STYLESHEET
  1

  9
$XEDIT
290
     1
  9
$CEPSNTYPE
380
     0
  9
$PSTYLEMODE
290
     1
  9
$FINGERPRINTGUID
  2
{5B10C6B8-AD29-4F8D-BC87-3669DF86C51B}
  9
$VERSIONGUID
  2
{A1F8D69C-02DC-4BE0-8AC4-02E65C61EA7E}
  9
$EXTNAMES
290
     1
  9
$PSVPSCALE
 40
0.0
  9
$OLESTARTUP
290
     0
  9
$SORTENTS
280
   127
  9
$INDEXCTL
280
     0
  9
$HIDETEXT
280
     0
  9
$XCLIPFRAME
280
     0
  9
$HALOGAP
280
     0
  9
$OBSCOLOR
 70
   257
  9
$OBSLTYPE
280
     0
  9
$INTERSECTIONDISPLAY
280
     0
  9
$INTERSECTIONCOLOR
 70
   257
  9
$DIMASSOC
280
     1
  9
$PROJECTNAME
  1

  9
$CAMERADISPLAY
290
     0
  9
$LENSLENGTH
 40
50.0
  9
$CAMERAHEIGHT
 40
0.0
  9
$STEPSPERSEC
 40
2.0
  9
$STEPSIZE
 40
6.0
  9
$3DDWFPREC
 40
2.0
  9
$PSOLWIDTH
 40
0.25
  9
$PSOLHEIGHT
 40
4.0
  9
$LOFTANG1
 40
1.570796326794896
  9
$LOFTANG2
 40
1.570796326794896
  9
$LOFTMAG1
 40
0.0
  9
$LOFTMAG2
 40
0.0
  9
$LOFTPARAM
 70
     7
  9
$LOFTNORMALS
280
     1
  9
$LATITUDE
 40
37.795
  9
$LONGITUDE
 40
-122.394
  9
$NORTHDIRECTION
 40
0.0
  9
$TIMEZONE
 70
 -8000
  9
$LIGHTGLYPHDISPLAY
280
     1
  9
$TILEMODELIGHTSYNCH
280
     1
  9
$CMATERIAL
347
AC6
  9
$SOLIDHIST
280
     1
  9
$SHOWHIST
280
     1
  9
$DWFFRAME
280
     2
  9
$DGNFRAME
280
     0
  9
$REALWORLDSCALE
290
     1
  9
$INTERFERECOLOR
 62
     1
  9
$INTERFEREOBJVS
345
AE8
  9
$INTERFEREVPVS
346
AE5
  9
$CSHADOW
280
     0
  9
$SHADOWPLANELOCATION
 40
0.0
  0
ENDSEC
  0
SECTION
  2
CLASSES
  0
CLASS
  1
ACDBDICTIONARYWDFLT
  2
AcDbDictionaryWithDefault
  3
ObjectDBX Classes
 90
        0
 91
        3
280
     0
281
     0
  0
CLASS
  1
DICTIONARYVAR
  2
AcDbDictionaryVar
  3
ObjectDBX Classes
 90
        0
 91
        3
280
     0
281
     0
  0
CLASS
  1
MATERIAL
  2
AcDbMaterial
  3
ObjectDBX Classes
 90
     1153
 91
        3
280
     0
281
     0
  0
CLASS
  1
VISUALSTYLE
  2
AcDbVisualStyle
  3
ObjectDBX Classes
 90
     4095
 91
        3
280
     0
281
     0
  0
CLASS
  1
TABLESTYLE
  2
AcDbTableStyle
  3
ObjectDBX Classes
 90
     4095
 91
        3
280
     0
281
     0
  0
CLASS
  1
SCALE
  2
AcDbScale
  3
ObjectDBX Classes
 90
     1153
 91
        3
280
     0
281
     0
  0
CLASS
  1
MLEADERSTYLE
  2
AcDbMLeaderStyle
  3
ACDB_MLEADERSTYLE_CLASS
 90
     4095
 91
        3
280
     0
281
     0
  0
CLASS
  1
CELLSTYLEMAP
  2
AcDbCellStyleMap
  3
ObjectDBX Classes
 90
     1152
 91
        3
280
     0
281
     0
  0
CLASS
  1
SUN
  2
AcDbSun
  3
SCENEOE
 90
     1153
 91
        3
280
     0
281
     0
  0
CLASS
  1
SORTENTSTABLE
  2
AcDbSortentsTable
  3
ObjectDBX Classes
 90
        0
 91
        3
280
     0
281
     0
  0
ENDSEC
  0
SECTION
  2
TABLES
  0
TABLE
  2
VPORT
  5
8
330
0
100
AcDbSymbolTable
 70
     1
  0
VPORT
  5
AAF
330
8
100
AcDbSymbolTableRecord
100
AcDbViewportTableRecord
  2
*Active
 70
     0
 10
0.0
 20
0.0
 11
1.0
 21
1.0
 12
1659.685059389205
 22
-101.9131536344398
 13
0.0
 23
0.0
 14
1.0
 24
1.0
 15
0.0
 25
0.0
 16
0.0
 26
0.0
 36
1.0
 17
0.0
 27
0.0
 37
0.0
 40
583.339213157489
 41
2.082079343365253
 42
50.0
 43
0.0
 44
0.0
 50
0.0
 51
0.0
 71
    16
 72
   100
 73
     1
 74
     1
 75
     0
 76
     0
 77
     0
 78
     0
281
     0
 65
     1
110
0.0
120
0.0
130
0.0
111
1.0
121
0.0
131
0.0
112
0.0
122
1.0
132
0.0
 79
     0
146
0.0
348
AE4
 60
     3
 61
     5
292
     1
282
     1
141
0.0
142
0.0
 63
   250
421
  3355443
361
11AF
  0
ENDTAB
  0
TABLE
  2
LTYPE
  5
5
330
0
100
AcDbSymbolTable
 70
    25
  0
LTYPE
  5
12
330
5
100
AcDbSymbolTableRecord
100
AcDbLinetypeTableRecord
  2
BYBLOCK
 70
     0
  3

 72
    65
 73
     0
 40
0.0
  0
LTYPE
  5
13
330
5
100
AcDbSymbolTableRecord
100
AcDbLinetypeTableRecord
  2
BYLAYER
 70
     0
  3

 72
    65
 73
     0
 40
0.0
  0
LTYPE
  5
14
330
5
100
AcDbSymbolTableRecord
100
AcDbLinetypeTableRecord
  2
CONTINUOUS
 70
     0
  3
Solid line
 72
    65
 73
     0
 40
0.0
  0
LTYPE
  5
20
330
5
100
AcDbSymbolTableRecord
100
AcDbLinetypeTableRecord
  2
BORDER
 70
     0
  3
__ __ . __ __ . __ __ . __ __ . __ __ . __ __ .
 72
    65
 73
     6
 40
1.75
 49
0.5
 74
     0
 49
-0.25
 74
     0
 49
0.5
 74
     0
 49
-0.25
 74
     0
 49
0.0
 74
     0
 49
-0.25
 74
     0
  0
LTYPE
  5
21
330
5
100
AcDbSymbolTableRecord
100
AcDbLinetypeTableRecord
  2
BORDER2
 70
     0
  3
__.__.__.__.__.__.__.__.__.__.__.__.__.__.__.__
 72
    65
 73
     6
 40
0.875
 49
0.25
 74
     0
 49
-0.125
 74
     0
 49
0.25
 74
     0
 49
-0.125
 74
     0
 49
0.0
 74
     0
 49
-0.125
 74
     0
  0
LTYPE
  5
22
330
5
100
AcDbSymbolTableRecord
100
AcDbLinetypeTableRecord
  2
BORDERX2
 70
     0
  3
____  ____  .  ____  ____  .  ____  ____  .  __
 72
    65
 73
     6
 40
3.5
 49
1.0
 74
     0
 49
-0.5
 74
     0
 49
1.0
 74
     0
 49
-0.5
 74
     0
 49
0.0
 74
     0
 49
-0.5
 74
     0
  0
LTYPE
  5
23
330
5
100
AcDbSymbolTableRecord
100
AcDbLinetypeTableRecord
  2
CENTER
 70
     0
  3
____ _ ____ _ ____ _ ____ _ ____ _ ____ _ ____ 
 72
    65
 73
     4
 40
2.0
 49
1.25
 74
     0
 49
-0.25
 74
     0
 49
0.25
 74
     0
 49
-0.25
 74
     0
  0
LTYPE
  5
24
330
5
100
AcDbSymbolTableRecord
100
AcDbLinetypeTableRecord
  2
CENTER2
 70
     0
  3
___ _ ___ _ ___ _ ___ _ ___ _ ___ _ ___ _ ___ _
 72
    65
 73
     4
 40
1.125
 49
0.75
 74
     0
 49
-0.125
 74
     0
 49
0.125
 74
     0
 49
-0.125
 74
     0
  0
LTYPE
  5
25
330
5
100
AcDbSymbolTableRecord
100
AcDbLinetypeTableRecord
  2
CENTERX2
 70
     0
  3
________  __  ________  __  ________  __  _____
 72
    65
 73
     4
 40
4.0
 49
2.5
 74
     0
 49
-0.5
 74
     0
 49
0.5
 74
     0
 49
-0.5
 74
     0
  0
LTYPE
  5
26
330
5
100
AcDbSymbolTableRecord
100
AcDbLinetypeTableRecord
  2
DASHDOT
 70
     0
  3
__ . __ . __ . __ . __ . __ . __ . __ . __ . __
 72
    65
 73
     4
 40
1.0
 49
0.5
 74
     0
 49
-0.25
 74
     0
 49
0.0
 74
     0
 49
-0.25
 74
     0
  0
LTYPE
  5
27
330
5
100
AcDbSymbolTableRecord
100
AcDbLinetypeTableRecord
  2
DASHDOT2
 70
     0
  3
_._._._._._._._._._._._._._._._._._._._._._._._
 72
    65
 73
     4
 40
0.5
 49
0.25
 74
     0
 49
-0.125
 74
     0
 49
0.0
 74
     0
 49
-0.125
 74
     0
  0
LTYPE
  5
28
330
5
100
AcDbSymbolTableRecord
100
AcDbLinetypeTableRecord
  2
DASHDOTX2
 70
     0
  3
____  .  ____  .  ____  .  ____  .  ____  .  __
 72
    65
 73
     4
 40
2.0
 49
1.0
 74
     0
 49
-0.5
 74
     0
 49
0.0
 74
     0
 49
-0.5
 74
     0
  0
LTYPE
  5
29
330
5
100
AcDbSymbolTableRecord
100
AcDbLinetypeTableRecord
  2
DASHED
 70
     0
  3
__ __ __ __ __ __ __ __ __ __ __ __ __ __ __ __
 72
    65
 73
     2
 40
0.75
 49
0.5
 74
     0
 49
-0.25
 74
     0
  0
LTYPE
  5
2A
330
5
100
AcDbSymbolTableRecord
100
AcDbLinetypeTableRecord
  2
DASHED2
 70
     0
  3
_ _ _ _ _ _ _ _ _ _ _ _ _ _ _ _ _ _ _ _ _ _ _ _
 72
    65
 73
     2
 40
0.375
 49
0.25
 74
     0
 49
-0.125
 74
     0
  0
LTYPE
  5
2B
330
5
100
AcDbSymbolTableRecord
100
AcDbLinetypeTableRecord
  2
DASHEDX2
 70
     0
  3
____  ____  ____  ____  ____  ____  ____  ____ 
 72
    65
 73
     2
 40
1.5
 49
1.0
 74
     0
 49
-0.5
 74
     0
  0
LTYPE
  5
2C
330
5
100
AcDbSymbolTableRecord
100
AcDbLinetypeTableRecord
  2
DIVIDE
 70
     0
  3
____ . . ____ . . ____ . . ____ . . ____ . . __
 72
    65
 73
     6
 40
1.25
 49
0.5
 74
     0
 49
-0.25
 74
     0
 49
0.0
 74
     0
 49
-0.25
 74
     0
 49
0.0
 74
     0
 49
-0.25
 74
     0
  0
LTYPE
  5
2D
330
5
100
AcDbSymbolTableRecord
100
AcDbLinetypeTableRecord
  2
DIVIDE2
 70
     0
  3
__..__..__..__..__..__..__..__..__..__..__..__.
 72
    65
 73
     6
 40
0.625
 49
0.25
 74
     0
 49
-0.125
 74
     0
 49
0.0
 74
     0
 49
-0.125
 74
     0
 49
0.0
 74
     0
 49
-0.125
 74
     0
  0
LTYPE
  5
2E
330
5
100
AcDbSymbolTableRecord
100
AcDbLinetypeTableRecord
  2
DIVIDEX2
 70
     0
  3
________  .  .  ________  .  .  ________  .  . 
 72
    65
 73
     6
 40
2.5
 49
1.0
 74
     0
 49
-0.5
 74
     0
 49
0.0
 74
     0
 49
-0.5
 74
     0
 49
0.0
 74
     0
 49
-0.5
 74
     0
  0
LTYPE
  5
2F
330
5
100
AcDbSymbolTableRecord
100
AcDbLinetypeTableRecord
  2
DOT
 70
     0
  3
. . . . . . . . . . . . . . . . . . . . . . . .
 72
    65
 73
     2
 40
0.25
 49
0.0
 74
     0
 49
-0.25
 74
     0
  0
LTYPE
  5
30
330
5
100
AcDbSymbolTableRecord
100
AcDbLinetypeTableRecord
  2
DOT2
 70
     0
  3
...............................................
 72
    65
 73
     2
 40
0.125
 49
0.0
 74
     0
 49
-0.125
 74
     0
  0
LTYPE
  5
31
330
5
100
AcDbSymbolTableRecord
100
AcDbLinetypeTableRecord
  2
DOTX2
 70
     0
  3
.  .  .  .  .  .  .  .  .  .  .  .  .  .  .  . 
 72
    65
 73
     2
 40
0.5
 49
0.0
 74
     0
 49
-0.5
 74
     0
  0
LTYPE
  5
32
330
5
100
AcDbSymbolTableRecord
100
AcDbLinetypeTableRecord
  2
HIDDEN
 70
     0
  3
__ __ __ __ __ __ __ __ __ __ __ __ __ __ __ __
 72
    65
 73
     2
 40
0.375
 49
0.25
 74
     0
 49
-0.125
 74
     0
  0
LTYPE
  5
33
330
5
100
AcDbSymbolTableRecord
100
AcDbLinetypeTableRecord
  2
HIDDEN2
 70
     0
  3
_ _ _ _ _ _ _ _ _ _ _ _ _ _ _ _ _ _ _ _ _ _ _ _
 72
    65
 73
     2
 40
0.1875
 49
0.125
 74
     0
 49
-0.0625
 74
     0
  0
LTYPE
  5
34
330
5
100
AcDbSymbolTableRecord
100
AcDbLinetypeTableRecord
  2
HIDDENX2
 70
     0
  3
____ ____ ____ ____ ____ ____ ____ ____ ____ __
 72
    65
 73
     2
 40
0.75
 49
0.5
 74
     0
 49
-0.25
 74
     0
  0
LTYPE
  5
35
330
5
100
AcDbSymbolTableRecord
100
AcDbLinetypeTableRecord
  2
PHANTOM
 70
     0
  3
______  __  __  ______  __  __  ______  __  __ 
 72
    65
 73
     6
 40
2.5
 49
1.25
 74
     0
 49
-0.25
 74
     0
 49
0.25
 74
     0
 49
-0.25
 74
     0
 49
0.25
 74
     0
 49
-0.25
 74
     0
  0
LTYPE
  5
36
330
5
100
AcDbSymbolTableRecord
100
AcDbLinetypeTableRecord
  2
PHANTOM2
 70
     0
  3
___ _ _ ___ _ _ ___ _ _ ___ _ _ ___ _ _ ___ _ _
 72
    65
 73
     6
 40
1.25
 49
0.625
 74
     0
 49
-0.125
 74
     0
 49
0.125
 74
     0
 49
-0.125
 74
     0
 49
0.125
 74
     0
 49
-0.125
 74
     0
  0
LTYPE
  5
37
330
5
100
AcDbSymbolTableRecord
100
AcDbLinetypeTableRecord
  2
PHANTOMX2
 70
     0
  3
____________    ____    ____    ____________   
 72
    65
 73
     6
 40
5.0
 49
2.5
 74
     0
 49
-0.5
 74
     0
 49
0.5
 74
     0
 49
-0.5
 74
     0
 49
0.5
 74
     0
 49
-0.5
 74
     0
  0
ENDTAB
  0
TABLE
  2
LAYER
  5
2
102
{ACAD_XDICTIONARY
360
1225
102
}
330
0
100
AcDbSymbolTable
 70
    13
  0
LAYER
  5
E
102
{ACAD_XDICTIONARY
360
DCD
102
}
330
2
100
AcDbSymbolTableRecord
100
AcDbLayerTableRecord
  2
0
 70
     0
 62
     7
  6
CONTINUOUS
370
    -3
390
1DB
347
AD6
348
0
  0
LAYER
  5
39
102
{ACAD_XDICTIONARY
360
DCF
102
}
330
2
100
AcDbSymbolTableRecord
100
AcDbLayerTableRecord
  2
LEVEL001
 70
     0
 62
     7
  6
CONTINUOUS
370
    -3
390
1DB
347
AD6
348
0
  0
LAYER
  5
3A
102
{ACAD_XDICTIONARY
360
DD1
102
}
330
2
100
AcDbSymbolTableRecord
100
AcDbLayerTableRecord
  2
LEVEL003
 70
     0
 62
     7
  6
CONTINUOUS
370
    -3
390
1DB
347
AD6
348
0
  0
LAYER
  5
3B
102
{ACAD_XDICTIONARY
360
DD3
102
}
330
2
100
AcDbSymbolTableRecord
100
AcDbLayerTableRecord
  2
LEVEL020
 70
     0
 62
     7
  6
CONTINUOUS
370
    -3
390
1DB
347
AD6
348
0
  0
LAYER
  5
3C
102
{ACAD_XDICTIONARY
360
DD5
102
}
330
2
100
AcDbSymbolTableRecord
100
AcDbLayerTableRecord
  2
LEVEL050
 70
     0
 62
     7
  6
CONTINUOUS
370
    -3
390
1DB
347
AD6
348
0
  0
LAYER
  5
3D
102
{ACAD_XDICTIONARY
360
DD7
102
}
330
2
100
AcDbSymbolTableRecord
100
AcDbLayerTableRecord
  2
LEVEL110
 70
     0
 62
     7
  6
CONTINUOUS
370
    -3
390
1DB
347
AD6
348
0
  0
LAYER
  5
1E9
102
{ACAD_XDICTIONARY
360
DD9
102
}
330
2
100
AcDbSymbolTableRecord
100
AcDbLayerTableRecord
  2
ﾚｲﾔ1
 70
     0
 62
     7
  6
CONTINUOUS
370
    -3
390
1DB
347
AD6
348
0
  0
LAYER
  5
1EA
102
{ACAD_XDICTIONARY
360
DDB
102
}
330
2
100
AcDbSymbolTableRecord
100
AcDbLayerTableRecord
  2
図面
 70
     0
 62
     7
  6
CONTINUOUS
370
    40
390
1DB
347
AD6
348
0
  0
LAYER
  5
1EB
102
{ACAD_XDICTIONARY
360
DDD
102
}
330
2
100
AcDbSymbolTableRecord
100
AcDbLayerTableRecord
  2
下図
 70
     0
 62
     8
  6
DASHDOT
290
     0
370
    -3
390
1DB
347
AD6
348
0
  0
LAYER
  5
1EC
102
{ACAD_XDICTIONARY
360
DDF
102
}
330
2
100
AcDbSymbolTableRecord
100
AcDbLayerTableRecord
  2
寸法
 70
     0
 62
     1
  6
CONTINUOUS
370
    -3
390
1DB
347
AD6
348
0
  0
LAYER
  5
4DC
330
2
100
AcDbSymbolTableRecord
100
AcDbLayerTableRecord
  2
Defpoints
 70
     0
 62
     7
  6
CONTINUOUS
290
     0
370
    -3
390
1DB
347
AD6
348
0
  0
LAYER
  5
727
102
{ACAD_XDICTIONARY
360
DE1
102
}
330
2
100
AcDbSymbolTableRecord
100
AcDbLayerTableRecord
  2
図面枠
 70
     0
 62
     5
  6
CONTINUOUS
370
    -3
390
1DB
347
AD6
348
0
  0
LAYER
  5
E09
330
2
100
AcDbSymbolTableRecord
100
AcDbLayerTableRecord
  2
中央ライン
 70
     0
 62
     6
  6
DASHDOT
370
    13
390
1DB
347
AD6
348
0
  0
ENDTAB
  0
TABLE
  2
STYLE
  5
3
330
0
100
AcDbSymbolTable
 70
     5
  0
STYLE
  5
F
330
3
100
AcDbSymbolTableRecord
100
AcDbTextStyleTableRecord
  2
STANDARD
 70
     0
 40
0.0
 41
1.0
 50
0.0
 71
     0
 42
0.2
  3
TXT
  4
BIGFONT
  0
STYLE
  5
38
330
3
100
AcDbSymbolTableRecord
100
AcDbTextStyleTableRecord
  2
STANDARD1
 70
     4
 40
0.0
 41
1.0
 50
0.0
 71
     0
 42
0.2
  3
TXT
  4
BIGFONT
  0
STYLE
  5
3E
330
3
100
AcDbSymbolTableRecord
100
AcDbTextStyleTableRecord
  2
GMM001
 70
     0
 40
0.0
 41
1.0
 50
0.0
 71
     0
 42
1.0
  3
txt.shx
  4
bigfont.shx
  0
STYLE
  5
1ED
330
3
100
AcDbSymbolTableRecord
100
AcDbTextStyleTableRecord
  2
TextStyle01
 70
     0
 40
0.0
 41
1.0
 50
0.0
 71
     0
 42
0.0
  3
TXT
  4
BIGFONT
  0
STYLE
  5
11C1
330
3
100
AcDbSymbolTableRecord
100
AcDbTextStyleTableRecord
  2
DIMFONT1
 70
     0
 40
0.0
 41
1.193548387096774
 50
0.0
 71
     0
 42
0.2
  3
msgothic.ttc
  4

1001
ACAD
1000
MS PGothic
1071
    32818
  0
ENDTAB
  0
TABLE
  2
VIEW
  5
6
330
0
100
AcDbSymbolTable
 70
     0
  0
ENDTAB
  0
TABLE
  2
UCS
  5
7
330
0
100
AcDbSymbolTable
 70
     0
  0
ENDTAB
  0
TABLE
  2
APPID
  5
9
330
0
100
AcDbSymbolTable
 70
     5
  0
APPID
  5
10
330
9
100
AcDbSymbolTableRecord
100
AcDbRegAppTableRecord
  2
ACAD
 70
     0
  0
APPID
  5
B15
330
9
100
AcDbSymbolTableRecord
100
AcDbRegAppTableRecord
  2
ACAD_MLEADERVER
 70
     0
  0
APPID
  5
E7F
330
9
100
AcDbSymbolTableRecord
100
AcDbRegAppTableRecord
  2
ACAD_EXEMPT_FROM_CAD_STANDARDS
 70
     0
  0
APPID
  5
11C3
330
9
100
AcDbSymbolTableRecord
100
AcDbRegAppTableRecord
  2
ACAD_NAV_VCDISPLAY
 70
     0
  0
APPID
  5
127B
330
9
100
AcDbSymbolTableRecord
100
AcDbRegAppTableRecord
  2
PLOTTRANSPARENCY
 70
     0
  0
ENDTAB
  0
TABLE
  2
DIMSTYLE
  5
A
330
0
100
AcDbSymbolTable
 70
    13
100
AcDbDimStyleTable
  0
DIMSTYLE
105
1D
330
A
100
AcDbSymbolTableRecord
100
AcDbDimStyleTableRecord
  2
STANDARD
 70
     0
178
     0
340
F
  0
DIMSTYLE
105
3F
102
{ACAD_REACTORS
330
C53
330
C58
102
}
330
A
100
AcDbSymbolTableRecord
100
AcDbDimStyleTableRecord
  2
GMM001
 70
     0
 41
3.0
 42
1.0
 43
0.000001
 44
2.0
 73
     0
 74
     0
 77
     3
140
4.0
141
1.0
143
0.0394
146
0.625
147
0.79998779296875
172
     1
173
     1
176
     3
177
     3
271
     0
178
     3
271
     0
272
     0
275
     1
288
     1
340
3E
341
5E
343
5E
344
5E
  0
DIMSTYLE
105
40
102
{ACAD_REACTORS
330
C59
102
}
330
A
100
AcDbSymbolTableRecord
100
AcDbDimStyleTableRecord
  2
GMM002
 70
     0
 41
3.0
 42
1.0
 43
0.000001
 44
2.0
 73
     0
 74
     0
 75
     1
 77
     3
140
4.0
141
1.0
143
0.0394
146
0.625
147
0.80000305175781
172
     1
173
     1
176
     3
177
     3
271
     0
178
     3
271
     0
272
     0
275
     1
288
     1
340
3E
341
5E
343
5E
344
5E
  0
DIMSTYLE
105
41
102
{ACAD_REACTORS
330
CA6
330
CB9
330
C66
102
}
330
A
100
AcDbSymbolTableRecord
100
AcDbDimStyleTableRecord
  2
GMM003
 70
     0
 41
3.0
 42
1.0
 43
0.000001
 44
2.0
 73
     0
 74
     0
 77
     3
140
4.0
141
1.0
143
0.0394
146
0.625
147
0.79998779296875
172
     1
173
     1
176
     3
177
     3
271
     0
178
     3
271
     0
272
     0
275
     1
288
     1
340
3E
341
5E
343
5E
344
5E
  0
DIMSTYLE
105
42
102
{ACAD_REACTORS
330
CB8
102
}
330
A
100
AcDbSymbolTableRecord
100
AcDbDimStyleTableRecord
  2
GMM004
 70
     0
 41
3.0
 42
1.0
 43
0.000001
 44
2.0
 73
     0
 74
     0
 77
     3
140
4.0
141
1.0
143
0.0394
146
0.625
147
0.80000305175781
172
     1
173
     1
176
     3
177
     3
271
     0
178
     3
271
     0
272
     0
275
     1
288
     1
340
3E
341
5E
343
5E
344
5E
  0
DIMSTYLE
105
43
102
{ACAD_REACTORS
330
CBA
102
}
330
A
100
AcDbSymbolTableRecord
100
AcDbDimStyleTableRecord
  2
GMM005
 70
     0
 41
3.0
 42
1.0
 43
0.000001
 44
2.0
 73
     0
 74
     0
 77
     1
140
4.0
141
1.0
143
0.0394
146
0.625
147
0.0
172
     1
173
     1
176
     3
177
     3
271
     0
178
     7
271
     0
272
     0
275
     1
288
     1
340
F
341
5E
343
5E
344
5E
  0
DIMSTYLE
105
44
102
{ACAD_REACTORS
330
CE8
102
}
330
A
100
AcDbSymbolTableRecord
100
AcDbDimStyleTableRecord
  2
GMM006
 70
     0
 41
3.0
 42
1.0
 43
0.000001
 44
2.0
 73
     0
 74
     0
 77
     3
140
4.0
141
1.0
143
0.0394
146
0.625
147
0.80000305175781
172
     1
173
     1
176
     3
177
     3
271
     1
178
     3
271
     1
272
     0
275
     1
288
     1
340
3E
341
5E
343
5E
344
5E
  0
DIMSTYLE
105
45
102
{ACAD_REACTORS
330
CFE
102
}
330
A
100
AcDbSymbolTableRecord
100
AcDbDimStyleTableRecord
  2
GMM007
 70
     0
 41
3.0
 42
1.0
 43
0.000001
 44
2.0
 73
     0
 74
     0
 77
     3
140
4.0
141
1.0
143
0.0394
146
0.625
147
0.80000305175781
172
     1
173
     1
176
     3
177
     3
271
     0
178
     3
271
     0
272
     0
275
     1
288
     1
340
3E
341
58
343
58
344
5E
  0
DIMSTYLE
105
46
330
A
100
AcDbSymbolTableRecord
100
AcDbDimStyleTableRecord
  2
GMM008
 70
     0
 41
3.0
 42
1.0
 43
0.000001
 44
2.0
 75
     1
 77
     3
140
4.0
141
1.0
143
0.0394
146
0.625
147
5.6239087600866
172
     1
173
     1
176
     3
177
     3
271
     0
178
     3
271
     0
272
     0
288
     1
340
3E
341
58
343
58
344
5E
  0
DIMSTYLE
105
47
330
A
100
AcDbSymbolTableRecord
100
AcDbDimStyleTableRecord
  2
GMM009
 70
     0
 41
3.0
 42
1.0
 43
8.0
 44
2.0
 73
     0
 74
     0
 75
     1
 76
     1
 77
     3
 78
     8
140
4.0
141
1.0
143
0.0394
146
0.625
147
0.8
172
     1
173
     1
176
     3
177
     3
271
     1
178
     3
271
     1
272
     0
340
3E
341
5E
343
5E
344
5E
  0
DIMSTYLE
105
E0A
330
A
100
AcDbSymbolTableRecord
100
AcDbDimStyleTableRecord
  2
ISO-25
 70
     0
 41
2.5
 42
0.625
 43
3.75
 44
1.25
 73
     0
 74
     0
 77
     1
 78
     8
140
2.5
141
2.5
143
0.03937007874016
147
0.625
171
     3
172
     1
178
     0
271
     2
272
     2
274
     3
278
    44
283
     0
284
     8
340
F
  0
DIMSTYLE
105
11C0
330
A
100
AcDbSymbolTableRecord
100
AcDbDimStyleTableRecord
  2
DIM001
 70
     0
 40
10.0
 41
1.0
 42
0.0
 44
1.0
 45
1.0
 73
     0
 74
     0
 77
     3
140
1.216216216216216
147
0.2
172
     1
176
     7
177
     7
271
     0
178
     7
271
     0
273
     6
340
11C1
  0
DIMSTYLE
105
11C2
330
A
100
AcDbSymbolTableRecord
100
AcDbDimStyleTableRecord
  2
DIM002
 70
     0
 40
10.0
 41
1.0
 42
0.0
 44
0.0
 45
1.0
 73
     0
 74
     0
 77
     3
140
1.216216216216216
147
0.2
172
     1
176
     7
177
     7
271
     0
178
     7
271
     0
273
     6
340
11C1
  0
ENDTAB
  0
TABLE
  2
BLOCK_RECORD
  5
1
330
0
100
AcDbSymbolTable
 70
    35
  0
BLOCK_RECORD
  5
18
102
{ACAD_XDICTIONARY
360
127C
102
}
330
1
100
AcDbSymbolTableRecord
100
AcDbBlockTableRecord
  2
*MODEL_SPACE
340
1E0
 70
     0
280
     1
281
     0
  0
BLOCK_RECORD
  5
15
330
1
100
AcDbSymbolTableRecord
100
AcDbBlockTableRecord
  2
*PAPER_SPACE
340
1E1
 70
     0
280
     1
281
     0
  0
BLOCK_RECORD
  5
51
330
1
100
AcDbSymbolTableRecord
100
AcDbBlockTableRecord
  2
_ARCHTICK
340
0
 70
     0
280
     1
281
     0
  0
BLOCK_RECORD
  5
52
330
1
100
AcDbSymbolTableRecord
100
AcDbBlockTableRecord
  2
_BOXBLANK
340
0
 70
     0
280
     1
281
     0
  0
BLOCK_RECORD
  5
53
330
1
100
AcDbSymbolTableRecord
100
AcDbBlockTableRecord
  2
_BOXFILLED
340
0
 70
     0
280
     1
281
     0
  0
BLOCK_RECORD
  5
54
330
1
100
AcDbSymbolTableRecord
100
AcDbBlockTableRecord
  2
_CLOSED
340
0
 70
     0
280
     1
281
     0
  0
BLOCK_RECORD
  5
55
330
1
100
AcDbSymbolTableRecord
100
AcDbBlockTableRecord
  2
_CLOSEDBLANK
340
0
 70
     0
280
     1
281
     0
  0
BLOCK_RECORD
  5
56
330
1
100
AcDbSymbolTableRecord
100
AcDbBlockTableRecord
  2
_DATUMBLANK
340
0
 70
     0
280
     1
281
     0
  0
BLOCK_RECORD
  5
57
330
1
100
AcDbSymbolTableRecord
100
AcDbBlockTableRecord
  2
_DATUMFILLED
340
0
 70
     0
280
     1
281
     0
  0
BLOCK_RECORD
  5
58
330
1
100
AcDbSymbolTableRecord
100
AcDbBlockTableRecord
  2
_DOT
340
0
102
{BLKREFS
331
DF7
331
A98
331
119C
102
}
 70
     0
280
     1
281
     0
  0
BLOCK_RECORD
  5
59
330
1
100
AcDbSymbolTableRecord
100
AcDbBlockTableRecord
  2
_DOTBLANK
340
0
 70
     0
280
     1
281
     0
  0
BLOCK_RECORD
  5
5A
330
1
100
AcDbSymbolTableRecord
100
AcDbBlockTableRecord
  2
_DOTSMALL
340
0
 70
     0
280
     1
281
     0
  0
BLOCK_RECORD
  5
5B
330
1
100
AcDbSymbolTableRecord
100
AcDbBlockTableRecord
  2
_INTEGRAL
340
0
 70
     0
280
     1
281
     0
  0
BLOCK_RECORD
  5
5C
330
1
100
AcDbSymbolTableRecord
100
AcDbBlockTableRecord
  2
_NONE
340
0
 70
     0
280
     1
281
     0
  0
BLOCK_RECORD
  5
5D
330
1
100
AcDbSymbolTableRecord
100
AcDbBlockTableRecord
  2
_OBLIQUE
340
0
 70
     0
280
     1
281
     0
  0
BLOCK_RECORD
  5
5E
330
1
100
AcDbSymbolTableRecord
100
AcDbBlockTableRecord
  2
_OPEN
340
0
102
{BLKREFS
331
A36
331
A37
331
A3F
331
A40
331
A47
331
A48
331
A8F
331
A90
331
A7F
331
A80
331
A99
331
A76
331
A77
331
A88
331
A89
331
1177
331
1178
331
1180
331
1181
331
1189
331
118A
331
1192
331
1193
331
119D
331
1152
331
1153
331
115B
331
115C
331
1163
331
1164
331
116F
331
1170
102
}
 70
     0
280
     1
281
     0
  0
BLOCK_RECORD
  5
5F
330
1
100
AcDbSymbolTableRecord
100
AcDbBlockTableRecord
  2
_OPEN30
340
0
 70
     0
280
     1
281
     0
  0
BLOCK_RECORD
  5
60
330
1
100
AcDbSymbolTableRecord
100
AcDbBlockTableRecord
  2
_OPEN90
340
0
 70
     0
280
     1
281
     0
  0
BLOCK_RECORD
  5
61
330
1
100
AcDbSymbolTableRecord
100
AcDbBlockTableRecord
  2
_ORIGIN
340
0
 70
     0
280
     1
281
     0
  0
BLOCK_RECORD
  5
525
330
1
100
AcDbSymbolTableRecord
100
AcDbBlockTableRecord
  2
*D17
340
0
 70
     0
280
     1
281
     0
  0
BLOCK_RECORD
  5
531
330
1
100
AcDbSymbolTableRecord
100
AcDbBlockTableRecord
  2
*D18
340
0
 70
     0
280
     1
281
     0
  0
BLOCK_RECORD
  5
53D
330
1
100
AcDbSymbolTableRecord
100
AcDbBlockTableRecord
  2
*D19
340
0
 70
     0
280
     1
281
     0
  0
BLOCK_RECORD
  5
8B9
330
1
100
AcDbSymbolTableRecord
100
AcDbBlockTableRecord
  2
*D20
340
0
 70
     0
280
     1
281
     0
  0
BLOCK_RECORD
  5
8C3
330
1
100
AcDbSymbolTableRecord
100
AcDbBlockTableRecord
  2
*D21
340
0
 70
     0
280
     1
281
     0
  0
BLOCK_RECORD
  5
8CF
330
1
100
AcDbSymbolTableRecord
100
AcDbBlockTableRecord
  2
*D22
340
0
 70
     0
280
     1
281
     0
  0
BLOCK_RECORD
  5
8DB
330
1
100
AcDbSymbolTableRecord
100
AcDbBlockTableRecord
  2
*D23
340
0
 70
     0
280
     1
281
     0
  0
BLOCK_RECORD
  5
8E7
330
1
100
AcDbSymbolTableRecord
100
AcDbBlockTableRecord
  2
*D24
340
0
 70
     0
280
     1
281
     0
  0
BLOCK_RECORD
  5
8F5
330
1
100
AcDbSymbolTableRecord
100
AcDbBlockTableRecord
  2
*D25
340
0
 70
     0
280
     1
281
     0
  0
BLOCK_RECORD
  5
D0A
330
1
100
AcDbSymbolTableRecord
100
AcDbBlockTableRecord
  2
*D26
340
0
 70
     0
280
     1
281
     0
  0
BLOCK_RECORD
  5
D16
330
1
100
AcDbSymbolTableRecord
100
AcDbBlockTableRecord
  2
*D27
340
0
 70
     0
280
     1
281
     0
  0
BLOCK_RECORD
  5
D22
330
1
100
AcDbSymbolTableRecord
100
AcDbBlockTableRecord
  2
*D28
340
0
 70
     0
280
     1
281
     0
  0
BLOCK_RECORD
  5
D2E
330
1
100
AcDbSymbolTableRecord
100
AcDbBlockTableRecord
  2
*D29
340
0
 70
     0
280
     1
281
     0
  0
BLOCK_RECORD
  5
D3B
330
1
100
AcDbSymbolTableRecord
100
AcDbBlockTableRecord
  2
*D30
340
0
 70
     0
280
     1
281
     0
  0
BLOCK_RECORD
  5
D47
330
1
100
AcDbSymbolTableRecord
100
AcDbBlockTableRecord
  2
*D31
340
0
 70
     0
280
     1
281
     0
  0
BLOCK_RECORD
  5
D54
330
1
100
AcDbSymbolTableRecord
100
AcDbBlockTableRecord
  2
*D32
340
0
 70
     0
280
     1
281
     0
  0
BLOCK_RECORD
  5
D60
330
1
100
AcDbSymbolTableRecord
100
AcDbBlockTableRecord
  2
*D33
340
0
 70
     0
280
     1
281
     0
  0
BLOCK_RECORD
  5
D6B
330
1
100
AcDbSymbolTableRecord
100
AcDbBlockTableRecord
  2
*D34
340
0
 70
     0
280
     1
281
     0
  0
ENDTAB
  0
ENDSEC
  0
SECTION
  2
BLOCKS
  0
BLOCK
  5
19
330
18
100
AcDbEntity
  8
0
100
AcDbBlockBegin
  2
*MODEL_SPACE
 70
     0
 10
0.0
 20
0.0
 30
0.0
  3
*MODEL_SPACE
  1

  0
ENDBLK
  5
1A
330
18
100
AcDbEntity
  8
0
100
AcDbBlockEnd
  0
BLOCK
  5
16
330
15
100
AcDbEntity
 67
     1
  8
0
100
AcDbBlockBegin
  2
*PAPER_SPACE
 70
     0
 10
0.0
 20
0.0
 30
0.0
  3
*PAPER_SPACE
  1

  0
ENDBLK
  5
17
330
15
100
AcDbEntity
 67
     1
  8
0
100
AcDbBlockEnd
  0
BLOCK
  5
62
330
51
100
AcDbEntity
  8
0
100
AcDbBlockBegin
  2
_ARCHTICK
 70
     0
 10
0.0
 20
0.0
 30
0.0
  3
_ARCHTICK
  1

  0
LWPOLYLINE
  5
63
330
51
100
AcDbEntity
  8
0
  6
ByBlock
 62
     0
100
AcDbPolyline
 90
        2
 70
     1
 43
0.15
 10
-0.5
 20
-0.5
 10
0.5
 20
0.5
  0
ENDBLK
  5
67
330
51
100
AcDbEntity
  8
0
100
AcDbBlockEnd
  0
BLOCK
  5
6B
330
52
100
AcDbEntity
  8
0
100
AcDbBlockBegin
  2
_BOXBLANK
 70
     0
 10
0.0
 20
0.0
 30
0.0
  3
_BOXBLANK
  1

  0
LINE
  5
6C
330
52
100
AcDbEntity
  8
0
  6
ByBlock
 62
     0
100
AcDbLine
 10
-0.5
 20
-0.5
 30
0.0
 11
0.5
 21
-0.5
 31
0.0
  0
LINE
  5
6D
330
52
100
AcDbEntity
  8
0
  6
ByBlock
 62
     0
100
AcDbLine
 10
0.5
 20
-0.5
 30
0.0
 11
0.5
 21
0.5
 31
0.0
  0
LINE
  5
6E
330
52
100
AcDbEntity
  8
0
  6
ByBlock
 62
     0
100
AcDbLine
 10
0.5
 20
0.5
 30
0.0
 11
-0.5
 21
0.5
 31
0.0
  0
LINE
  5
6F
330
52
100
AcDbEntity
  8
0
  6
ByBlock
 62
     0
100
AcDbLine
 10
-0.5
 20
0.5
 30
0.0
 11
-0.5
 21
-0.5
 31
0.0
  0
LINE
  5
70
330
52
100
AcDbEntity
  8
0
  6
ByBlock
 62
     0
100
AcDbLine
 10
-0.5
 20
0.0
 30
0.0
 11
-1.0
 21
0.0
 31
0.0
  0
ENDBLK
  5
71
330
52
100
AcDbEntity
  8
0
100
AcDbBlockEnd
  0
BLOCK
  5
72
330
53
100
AcDbEntity
  8
0
100
AcDbBlockBegin
  2
_BOXFILLED
 70
     0
 10
0.0
 20
0.0
 30
0.0
  3
_BOXFILLED
  1

  0
SOLID
  5
73
330
53
100
AcDbEntity
  8
0
  6
ByBlock
 62
     0
100
AcDbTrace
 10
-0.5
 20
0.5
 30
0.0
 11
0.5
 21
0.5
 31
0.0
 12
-0.5
 22
-0.5
 32
0.0
 13
0.5
 23
-0.5
 33
0.0
  0
LINE
  5
74
330
53
100
AcDbEntity
  8
0
  6
ByBlock
 62
     0
100
AcDbLine
 10
-0.5
 20
0.0
 30
0.0
 11
-1.0
 21
0.0
 31
0.0
  0
ENDBLK
  5
75
330
53
100
AcDbEntity
  8
0
100
AcDbBlockEnd
  0
BLOCK
  5
76
330
54
100
AcDbEntity
  8
0
100
AcDbBlockBegin
  2
_CLOSED
 70
     0
 10
0.0
 20
0.0
 30
0.0
  3
_CLOSED
  1

  0
LINE
  5
77
330
54
100
AcDbEntity
  8
0
  6
ByBlock
 62
     0
100
AcDbLine
 10
-1.0
 20
0.16666666666667
 30
0.0
 11
0.0
 21
0.0
 31
0.0
  0
LINE
  5
78
330
54
100
AcDbEntity
  8
0
  6
ByBlock
 62
     0
100
AcDbLine
 10
0.0
 20
0.0
 30
0.0
 11
-1.0
 21
-0.16666666666667
 31
0.0
  0
LINE
  5
79
330
54
100
AcDbEntity
  8
0
  6
ByBlock
 62
     0
100
AcDbLine
 10
-1.0
 20
0.16666666666667
 30
0.0
 11
-1.0
 21
-0.16666666666667
 31
0.0
  0
LINE
  5
7A
330
54
100
AcDbEntity
  8
0
  6
ByBlock
 62
     0
100
AcDbLine
 10
0.0
 20
0.0
 30
0.0
 11
-1.0
 21
0.0
 31
0.0
  0
ENDBLK
  5
7B
330
54
100
AcDbEntity
  8
0
100
AcDbBlockEnd
  0
BLOCK
  5
8B
330
55
100
AcDbEntity
  8
0
100
AcDbBlockBegin
  2
_CLOSEDBLANK
 70
     0
 10
0.0
 20
0.0
 30
0.0
  3
_CLOSEDBLANK
  1

  0
LINE
  5
8C
330
55
100
AcDbEntity
  8
0
  6
ByBlock
 62
     0
100
AcDbLine
 10
-1.0
 20
0.16666666666667
 30
0.0
 11
0.0
 21
0.0
 31
0.0
  0
LINE
  5
8D
330
55
100
AcDbEntity
  8
0
  6
ByBlock
 62
     0
100
AcDbLine
 10
0.0
 20
0.0
 30
0.0
 11
-1.0
 21
-0.16666666666667
 31
0.0
  0
LINE
  5
8E
330
55
100
AcDbEntity
  8
0
  6
ByBlock
 62
     0
100
AcDbLine
 10
-1.0
 20
0.16666666666667
 30
0.0
 11
-1.0
 21
-0.16666666666667
 31
0.0
  0
ENDBLK
  5
8F
330
55
100
AcDbEntity
  8
0
100
AcDbBlockEnd
  0
BLOCK
  5
9D
330
56
100
AcDbEntity
  8
0
100
AcDbBlockBegin
  2
_DATUMBLANK
 70
     0
 10
0.0
 20
0.0
 30
0.0
  3
_DATUMBLANK
  1

  0
LINE
  5
9E
330
56
100
AcDbEntity
  8
0
  6
ByBlock
 62
     0
100
AcDbLine
 10
0.0
 20
0.57735027
 30
0.0
 11
-1.0
 21
0.0
 31
0.0
  0
LINE
  5
9F
330
56
100
AcDbEntity
  8
0
  6
ByBlock
 62
     0
100
AcDbLine
 10
-1.0
 20
0.0
 30
0.0
 11
0.0
 21
-0.57735027
 31
0.0
  0
LINE
  5
A0
330
56
100
AcDbEntity
  8
0
  6
ByBlock
 62
     0
100
AcDbLine
 10
0.0
 20
-0.57735027
 30
0.0
 11
0.0
 21
0.57735027
 31
0.0
  0
ENDBLK
  5
A1
330
56
100
AcDbEntity
  8
0
100
AcDbBlockEnd
  0
BLOCK
  5
A2
330
57
100
AcDbEntity
  8
0
100
AcDbBlockBegin
  2
_DATUMFILLED
 70
     0
 10
0.0
 20
0.0
 30
0.0
  3
_DATUMFILLED
  1

  0
SOLID
  5
A3
330
57
100
AcDbEntity
  8
0
  6
ByBlock
 62
     0
100
AcDbTrace
 10
0.0
 20
0.57735027
 30
0.0
 11
-1.0
 21
0.0
 31
0.0
 12
0.0
 22
-0.57735027
 32
0.0
 13
0.0
 23
-0.57735027
 33
0.0
  0
ENDBLK
  5
A4
330
57
100
AcDbEntity
  8
0
100
AcDbBlockEnd
  0
BLOCK
  5
90
330
58
100
AcDbEntity
  8
0
100
AcDbBlockBegin
  2
_DOT
 70
     0
 10
0.0
 20
0.0
 30
0.0
  3
_DOT
  1

  0
LWPOLYLINE
  5
91
330
58
100
AcDbEntity
  8
0
  6
ByBlock
 62
     0
100
AcDbPolyline
 90
        2
 70
     1
 43
0.5
 10
-0.25
 20
0.0
 42
1.0
 10
0.25
 20
0.0
 42
1.0
  0
LINE
  5
95
330
58
100
AcDbEntity
  8
0
  6
ByBlock
 62
     0
100
AcDbLine
 10
-0.5
 20
0.0
 30
0.0
 11
-1.0
 21
0.0
 31
0.0
  0
ENDBLK
  5
96
330
58
100
AcDbEntity
  8
0
100
AcDbBlockEnd
  0
BLOCK
  5
AC
330
59
100
AcDbEntity
  8
0
100
AcDbBlockBegin
  2
_DOTBLANK
 70
     0
 10
0.0
 20
0.0
 30
0.0
  3
_DOTBLANK
  1

  0
CIRCLE
  5
AD
330
59
100
AcDbEntity
  8
0
  6
ByBlock
 62
     0
100
AcDbCircle
 10
0.0
 20
0.0
 30
0.0
 40
0.5
  0
LINE
  5
AE
330
59
100
AcDbEntity
  8
0
  6
ByBlock
 62
     0
100
AcDbLine
 10
-0.5
 20
0.0
 30
0.0
 11
-1.0
 21
0.0
 31
0.0
  0
ENDBLK
  5
AF
330
59
100
AcDbEntity
  8
0
100
AcDbBlockEnd
  0
BLOCK
  5
97
330
5A
100
AcDbEntity
  8
0
100
AcDbBlockBegin
  2
_DOTSMALL
 70
     0
 10
0.0
 20
0.0
 30
0.0
  3
_DOTSMALL
  1

  0
LWPOLYLINE
  5
98
330
5A
100
AcDbEntity
  8
0
  6
ByBlock
 62
     0
100
AcDbPolyline
 90
        2
 70
     1
 43
0.5
 10
-0.0625
 20
0.0
 42
1.0
 10
0.0625
 20
0.0
 42
1.0
  0
ENDBLK
  5
9C
330
5A
100
AcDbEntity
  8
0
100
AcDbBlockEnd
  0
BLOCK
  5
B0
330
5B
100
AcDbEntity
  8
0
100
AcDbBlockBegin
  2
_INTEGRAL
 70
     0
 10
0.0
 20
0.0
 30
0.0
  3
_INTEGRAL
  1

  0
ARC
  5
B1
330
5B
100
AcDbEntity
  8
0
  6
ByBlock
 62
     0
100
AcDbCircle
 10
0.444888
 20
-0.091335
 30
0.0
 40
0.454167
100
AcDbArc
 50
102.0
 51
168.0
  0
ARC
  5
B2
330
5B
100
AcDbEntity
  8
0
  6
ByBlock
 62
     0
100
AcDbCircle
 10
-0.444888
 20
0.091335
 30
0.0
 40
0.454167
100
AcDbArc
 50
281.9999999999999
 51
348.0
  0
ENDBLK
  5
B3
330
5B
100
AcDbEntity
  8
0
100
AcDbBlockEnd
  0
BLOCK
  5
A9
330
5C
100
AcDbEntity
  8
0
100
AcDbBlockBegin
  2
_NONE
 70
     0
 10
0.0
 20
0.0
 30
0.0
  3
_NONE
  1

  0
CIRCLE
  5
AA
330
5C
100
AcDbEntity
  8
0
  6
ByBlock
 62
     0
100
AcDbCircle
 10
0.0
 20
0.0
 30
0.0
 40
0.25
  0
ENDBLK
  5
AB
330
5C
100
AcDbEntity
  8
0
100
AcDbBlockEnd
  0
BLOCK
  5
68
330
5D
100
AcDbEntity
  8
0
100
AcDbBlockBegin
  2
_OBLIQUE
 70
     0
 10
0.0
 20
0.0
 30
0.0
  3
_OBLIQUE
  1

  0
LINE
  5
69
330
5D
100
AcDbEntity
  8
0
  6
ByBlock
 62
     0
100
AcDbLine
 10
-0.5
 20
-0.5
 30
0.0
 11
0.5
 21
0.5
 31
0.0
  0
ENDBLK
  5
6A
330
5D
100
AcDbEntity
  8
0
100
AcDbBlockEnd
  0
BLOCK
  5
7C
330
5E
100
AcDbEntity
  8
0
100
AcDbBlockBegin
  2
_OPEN
 70
     0
 10
0.0
 20
0.0
 30
0.0
  3
_OPEN
  1

  0
LINE
  5
7D
330
5E
100
AcDbEntity
  8
0
  6
ByBlock
 62
     0
100
AcDbLine
 10
-1.0
 20
0.16666666666667
 30
0.0
 11
0.0
 21
0.0
 31
0.0
  0
LINE
  5
7E
330
5E
100
AcDbEntity
  8
0
  6
ByBlock
 62
     0
100
AcDbLine
 10
0.0
 20
0.0
 30
0.0
 11
-1.0
 21
-0.16666666666667
 31
0.0
  0
LINE
  5
7F
330
5E
100
AcDbEntity
  8
0
  6
ByBlock
 62
     0
100
AcDbLine
 10
0.0
 20
0.0
 30
0.0
 11
-1.0
 21
0.0
 31
0.0
  0
ENDBLK
  5
80
330
5E
100
AcDbEntity
  8
0
100
AcDbBlockEnd
  0
BLOCK
  5
81
330
5F
100
AcDbEntity
  8
0
100
AcDbBlockBegin
  2
_OPEN30
 70
     0
 10
0.0
 20
0.0
 30
0.0
  3
_OPEN30
  1

  0
LINE
  5
82
330
5F
100
AcDbEntity
  8
0
  6
ByBlock
 62
     0
100
AcDbLine
 10
-1.0
 20
0.2679491924311
 30
0.0
 11
0.0
 21
0.0
 31
0.0
  0
LINE
  5
83
330
5F
100
AcDbEntity
  8
0
  6
ByBlock
 62
     0
100
AcDbLine
 10
0.0
 20
0.0
 30
0.0
 11
-1.0
 21
-0.2679491924311
 31
0.0
  0
LINE
  5
84
330
5F
100
AcDbEntity
  8
0
  6
ByBlock
 62
     0
100
AcDbLine
 10
0.0
 20
0.0
 30
0.0
 11
-1.0
 21
0.0
 31
0.0
  0
ENDBLK
  5
85
330
5F
100
AcDbEntity
  8
0
100
AcDbBlockEnd
  0
BLOCK
  5
86
330
60
100
AcDbEntity
  8
0
100
AcDbBlockBegin
  2
_OPEN90
 70
     0
 10
0.0
 20
0.0
 30
0.0
  3
_OPEN90
  1

  0
LINE
  5
87
330
60
100
AcDbEntity
  8
0
  6
ByBlock
 62
     0
100
AcDbLine
 10
-0.5
 20
0.5
 30
0.0
 11
0.0
 21
0.0
 31
0.0
  0
LINE
  5
88
330
60
100
AcDbEntity
  8
0
  6
ByBlock
 62
     0
100
AcDbLine
 10
0.0
 20
0.0
 30
0.0
 11
-0.5
 21
-0.5
 31
0.0
  0
LINE
  5
89
330
60
100
AcDbEntity
  8
0
  6
ByBlock
 62
     0
100
AcDbLine
 10
0.0
 20
0.0
 30
0.0
 11
-1.0
 21
0.0
 31
0.0
  0
ENDBLK
  5
8A
330
60
100
AcDbEntity
  8
0
100
AcDbBlockEnd
  0
BLOCK
  5
A5
330
61
100
AcDbEntity
  8
0
100
AcDbBlockBegin
  2
_ORIGIN
 70
     0
 10
0.0
 20
0.0
 30
0.0
  3
_ORIGIN
  1

  0
CIRCLE
  5
A6
330
61
100
AcDbEntity
  8
0
  6
ByBlock
 62
     0
100
AcDbCircle
 10
0.0
 20
0.0
 30
0.0
 40
0.5
  0
LINE
  5
A7
330
61
100
AcDbEntity
  8
0
  6
ByBlock
 62
     0
100
AcDbLine
 10
0.0
 20
0.0
 30
0.0
 11
-1.0
 21
0.0
 31
0.0
  0
ENDBLK
  5
A8
330
61
100
AcDbEntity
  8
0
100
AcDbBlockEnd
  0
BLOCK
  5
52F
330
525
100
AcDbEntity
  8
0
100
AcDbBlockBegin
  2
*D17
 70
     1
 10
0.0
 20
0.0
 30
0.0
  3
*D17
  1

  0
LINE
  5
A33
330
525
100
AcDbEntity
  8
ﾚｲﾔ1
  6
Continuous
 62
     1
370
    -2
100
AcDbLine
 10
171.1371017258912
 20
207.04076100957
 30
0.0
 11
265.2317164454899
 21
207.04076100957
 31
0.0
  0
LINE
  5
A34
330
525
100
AcDbEntity
  8
ﾚｲﾔ1
  6
Continuous
 62
     1
370
    -2
100
AcDbLine
 10
173.1672193819156
 20
151.04076100957
 30
0.0
 11
265.2317164454899
 21
151.0407610095699
 31
0.0
  0
LINE
  5
A35
330
525
100
AcDbEntity
  8
ﾚｲﾔ1
  6
Continuous
 62
     1
370
    -2
100
AcDbLine
 10
263.2317164454899
 20
204.04076100957
 30
0.0
 11
263.2317164454899
 21
154.0407610095699
 31
0.0
  0
INSERT
  5
A36
330
525
100
AcDbEntity
  8
ﾚｲﾔ1
  6
Continuous
 62
     1
370
    -2
100
AcDbBlockReference
  2
_OPEN
 10
263.2317164454899
 20
207.04076100957
 30
0.0
 41
3.0
 42
3.0
 43
3.0
 50
90.0
  0
INSERT
  5
A37
330
525
100
AcDbEntity
  8
ﾚｲﾔ1
  6
Continuous
 62
     1
370
    -2
100
AcDbBlockReference
  2
_OPEN
 10
263.2317164454899
 20
151.0407610095699
 30
0.0
 41
3.0
 42
3.0
 43
3.0
 50
270.0
  0
MTEXT
  5
A38
330
525
100
AcDbEntity
  8
ﾚｲﾔ1
  6
Continuous
 62
     1
100
AcDbMText
 10
260.431713393732
 20
179.04076100957
 30
0.0
 40
4.0
 41
0.0
 46
0.0
 71
     5
 72
     1
  1
\A1;\A1;56
  7
GMM001
 11
1.000000000000000E-16
 21
1.0
 31
0.0
 73
     1
 44
1.0
  0
POINT
  5
A39
330
525
100
AcDbEntity
  8
Defpoints
  6
Continuous
 62
     0
100
AcDbPoint
 10
170.1371017258912
 20
207.04076100957
 30
0.0
  0
POINT
  5
A3A
330
525
100
AcDbEntity
  8
Defpoints
  6
Continuous
 62
     0
100
AcDbPoint
 10
172.1672193819156
 20
151.04076100957
 30
0.0
  0
POINT
  5
A3B
330
525
100
AcDbEntity
  8
Defpoints
  6
Continuous
 62
     0
100
AcDbPoint
 10
263.2317164454899
 20
151.0407610095699
 30
0.0
  0
ENDBLK
  5
530
330
525
100
AcDbEntity
  8
0
100
AcDbBlockEnd
  0
BLOCK
  5
53B
330
531
100
AcDbEntity
  8
0
100
AcDbBlockBegin
  2
*D18
 70
     1
 10
0.0
 20
0.0
 30
0.0
  3
*D18
  1

  0
LINE
  5
A3C
330
531
100
AcDbEntity
  8
ﾚｲﾔ1
  6
Continuous
 62
     1
370
    -2
100
AcDbLine
 10
92.16586461564899
 20
180.04076100957
 30
0.0
 11
92.16586461564899
 21
231.04076100957
 31
0.0
  0
LINE
  5
A3D
330
531
100
AcDbEntity
  8
ﾚｲﾔ1
  6
Continuous
 62
     1
370
    -2
100
AcDbLine
 10
175.1658646156499
 20
180.04076100957
 30
0.0
 11
175.1658646156499
 21
231.04076100957
 31
0.0
  0
LINE
  5
A3E
330
531
100
AcDbEntity
  8
ﾚｲﾔ1
  6
Continuous
 62
     1
370
    -2
100
AcDbLine
 10
95.165864615649
 20
229.04076100957
 30
0.0
 11
172.1658646156499
 21
229.04076100957
 31
0.0
  0
INSERT
  5
A3F
330
531
100
AcDbEntity
  8
ﾚｲﾔ1
  6
Continuous
 62
     1
370
    -2
100
AcDbBlockReference
  2
_OPEN
 10
92.16586461564899
 20
229.04076100957
 30
0.0
 41
3.0
 42
3.0
 43
3.0
 50
180.0
  0
INSERT
  5
A40
330
531
100
AcDbEntity
  8
ﾚｲﾔ1
  6
Continuous
 62
     1
370
    -2
100
AcDbBlockReference
  2
_OPEN
 10
175.1658646156499
 20
229.04076100957
 30
0.0
 41
3.0
 42
3.0
 43
3.0
  0
MTEXT
  5
A41
330
531
100
AcDbEntity
  8
ﾚｲﾔ1
  6
Continuous
 62
     1
100
AcDbMText
 10
133.66586461565
 20
231.8407488025388
 30
0.0
 40
4.0
 41
0.0
 46
0.0
 71
     5
 72
     1
  1
\A1;\A1;83
  7
GMM001
 73
     1
 44
1.0
  0
POINT
  5
A42
330
531
100
AcDbEntity
  8
Defpoints
  6
Continuous
 62
     0
100
AcDbPoint
 10
92.16586461564899
 20
179.04076100957
 30
0.0
  0
POINT
  5
A43
330
531
100
AcDbEntity
  8
Defpoints
  6
Continuous
 62
     0
100
AcDbPoint
 10
175.1658646156499
 20
179.04076100957
 30
0.0
  0
POINT
  5
A44
330
531
100
AcDbEntity
  8
Defpoints
  6
Continuous
 62
     0
100
AcDbPoint
 10
175.1658646156499
 20
229.04076100957
 30
0.0
  0
ENDBLK
  5
53C
330
531
100
AcDbEntity
  8
0
100
AcDbBlockEnd
  0
BLOCK
  5
546
330
53D
100
AcDbEntity
  8
0
100
AcDbBlockBegin
  2
*D19
 70
     1
 10
0.0
 20
0.0
 30
0.0
  3
*D19
  1

  0
LINE
  5
A45
330
53D
100
AcDbEntity
  8
ﾚｲﾔ1
  6
Continuous
 62
     1
370
    -2
100
AcDbLine
 10
120.16586461565
 20
210.04076100957
 30
0.0
 11
120.16586461565
 21
221.04076100957
 31
0.0
  0
LINE
  5
A46
330
53D
100
AcDbEntity
  8
ﾚｲﾔ1
  6
Continuous
 62
     1
370
    -2
100
AcDbLine
 10
95.165864615649
 20
219.04076100957
 30
0.0
 11
117.16586461565
 21
219.04076100957
 31
0.0
  0
INSERT
  5
A47
330
53D
100
AcDbEntity
  8
ﾚｲﾔ1
  6
Continuous
 62
     1
370
    -2
100
AcDbBlockReference
  2
_OPEN
 10
92.16586461564899
 20
219.04076100957
 30
0.0
 41
3.0
 42
3.0
 43
3.0
 50
180.0
  0
INSERT
  5
A48
330
53D
100
AcDbEntity
  8
ﾚｲﾔ1
  6
Continuous
 62
     1
370
    -2
100
AcDbBlockReference
  2
_OPEN
 10
120.16586461565
 20
219.04076100957
 30
0.0
 41
3.0
 42
3.0
 43
3.0
  0
MTEXT
  5
A49
330
53D
100
AcDbEntity
  8
ﾚｲﾔ1
  6
Continuous
 62
     1
100
AcDbMText
 10
106.16586461565
 20
221.8407640613278
 30
0.0
 40
4.0
 41
0.0
 46
0.0
 71
     5
 72
     1
  1
\A1;\A1;28
  7
GMM001
 73
     1
 44
1.0
  0
POINT
  5
A4A
330
53D
100
AcDbEntity
  8
Defpoints
  6
Continuous
 62
     0
100
AcDbPoint
 10
92.16586461564899
 20
219.04076100957
 30
0.0
  0
POINT
  5
A4B
330
53D
100
AcDbEntity
  8
Defpoints
  6
Continuous
 62
     0
100
AcDbPoint
 10
120.16586461565
 20
209.04076100957
 30
0.0
  0
POINT
  5
A4C
330
53D
100
AcDbEntity
  8
Defpoints
  6
Continuous
 62
     0
100
AcDbPoint
 10
120.16586461565
 20
219.04076100957
 30
0.0
  0
ENDBLK
  5
547
330
53D
100
AcDbEntity
  8
0
100
AcDbBlockEnd
  0
BLOCK
  5
8C1
330
8B9
100
AcDbEntity
  8
0
100
AcDbBlockBegin
  2
*D20
 70
     1
 10
0.0
 20
0.0
 30
0.0
  3
*D20
  1

  0
LINE
  5
A8E
330
8B9
100
AcDbEntity
  8
ﾚｲﾔ1
  6
Continuous
 62
     1
370
    -2
100
AcDbLine
 10
101.6658645804669
 20
83.96845571629468
 30
0.0
 11
138.6658645804679
 21
83.96845571629468
 31
0.0
  0
INSERT
  5
A8F
330
8B9
100
AcDbEntity
  8
ﾚｲﾔ1
  6
Continuous
 62
     1
370
    -2
100
AcDbBlockReference
  2
_OPEN
 10
98.66586458046697
 20
83.96845571629468
 30
0.0
 41
3.0
 42
3.0
 43
3.0
 50
180.0
  0
INSERT
  5
A90
330
8B9
100
AcDbEntity
  8
ﾚｲﾔ1
  6
Continuous
 62
     1
370
    -2
100
AcDbBlockReference
  2
_OPEN
 10
141.6658645804679
 20
83.96845571629468
 30
0.0
 41
3.0
 42
3.0
 43
3.0
  0
MTEXT
  5
A91
330
8B9
100
AcDbEntity
  8
ﾚｲﾔ1
  6
Continuous
 62
     1
100
AcDbMText
 10
120.1658645804674
 20
86.76845571629467
 30
0.0
 40
4.0
 41
0.0
 46
0.0
 71
     5
 72
     1
  1
\A1;\A1;%%c43
  7
GMM001
 73
     1
 44
1.0
  0
POINT
  5
A92
330
8B9
100
AcDbEntity
  8
Defpoints
  6
Continuous
 62
     0
100
AcDbPoint
 10
98.66586458046697
 20
83.96845571629468
 30
0.0
  0
POINT
  5
A93
330
8B9
100
AcDbEntity
  8
Defpoints
  6
Continuous
 62
     0
100
AcDbPoint
 10
141.6658645804679
 20
83.96845571629468
 30
0.0
  0
POINT
  5
A94
330
8B9
100
AcDbEntity
  8
Defpoints
  6
Continuous
 62
     0
100
AcDbPoint
 10
141.6658645804679
 20
83.96845571629468
 30
0.0
  0
ENDBLK
  5
8C2
330
8B9
100
AcDbEntity
  8
0
100
AcDbBlockEnd
  0
BLOCK
  5
8CD
330
8C3
100
AcDbEntity
  8
0
100
AcDbBlockBegin
  2
*D21
 70
     1
 10
0.0
 20
0.0
 30
0.0
  3
*D21
  1

  0
LINE
  5
DF5
330
8C3
100
AcDbEntity
  8
ﾚｲﾔ1
  6
Continuous
 62
     1
370
    -2
100
AcDbLine
 10
242.8436960161695
 20
98.20712637218882
 30
0.0
 11
255.733967980448
 21
100.4800290278349
 31
0.0
  0
ARC
  5
DF6
330
8C3
100
AcDbEntity
  8
ﾚｲﾔ1
  6
Continuous
 62
     1
370
    -2
100
AcDbCircle
 10
173.665910356838
 20
86.00921672586466
 30
0.0
 40
81.33408960798111
100
AcDbArc
 50
2.11346908405483
 51
7.886530569671148
  0
INSERT
  5
DF7
330
8C3
100
AcDbEntity
  8
ﾚｲﾔ1
  6
Continuous
 62
     1
370
    -2
100
AcDbBlockReference
  2
_DOT
 10
254.9999999648191
 20
86.00921672586466
 30
0.0
 41
3.0
 42
3.0
 43
3.0
 50
271.0567345420275
  0
SOLID
  5
DF8
330
8C3
100
AcDbEntity
  8
ﾚｲﾔ1
  6
Continuous
 62
     1
100
AcDbTrace
 10
253.7368001997406
 20
97.09147622164537
 30
0.0
 11
254.7246429591535
 21
97.24693259068616
 31
0.0
 12
253.7643524723247
 22
100.1327326844047
 32
0.0
 13
253.7643524723247
 23
100.1327326844047
 33
0.0
  0
MTEXT
  5
DF9
330
8C3
100
AcDbEntity
  8
ﾚｲﾔ1
  6
Continuous
 62
     1
100
AcDbMText
 10
254.9356490377879
 20
96.86789086990328
 30
0.0
 40
4.0
 41
0.0
 46
0.0
 71
     5
 72
     1
  1
\A1;\A1;10%%d
  7
GMM001
 73
     1
 44
1.0
  0
POINT
  5
DFA
330
8C3
100
AcDbEntity
  8
Defpoints
  6
Continuous
 62
     0
100
AcDbPoint
 10
173.665910356838
 20
86.00921672586466
 30
0.0
  0
POINT
  5
DFB
330
8C3
100
AcDbEntity
  8
Defpoints
  6
Continuous
 62
     0
100
AcDbPoint
 10
254.9999999648179
 20
86.00921672586465
 30
0.0
  0
POINT
  5
DFC
330
8C3
100
AcDbEntity
  8
Defpoints
  6
Continuous
 62
     0
100
AcDbPoint
 10
241.8588882621078
 20
98.0334782004737
 30
0.0
  0
POINT
  5
DFD
330
8C3
100
AcDbEntity
  8
Defpoints
  6
Continuous
 62
     0
100
AcDbPoint
 10
254.450047985549
 20
95.45152788069193
 30
0.0
  0
ENDBLK
  5
8CE
330
8C3
100
AcDbEntity
  8
0
100
AcDbBlockEnd
  0
BLOCK
  5
8D9
330
8CF
100
AcDbEntity
  8
0
100
AcDbBlockBegin
  2
*D22
 70
     1
 10
0.0
 20
0.0
 30
0.0
  3
*D22
  1

  0
LINE
  5
A7C
330
8CF
100
AcDbEntity
  8
ﾚｲﾔ1
  6
Continuous
 62
     1
370
    -2
100
AcDbLine
 10
139.365861528708
 20
113.0092167258647
 30
0.0
 11
266.999999964818
 21
113.0092167258646
 31
0.0
  0
LINE
  5
A7D
330
8CF
100
AcDbEntity
  8
ﾚｲﾔ1
  6
Continuous
 62
     1
370
    -2
100
AcDbLine
 10
175.1658645804679
 20
70.00921672586466
 30
0.0
 11
266.999999964818
 21
70.00921672586463
 31
0.0
  0
LINE
  5
A7E
330
8CF
100
AcDbEntity
  8
ﾚｲﾔ1
  6
Continuous
 62
     1
370
    -2
100
AcDbLine
 10
264.999999964818
 20
110.0092167258646
 30
0.0
 11
264.999999964818
 21
73.00921672586466
 31
0.0
  0
INSERT
  5
A7F
330
8CF
100
AcDbEntity
  8
ﾚｲﾔ1
  6
Continuous
 62
     1
370
    -2
100
AcDbBlockReference
  2
_OPEN
 10
264.999999964818
 20
113.0092167258646
 30
0.0
 41
3.0
 42
3.0
 43
3.0
 50
90.0
  0
INSERT
  5
A80
330
8CF
100
AcDbEntity
  8
ﾚｲﾔ1
  6
Continuous
 62
     1
370
    -2
100
AcDbBlockReference
  2
_OPEN
 10
264.999999964818
 20
70.00921672586463
 30
0.0
 41
3.0
 42
3.0
 43
3.0
 50
270.0
  0
MTEXT
  5
A81
330
8CF
100
AcDbEntity
  8
ﾚｲﾔ1
  6
Continuous
 62
     1
100
AcDbMText
 10
262.2000121718492
 20
91.50921672586466
 30
0.0
 40
4.0
 41
0.0
 46
0.0
 71
     5
 72
     1
  1
\A1;\A1;43
  7
GMM001
 11
1.000000000000000E-16
 21
1.0
 31
0.0
 73
     1
 44
1.0
  0
POINT
  5
A82
330
8CF
100
AcDbEntity
  8
Defpoints
  6
Continuous
 62
     0
100
AcDbPoint
 10
138.365861528708
 20
113.0092167258647
 30
0.0
  0
POINT
  5
A83
330
8CF
100
AcDbEntity
  8
Defpoints
  6
Continuous
 62
     0
100
AcDbPoint
 10
174.1658645804679
 20
70.00921672586466
 30
0.0
  0
POINT
  5
A84
330
8CF
100
AcDbEntity
  8
Defpoints
  6
Continuous
 62
     0
100
AcDbPoint
 10
264.999999964818
 20
70.00921672586463
 30
0.0
  0
ENDBLK
  5
8DA
330
8CF
100
AcDbEntity
  8
0
100
AcDbBlockEnd
  0
BLOCK
  5
8E5
330
8DB
100
AcDbEntity
  8
0
100
AcDbBlockBegin
  2
*D23
 70
     1
 10
0.0
 20
0.0
 30
0.0
  3
*D23
  1

  0
LINE
  5
A95
330
8DB
100
AcDbEntity
  8
ﾚｲﾔ1
  6
Continuous
 62
     1
370
    -2
100
AcDbLine
 10
174.6658645804679
 20
86.00921672586466
 30
0.0
 11
256.9999999648179
 21
86.00921672586465
 31
0.0
  0
LINE
  5
A96
330
8DB
100
AcDbEntity
  8
ﾚｲﾔ1
  6
Continuous
 62
     1
370
    -2
100
AcDbLine
 10
196.1658645804679
 20
70.00921672586466
 30
0.0
 11
256.9999999648179
 21
70.00921672586463
 31
0.0
  0
LINE
  5
A97
330
8DB
100
AcDbEntity
  8
ﾚｲﾔ1
  6
Continuous
 62
     1
370
    -2
100
AcDbLine
 10
254.999999964818
 20
83.00921672586468
 30
0.0
 11
254.999999964818
 21
73.00921672586466
 31
0.0
  0
INSERT
  5
A98
330
8DB
100
AcDbEntity
  8
ﾚｲﾔ1
  6
Continuous
 62
     1
370
    -2
100
AcDbBlockReference
  2
_DOT
 10
254.999999964818
 20
86.00921672586465
 30
0.0
 41
3.0
 42
3.0
 43
3.0
 50
90.0
  0
INSERT
  5
A99
330
8DB
100
AcDbEntity
  8
ﾚｲﾔ1
  6
Continuous
 62
     1
370
    -2
100
AcDbBlockReference
  2
_OPEN
 10
254.999999964818
 20
70.00921672586463
 30
0.0
 41
3.0
 42
3.0
 43
3.0
 50
270.0
  0
MTEXT
  5
A9A
330
8DB
100
AcDbEntity
  8
ﾚｲﾔ1
  6
Continuous
 62
     1
100
AcDbMText
 10
252.1999969130602
 20
78.00921672586466
 30
0.0
 40
4.0
 41
0.0
 46
0.0
 71
     5
 72
     1
  1
\A1;\A1;16
  7
GMM001
 11
1.000000000000000E-16
 21
1.0
 31
0.0
 73
     1
 44
1.0
  0
POINT
  5
A9B
330
8DB
100
AcDbEntity
  8
Defpoints
  6
Continuous
 62
     0
100
AcDbPoint
 10
173.6658645804679
 20
86.00921672586466
 30
0.0
  0
POINT
  5
A9C
330
8DB
100
AcDbEntity
  8
Defpoints
  6
Continuous
 62
     0
100
AcDbPoint
 10
195.1658645804679
 20
70.00921672586466
 30
0.0
  0
POINT
  5
A9D
330
8DB
100
AcDbEntity
  8
Defpoints
  6
Continuous
 62
     0
100
AcDbPoint
 10
254.999999964818
 20
70.00921672586463
 30
0.0
  0
ENDBLK
  5
8E6
330
8DB
100
AcDbEntity
  8
0
100
AcDbBlockEnd
  0
BLOCK
  5
8F3
330
8E7
100
AcDbEntity
  8
0
100
AcDbBlockBegin
  2
*D24
 70
     1
 10
0.0
 20
0.0
 30
0.0
  3
*D24
  1

  0
LINE
  5
A71
330
8E7
100
AcDbEntity
  8
ﾚｲﾔ1
  6
Continuous
 62
     1
370
    -2
100
AcDbLine
 10
201.1658645804679
 20
113.0092167258647
 30
0.0
 11
246.999999964818
 21
113.0092167258646
 31
0.0
  0
LINE
  5
A72
330
8E7
100
AcDbEntity
  8
ﾚｲﾔ1
  6
Continuous
 62
     1
370
    -2
100
AcDbLine
 10
175.1658645804679
 20
112.2092289328957
 30
0.0
 11
246.999999964818
 21
112.2092289328956
 31
0.0
  0
LINE
  5
A73
330
8E7
100
AcDbEntity
  8
ﾚｲﾔ1
  6
Continuous
 62
     1
370
    -2
100
AcDbLine
 10
244.999999964818
 20
109.2092289328956
 30
0.0
 11
244.999999964818
 21
106.2092289328956
 31
0.0
  0
LINE
  5
A74
330
8E7
100
AcDbEntity
  8
ﾚｲﾔ1
  6
Continuous
 62
     1
370
    -2
100
AcDbLine
 10
244.999999964818
 20
116.0092167258646
 30
0.0
 11
244.999999964818
 21
127.9425561627136
 31
0.0
  0
LINE
  5
A75
330
8E7
100
AcDbEntity
  8
ﾚｲﾔ1
  6
Continuous
 62
     1
370
    -2
100
AcDbLine
 10
244.999999964818
 20
112.2092289328956
 30
0.0
 11
244.999999964818
 21
113.0092167258646
 31
0.0
  0
INSERT
  5
A76
330
8E7
100
AcDbEntity
  8
ﾚｲﾔ1
  6
Continuous
 62
     1
370
    -2
100
AcDbBlockReference
  2
_OPEN
 10
244.999999964818
 20
112.2092289328956
 30
0.0
 41
3.0
 42
3.0
 43
3.0
 50
90.0
  0
INSERT
  5
A77
330
8E7
100
AcDbEntity
  8
ﾚｲﾔ1
  6
Continuous
 62
     1
370
    -2
100
AcDbBlockReference
  2
_OPEN
 10
244.999999964818
 20
113.0092167258646
 30
0.0
 41
3.0
 42
3.0
 43
3.0
 50
270.0
  0
MTEXT
  5
A78
330
8E7
100
AcDbEntity
  8
ﾚｲﾔ1
  6
Continuous
 62
     1
100
AcDbMText
 10
242.1999969130602
 20
123.4758864442891
 30
0.0
 40
4.0
 41
0.0
 46
0.0
 71
     5
 72
     1
  1
\A1;\A1;0.8
  7
GMM001
 11
1.000000000000000E-16
 21
1.0
 31
0.0
 73
     1
 44
1.0
  0
POINT
  5
A79
330
8E7
100
AcDbEntity
  8
Defpoints
  6
Continuous
 62
     0
100
AcDbPoint
 10
200.1658645804679
 20
113.0092167258647
 30
0.0
  0
POINT
  5
A7A
330
8E7
100
AcDbEntity
  8
Defpoints
  6
Continuous
 62
     0
100
AcDbPoint
 10
174.1658645804679
 20
112.2092289328957
 30
0.0
  0
POINT
  5
A7B
330
8E7
100
AcDbEntity
  8
Defpoints
  6
Continuous
 62
     0
100
AcDbPoint
 10
244.999999964818
 20
112.2092289328956
 30
0.0
  0
ENDBLK
  5
8F4
330
8E7
100
AcDbEntity
  8
0
100
AcDbBlockEnd
  0
BLOCK
  5
8FF
330
8F5
100
AcDbEntity
  8
0
100
AcDbBlockBegin
  2
*D25
 70
     1
 10
0.0
 20
0.0
 30
0.0
  3
*D25
  1

  0
LINE
  5
A85
330
8F5
100
AcDbEntity
  8
ﾚｲﾔ1
  6
Continuous
 62
     1
370
    -2
100
AcDbLine
 10
139.1658645804679
 20
113.2092289328957
 30
0.0
 11
139.1658645804679
 21
140.0092167258646
 31
0.0
  0
LINE
  5
A86
330
8F5
100
AcDbEntity
  8
ﾚｲﾔ1
  6
Continuous
 62
     1
370
    -2
100
AcDbLine
 10
101.1658645804679
 20
113.2092289328957
 30
0.0
 11
101.1658645804679
 21
140.0092167258646
 31
0.0
  0
LINE
  5
A87
330
8F5
100
AcDbEntity
  8
ﾚｲﾔ1
  6
Continuous
 62
     1
370
    -2
100
AcDbLine
 10
136.1658645804679
 20
138.0092167258646
 30
0.0
 11
104.1658645804679
 21
138.0092167258646
 31
0.0
  0
INSERT
  5
A88
330
8F5
100
AcDbEntity
  8
ﾚｲﾔ1
  6
Continuous
 62
     1
370
    -2
100
AcDbBlockReference
  2
_OPEN
 10
139.1658645804679
 20
138.0092167258646
 30
0.0
 41
3.0
 42
3.0
 43
3.0
  0
INSERT
  5
A89
330
8F5
100
AcDbEntity
  8
ﾚｲﾔ1
  6
Continuous
 62
     1
370
    -2
100
AcDbBlockReference
  2
_OPEN
 10
101.1658645804679
 20
138.0092167258646
 30
0.0
 41
3.0
 42
3.0
 43
3.0
 50
180.0
  0
MTEXT
  5
A8A
330
8F5
100
AcDbEntity
  8
ﾚｲﾔ1
  6
Continuous
 62
     1
100
AcDbMText
 10
120.1658669059179
 20
140.8092045188334
 30
0.0
 40
4.0
 41
0.0
 46
0.0
 71
     5
 72
     1
  1
\A1;\A1;%%c38
  7
GMM001
 73
     1
 44
1.0
  0
POINT
  5
A8B
330
8F5
100
AcDbEntity
  8
Defpoints
  6
Continuous
 62
     0
100
AcDbPoint
 10
139.1658645804679
 20
112.2092289328957
 30
0.0
  0
POINT
  5
A8C
330
8F5
100
AcDbEntity
  8
Defpoints
  6
Continuous
 62
     0
100
AcDbPoint
 10
101.1658645804679
 20
112.2092289328957
 30
0.0
  0
POINT
  5
A8D
330
8F5
100
AcDbEntity
  8
Defpoints
  6
Continuous
 62
     0
100
AcDbPoint
 10
101.1658645804679
 20
138.0092167258646
 30
0.0
  0
ENDBLK
  5
900
330
8F5
100
AcDbEntity
  8
0
100
AcDbBlockEnd
  0
BLOCK
  5
D0B
330
D0A
100
AcDbEntity
  8
0
100
AcDbBlockBegin
  2
*D26
 70
     1
 10
0.0
 20
0.0
 30
0.0
  3
*D26
  1

  0
LINE
  5
1174
330
D0A
100
AcDbEntity
  8
LEVEL003
  6
Continuous
 62
     1
370
    -2
100
AcDbLine
 10
1332.788507993629
 20
-59.73640918033497
 30
0.0
 11
1426.810759902419
 21
-59.73640918033499
 31
0.0
  0
LINE
  5
1175
330
D0A
100
AcDbEntity
  8
LEVEL003
  6
Continuous
 62
     1
370
    -2
100
AcDbLine
 10
1332.788507993629
 20
-135.736409180335
 30
0.0
 11
1426.810759902419
 21
-135.736409180335
 31
0.0
  0
LINE
  5
1176
330
D0A
100
AcDbEntity
  8
LEVEL003
  6
Continuous
 62
     1
370
    -2
100
AcDbLine
 10
1424.810759902419
 20
-62.73640918033499
 30
0.0
 11
1424.810759902419
 21
-132.736409180335
 31
0.0
  0
INSERT
  5
1177
330
D0A
100
AcDbEntity
  8
LEVEL003
 62
     1
370
    -2
100
AcDbBlockReference
  2
_OPEN
 10
1424.810759902419
 20
-59.73640918033499
 30
0.0
 41
3.0
 42
3.0
 43
3.0
 50
90.0
  0
INSERT
  5
1178
330
D0A
100
AcDbEntity
  8
LEVEL003
 62
     1
370
    -2
100
AcDbBlockReference
  2
_OPEN
 10
1424.810759902419
 20
-135.736409180335
 30
0.0
 41
3.0
 42
3.0
 43
3.0
 50
270.0
  0
MTEXT
  5
1179
330
D0A
100
AcDbEntity
  8
LEVEL003
  6
Continuous
 62
     1
100
AcDbMText
 10
1422.01077210945
 20
-97.73640918033497
 30
0.0
 40
4.0
 41
0.0
 46
0.0
 71
     5
 72
     1
  1
\A1;\A1;76
  7
GMM001
 11
0.0
 21
1.0
 31
0.0
 73
     1
 44
1.0
  0
POINT
  5
117A
330
D0A
100
AcDbEntity
  8
Defpoints
 62
     0
100
AcDbPoint
 10
1331.788507993629
 20
-59.73640918033497
 30
0.0
  0
POINT
  5
117B
330
D0A
100
AcDbEntity
  8
Defpoints
 62
     0
100
AcDbPoint
 10
1331.788507993629
 20
-135.736409180335
 30
0.0
  0
POINT
  5
117C
330
D0A
100
AcDbEntity
  8
Defpoints
 62
     0
100
AcDbPoint
 10
1424.810759902419
 20
-135.736409180335
 30
0.0
  0
ENDBLK
  5
D0C
330
D0A
100
AcDbEntity
  8
0
100
AcDbBlockEnd
  0
BLOCK
  5
D17
330
D16
100
AcDbEntity
  8
0
100
AcDbBlockBegin
  2
*D27
 70
     1
 10
0.0
 20
0.0
 30
0.0
  3
*D27
  1

  0
LINE
  5
117D
330
D16
100
AcDbEntity
  8
LEVEL003
  6
Continuous
 62
     1
370
    -2
100
AcDbLine
 10
1564.936826810766
 20
-128.2216383713792
 30
0.0
 11
1647.936826810765
 21
-128.2216383713792
 31
0.0
  0
LINE
  5
117E
330
D16
100
AcDbEntity
  8
LEVEL003
  6
Continuous
 62
     1
370
    -2
100
AcDbLine
 10
1565.936826810766
 20
-109.2216688889572
 30
0.0
 11
1647.936826810765
 21
-109.2216688889572
 31
0.0
  0
LINE
  5
117F
330
D16
100
AcDbEntity
  8
LEVEL003
  6
Continuous
 62
     1
370
    -2
100
AcDbLine
 10
1645.936826810765
 20
-125.2216383713792
 30
0.0
 11
1645.936826810765
 21
-112.2216688889572
 31
0.0
  0
INSERT
  5
1180
330
D16
100
AcDbEntity
  8
LEVEL003
 62
     1
370
    -2
100
AcDbBlockReference
  2
_OPEN
 10
1645.936826810765
 20
-128.2216383713792
 30
0.0
 41
3.0
 42
3.0
 43
3.0
 50
270.0
  0
INSERT
  5
1181
330
D16
100
AcDbEntity
  8
LEVEL003
 62
     1
370
    -2
100
AcDbBlockReference
  2
_OPEN
 10
1645.936826810765
 20
-109.2216688889572
 30
0.0
 41
3.0
 42
3.0
 43
3.0
 50
90.0
  0
MTEXT
  5
1182
330
D16
100
AcDbEntity
  8
LEVEL003
  6
Continuous
 62
     1
100
AcDbMText
 10
1643.136823759007
 20
-118.7216536301682
 30
0.0
 40
4.0
 41
0.0
 46
0.0
 71
     5
 72
     1
  1
\A1;\A1;19
  7
GMM001
 11
0.0
 21
1.0
 31
0.0
 73
     1
 44
1.0
  0
POINT
  5
1183
330
D16
100
AcDbEntity
  8
Defpoints
 62
     0
100
AcDbPoint
 10
1563.936826810766
 20
-128.2216383713792
 30
0.0
  0
POINT
  5
1184
330
D16
100
AcDbEntity
  8
Defpoints
 62
     0
100
AcDbPoint
 10
1564.936826810766
 20
-109.2216688889572
 30
0.0
  0
POINT
  5
1185
330
D16
100
AcDbEntity
  8
Defpoints
 62
     0
100
AcDbPoint
 10
1645.936826810765
 20
-109.2216688889572
 30
0.0
  0
ENDBLK
  5
D18
330
D16
100
AcDbEntity
  8
0
100
AcDbBlockEnd
  0
BLOCK
  5
D23
330
D22
100
AcDbEntity
  8
0
100
AcDbBlockBegin
  2
*D28
 70
     1
 10
0.0
 20
0.0
 30
0.0
  3
*D28
  1

  0
LINE
  5
1186
330
D22
100
AcDbEntity
  8
LEVEL003
  6
Continuous
 62
     1
370
    -2
100
AcDbLine
 10
1564.936826810766
 20
-128.2216383713792
 30
0.0
 11
1657.936826810766
 21
-128.2216383713792
 31
0.0
  0
LINE
  5
1187
330
D22
100
AcDbEntity
  8
LEVEL003
  6
Continuous
 62
     1
370
    -2
100
AcDbLine
 10
1531.436826810765
 20
-68.22163837137916
 30
0.0
 11
1657.936826810766
 21
-68.22163837137916
 31
0.0
  0
LINE
  5
1188
330
D22
100
AcDbEntity
  8
LEVEL003
  6
Continuous
 62
     1
370
    -2
100
AcDbLine
 10
1655.936826810766
 20
-125.2216383713792
 30
0.0
 11
1655.936826810766
 21
-71.22163837137916
 31
0.0
  0
INSERT
  5
1189
330
D22
100
AcDbEntity
  8
LEVEL003
 62
     1
370
    -2
100
AcDbBlockReference
  2
_OPEN
 10
1655.936826810766
 20
-128.2216383713792
 30
0.0
 41
3.0
 42
3.0
 43
3.0
 50
270.0
  0
INSERT
  5
118A
330
D22
100
AcDbEntity
  8
LEVEL003
 62
     1
370
    -2
100
AcDbBlockReference
  2
_OPEN
 10
1655.936826810766
 20
-68.22163837137916
 30
0.0
 41
3.0
 42
3.0
 43
3.0
 50
90.0
  0
MTEXT
  5
118B
330
D22
100
AcDbEntity
  8
LEVEL003
  6
Continuous
 62
     1
100
AcDbMText
 10
1653.136839017797
 20
-98.22163837137904
 30
0.0
 40
4.0
 41
0.0
 46
0.0
 71
     5
 72
     1
  1
\A1;\A1;60
  7
GMM001
 11
0.0
 21
1.0
 31
0.0
 73
     1
 44
1.0
  0
POINT
  5
118C
330
D22
100
AcDbEntity
  8
Defpoints
 62
     0
100
AcDbPoint
 10
1563.936826810766
 20
-128.2216383713792
 30
0.0
  0
POINT
  5
118D
330
D22
100
AcDbEntity
  8
Defpoints
 62
     0
100
AcDbPoint
 10
1530.436826810765
 20
-68.22163837137916
 30
0.0
  0
POINT
  5
118E
330
D22
100
AcDbEntity
  8
Defpoints
 62
     0
100
AcDbPoint
 10
1655.936826810766
 20
-68.22163837137917
 30
0.0
  0
ENDBLK
  5
D24
330
D22
100
AcDbEntity
  8
0
100
AcDbBlockEnd
  0
BLOCK
  5
D2F
330
D2E
100
AcDbEntity
  8
0
100
AcDbBlockBegin
  2
*D29
 70
     1
 10
0.0
 20
0.0
 30
0.0
  3
*D29
  1

  0
LINE
  5
118F
330
D2E
100
AcDbEntity
  8
LEVEL003
  6
Continuous
 62
     1
370
    -2
100
AcDbLine
 10
1645.942991361555
 20
-108.2216688889572
 30
0.0
 11
1645.942991361556
 21
-107.2216688889572
 31
0.0
  0
LINE
  5
1190
330
D2E
100
AcDbEntity
  8
LEVEL003
  6
Continuous
 62
     1
370
    -2
100
AcDbLine
 10
1634.947288474734
 20
-103.0965416279906
 30
0.0
 11
1647.627127513872
 21
-101.9871991792236
 31
0.0
  0
ARC
  5
1191
330
D2E
100
AcDbEntity
  8
LEVEL003
  6
Continuous
 62
     1
370
    -2
100
AcDbCircle
 10
1564.936781034396
 20
-109.2216688889572
 30
0.0
 40
81.0062103271605
100
AcDbArc
 50
2.122024499527222
 51
2.87797674491443
  0
INSERT
  5
1192
330
D2E
100
AcDbEntity
  8
LEVEL003
 62
     1
370
    -2
100
AcDbBlockReference
  2
_OPEN
 10
1645.942991361556
 20
-109.2216688889572
 30
0.0
 41
3.0
 42
3.0
 43
3.0
 50
271.0610122497636
  0
INSERT
  5
1193
330
D2E
100
AcDbEntity
  8
LEVEL003
 62
     1
370
    -2
100
AcDbBlockReference
  2
_OPEN
 10
1645.634738121474
 20
-102.1615107079928
 30
0.0
 41
3.0
 42
3.0
 43
3.0
 50
93.93898899467806
  0
MTEXT
  5
1194
330
D2E
100
AcDbEntity
  8
LEVEL003
  6
Continuous
 62
     1
100
AcDbMText
 10
1647.570866519501
 20
-101.370626352005
 30
0.0
 40
4.0
 41
0.0
 46
0.0
 71
     5
 72
     1
  1
\A1;5%%d
 11
0.09458379687505357
 21
-0.9955169036077182
 31
0.0
 73
     1
 44
1.0
  0
POINT
  5
1195
330
D2E
100
AcDbEntity
  8
Defpoints
 62
     0
100
AcDbPoint
 10
1564.936781034396
 20
-109.2216688889572
 30
0.0
  0
POINT
  5
1196
330
D2E
100
AcDbEntity
  8
Defpoints
 62
     0
100
AcDbPoint
 10
1645.942991361555
 20
-109.2216688889572
 30
0.0
  0
POINT
  5
1197
330
D2E
100
AcDbEntity
  8
Defpoints
 62
     0
100
AcDbPoint
 10
1633.951093778536
 20
-103.1836973923752
 30
0.0
  0
POINT
  5
1198
330
D2E
100
AcDbEntity
  8
Defpoints
 62
     0
100
AcDbPoint
 10
1645.908721673879
 20
-106.8656254589202
 30
0.0
  0
ENDBLK
  5
D30
330
D2E
100
AcDbEntity
  8
0
100
AcDbBlockEnd
  0
BLOCK
  5
D3C
330
D3B
100
AcDbEntity
  8
0
100
AcDbBlockBegin
  2
*D30
 70
     1
 10
0.0
 20
0.0
 30
0.0
  3
*D30
  1

  0
LINE
  5
1199
330
D3B
100
AcDbEntity
  8
LEVEL003
  6
Continuous
 62
     1
370
    -2
100
AcDbLine
 10
1475.936826810766
 20
-99.42465318499015
 30
0.0
 11
1475.936826810766
 21
-98.42465318499015
 31
0.0
  0
LINE
  5
119A
330
D3B
100
AcDbEntity
  8
LEVEL003
  6
Continuous
 62
     1
370
    -2
100
AcDbLine
 10
1535.936826810766
 20
-99.42465318499015
 30
0.0
 11
1535.936826810766
 21
-98.42465318499015
 31
0.0
  0
LINE
  5
119B
330
D3B
100
AcDbEntity
  8
LEVEL003
  6
Continuous
 62
     1
370
    -2
100
AcDbLine
 10
1478.936826810766
 20
-100.4246531849901
 30
0.0
 11
1532.936826810766
 21
-100.4246531849901
 31
0.0
  0
INSERT
  5
119C
330
D3B
100
AcDbEntity
  8
LEVEL003
 62
     1
370
    -2
100
AcDbBlockReference
  2
_DOT
 10
1475.936826810766
 20
-100.4246531849901
 30
0.0
 41
3.0
 42
3.0
 43
3.0
 50
180.0
  0
INSERT
  5
119D
330
D3B
100
AcDbEntity
  8
LEVEL003
 62
     1
370
    -2
100
AcDbBlockReference
  2
_OPEN
 10
1535.936826810766
 20
-100.4246531849901
 30
0.0
 41
3.0
 42
3.0
 43
3.0
  0
MTEXT
  5
119E
330
D3B
100
AcDbEntity
  8
LEVEL003
  6
Continuous
 62
     1
100
AcDbMText
 10
1505.936826810766
 20
-97.62465013323234
 30
0.0
 40
4.0
 41
0.0
 46
0.0
 71
     5
 72
     1
  1
\A1;\A1;%%c60
  7
GMM001
 73
     1
 44
1.0
  0
POINT
  5
119F
330
D3B
100
AcDbEntity
  8
Defpoints
 62
     0
100
AcDbPoint
 10
1475.936826810766
 20
-100.4246531849901
 30
0.0
  0
POINT
  5
11A0
330
D3B
100
AcDbEntity
  8
Defpoints
 62
     0
100
AcDbPoint
 10
1535.936826810766
 20
-100.4246531849901
 30
0.0
  0
POINT
  5
11A1
330
D3B
100
AcDbEntity
  8
Defpoints
 62
     0
100
AcDbPoint
 10
1535.936826810766
 20
-100.4246531849901
 30
0.0
  0
ENDBLK
  5
D3D
330
D3B
100
AcDbEntity
  8
0
100
AcDbBlockEnd
  0
BLOCK
  5
D48
330
D47
100
AcDbEntity
  8
0
100
AcDbBlockBegin
  2
*D31
 70
     1
 10
0.0
 20
0.0
 30
0.0
  3
*D31
  1

  0
LINE
  5
114E
330
D47
100
AcDbEntity
  8
LEVEL003
  6
Continuous
 62
     1
370
    -2
100
AcDbLine
 10
1291.151316221169
 20
-54.73640918033497
 30
0.0
 11
1291.151316221169
 21
-45.73640918033497
 31
0.0
  0
LINE
  5
114F
330
D47
100
AcDbEntity
  8
LEVEL003
  6
Continuous
 62
     1
370
    -2
100
AcDbLine
 10
1253.151316221169
 20
-78.73640918033497
 30
0.0
 11
1253.151316221169
 21
-45.73640918033496
 31
0.0
  0
LINE
  5
1150
330
D47
100
AcDbEntity
  8
LEVEL003
  6
Continuous
 62
     1
370
    -2
100
AcDbLine
 10
1291.151316221169
 20
-47.73640918033497
 30
0.0
 11
1314.301470712541
 21
-47.73640918033497
 31
0.0
  0
LINE
  5
1151
330
D47
100
AcDbEntity
  8
LEVEL003
  6
Continuous
 62
     1
370
    -2
100
AcDbLine
 10
1288.151316221169
 20
-47.73640918033497
 30
0.0
 11
1256.151316221169
 21
-47.73640918033496
 31
0.0
  0
INSERT
  5
1152
330
D47
100
AcDbEntity
  8
LEVEL003
 62
     1
370
    -2
100
AcDbBlockReference
  2
_OPEN
 10
1291.151316221169
 20
-47.73640918033497
 30
0.0
 41
3.0
 42
3.0
 43
3.0
 50
360.0
  0
INSERT
  5
1153
330
D47
100
AcDbEntity
  8
LEVEL003
 62
     1
370
    -2
100
AcDbBlockReference
  2
_OPEN
 10
1253.151316221169
 20
-47.73640918033496
 30
0.0
 41
3.0
 42
3.0
 43
3.0
 50
180.0
  0
MTEXT
  5
1154
330
D47
100
AcDbEntity
  8
LEVEL003
  6
Continuous
 62
     1
100
AcDbMText
 10
1310.168149586239
 20
-44.93642138736622
 30
0.0
 40
4.0
 41
0.0
 46
0.0
 71
     5
 72
     1
  1
\A1;\A1;38
  7
GMM001
 73
     1
 44
1.0
  0
POINT
  5
1155
330
D47
100
AcDbEntity
  8
Defpoints
 62
     0
100
AcDbPoint
 10
1291.151316221169
 20
-55.73640918033497
 30
0.0
  0
POINT
  5
1156
330
D47
100
AcDbEntity
  8
Defpoints
 62
     0
100
AcDbPoint
 10
1253.151316221169
 20
-79.73640918033497
 30
0.0
  0
POINT
  5
1157
330
D47
100
AcDbEntity
  8
Defpoints
 62
     0
100
AcDbPoint
 10
1253.151316221169
 20
-47.73640918033497
 30
0.0
  0
ENDBLK
  5
D49
330
D47
100
AcDbEntity
  8
0
100
AcDbBlockEnd
  0
BLOCK
  5
D55
330
D54
100
AcDbEntity
  8
0
100
AcDbBlockBegin
  2
*D32
 70
     1
 10
0.0
 20
0.0
 30
0.0
  3
*D32
  1

  0
LINE
  5
1158
330
D54
100
AcDbEntity
  8
LEVEL003
  6
Continuous
 62
     1
370
    -2
100
AcDbLine
 10
1350.151316221169
 20
-96.73640918033497
 30
0.0
 11
1350.151316221169
 21
-35.73640918032498
 31
0.0
  0
LINE
  5
1159
330
D54
100
AcDbEntity
  8
LEVEL003
  6
Continuous
 62
     1
370
    -2
100
AcDbLine
 10
1253.151316221169
 20
-96.73640918033497
 30
0.0
 11
1253.151316221169
 21
-35.73640918032496
 31
0.0
  0
LINE
  5
115A
330
D54
100
AcDbEntity
  8
LEVEL003
  6
Continuous
 62
     1
370
    -2
100
AcDbLine
 10
1347.151316221169
 20
-37.73640918032498
 30
0.0
 11
1256.151316221169
 21
-37.73640918032496
 31
0.0
  0
INSERT
  5
115B
330
D54
100
AcDbEntity
  8
LEVEL003
 62
     1
370
    -2
100
AcDbBlockReference
  2
_OPEN
 10
1350.151316221169
 20
-37.73640918032498
 30
0.0
 41
3.0
 42
3.0
 43
3.0
 50
360.0
  0
INSERT
  5
115C
330
D54
100
AcDbEntity
  8
LEVEL003
 62
     1
370
    -2
100
AcDbBlockReference
  2
_OPEN
 10
1253.151316221169
 20
-37.73640918032496
 30
0.0
 41
3.0
 42
3.0
 43
3.0
 50
180.0
  0
MTEXT
  5
115D
330
D54
100
AcDbEntity
  8
LEVEL003
  6
Continuous
 62
     1
100
AcDbMText
 10
1301.651321536479
 20
-34.93642138735622
 30
0.0
 40
4.0
 41
0.0
 46
0.0
 71
     5
 72
     1
  1
\A1;\A1;97
  7
GMM001
 73
     1
 44
1.0
  0
POINT
  5
115E
330
D54
100
AcDbEntity
  8
Defpoints
 62
     0
100
AcDbPoint
 10
1350.151316221169
 20
-97.73640918033497
 30
0.0
  0
POINT
  5
115F
330
D54
100
AcDbEntity
  8
Defpoints
 62
     0
100
AcDbPoint
 10
1253.151316221169
 20
-97.73640918033497
 30
0.0
  0
POINT
  5
1160
330
D54
100
AcDbEntity
  8
Defpoints
 62
     0
100
AcDbPoint
 10
1253.151316221169
 20
-37.73640918032497
 30
0.0
  0
ENDBLK
  5
D56
330
D54
100
AcDbEntity
  8
0
100
AcDbBlockEnd
  0
BLOCK
  5
D61
330
D60
100
AcDbEntity
  8
0
100
AcDbBlockBegin
  2
*D33
 70
     1
 10
0.0
 20
0.0
 30
0.0
  3
*D33
  1

  0
LINE
  5
1161
330
D60
100
AcDbEntity
  8
LEVEL003
  6
Continuous
 62
     3
370
    -2
100
AcDbLine
 10
1350.151316221169
 20
-46.73640918033497
 30
0.0
 11
1350.151316221169
 21
-45.73640918033497
 31
0.0
  0
LINE
  5
1162
330
D60
100
AcDbEntity
  8
LEVEL003
  6
Continuous
 62
     1
370
    -2
100
AcDbLine
 10
1294.151316221169
 20
-47.73640918033497
 30
0.0
 11
1347.151316221169
 21
-47.73640918033497
 31
0.0
  0
INSERT
  5
1163
330
D60
100
AcDbEntity
  8
LEVEL003
 62
     1
370
    -2
100
AcDbBlockReference
  2
_OPEN
 10
1291.151316221169
 20
-47.73640918033497
 30
0.0
 41
3.0
 42
3.0
 43
3.0
 50
180.0
  0
INSERT
  5
1164
330
D60
100
AcDbEntity
  8
LEVEL003
 62
     1
370
    -2
100
AcDbBlockReference
  2
_OPEN
 10
1350.151316221169
 20
-47.73640918033497
 30
0.0
 41
3.0
 42
3.0
 43
3.0
  0
MTEXT
  5
1165
330
D60
100
AcDbEntity
  8
LEVEL003
  6
Continuous
 62
     1
100
AcDbMText
 10
1320.651316221169
 20
-44.93640612857716
 30
0.0
 40
4.0
 41
0.0
 46
0.0
 71
     5
 72
     1
  1
\A1;\A1;59
  7
GMM001
 73
     1
 44
1.0
  0
POINT
  5
1166
330
D60
100
AcDbEntity
  8
Defpoints
 62
     0
100
AcDbPoint
 10
1291.151316221169
 20
-47.73640918033497
 30
0.0
  0
POINT
  5
1167
330
D60
100
AcDbEntity
  8
Defpoints
 62
     0
100
AcDbPoint
 10
1350.151316221169
 20
-47.73640918033497
 30
0.0
  0
POINT
  5
1168
330
D60
100
AcDbEntity
  8
Defpoints
 62
     0
100
AcDbPoint
 10
1350.151316221169
 20
-47.73640918033497
 30
0.0
  0
ENDBLK
  5
D62
330
D60
100
AcDbEntity
  8
0
100
AcDbBlockEnd
  0
BLOCK
  5
D6C
330
D6B
100
AcDbEntity
  8
0
100
AcDbBlockBegin
  2
*D34
 70
     1
 10
0.0
 20
0.0
 30
0.0
  3
*D34
  1

  0
LINE
  5
1169
330
D6B
100
AcDbEntity
  8
LEVEL003
  6
Continuous
 62
     1
370
    -2
100
AcDbLine
 10
1564.936826810766
 20
-68.72163837137916
 30
0.0
 11
1597.936826810765
 21
-68.72163837137916
 31
0.0
  0
LINE
  5
116A
330
D6B
100
AcDbEntity
  8
LEVEL003
  6
Continuous
 62
     1
370
    -2
100
AcDbLine
 10
1531.436826810765
 20
-68.22163837137916
 30
0.0
 11
1597.936826810765
 21
-68.22163837137916
 31
0.0
  0
LINE
  5
116B
330
D6B
100
AcDbEntity
  8
LEVEL003
  6
Continuous
 62
     1
370
    -2
100
AcDbLine
 10
1595.936826810765
 20
-68.22163837137916
 30
0.0
 11
1595.936826810765
 21
-53.28832945210817
 31
0.0
  0
LINE
  5
116C
330
D6B
100
AcDbEntity
  8
LEVEL003
  6
Continuous
 62
     1
370
    -2
100
AcDbLine
 10
1595.936826810765
 20
-68.72163837137916
 30
0.0
 11
1595.936826810765
 21
-68.22163837137916
 31
0.0
  0
LINE
  5
116D
330
D6B
100
AcDbEntity
  8
LEVEL003
  6
Continuous
 62
     1
370
    -2
100
AcDbLine
 10
1595.936826810765
 20
-71.72163837137916
 30
0.0
 11
1595.936826810765
 21
-74.72163837137916
 31
0.0
  0
LINE
  5
116E
330
D6B
100
AcDbEntity
  8
LEVEL003
  6
Continuous
 62
     1
370
    -2
100
AcDbLine
 10
1595.936826810765
 20
-65.22163837137916
 30
0.0
 11
1595.936826810765
 21
-62.22163837137916
 31
0.0
  0
INSERT
  5
116F
330
D6B
100
AcDbEntity
  8
LEVEL003
 62
     1
370
    -2
100
AcDbBlockReference
  2
_OPEN
 10
1595.936826810765
 20
-68.72163837137916
 30
0.0
 41
3.0
 42
3.0
 43
3.0
 50
90.0
  0
INSERT
  5
1170
330
D6B
100
AcDbEntity
  8
LEVEL003
 62
     1
370
    -2
100
AcDbBlockReference
  2
_OPEN
 10
1595.936826810765
 20
-68.22163837137916
 30
0.0
 41
3.0
 42
3.0
 43
3.0
 50
270.0
  0
MTEXT
  5
1171
330
D6B
100
AcDbEntity
  8
LEVEL003
  6
Continuous
 62
     1
100
AcDbMText
 10
1593.136839017797
 20
-57.75498391174366
 30
0.0
 40
4.0
 41
0.0
 46
0.0
 71
     5
 72
     1
  1
\A1;\A1;0.5
  7
GMM001
 11
0.0
 21
1.0
 31
0.0
 73
     1
 44
1.0
  0
POINT
  5
1172
330
D6B
100
AcDbEntity
  8
Defpoints
 62
     0
100
AcDbPoint
 10
1563.936826810766
 20
-68.72163837137916
 30
0.0
  0
POINT
  5
1173
330
D6B
100
AcDbEntity
  8
Defpoints
 62
     0
100
AcDbPoint
 10
1530.436826810765
 20
-68.22163837137916
 30
0.0
  0
POINT
  5
127A
330
D6B
100
AcDbEntity
  8
Defpoints
 62
     0
100
AcDbPoint
 10
1595.936826810765
 20
-68.22163837137916
 30
0.0
  0
ENDBLK
  5
D6D
330
D6B
100
AcDbEntity
  8
0
100
AcDbBlockEnd
  0
ENDSEC
  0
SECTION
  2
ENTITIES
  0
LINE
  5
C3E
330
18
100
AcDbEntity
  8
LEVEL001
  6
Continuous
 62
     7
100
AcDbLine
 10
1530.936826810765
 20
-68.72163837137916
 30
0.0
 11
1530.436826810765
 21
-68.22163837137916
 31
0.0
  0
LINE
  5
C3F
330
18
100
AcDbEntity
  8
LEVEL001
  6
Continuous
 62
     7
100
AcDbLine
 10
1468.936826810766
 20
-68.72163837137916
 30
0.0
 11
1505.936826810765
 21
-68.72163837137916
 31
0.0
  0
LINE
  5
C40
330
18
100
AcDbEntity
  8
LEVEL001
  6
Continuous
 62
     7
100
AcDbLine
 10
1480.936826810765
 20
-68.72163837137916
 30
0.0
 11
1481.436826810766
 21
-68.22163837137916
 31
0.0
  0
LINE
  5
C41
330
18
100
AcDbEntity
  8
LEVEL001
  6
Continuous
 62
     7
100
AcDbLine
 10
1468.936826810766
 20
-68.72163837137916
 30
0.0
 11
1467.936826810766
 21
-69.72163837137916
 31
0.0
  0
LINE
  5
C42
330
18
100
AcDbEntity
  8
LEVEL001
  6
Continuous
 62
     7
100
AcDbLine
 10
1467.936826810766
 20
-127.2216383713792
 30
0.0
 11
1468.936826810766
 21
-128.2216383713792
 31
0.0
  0
LINE
  5
C43
330
18
100
AcDbEntity
  8
LEVEL001
  6
Continuous
 62
     7
100
AcDbLine
 10
1467.936826810766
 20
-127.2216383713792
 30
0.0
 11
1467.936826810766
 21
-69.72163837137916
 31
0.0
  0
LINE
  5
C44
330
18
100
AcDbEntity
  8
LEVEL001
  6
Continuous
 62
     7
100
AcDbLine
 10
1481.436826810766
 20
-68.22163837137916
 30
0.0
 11
1530.436826810765
 21
-68.22163837137916
 31
0.0
  0
LINE
  5
C45
330
18
100
AcDbEntity
  8
LEVEL001
  6
DASHDOT
 62
     1
100
AcDbLine
 10
1291.151316221169
 20
-55.73640918033497
 30
0.0
 11
1291.151316221169
 21
-140.736409180335
 31
0.0
  0
CIRCLE
  5
C46
330
18
100
AcDbEntity
  8
LEVEL001
  6
Continuous
 62
     7
100
AcDbCircle
 10
1291.151316221169
 20
-97.73640918033497
 30
0.0
 40
32.5
  0
CIRCLE
  5
C47
330
18
100
AcDbEntity
  8
LEVEL001
  6
Continuous
 62
     7
100
AcDbCircle
 10
1291.151316221169
 20
-97.73640918033497
 30
0.0
 40
31.5
  0
CIRCLE
  5
C48
330
18
100
AcDbEntity
  8
LEVEL001
  6
Continuous
 62
     7
100
AcDbCircle
 10
1291.151316221169
 20
-97.73640918033497
 30
0.0
 40
25.0
  0
LINE
  5
C49
330
18
100
AcDbEntity
  8
LEVEL001
  6
Continuous
 62
     7
100
AcDbLine
 10
1323.555018003399
 20
-100.236409180335
 30
0.0
 11
1316.025995786599
 21
-100.236409180335
 31
0.0
  0
LINE
  5
C4A
330
18
100
AcDbEntity
  8
LEVEL001
  6
Continuous
 62
     7
100
AcDbLine
 10
1316.025995786599
 20
-95.23640918033497
 30
0.0
 11
1323.555018003399
 21
-95.23640918033497
 31
0.0
  0
LINE
  5
C4B
330
18
100
AcDbEntity
  8
LEVEL001
  6
Continuous
 62
     7
100
AcDbLine
 10
1258.747614438942
 20
-95.23640918033497
 30
0.0
 11
1266.276629026345
 21
-95.23640918033497
 31
0.0
  0
LINE
  5
C4C
330
18
100
AcDbEntity
  8
LEVEL001
  6
Continuous
 62
     7
100
AcDbLine
 10
1266.276629026345
 20
-100.236409180335
 30
0.0
 11
1258.747614438942
 21
-100.236409180335
 31
0.0
  0
CIRCLE
  5
C4D
330
18
100
AcDbEntity
  8
LEVEL001
  6
Continuous
 62
     7
100
AcDbCircle
 10
1291.151316221169
 20
-97.73640918033497
 30
0.0
 40
8.0
  0
CIRCLE
  5
C4E
330
18
100
AcDbEntity
  8
LEVEL001
  6
Continuous
 62
     7
100
AcDbCircle
 10
1291.151316221169
 20
-97.73640918033497
 30
0.0
 40
10.0
  0
CIRCLE
  5
C4F
330
18
100
AcDbEntity
  8
LEVEL001
  6
Continuous
 62
     7
100
AcDbCircle
 10
1291.151316221169
 20
-97.73640918033497
 30
0.0
 40
17.0
  0
CIRCLE
  5
C50
330
18
100
AcDbEntity
  8
LEVEL001
  6
Continuous
 62
     7
100
AcDbCircle
 10
1291.151316221169
 20
-97.73640918033497
 30
0.0
 40
19.0
  0
CIRCLE
  5
C51
330
18
100
AcDbEntity
  8
LEVEL001
  6
DASHDOT
 62
     1
100
AcDbCircle
 10
1291.151316221169
 20
-97.73640918033497
 30
0.0
 40
18.0
  0
CIRCLE
  5
C52
330
18
100
AcDbEntity
  8
LEVEL001
  6
DASHDOT
 62
     1
100
AcDbCircle
 10
1291.151316221169
 20
-97.73640918033497
 30
0.0
 40
9.0
  0
DIMENSION
  5
C53
330
18
100
AcDbEntity
  8
LEVEL003
  6
Continuous
 62
     1
100
AcDbDimension
280
     0
  2
*D31
 10
1253.151316221169
 20
-47.73640918033496
 30
0.0
 11
1310.168149586239
 21
-47.73640918033497
 31
0.0
 70
   160
  1
\A1;38
 71
     5
 42
37.99999999999977
 73
     0
 74
     0
 75
     0
 52
-270.0
  3
GMM001
100
AcDbAlignedDimension
 13
1291.151316221169
 23
-55.73640918033497
 33
0.0
 14
1253.151316221169
 24
-79.73640918033497
 34
0.0
 50
180.0
100
AcDbRotatedDimension
1001
ACAD
1000
DSTYLE
1002
{
1070
   177
1070
     1
1070
   178
1070
     1
1070
   176
1070
     1
1002
}
  0
LINE
  5
C54
330
18
100
AcDbEntity
  8
LEVEL001
  6
Continuous
 62
     7
100
AcDbLine
 10
1331.788507993629
 20
-59.73640918033497
 30
0.0
 11
1271.514132078103
 21
-59.73640918033497
 31
0.0
  0
ARC
  5
C55
330
18
100
AcDbEntity
  8
LEVEL001
  6
Continuous
 62
     7
100
AcDbCircle
 10
1301.651318409939
 20
-97.73640918033497
 30
0.0
 40
48.5
100
AcDbArc
 50
128.4173660555704
 51
231.5826339444295
  0
ARC
  5
C56
330
18
100
AcDbEntity
  8
LEVEL001
  6
Continuous
 62
     7
100
AcDbCircle
 10
1301.651321661789
 20
-97.73640918033497
 30
0.0
 40
48.5
100
AcDbArc
 50
308.4173660555706
 51
51.58263394442448
  0
LINE
  5
C57
330
18
100
AcDbEntity
  8
LEVEL001
  6
Continuous
 62
     7
100
AcDbLine
 10
1271.514132078103
 20
-135.736409180335
 30
0.0
 11
1331.788507993629
 21
-135.736409180335
 31
0.0
  0
DIMENSION
  5
C58
330
18
100
AcDbEntity
  8
LEVEL003
  6
Continuous
 62
     1
100
AcDbDimension
280
     0
  2
*D32
 10
1253.151316221169
 20
-37.73640918032496
 30
0.0
 11
1301.651321536479
 21
-37.73640918032497
 31
0.0
 70
   160
  1
\A1;97
 71
     5
 42
97.0
 73
     0
 74
     0
 75
     0
 52
-270.0
  3
GMM001
100
AcDbAlignedDimension
 13
1350.151316221169
 23
-97.73640918033497
 33
0.0
 14
1253.151316221169
 24
-97.73640918033497
 34
0.0
 50
180.0
100
AcDbRotatedDimension
1001
ACAD
1000
DSTYLE
1002
{
1070
   178
1070
     1
1070
   177
1070
     1
1070
   176
1070
     1
1002
}
  0
DIMENSION
  5
C59
330
18
100
AcDbEntity
  8
LEVEL003
  6
Continuous
 62
     1
100
AcDbDimension
280
     0
  2
*D33
 10
1350.151316221169
 20
-47.73640918033497
 30
0.0
 11
1320.651316221169
 21
-47.73640918033497
 31
0.0
 70
   160
  1
\A1;59
 71
     5
 42
59.00000000000023
 73
     0
 74
     0
 75
     0
  3
GMM002
100
AcDbAlignedDimension
 13
1291.151316221169
 23
-47.73640918033497
 33
0.0
 14
1350.151316221169
 24
-47.73640918033497
 34
0.0
100
AcDbRotatedDimension
1001
ACAD
1000
DSTYLE
1002
{
1070
   178
1070
     1
1070
   176
1070
     1
1002
}
  0
LINE
  5
C5D
330
18
100
AcDbEntity
  8
LEVEL001
  6
Continuous
 62
     7
100
AcDbLine
 10
1564.936826810766
 20
-127.2216383713792
 30
0.0
 11
1563.936826810766
 21
-128.2216383713792
 31
0.0
  0
LINE
  5
C5E
330
18
100
AcDbEntity
  8
LEVEL001
  6
Continuous
 62
     7
100
AcDbLine
 10
1564.936826810766
 20
-69.72163837137916
 30
0.0
 11
1563.936826810766
 21
-68.72163837137916
 31
0.0
  0
LINE
  5
C5F
330
18
100
AcDbEntity
  8
LEVEL001
  6
Continuous
 62
     7
100
AcDbLine
 10
1563.936826810766
 20
-128.2216383713792
 30
0.0
 11
1468.936826810766
 21
-128.2216383713792
 31
0.0
  0
CIRCLE
  5
C65
330
18
100
AcDbEntity
  8
LEVEL001
  6
DOT
 62
     7
100
AcDbCircle
 10
1291.151316221169
 20
-97.73640918033497
 30
0.0
 40
30.0
  0
DIMENSION
  5
C66
330
18
100
AcDbEntity
  8
LEVEL003
  6
Continuous
 62
     1
100
AcDbDimension
280
     0
  2
*D34
 10
1595.936826810765
 20
-68.22163837137916
 30
0.0
 11
1595.936826810765
 21
-57.75498391174366
 31
0.0
 70
   160
  1
\A1;0.5
 71
     5
 42
0.4999999999999979
 73
     0
 74
     0
 75
     0
  3
GMM003
100
AcDbAlignedDimension
 13
1563.936826810766
 23
-68.72163837137916
 33
0.0
 14
1530.436826810765
 24
-68.22163837137916
 34
0.0
 50
90.0
100
AcDbRotatedDimension
1001
ACAD
1000
DSTYLE
1002
{
1070
   177
1070
     1
1070
   178
1070
     1
1070
   176
1070
     1
1002
}
  0
LINE
  5
C67
330
18
100
AcDbEntity
  8
LEVEL001
  6
Continuous
 62
     7
100
AcDbLine
 10
1291.151316221169
 20
-94.84965991275496
 30
0.0
 11
1293.651316221169
 21
-96.29303454654497
 31
0.0
  0
LINE
  5
C68
330
18
100
AcDbEntity
  8
LEVEL001
  6
Continuous
 62
     7
100
AcDbLine
 10
1293.651316221169
 20
-96.29303454654497
 30
0.0
 11
1293.651316221169
 21
-99.17978381412496
 31
0.0
  0
LINE
  5
C69
330
18
100
AcDbEntity
  8
LEVEL001
  6
Continuous
 62
     7
100
AcDbLine
 10
1293.651316221169
 20
-99.17978381412496
 30
0.0
 11
1291.151323850559
 21
-100.6231584479149
 31
0.0
  0
LINE
  5
C6A
330
18
100
AcDbEntity
  8
LEVEL001
  6
Continuous
 62
     7
100
AcDbLine
 10
1291.151323850559
 20
-100.6231584479149
 30
0.0
 11
1288.651323850564
 21
-99.17979907291495
 31
0.0
  0
LINE
  5
C6B
330
18
100
AcDbEntity
  8
LEVEL001
  6
Continuous
 62
     7
100
AcDbLine
 10
1288.651323850564
 20
-99.17979907291495
 30
0.0
 11
1288.651308591774
 21
-96.29304980533497
 31
0.0
  0
LINE
  5
C6C
330
18
100
AcDbEntity
  8
LEVEL001
  6
Continuous
 62
     7
100
AcDbLine
 10
1288.651308591774
 20
-96.29304980533497
 30
0.0
 11
1291.151316221169
 21
-94.84965991275496
 31
0.0
  0
CIRCLE
  5
C6D
330
18
100
AcDbEntity
  8
LEVEL001
  6
Continuous
 62
     7
100
AcDbCircle
 10
1291.151316221169
 20
-97.73640918033497
 30
0.0
 40
5.0
  0
CIRCLE
  5
C6E
330
18
100
AcDbEntity
  8
LEVEL001
  6
Continuous
 62
     7
100
AcDbCircle
 10
1291.151316221169
 20
-97.73640918033497
 30
0.0
 40
4.480384349822998
  0
CIRCLE
  5
C6F
330
18
100
AcDbEntity
  8
LEVEL001
  6
Continuous
 62
     7
100
AcDbCircle
 10
1291.151316221169
 20
-97.73640918033497
 30
0.0
 40
6.0
  0
LINE
  5
CA5
330
18
100
AcDbEntity
  8
LEVEL001
  6
DASHDOT
 62
     1
100
AcDbLine
 10
1246.151316221169
 20
-97.73640918033497
 30
0.0
 11
1418.623259902419
 21
-97.73640918033497
 31
0.0
  0
DIMENSION
  5
CA6
330
18
100
AcDbEntity
  8
LEVEL003
  6
Continuous
 62
     3
100
AcDbDimension
280
     0
  2
*D26
 10
1424.810759902419
 20
-135.736409180335
 30
0.0
 11
1424.810759902419
 21
-97.73640918033497
 31
0.0
 70
   160
  1
\A1;76
 71
     5
 42
76.00000000000001
 73
     0
 74
     0
 75
     0
  3
GMM003
100
AcDbAlignedDimension
 13
1331.788507993629
 23
-59.73640918033497
 33
0.0
 14
1331.788507993629
 24
-135.736409180335
 34
0.0
 50
-90.00000000000001
100
AcDbRotatedDimension
1001
ACAD
1000
DSTYLE
1002
{
1070
   178
1070
     1
1070
   177
1070
     1
1070
   176
1070
     1
1002
}
  0
DIMENSION
  5
CB8
330
18
100
AcDbEntity
  8
LEVEL003
  6
Continuous
 62
     1
100
AcDbDimension
280
     0
  2
*D27
 10
1645.936826810765
 20
-109.2216688889572
 30
0.0
 11
1645.936826810765
 21
-118.7216536301682
 31
0.0
 70
   160
  1
\A1;19
 71
     5
 42
18.99996948242199
 73
     0
 74
     0
 75
     0
  3
GMM004
100
AcDbAlignedDimension
 13
1563.936826810766
 23
-128.2216383713792
 33
0.0
 14
1564.936826810766
 24
-109.2216688889572
 34
0.0
 50
90.0
100
AcDbRotatedDimension
1001
ACAD
1000
DSTYLE
1002
{
1070
   177
1070
     1
1070
   178
1070
     1
1070
   176
1070
     1
1002
}
  0
DIMENSION
  5
CB9
330
18
100
AcDbEntity
  8
LEVEL003
  6
Continuous
 62
     1
100
AcDbDimension
280
     0
  2
*D28
 10
1655.936826810766
 20
-68.22163837137916
 30
0.0
 11
1655.936826810766
 21
-98.22163837137904
 31
0.0
 70
   160
  1
\A1;60
 71
     5
 42
60.0
 73
     0
 74
     0
 75
     0
  3
GMM003
100
AcDbAlignedDimension
 13
1563.936826810766
 23
-128.2216383713792
 33
0.0
 14
1530.436826810765
 24
-68.22163837137916
 34
0.0
 50
90.0
100
AcDbRotatedDimension
1001
ACAD
1000
DSTYLE
1002
{
1070
   178
1070
     1
1070
   177
1070
     1
1070
   176
1070
     1
1002
}
  0
DIMENSION
  5
CBA
330
18
100
AcDbEntity
  8
LEVEL003
  6
Continuous
 62
     1
100
AcDbDimension
280
     0
  2
*D29
 10
1645.908721673879
 20
-106.8656254589202
 30
0.0
 11
1645.579832712286
 21
-101.5597939457552
 31
0.0
 70
   165
  1
\A1;5%%d
 71
     5
 42
0.0872664843193207
 73
     0
 74
     0
 75
     0
  3
GMM005
100
AcDb3PointAngularDimension
 13
1645.942991361555
 23
-109.2216688889572
 33
0.0
 14
1633.951093778536
 24
-103.1836973923752
 34
0.0
 15
1564.936781034396
 25
-109.2216688889572
 35
0.0
1001
ACAD
1000
DSTYLE
1002
{
1070
   178
1070
     1
1070
   177
1070
     1
1070
   176
1070
     1
1002
}
  0
TEXT
  5
CDF
330
18
100
AcDbEntity
  8
LEVEL003
 62
     1
100
AcDbText
 10
1577.936826810766
 20
-138.2216383713792
 30
0.0
 40
4.0
  1
ＮＰＴ３／８
100
AcDbText
  0
LEADER
  5
CE8
330
18
100
AcDbEntity
  8
LEVEL003
  6
Continuous
 62
     1
100
AcDbLeader
  3
GMM006
 73
     0
 40
4.0
 76
     3
 10
1567.769773588105
 20
-117.4253813523362
 30
0.0
 10
1577.936826810766
 20
-138.2216383713792
 30
0.0
 10
1602.936826810766
 20
-138.2216383713792
 30
0.0
1001
ACAD
1000
DSTYLE
1002
{
1070
   176
1070
     1
1002
}
  0
LINE
  5
CEB
330
18
100
AcDbEntity
  8
LEVEL001
  6
DOT
 62
     1
100
AcDbLine
 10
1530.936826810765
 20
-68.72163837137916
 30
0.0
 11
1530.936826810765
 21
-93.22163837137904
 31
0.0
  0
LINE
  5
CEC
330
18
100
AcDbEntity
  8
LEVEL001
  6
DOT
 62
     1
100
AcDbLine
 10
1535.936826810766
 20
-83.72163837137904
 30
0.0
 11
1535.936826810766
 21
-116.221638371379
 31
0.0
  0
LINE
  5
CED
330
18
100
AcDbEntity
  8
LEVEL001
  6
Continuous
 62
     7
100
AcDbLine
 10
1564.936826810766
 20
-69.72163837137916
 30
0.0
 11
1564.936826810766
 21
-127.2216383713792
 31
0.0
  0
LINE
  5
CEE
330
18
100
AcDbEntity
  8
LEVEL001
  6
DASHDOT
 62
     1
100
AcDbLine
 10
1633.951093778536
 20
-103.1836973923752
 30
0.0
 11
1535.936826810766
 21
-111.7588381188941
 31
0.0
  0
LINE
  5
CF3
330
18
100
AcDbEntity
  8
LEVEL001
  6
DOT
 62
     1
100
AcDbLine
 10
1480.936826810765
 20
-68.72163837137916
 30
0.0
 11
1480.936826810765
 21
-93.22163837137904
 31
0.0
  0
LINE
  5
CF4
330
18
100
AcDbEntity
  8
LEVEL001
  6
DOT
 62
     1
100
AcDbLine
 10
1475.936826810766
 20
-83.72163837137904
 30
0.0
 11
1475.936826810766
 21
-116.221638371379
 31
0.0
  0
LINE
  5
CF5
330
18
100
AcDbEntity
  8
LEVEL001
  6
Continuous
 62
     7
100
AcDbLine
 10
1505.936826810765
 20
-68.72163837137916
 30
0.0
 11
1563.936826810766
 21
-68.72163837137916
 31
0.0
  0
LINE
  5
CF6
330
18
100
AcDbEntity
  8
LEVEL001
  6
Continuous
 62
     7
100
AcDbLine
 10
1467.936826810766
 20
-69.72163837137916
 30
0.0
 11
1564.936826810766
 21
-69.72163837137916
 31
0.0
  0
LINE
  5
CF7
330
18
100
AcDbEntity
  8
LEVEL001
  6
Continuous
 62
     7
100
AcDbLine
 10
1564.936826810766
 20
-127.2216383713792
 30
0.0
 11
1467.936826810766
 21
-127.2216383713792
 31
0.0
  0
LINE
  5
CF8
330
18
100
AcDbEntity
  8
LEVEL001
  6
Continuous
 62
     7
100
AcDbLine
 10
1546.574018583225
 20
-69.72163837137916
 30
0.0
 11
1546.574018583225
 21
-127.2216383713792
 31
0.0
  0
LINE
  5
CF9
330
18
100
AcDbEntity
  8
LEVEL001
  6
Continuous
 62
     7
100
AcDbLine
 10
1486.2996426677
 20
-69.72163837137916
 30
0.0
 11
1486.2996426677
 21
-127.2216383713792
 31
0.0
  0
LINE
  5
CFA
330
18
100
AcDbEntity
  8
LEVEL001
  6
Continuous
 62
     7
100
AcDbLine
 10
1546.574018583225
 20
-69.72163837137916
 30
0.0
 11
1545.574018583226
 21
-68.72163837137916
 31
0.0
  0
LINE
  5
CFB
330
18
100
AcDbEntity
  8
LEVEL001
  6
Continuous
 62
     7
100
AcDbLine
 10
1546.574018583225
 20
-127.2216383713792
 30
0.0
 11
1545.574018583226
 21
-128.2216383713792
 31
0.0
  0
LINE
  5
CFC
330
18
100
AcDbEntity
  8
LEVEL001
  6
Continuous
 62
     7
100
AcDbLine
 10
1486.2996426677
 20
-127.2216383713792
 30
0.0
 11
1487.2996426677
 21
-128.2216383713792
 31
0.0
  0
LINE
  5
CFD
330
18
100
AcDbEntity
  8
LEVEL001
  6
Continuous
 62
     7
100
AcDbLine
 10
1487.2996426677
 20
-68.72163837137916
 30
0.0
 11
1486.2996426677
 21
-69.72163837137916
 31
0.0
  0
DIMENSION
  5
CFE
330
18
100
AcDbEntity
  8
LEVEL003
  6
Continuous
 62
     1
100
AcDbDimension
280
     0
  2
*D30
 10
1535.936826810766
 20
-100.4246531849901
 30
0.0
 11
1505.936826810766
 21
-97.62465013323234
 31
0.0
 70
    32
  1
\A1;%%c60
 71
     5
 42
60.00000000000023
 73
     0
 74
     0
 75
     0
  3
GMM007
100
AcDbAlignedDimension
 13
1475.936826810766
 23
-100.4246531849901
 33
0.0
 14
1535.936826810766
 24
-100.4246531849901
 34
0.0
100
AcDbRotatedDimension
1001
ACAD
1000
DSTYLE
1002
{
1070
   178
1070
     1
1070
   177
1070
     1
1070
   176
1070
     1
1002
}
  0
LINE
  5
CFF
330
18
100
AcDbEntity
  8
LEVEL001
  6
DASHDOT
 62
     1
100
AcDbLine
 10
1505.936826810765
 20
-63.22163837137916
 30
0.0
 11
1505.936826810765
 21
-96.25318537137915
 31
0.0
  0
LINE
  5
D00
330
18
100
AcDbEntity
  8
LEVEL001
  6
DASHDOT
 62
     1
100
AcDbLine
 10
1505.936826810765
 20
-101.2531853713791
 30
0.0
 11
1505.936826810765
 21
-133.2216383713792
 31
0.0
  0
LINE
  5
EC2
330
18
100
AcDbEntity
  8
ﾚｲﾔ1
  6
ByBlock
100
AcDbLine
 10
1386.030238675025
 20
-86.81640119401104
 30
0.0
 11
1386.030238675025
 21
-85.81623001416561
 31
0.0
  0
LINE
  5
EC3
330
18
100
AcDbEntity
  8
ﾚｲﾔ1
  6
ByBlock
100
AcDbLine
 10
1394.030238675025
 20
-84.81640119401105
 30
0.0
 11
1396.030238675025
 21
-84.81640119401105
 31
0.0
  0
LINE
  5
EC4
330
18
100
AcDbEntity
  8
ﾚｲﾔ1
  6
ByBlock
100
AcDbLine
 10
1386.030238675025
 20
-109.8303578960737
 30
0.0
 11
1386.030238675025
 21
-108.8164011940111
 31
0.0
  0
LINE
  5
EC5
330
18
100
AcDbEntity
  8
ﾚｲﾔ1
  6
ByBlock
100
AcDbLine
 10
1394.030238675025
 20
-109.8303578960737
 30
0.0
 11
1386.030238675025
 21
-109.8303578960737
 31
0.0
  0
LINE
  5
EC6
330
18
100
AcDbEntity
  8
ﾚｲﾔ1
  6
ByBlock
100
AcDbLine
 10
1394.030238675025
 20
-85.81623001416561
 30
0.0
 11
1386.030238675025
 21
-85.81623001416561
 31
0.0
  0
LINE
  5
EC7
330
18
100
AcDbEntity
  8
中央ライン
  6
ByBlock
 62
     1
100
AcDbLine
 10
1406.225187868004
 20
-97.81640119401105
 30
0.0
 11
1340.347128818088
 21
-97.81640119401105
 31
0.0
  0
ARC
  5
EC8
330
18
100
AcDbEntity
  8
ﾚｲﾔ1
  6
ByBlock
100
AcDbCircle
 10
1413.213406643619
 20
-109.3065238227797
 30
0.0
 40
1.0
100
AcDbArc
 50
270.0
 51
0.0
  0
ARC
  5
EC9
330
18
100
AcDbEntity
  8
ﾚｲﾔ1
  6
ByBlock
100
AcDbCircle
 10
1413.213406643619
 20
-86.30652382277968
 30
0.0
 40
1.0
100
AcDbArc
 50
0.0
 51
90.0
  0
ARC
  5
ECA
330
18
100
AcDbEntity
  8
ﾚｲﾔ1
100
AcDbCircle
 10
1372.030238675025
 20
-111.816401194011
 30
0.0
 40
1.0
100
AcDbArc
 50
180.0
 51
270.0
  0
ARC
  5
ECB
330
18
100
AcDbEntity
  8
ﾚｲﾔ1
100
AcDbCircle
 10
1372.030238675025
 20
-83.81640119401105
 30
0.0
 40
1.0
100
AcDbArc
 50
90.0
 51
180.0
  0
LINE
  5
ECC
330
18
100
AcDbEntity
  8
ﾚｲﾔ1
  6
ByBlock
100
AcDbLine
 10
1413.213406643619
 20
-110.3065238227797
 30
0.0
 11
1397.213406643619
 21
-110.3065238227795
 31
0.0
  0
LINE
  5
ECD
330
18
100
AcDbEntity
  8
ﾚｲﾔ1
  6
ByBlock
100
AcDbLine
 10
1414.21340664362
 20
-97.80652382277944
 30
0.0
 11
1414.21340664362
 21
-109.3065238227797
 31
0.0
  0
LINE
  5
ECE
330
18
100
AcDbEntity
  8
ﾚｲﾔ1
  6
ByBlock
100
AcDbLine
 10
1413.213406643619
 20
-85.30652382277967
 30
0.0
 11
1397.213406643619
 21
-85.30652382277945
 31
0.0
  0
LINE
  5
ECF
330
18
100
AcDbEntity
  8
ﾚｲﾔ1
  6
ByBlock
100
AcDbLine
 10
1414.21340664362
 20
-97.80652382277944
 30
0.0
 11
1414.21340664362
 21
-86.30652382277968
 31
0.0
  0
LINE
  5
ED0
330
18
100
AcDbEntity
  8
ﾚｲﾔ1
100
AcDbLine
 10
1396.030238675025
 20
-109.8303578960737
 30
0.0
 11
1394.030238675025
 21
-109.8303578960737
 31
0.0
  0
LINE
  5
ED1
330
18
100
AcDbEntity
  8
ﾚｲﾔ1
  6
ByBlock
100
AcDbLine
 10
1397.237785173411
 20
-109.8303578960737
 30
0.0
 11
1396.030238675025
 21
-109.8303578960737
 31
0.0
  0
LINE
  5
ED2
330
18
100
AcDbEntity
  8
ﾚｲﾔ1
100
AcDbLine
 10
1396.030238675025
 20
-85.81623001416561
 30
0.0
 11
1394.030238675025
 21
-85.81623001416561
 31
0.0
  0
LINE
  5
ED3
330
18
100
AcDbEntity
  8
ﾚｲﾔ1
  6
ByBlock
100
AcDbLine
 10
1397.237785173411
 20
-85.81623001416561
 30
0.0
 11
1396.030238675025
 21
-85.81623001416561
 31
0.0
  0
LINE
  5
ED4
330
18
100
AcDbEntity
  8
ﾚｲﾔ1
100
AcDbLine
 10
1373.030238675025
 20
-97.81640119401105
 30
0.0
 11
1373.030238675025
 21
-109.3164011940111
 31
0.0
  0
LINE
  5
ED5
330
18
100
AcDbEntity
  8
ﾚｲﾔ1
100
AcDbLine
 10
1373.030238675025
 20
-97.81640119401105
 30
0.0
 11
1373.030238675025
 21
-86.31640119401105
 31
0.0
  0
LINE
  5
ED6
330
18
100
AcDbEntity
  8
ﾚｲﾔ1
100
AcDbLine
 10
1394.030238675025
 20
-109.3164011940111
 30
0.0
 11
1373.030238675025
 21
-109.3164011940111
 31
0.0
  0
LINE
  5
ED7
330
18
100
AcDbEntity
  8
ﾚｲﾔ1
100
AcDbLine
 10
1394.030238675025
 20
-110.816401194011
 30
0.0
 11
1394.030238675025
 21
-109.3164011940111
 31
0.0
  0
LINE
  5
ED8
330
18
100
AcDbEntity
  8
ﾚｲﾔ1
100
AcDbLine
 10
1396.030238675025
 20
-110.816401194011
 30
0.0
 11
1394.030238675025
 21
-110.816401194011
 31
0.0
  0
LINE
  5
ED9
330
18
100
AcDbEntity
  8
ﾚｲﾔ1
100
AcDbLine
 10
1394.030238675025
 20
-86.31640119401105
 30
0.0
 11
1373.030238675025
 21
-86.31640119401105
 31
0.0
  0
LINE
  5
EDA
330
18
100
AcDbEntity
  8
ﾚｲﾔ1
100
AcDbLine
 10
1394.030238675025
 20
-84.81640119401105
 30
0.0
 11
1394.030238675025
 21
-86.31640119401105
 31
0.0
  0
LINE
  5
EDB
330
18
100
AcDbEntity
  8
ﾚｲﾔ1
  6
DOTX2
100
AcDbLine
 10
1396.030238675025
 20
-84.81640119401105
 30
0.0
 11
1394.030238675025
 21
-84.81640119401105
 31
0.0
  0
LINE
  5
EDC
330
18
100
AcDbEntity
  8
ﾚｲﾔ1
100
AcDbLine
 10
1371.030238675025
 20
-111.816401194011
 30
0.0
 11
1371.030238675025
 21
-97.81640119401105
 31
0.0
  0
LINE
  5
EDD
330
18
100
AcDbEntity
  8
ﾚｲﾔ1
100
AcDbLine
 10
1396.030238675025
 20
-112.816401194011
 30
0.0
 11
1372.030238675025
 21
-112.816401194011
 31
0.0
  0
LINE
  5
EDE
330
18
100
AcDbEntity
  8
ﾚｲﾔ1
100
AcDbLine
 10
1396.030238675025
 20
-82.81640119401105
 30
0.0
 11
1396.030238675025
 21
-112.816401194011
 31
0.0
  0
LINE
  5
EDF
330
18
100
AcDbEntity
  8
ﾚｲﾔ1
100
AcDbLine
 10
1372.030238675025
 20
-82.81640119401105
 30
0.0
 11
1396.030238675025
 21
-82.81640119401105
 31
0.0
  0
LINE
  5
EE0
330
18
100
AcDbEntity
  8
ﾚｲﾔ1
100
AcDbLine
 10
1371.030238675025
 20
-97.81640119401105
 30
0.0
 11
1371.030238675025
 21
-83.81640119401105
 31
0.0
  0
LINE
  5
EE1
330
18
100
AcDbEntity
  8
ﾚｲﾔ1
  6
ByBlock
100
AcDbLine
 10
1397.237785173411
 20
-85.31640119401105
 30
0.0
 11
1397.237785173411
 21
-110.316401194011
 31
0.0
  0
LINE
  5
EE2
330
18
100
AcDbEntity
  8
ﾚｲﾔ1
100
AcDbLine
 10
1380.030238675025
 20
-98.81640119401105
 30
0.0
 11
1373.030238675025
 21
-98.81640119401105
 31
0.0
  0
LINE
  5
EE3
330
18
100
AcDbEntity
  8
ﾚｲﾔ1
100
AcDbLine
 10
1380.030238675025
 20
-97.81640119401105
 30
0.0
 11
1380.030238675025
 21
-98.81640119401105
 31
0.0
  0
LINE
  5
EE4
330
18
100
AcDbEntity
  8
ﾚｲﾔ1
100
AcDbLine
 10
1380.030238675025
 20
-96.81640119401105
 30
0.0
 11
1373.030238675025
 21
-96.81640119401105
 31
0.0
  0
LINE
  5
EE5
330
18
100
AcDbEntity
  8
ﾚｲﾔ1
100
AcDbLine
 10
1380.030238675025
 20
-97.81640119401105
 30
0.0
 11
1380.030238675025
 21
-96.81640119401105
 31
0.0
  0
LINE
  5
EE6
330
18
100
AcDbEntity
  8
ﾚｲﾔ1
100
AcDbLine
 10
1373.030238675025
 20
-104.8164011940111
 30
0.0
 11
1386.030238675025
 21
-104.8164011940111
 31
0.0
  0
LINE
  5
EE7
330
18
100
AcDbEntity
  8
ﾚｲﾔ1
100
AcDbLine
 10
1373.030238675025
 20
-97.81640119401105
 30
0.0
 11
1373.030238675025
 21
-104.8164011940111
 31
0.0
  0
LINE
  5
EE8
330
18
100
AcDbEntity
  8
ﾚｲﾔ1
100
AcDbLine
 10
1373.030238675025
 20
-90.81640119401105
 30
0.0
 11
1386.030238675025
 21
-90.81640119401105
 31
0.0
  0
LINE
  5
EE9
330
18
100
AcDbEntity
  8
ﾚｲﾔ1
100
AcDbLine
 10
1373.030238675025
 20
-97.81640119401105
 30
0.0
 11
1373.030238675025
 21
-90.81640119401105
 31
0.0
  0
LINE
  5
EEA
330
18
100
AcDbEntity
  8
ﾚｲﾔ1
  6
DOTX2
100
AcDbLine
 10
1371.030238675025
 20
-107.8164011940111
 30
0.0
 11
1376.030238675025
 21
-107.8164011940111
 31
0.0
  0
LINE
  5
EEB
330
18
100
AcDbEntity
  8
ﾚｲﾔ1
  6
DOTX2
100
AcDbLine
 10
1371.030238675025
 20
-87.81640119401105
 30
0.0
 11
1376.030238675025
 21
-87.81640119401105
 31
0.0
  0
LINE
  5
EEC
330
18
100
AcDbEntity
  8
ﾚｲﾔ1
100
AcDbLine
 10
1376.030238675025
 20
-108.8164011940111
 30
0.0
 11
1386.030238675025
 21
-108.8164011940111
 31
0.0
  0
LINE
  5
EED
330
18
100
AcDbEntity
  8
ﾚｲﾔ1
100
AcDbLine
 10
1376.030238675025
 20
-86.81640119401104
 30
0.0
 11
1376.030238675025
 21
-108.8164011940111
 31
0.0
  0
LINE
  5
EEE
330
18
100
AcDbEntity
  8
ﾚｲﾔ1
100
AcDbLine
 10
1386.030238675025
 20
-86.81640119401104
 30
0.0
 11
1376.030238675025
 21
-86.81640119401104
 31
0.0
  0
LINE
  5
EEF
330
18
100
AcDbEntity
  8
ﾚｲﾔ1
100
AcDbLine
 10
1386.030238675025
 20
-108.8164011940111
 30
0.0
 11
1386.030238675025
 21
-86.81640119401104
 31
0.0
  0
LINE
  5
EF1
330
18
100
AcDbEntity
  8
ﾚｲﾔ1
100
AcDbLine
 10
1371.030238675025
 20
-87.81640119401105
 30
0.0
 11
1355.030238675025
 21
-87.81640119401105
 31
0.0
  0
LINE
  5
EF2
330
18
100
AcDbEntity
  8
ﾚｲﾔ1
100
AcDbLine
 10
1355.030238675025
 20
-87.81640119401105
 30
0.0
 11
1355.030238675025
 21
-88.81640119401105
 31
0.0
  0
LINE
  5
EF4
330
18
100
AcDbEntity
  8
ﾚｲﾔ1
100
AcDbLine
 10
1371.030238675025
 20
-107.8164011940111
 30
0.0
 11
1355.030238675025
 21
-107.8164011940111
 31
0.0
  0
LINE
  5
EF5
330
18
100
AcDbEntity
  8
ﾚｲﾔ1
100
AcDbLine
 10
1355.030238675025
 20
-107.8164011940111
 30
0.0
 11
1355.030238675025
 21
-106.8164011940111
 31
0.0
  0
LINE
  5
EF6
330
18
100
AcDbEntity
  8
ﾚｲﾔ1
100
AcDbLine
 10
1355.030238675025
 20
-106.8164011940111
 30
0.0
 11
1349.13181628221
 21
-106.8164011940111
 31
0.0
  0
LINE
  5
EF7
330
18
100
AcDbEntity
  8
0
  6
Continuous
100
AcDbLine
 10
1355.030238675025
 20
-88.81640119401105
 30
0.0
 11
1349.323991584124
 21
-88.81640119401105
 31
0.0
  0
LINE
  5
FA8
330
18
100
AcDbEntity
  8
ﾚｲﾔ1
  6
ByBlock
100
AcDbLine
 10
1600.116786270042
 20
-95.05655201254316
 30
0.0
 11
1600.023986492914
 21
-94.06069530078267
 31
0.0
  0
LINE
  5
FA9
330
18
100
AcDbEntity
  8
ﾚｲﾔ1
  6
ByBlock
100
AcDbLine
 10
1607.89670864396
 20
-92.32290831670159
 30
0.0
 11
1609.888081184637
 21
-92.13734052791048
 31
0.0
  0
LINE
  5
FAA
330
18
100
AcDbEntity
  8
ﾚｲﾔ1
  6
ByBlock
100
AcDbLine
 10
1602.25211079831
 20
-117.971232726954
 30
0.0
 11
1602.158031946744
 21
-116.9616499599925
 31
0.0
  0
LINE
  5
FAB
330
18
100
AcDbEntity
  8
ﾚｲﾔ1
  6
ByBlock
100
AcDbLine
 10
1610.217600961019
 20
-117.2289615717895
 30
0.0
 11
1602.25211079831
 21
-117.971232726954
 31
0.0
  0
LINE
  5
FAC
330
18
100
AcDbEntity
  8
ﾚｲﾔ1
  6
ByBlock
100
AcDbLine
 10
1607.989476655622
 20
-93.31842414561837
 30
0.0
 11
1600.023986492914
 21
-94.06069530078267
 31
0.0
  0
LINE
  5
FAD
330
18
100
AcDbEntity
  8
中央ライン
  6
ByBlock
 62
     1
100
AcDbLine
 10
1621.245242750028
 20
-104.1353349530229
 30
0.0
 11
1555.651363837471
 21
-110.2477578268946
 31
0.0
  0
ARC
  5
FAE
330
18
100
AcDbEntity
  8
ﾚｲﾔ1
  6
ByBlock
100
AcDbCircle
 10
1629.26941456361
 20
-114.9274981461048
 30
0.0
 40
1.0
100
AcDbArc
 50
275.3237828794436
 51
5.323782879428778
  0
ARC
  5
FAF
330
18
100
AcDbEntity
  8
ﾚｲﾔ1
  6
ByBlock
100
AcDbCircle
 10
1627.135384992512
 20
-92.0267139283171
 30
0.0
 40
1.0
100
AcDbArc
 50
5.323782879428778
 51
95.32378287941759
  0
ARC
  5
FB0
330
18
100
AcDbEntity
  8
ﾚｲﾔ1
100
AcDbCircle
 10
1588.496775845191
 20
-121.247683292546
 30
0.0
 40
1.0
100
AcDbArc
 50
185.3237828794304
 51
275.3237828794176
  0
ARC
  5
FB1
330
18
100
AcDbEntity
  8
ﾚｲﾔ1
100
AcDbCircle
 10
1585.898826802115
 20
-93.36846772306515
 30
0.0
 40
1.0
100
AcDbArc
 50
95.32378287944367
 51
185.3237828794304
  0
LINE
  5
FB2
330
18
100
AcDbEntity
  8
ﾚｲﾔ1
  6
ByBlock
100
AcDbLine
 10
1629.362198458006
 20
-115.9231844164435
 30
0.0
 11
1613.431218132588
 21
-117.4077267267722
 31
0.0
  0
LINE
  5
FB3
330
18
100
AcDbEntity
  8
ﾚｲﾔ1
  6
ByBlock
100
AcDbLine
 10
1629.1980860484
 20
-103.3843221428151
 30
0.0
 11
1630.265100833949
 21
-114.8347142517092
 31
0.0
  0
LINE
  5
FB4
330
18
100
AcDbEntity
  8
ﾚｲﾔ1
  6
ByBlock
100
AcDbLine
 10
1627.042601098117
 20
-91.03102765797846
 30
0.0
 11
1611.1116207727
 21
-92.51556996830706
 31
0.0
  0
LINE
  5
FB5
330
18
100
AcDbEntity
  8
ﾚｲﾔ1
  6
ByBlock
100
AcDbLine
 10
1629.1980860484
 20
-103.3843221428151
 30
0.0
 11
1628.131071262851
 21
-91.93393003392148
 31
0.0
  0
LINE
  5
FB6
330
18
100
AcDbEntity
  8
ﾚｲﾔ1
100
AcDbLine
 10
1612.208973501696
 20
-117.0433937829985
 30
0.0
 11
1610.217600961019
 21
-117.2289615717895
 31
0.0
  0
LINE
  5
FB7
330
18
100
AcDbEntity
  8
ﾚｲﾔ1
  6
ByBlock
100
AcDbLine
 10
1613.411310970935
 20
-116.9313529162145
 30
0.0
 11
1612.208973501696
 21
-117.0433937829985
 31
0.0
  0
LINE
  5
FB8
330
18
100
AcDbEntity
  8
ﾚｲﾔ1
100
AcDbLine
 10
1609.980849196299
 20
-93.13285635682715
 30
0.0
 11
1607.989476655622
 21
-93.31842414561837
 31
0.0
  0
LINE
  5
FB9
330
18
100
AcDbEntity
  8
ﾚｲﾔ1
  6
ByBlock
100
AcDbLine
 10
1611.183186665538
 20
-93.02081549004319
 30
0.0
 11
1609.980849196299
 21
-93.13285635682715
 31
0.0
  0
LINE
  5
FBA
330
18
100
AcDbEntity
  8
ﾚｲﾔ1
100
AcDbLine
 10
1588.193487593991
 20
-107.2152916134102
 30
0.0
 11
1589.26050237954
 21
-118.6656837223041
 31
0.0
  0
LINE
  5
FBB
330
18
100
AcDbEntity
  8
ﾚｲﾔ1
100
AcDbLine
 10
1588.193487593991
 20
-107.2152916134102
 30
0.0
 11
1587.126472808442
 21
-95.7648995045162
 31
0.0
  0
LINE
  5
FBC
330
18
100
AcDbEntity
  8
ﾚｲﾔ1
100
AcDbLine
 10
1610.169914056651
 20
-116.7172219399972
 30
0.0
 11
1589.26050237954
 21
-118.6656837223041
 31
0.0
  0
LINE
  5
FBD
330
18
100
AcDbEntity
  8
ﾚｲﾔ1
100
AcDbLine
 10
1610.309089898244
 20
-118.2107513455053
 30
0.0
 11
1610.169914056651
 21
-116.7172219399972
 31
0.0
  0
LINE
  5
FBE
330
18
100
AcDbEntity
  8
ﾚｲﾔ1
100
AcDbLine
 10
1612.300462438921
 20
-118.0251835567141
 30
0.0
 11
1610.309089898244
 21
-118.2107513455053
 31
0.0
  0
LINE
  5
FBF
330
18
100
AcDbEntity
  8
ﾚｲﾔ1
100
AcDbLine
 10
1608.035884485553
 20
-93.81643772220949
 30
0.0
 11
1587.126472808442
 21
-95.7648995045162
 31
0.0
  0
LINE
  5
FC0
330
18
100
AcDbEntity
  8
ﾚｲﾔ1
100
AcDbLine
 10
1607.89670864396
 20
-92.32290831670159
 30
0.0
 11
1608.035884485553
 21
-93.81643772220949
 31
0.0
  0
LINE
  5
FC1
330
18
100
AcDbEntity
  8
ﾚｲﾔ1
  6
DOTX2
100
AcDbLine
 10
1609.888081184637
 20
-92.13734052791048
 30
0.0
 11
1607.89670864396
 21
-92.32290831670159
 31
0.0
  0
LINE
  5
FC2
330
18
100
AcDbEntity
  8
ﾚｲﾔ1
100
AcDbLine
 10
1587.501089574852
 20
-121.3404671869417
 30
0.0
 11
1586.202115053314
 21
-107.4008594022013
 31
0.0
  0
LINE
  5
FC3
330
18
100
AcDbEntity
  8
ﾚｲﾔ1
100
AcDbLine
 10
1612.486030227712
 20
-120.0165560973911
 30
0.0
 11
1588.589559739586
 21
-122.2433695628848
 31
0.0
  0
LINE
  5
FC4
330
18
100
AcDbEntity
  8
ﾚｲﾔ1
100
AcDbLine
 10
1609.702513395845
 20
-90.14596798723315
 30
0.0
 11
1612.486030227712
 21
-120.0165560973911
 31
0.0
  0
LINE
  5
FC5
330
18
100
AcDbEntity
  8
ﾚｲﾔ1
100
AcDbLine
 10
1585.806042907719
 20
-92.37278145272668
 30
0.0
 11
1609.702513395845
 21
-90.14596798723315
 31
0.0
  0
LINE
  5
FC6
330
18
100
AcDbEntity
  8
ﾚｲﾔ1
100
AcDbLine
 10
1586.202115053314
 20
-107.4008594022013
 30
0.0
 11
1584.903140531776
 21
-93.46125161746076
 31
0.0
  0
LINE
  5
FC7
330
18
100
AcDbEntity
  8
ﾚｲﾔ1
  6
ByBlock
100
AcDbLine
 10
1611.136810601073
 20
-92.52314279629567
 30
0.0
 11
1613.456407960962
 21
-117.4152995547608
 31
0.0
  0
LINE
  5
FC8
330
18
100
AcDbEntity
  8
ﾚｲﾔ1
100
AcDbLine
 10
1595.256075380757
 20
-107.5614906229798
 30
0.0
 11
1588.286271488387
 21
-108.2109778837488
 31
0.0
  0
LINE
  5
FC9
330
18
100
AcDbEntity
  8
ﾚｲﾔ1
100
AcDbLine
 10
1595.163291486361
 20
-106.5658043526413
 30
0.0
 11
1595.256075380757
 21
-107.5614906229798
 31
0.0
  0
LINE
  5
FCA
330
18
100
AcDbEntity
  8
ﾚｲﾔ1
100
AcDbLine
 10
1595.070507591966
 20
-105.5701180823026
 30
0.0
 11
1588.100703699595
 21
-106.2196053430715
 31
0.0
  0
LINE
  5
FCB
330
18
100
AcDbEntity
  8
ﾚｲﾔ1
100
AcDbLine
 10
1595.163291486361
 20
-106.5658043526413
 30
0.0
 11
1595.070507591966
 21
-105.5701180823026
 31
0.0
  0
LINE
  5
FCC
330
18
100
AcDbEntity
  8
ﾚｲﾔ1
100
AcDbLine
 10
1588.84297485476
 20
-114.1850955057804
 30
0.0
 11
1601.786896369162
 21
-112.9789048786381
 31
0.0
  0
LINE
  5
FCD
330
18
100
AcDbEntity
  8
ﾚｲﾔ1
100
AcDbLine
 10
1588.193487593991
 20
-107.2152916134102
 30
0.0
 11
1588.84297485476
 21
-114.1850955057804
 31
0.0
  0
LINE
  5
FCE
330
18
100
AcDbEntity
  8
ﾚｲﾔ1
100
AcDbLine
 10
1587.544000333222
 20
-100.24548772104
 30
0.0
 11
1600.487921847624
 21
-99.03929709389766
 31
0.0
  0
LINE
  5
FCF
330
18
100
AcDbEntity
  8
ﾚｲﾔ1
100
AcDbLine
 10
1588.193487593991
 20
-107.2152916134102
 30
0.0
 11
1587.544000333222
 21
-100.24548772104
 31
0.0
  0
LINE
  5
FD0
330
18
100
AcDbEntity
  8
ﾚｲﾔ1
  6
DOTX2
100
AcDbLine
 10
1587.129953997269
 20
-117.3577221055873
 30
0.0
 11
1592.108385348962
 21
-116.8938026336095
 31
0.0
  0
LINE
  5
FD1
330
18
100
AcDbEntity
  8
ﾚｲﾔ1
  6
DOTX2
100
AcDbLine
 10
1585.274276109358
 20
-97.4439966988152
 30
0.0
 11
1590.252707461051
 21
-96.9800772268375
 31
0.0
  0
LINE
  5
FD2
330
18
100
AcDbEntity
  8
ﾚｲﾔ1
100
AcDbLine
 10
1592.201169243358
 20
-117.8894889039481
 30
0.0
 11
1602.158031946744
 21
-116.9616499599925
 31
0.0
  0
LINE
  5
FD3
330
18
100
AcDbEntity
  8
ﾚｲﾔ1
100
AcDbLine
 10
1590.159923566656
 20
-95.98439095649886
 30
0.0
 11
1592.201169243358
 21
-117.8894889039481
 31
0.0
  0
LINE
  5
FD4
330
18
100
AcDbEntity
  8
ﾚｲﾔ1
100
AcDbLine
 10
1600.116786270042
 20
-95.05655201254316
 30
0.0
 11
1590.159923566656
 21
-95.98439095649886
 31
0.0
  0
LINE
  5
FD5
330
18
100
AcDbEntity
  8
ﾚｲﾔ1
100
AcDbLine
 10
1602.158031946744
 20
-116.9616499599925
 30
0.0
 11
1600.116786270042
 21
-95.05655201254316
 31
0.0
  0
LINE
  5
FD7
330
18
100
AcDbEntity
  8
ﾚｲﾔ1
100
AcDbLine
 10
1585.274276109358
 20
-97.4439966988152
 30
0.0
 11
1569.343295783941
 21
-98.92853900914415
 31
0.0
  0
LINE
  5
FD8
330
18
100
AcDbEntity
  8
ﾚｲﾔ1
100
AcDbLine
 10
1569.343295783941
 20
-98.92853900914415
 30
0.0
 11
1569.436079678336
 21
-99.92422527948267
 31
0.0
  0
LINE
  5
FD9
330
18
100
AcDbEntity
  8
ﾚｲﾔ1
100
AcDbLine
 10
1569.436079678336
 20
-99.92422527948267
 30
0.0
 11
1564.936826810766
 21
-100.343492086066
 31
0.0
  0
LINE
  5
FDA
330
18
100
AcDbEntity
  8
ﾚｲﾔ1
100
AcDbLine
 10
1587.129953997269
 20
-117.3577221055873
 30
0.0
 11
1571.198973671852
 21
-118.842264415916
 31
0.0
  0
LINE
  5
FDB
330
18
100
AcDbEntity
  8
ﾚｲﾔ1
100
AcDbLine
 10
1571.198973671852
 20
-118.842264415916
 30
0.0
 11
1571.106189777456
 21
-117.8465781455775
 31
0.0
  0
LINE
  5
FDC
330
18
100
AcDbEntity
  8
ﾚｲﾔ1
100
AcDbLine
 10
1571.106189777456
 20
-117.8465781455775
 30
0.0
 11
1564.936826810766
 21
-118.403281511951
 31
0.0
  0
MTEXT
  5
11A2
330
18
100
AcDbEntity
  8
0
  6
Continuous
100
AcDbMText
 10
1389.765571530791
 20
-158.1491856445233
 30
0.0
 40
10.0
 41
167.5930653670302
 46
13.53652542016152
 71
     1
 72
     5
  1
※注意\P\P15ｍｍ以上ロッドを伸ばすとシリンダーが抜けます
 73
     1
 44
1.0
  0
LWPOLYLINE
  5
122A
330
18
100
AcDbEntity
  8
ﾚｲﾔ1
100
AcDbPolyline
 90
        4
 70
     1
 43
0.0
 10
1174.477725560749
 20
113.9791251669969
 10
1753.635992272127
 20
113.9791251669969
 10
1753.635992272127
 20
-295.5209073185706
 10
1174.477725560749
 20
-295.5209073185706
  0
LINE
  5
122B
330
18
100
AcDbEntity
  8
図面枠
  6
Continuous
100
AcDbLine
 10
1722.636921221514
 20
96.96223637705958
 30
0.0
 11
1200.635782296
 21
96.96223637705958
 31
0.0
  0
LINE
  5
122C
330
18
100
AcDbEntity
  8
図面枠
  6
Continuous
100
AcDbLine
 10
1204.703323638287
 20
92.89469503477272
 30
0.0
 11
1718.569379879227
 21
92.89469503477272
 31
0.0
  0
LINE
  5
122D
330
18
100
AcDbEntity
  8
図面枠
  6
Continuous
100
AcDbLine
 10
1200.635782296
 20
96.96223637705958
 30
0.0
 11
1200.635782296
 21
-271.8281786560157
 31
0.0
  0
LINE
  5
122E
330
18
100
AcDbEntity
  8
図面枠
  6
Continuous
100
AcDbLine
 10
1204.703323638287
 20
-267.7606373137288
 30
0.0
 11
1204.703323638287
 21
92.89469503477272
 31
0.0
  0
LINE
  5
122F
330
18
100
AcDbEntity
  8
図面枠
  6
Continuous
100
AcDbLine
 10
1718.569379879227
 20
-267.7606373137288
 30
0.0
 11
1204.703323638287
 21
-267.7606373137288
 31
0.0
  0
LINE
  5
1230
330
18
100
AcDbEntity
  8
図面枠
  6
Continuous
100
AcDbLine
 10
1722.636921221514
 20
-271.8281786560157
 30
0.0
 11
1200.635782296
 21
-271.8281786560157
 31
0.0
  0
LINE
  5
1231
330
18
100
AcDbEntity
  8
図面枠
  6
Continuous
100
AcDbLine
 10
1718.569379879227
 20
-254.2021661728231
 30
0.0
 11
1661.6238010874
 21
-254.2021661728231
 31
0.0
  0
LINE
  5
1232
330
18
100
AcDbEntity
  8
図面枠
  6
Continuous
100
AcDbLine
 10
1633.15101169143
 20
-244.8468210855633
 30
0.0
 11
1714.230669114146
 21
-244.8468210855633
 31
0.0
  0
LINE
  5
1233
330
18
100
AcDbEntity
  8
図面枠
  6
Continuous
100
AcDbLine
 10
1661.6238010874
 20
-267.7606373137288
 30
0.0
 11
1718.569379879227
 21
-267.7606373137288
 31
0.0
  0
LINE
  5
1234
330
18
100
AcDbEntity
  8
図面枠
  6
Continuous
100
AcDbLine
 10
1629.083470349143
 20
-233.8644594613888
 30
0.0
 11
1718.569379879227
 21
-233.8644594613888
 31
0.0
  0
LINE
  5
1235
330
18
100
AcDbEntity
  8
図面枠
  6
Continuous
100
AcDbLine
 10
1718.569379879227
 20
-233.8644594613888
 30
0.0
 11
1622.30423477869
 21
-233.8644594613888
 31
0.0
  0
LINE
  5
1236
330
18
100
AcDbEntity
  8
図面枠
  6
Continuous
100
AcDbLine
 10
1718.569379879227
 20
-254.2021661728231
 30
0.0
 11
1629.083470349143
 21
-254.2021661728231
 31
0.0
  0
MTEXT
  5
1237
330
18
100
AcDbEntity
  8
図面枠
370
    30
100
AcDbMText
 10
1629.968987965291
 20
-272.9150287759508
 30
0.0
 40
5.965727302005488
 41
98.46063730270659
 46
0.0
 71
     1
 72
     5
  1
株式会社　関東油機サービス
 73
     1
 44
1.0
  0
LINE
  5
1238
330
18
100
AcDbEntity
  8
図面枠
  6
Continuous
100
AcDbLine
 10
1641.286094375966
 20
-254.2021661728231
 30
0.0
 11
1622.30423477869
 21
-254.2021661728231
 31
0.0
  0
LINE
  5
1239
330
18
100
AcDbEntity
  8
図面枠
  6
Continuous
100
AcDbLine
 10
1622.30423477869
 20
-260.981401743276
 30
0.0
 11
1656.200412630993
 21
-260.981401743276
 31
0.0
  0
LINE
  5
123A
330
18
100
AcDbEntity
  8
図面枠
  6
Continuous
100
AcDbLine
 10
1622.30423477869
 20
-267.7606373137288
 30
0.0
 11
1641.286094375966
 21
-267.7606373137288
 31
0.0
  0
MTEXT
  5
123B
330
18
100
AcDbEntity
  8
ﾚｲﾔ1
100
AcDbMText
 10
1633.713540260769
 20
-249.4267159094935
 30
0.0
 40
4.095
 41
76.8765313690235
 46
4.095
 71
     1
 72
     5
  1
{SM-201.5}
 73
     1
 44
1.0
  0
MTEXT
  5
123C
330
18
100
AcDbEntity
  8
ﾚｲﾔ1
100
AcDbMText
 10
1633.488575069194
 20
-239.7338513742859
 30
0.0
 40
4.095
 41
76.8765313690235
 46
4.095
 71
     1
 72
     5
  1
{200KN15st 単動ジャッキ}
 73
     1
 44
1.0
  0
LINE
  5
123D
330
18
100
AcDbEntity
  8
図面枠
  6
Continuous
100
AcDbLine
 10
1622.30423477869
 20
-240.6436950319173
 30
0.0
 11
1622.30423477869
 21
-247.4229306023702
 31
0.0
  0
LINE
  5
123E
330
18
100
AcDbEntity
  8
図面枠
  6
Continuous
100
AcDbLine
 10
1622.30423477869
 20
-247.4229306023702
 30
0.0
 11
1622.30423477869
 21
-254.2021661728231
 31
0.0
  0
LINE
  5
123F
330
18
100
AcDbEntity
  8
図面枠
  6
Continuous
100
AcDbLine
 10
1622.30423477869
 20
-254.2021661728231
 30
0.0
 11
1622.30423477869
 21
-267.7606373137288
 31
0.0
  0
LINE
  5
1240
330
18
100
AcDbEntity
  8
図面枠
  6
Continuous
100
AcDbLine
 10
1622.30423477869
 20
-254.2021661728231
 30
0.0
 11
1629.083470349143
 21
-254.2021661728231
 31
0.0
  0
LINE
  5
1241
330
18
100
AcDbEntity
  8
図面枠
  6
Continuous
100
AcDbLine
 10
1622.30423477869
 20
-233.8644594613888
 30
0.0
 11
1622.30423477869
 21
-254.2021661728231
 31
0.0
  0
LINE
  5
1242
330
18
100
AcDbEntity
  8
図面枠
  6
Continuous
100
AcDbLine
 10
1629.083470349143
 20
-254.2021661728231
 30
0.0
 11
1629.083470349143
 21
-233.8644594613888
 31
0.0
  0
LINE
  5
1243
330
18
100
AcDbEntity
  8
図面枠
  6
Continuous
100
AcDbLine
 10
1622.30423477869
 20
-267.7606373137288
 30
0.0
 11
1622.30423477869
 21
-254.2021661728231
 31
0.0
  0
LINE
  5
1244
330
18
100
AcDbEntity
  8
図面枠
  6
Continuous
100
AcDbLine
 10
1622.30423477869
 20
-233.8644594613888
 30
0.0
 11
1622.30423477869
 21
-240.6436950319173
 31
0.0
  0
LINE
  5
1245
330
18
100
AcDbEntity
  8
図面枠
  6
Continuous
100
AcDbLine
 10
1629.083470349143
 20
-233.8644594613888
 30
0.0
 11
1622.30423477869
 21
-233.8644594613888
 31
0.0
  0
LINE
  5
1246
330
18
100
AcDbEntity
  8
図面枠
  6
Continuous
100
AcDbLine
 10
1629.083470349143
 20
-254.2021661728231
 30
0.0
 11
1629.083470349143
 21
-233.8644594613888
 31
0.0
  0
TEXT
  5
1248
330
18
100
AcDbEntity
  8
図面枠
100
AcDbText
 10
1625.64100407253
 20
-267.0301894914202
 30
0.0
 40
4.067541342276471
  1
１：2
100
AcDbText
  0
TEXT
  5
1249
330
18
100
AcDbEntity
  8
図面枠
100
AcDbText
 10
1624.70317969187
 20
-260.3582933777146
 30
0.0
 40
5.423388456368627
  1
尺度
 41
1.125
100
AcDbText
  0
LINE
  5
124A
330
18
100
AcDbEntity
  8
図面枠
  6
Continuous
100
AcDbLine
 10
1661.6238010874
 20
-267.7606373137288
 30
0.0
 11
1661.6238010874
 21
-254.2021661728231
 31
0.0
  0
LINE
  5
124B
330
18
100
AcDbEntity
  8
図面枠
  6
Continuous
100
AcDbLine
 10
1661.6238010874
 20
-254.2021661728231
 30
0.0
 11
1656.200412630993
 21
-254.2021661728231
 31
0.0
  0
LINE
  5
124C
330
18
100
AcDbEntity
  8
図面枠
  6
Continuous
100
AcDbLine
 10
1656.200412630993
 20
-267.7606373137288
 30
0.0
 11
1661.6238010874
 21
-267.7606373137288
 31
0.0
  0
LINE
  5
124D
330
18
100
AcDbEntity
  8
図面枠
  6
Continuous
100
AcDbLine
 10
1656.200412630993
 20
-254.2021661728231
 30
0.0
 11
1641.286094375966
 21
-254.2021661728231
 31
0.0
  0
LINE
  5
124E
330
18
100
AcDbEntity
  8
図面枠
  6
Continuous
100
AcDbLine
 10
1656.200412630993
 20
-254.2021661728231
 30
0.0
 11
1656.200412630993
 21
-267.7606373137288
 31
0.0
  0
LINE
  5
124F
330
18
100
AcDbEntity
  8
図面枠
  6
Continuous
100
AcDbLine
 10
1641.286094375966
 20
-254.2021661728231
 30
0.0
 11
1641.286094375966
 21
-267.7606373137288
 31
0.0
  0
LINE
  5
1250
330
18
100
AcDbEntity
  8
図面枠
  6
Continuous
100
AcDbLine
 10
1656.200412630993
 20
-267.7606373137288
 30
0.0
 11
1656.200412630993
 21
-254.2021661728231
 31
0.0
  0
LINE
  5
1251
330
18
100
AcDbEntity
  8
図面枠
  6
Continuous
100
AcDbLine
 10
1641.286094375966
 20
-267.7606373137288
 30
0.0
 11
1656.200412630993
 21
-267.7606373137288
 31
0.0
  0
LINE
  5
1252
330
18
100
AcDbEntity
  8
図面枠
  6
Continuous
100
AcDbLine
 10
1661.6238010874
 20
-254.2021661728231
 30
0.0
 11
1661.6238010874
 21
-267.7606373137288
 31
0.0
  0
LINE
  5
1253
330
18
100
AcDbEntity
  8
図面枠
  6
Continuous
100
AcDbLine
 10
1641.286094375966
 20
-267.7606373137288
 30
0.0
 11
1641.286094375966
 21
-254.2021661728231
 31
0.0
  0
TEXT
  5
1254
330
18
100
AcDbEntity
  8
図面枠
100
AcDbText
 10
1657.081713255167
 20
-265.9980360653793
 30
0.0
 40
4.067541342276471
  1
番
100
AcDbText
  0
TEXT
  5
1255
330
18
100
AcDbEntity
  8
図面枠
100
AcDbText
 10
1657.081713255167
 20
-259.5938140654721
 30
0.0
 40
4.067541342276471
  1
図
100
AcDbText
  0
LINE
  5
1256
330
18
100
AcDbEntity
  8
図面枠
  6
Continuous
100
AcDbLine
 10
1718.569379879227
 20
-233.8644594613888
 30
0.0
 11
1718.569379879227
 21
-254.2021661728231
 31
0.0
  0
LINE
  5
1257
330
18
100
AcDbEntity
  8
図面枠
  6
Continuous
100
AcDbLine
 10
1718.569379879227
 20
-267.7606373137288
 30
0.0
 11
1718.569379879227
 21
-254.2021661728231
 31
0.0
  0
LINE
  5
1258
330
18
100
AcDbEntity
  8
ﾚｲﾔ1
100
AcDbLine
 10
1589.227741174535
 20
15.63900319221835
 30
0.0
 11
1704.273903836719
 21
15.63900319221835
 31
0.0
  0
LINE
  5
1259
330
18
100
AcDbEntity
  8
ﾚｲﾔ1
100
AcDbLine
 10
1589.227741174535
 20
36.6990031922335
 30
0.0
 11
1704.273903836719
 21
36.6990031922335
 31
0.0
  0
LINE
  5
125A
330
18
100
AcDbEntity
  8
ﾚｲﾔ1
100
AcDbLine
 10
1589.227741174535
 20
57.75900319224863
 30
0.0
 11
1704.273903836719
 21
57.75900319224863
 31
0.0
  0
LINE
  5
125B
330
18
100
AcDbEntity
  8
ﾚｲﾔ1
100
AcDbLine
 10
1589.227741174535
 20
47.22900319220324
 30
0.0
 11
1704.273903836719
 21
47.22900319220324
 31
0.0
  0
LINE
  5
125C
330
18
100
AcDbEntity
  8
ﾚｲﾔ1
100
AcDbLine
 10
1589.227741174535
 20
68.28900319221839
 30
0.0
 11
1704.273903836719
 21
68.28900319221839
 31
0.0
  0
LINE
  5
125D
330
18
100
AcDbEntity
  8
ﾚｲﾔ1
100
AcDbLine
 10
1589.227741174535
 20
26.16900319226377
 30
0.0
 11
1704.273903836719
 21
26.16900319226377
 31
0.0
  0
LINE
  5
125E
330
18
100
AcDbEntity
  8
ﾚｲﾔ1
100
AcDbLine
 10
1589.227741174535
 20
5.109003192248622
 30
0.0
 11
1704.273903836719
 21
5.109003192248622
 31
0.0
  0
MTEXT
  5
125F
330
18
100
AcDbEntity
  8
ﾚｲﾔ1
100
AcDbMText
 10
1589.630130392576
 20
9.052680641143212
 30
0.0
 40
3.509999999999997
 41
565.024705720972
 46
0.0
 71
     1
 72
     5
  1
重　　量
 73
     1
 44
1.0
101
Embedded Object
 70
     1
 10
1.0
 20
0.0
 30
0.0
 11
1589.630130392576
 21
9.052680641143212
 31
0.0
 40
565.024705720972
 41
0.0
 42
15.61949999999999
 43
3.509999999999997
 71
     2
 72
     1
 44
565.024705720972
 45
27.0
 73
     0
 74
     0
 46
0.0
  0
MTEXT
  5
1260
330
18
100
AcDbEntity
  8
ﾚｲﾔ1
100
AcDbMText
 10
1589.850346868947
 20
72.95074860551222
 30
0.0
 40
4.095
 41
565.024705720972
 46
0.0
 71
     1
 72
     5
  1
能　　力
 73
     1
 44
1.0
101
Embedded Object
 70
     1
 10
1.0
 20
0.0
 30
0.0
 11
1589.850346868947
 21
72.95074860551222
 31
0.0
 40
565.024705720972
 41
0.0
 42
17.8815
 43
4.095
 71
     2
 72
     1
 44
565.024705720972
 45
27.0
 73
     0
 74
     0
 46
0.0
  0
MTEXT
  5
1261
330
18
100
AcDbEntity
  8
ﾚｲﾔ1
100
AcDbMText
 10
1590.430372721712
 20
20.34251648530304
 30
0.0
 40
3.509999999999997
 41
565.024705720972
 46
0.0
 71
     1
 72
     5
  1
ロ　ッ　ド　径
 73
     1
 44
1.0
101
Embedded Object
 70
     1
 10
1.0
 20
0.0
 30
0.0
 11
1590.430372721712
 21
20.34251648530304
 31
0.0
 40
565.024705720972
 41
0.0
 42
27.72899999999998
 43
3.509999999999997
 71
     2
 72
     1
 44
565.024705720972
 45
27.0
 73
     0
 74
     0
 46
0.0
  0
MTEXT
  5
1262
330
18
100
AcDbEntity
  8
ﾚｲﾔ1
100
AcDbMText
 10
1589.721594082621
 20
41.6785059321887
 30
0.0
 40
4.095
 41
565.024705720972
 46
0.0
 71
     1
 72
     5
  1
使　用　圧　力
 73
     1
 44
1.0
101
Embedded Object
 70
     1
 10
1.0
 20
0.0
 30
0.0
 11
1589.721594082621
 21
41.6785059321887
 31
0.0
 40
565.024705720972
 41
0.0
 42
32.8965
 43
4.095
 71
     2
 72
     1
 44
565.024705720972
 45
27.0
 73
     0
 74
     0
 46
0.0
  0
MTEXT
  5
1263
330
18
100
AcDbEntity
  8
ﾚｲﾔ1
100
AcDbMText
 10
1589.791545680321
 20
51.91290896968391
 30
0.0
 40
4.095
 41
565.0247057209716
 46
6.3
 71
     1
 72
     5
  1
{ス　ト　ロ　-　ク}
 73
     1
 44
1.0
  0
MTEXT
  5
1264
330
18
100
AcDbEntity
  8
ﾚｲﾔ1
100
AcDbMText
 10
1589.751166684645
 20
31.33107453931413
 30
0.0
 40
4.095
 41
565.024705720972
 46
0.0
 71
     1
 72
     5
  1
受　圧　面　積
 73
     1
 44
1.0
101
Embedded Object
 70
     1
 10
1.0
 20
0.0
 30
0.0
 11
1589.751166684645
 21
31.33107453931413
 31
0.0
 40
565.024705720972
 41
0.0
 42
33.0915
 43
4.095
 71
     2
 72
     1
 44
565.024705720972
 45
27.0
 73
     0
 74
     0
 46
0.0
  0
MTEXT
  5
1265
330
18
100
AcDbEntity
  8
ﾚｲﾔ1
100
AcDbMText
 10
1589.642267032027
 20
62.94352917457405
 30
0.0
 40
4.095
 41
565.024705720972
 46
0.0
 71
     1
 72
     5
  1
機　械　高　さ
 73
     1
 44
1.0
101
Embedded Object
 70
     1
 10
1.0
 20
0.0
 30
0.0
 11
1589.642267032027
 21
62.94352917457405
 31
0.0
 40
565.024705720972
 41
0.0
 42
32.253
 43
4.095
 71
     2
 72
     1
 44
565.024705720972
 45
27.0
 73
     0
 74
     0
 46
0.0
  0
TEXT
  5
1266
330
18
100
AcDbEntity
  8
ﾚｲﾔ1
100
AcDbText
 10
1696.33862198514
 20
69.55030743596552
 30
0.0
 40
3.9
  1
KN
 50
360.0
100
AcDbText
  0
TEXT
  5
1267
330
18
100
AcDbEntity
  8
ﾚｲﾔ1
100
AcDbText
 10
1670.552273508756
 20
69.6676886826678
 30
0.0
 40
3.9
  1
200
 50
360.0
100
AcDbText
  0
TEXT
  5
1268
330
18
100
AcDbEntity
  8
ﾚｲﾔ1
100
AcDbText
 10
1696.33862198514
 20
58.91461936313252
 30
0.0
 40
3.9
  1
mm
 50
360.0
100
AcDbText
  0
MTEXT
  5
1269
330
18
100
AcDbEntity
  8
ﾚｲﾔ1
100
AcDbMText
 10
1669.412355988215
 20
9.831071131092614
 30
0.0
 40
3.9
 41
0.0
 46
6.0
 71
     1
 72
     5
  1
{約}
 73
     1
 44
1.0
  0
MTEXT
  5
126A
330
18
100
AcDbEntity
  8
ﾚｲﾔ1
100
AcDbMText
 10
1670.466257057195
 20
20.12227379958318
 30
0.0
 40
3.9
 41
0.0
 46
12.0
 71
     1
 72
     5
  1
{Φ}
 73
     1
 44
1.0
  0
TEXT
  5
126B
330
18
100
AcDbEntity
  8
ﾚｲﾔ1
100
AcDbText
 10
1693.737181982449
 20
26.95139611727615
 30
0.0
 40
3.9
  1
cm2
 50
360.0
100
AcDbText
  0
TEXT
  5
126C
330
18
100
AcDbEntity
  8
ﾚｲﾔ1
100
AcDbText
 10
1696.33862198514
 20
48.3216345034522
 30
0.0
 40
3.9
  1
mm
 50
360.0
100
AcDbText
  0
TEXT
  5
126D
330
18
100
AcDbEntity
  8
ﾚｲﾔ1
100
AcDbText
 10
1696.33862198514
 20
6.153425261941152
 30
0.0
 40
3.9
  1
Kg
 50
360.0
100
AcDbText
  0
TEXT
  5
126E
330
18
100
AcDbEntity
  8
ﾚｲﾔ1
100
AcDbText
 10
1693.737181982449
 20
37.99963297741311
 30
0.0
 40
3.9
  1
Mpa
 50
360.0
100
AcDbText
  0
TEXT
  5
126F
330
18
100
AcDbEntity
  8
ﾚｲﾔ1
100
AcDbText
 10
1696.33862198514
 20
17.03537689468183
 30
0.0
 40
3.9
  1
mm
 50
360.0
100
AcDbText
  0
TEXT
  5
1270
330
18
100
AcDbEntity
  8
ﾚｲﾔ1
100
AcDbText
 10
1670.552273508756
 20
58.87330911452125
 30
0.0
 40
3.9
  1
60
 50
360.0
100
AcDbText
  0
TEXT
  5
1271
330
18
100
AcDbEntity
  8
ﾚｲﾔ1
100
AcDbText
 10
1670.552273508756
 20
48.31921601074106
 30
0.0
 40
3.9
  1
15
 50
360.0
100
AcDbText
  0
TEXT
  5
1272
330
18
100
AcDbEntity
  8
ﾚｲﾔ1
100
AcDbText
 10
1670.552273508756
 20
37.65150228735118
 30
0.0
 40
3.9
  1
72
 50
360.0
100
AcDbText
  0
TEXT
  5
1273
330
18
100
AcDbEntity
  8
ﾚｲﾔ1
100
AcDbText
 10
1670.552273508756
 20
27.36252396243333
 30
0.0
 40
3.9
  1
28.27
 50
360.0
100
AcDbText
  0
TEXT
  5
1274
330
18
100
AcDbEntity
  8
ﾚｲﾔ1
100
AcDbText
 10
1674.40146858855
 20
16.59628777655132
 30
0.0
 40
3.9
  1
50
 50
360.0
100
AcDbText
  0
TEXT
  5
1275
330
18
100
AcDbEntity
  8
ﾚｲﾔ1
100
AcDbText
 10
1675.419316701086
 20
5.877094878469933
 30
0.0
 40
3.9
  1
3
 50
360.0
100
AcDbText
  0
LINE
  5
1276
330
18
100
AcDbEntity
  8
ﾚｲﾔ1
100
AcDbLine
 10
1589.227741174535
 20
78.82041349839244
 30
0.0
 11
1604.144864007847
 21
78.81562988775954
 31
0.0
  0
MTEXT
  5
1277
330
18
100
AcDbEntity
  8
ﾚｲﾔ1
100
AcDbMText
 10
1590.014670782191
 20
82.70103318577571
 30
0.0
 40
3.509999999999997
 41
565.024705720972
 46
0.0
 71
     1
 72
     5
  1
仕  様
 73
     1
 44
1.0
101
Embedded Object
 70
     1
 10
1.0
 20
0.0
 30
0.0
 11
1590.014670782191
 21
82.70103318577571
 31
0.0
 40
565.024705720972
 41
0.0
 42
11.52449999999999
 43
3.509999999999997
 71
     2
 72
     1
 44
565.024705720972
 45
27.0
 73
     0
 74
     0
 46
0.0
  0
LINE
  5
1278
330
18
100
AcDbEntity
  8
図面枠
  6
Continuous
100
AcDbLine
 10
1718.569379879227
 20
92.89469503477272
 30
0.0
 11
1718.569379879227
 21
-267.7606373137288
 31
0.0
  0
LINE
  5
1279
330
18
100
AcDbEntity
  8
図面枠
  6
Continuous
100
AcDbLine
 10
1722.636921221514
 20
96.96223637705958
 30
0.0
 11
1722.636921221514
 21
-271.8281786560157
 31
0.0
  0
TEXT
  5
12A6
102
{ACAD_REACTORS
330
12A8
102
}
330
18
100
AcDbEntity
  8
図面枠
100
AcDbText
 10
1623.087179191466
 20
-243.3580181143096
 30
0.0
 40
5.767147847756914
  1
名
100
AcDbText
  0
TEXT
  5
12A7
102
{ACAD_REACTORS
330
12A8
102
}
330
18
100
AcDbEntity
  8
図面枠
100
AcDbText
 10
1623.087179191466
 20
-252.4382196452637
 30
0.0
 40
5.767147847756914
  1
称
100
AcDbText
  0
ENDSEC
  0
SECTION
  2
OBJECTS
  0
DICTIONARY
  5
C
330
0
100
AcDbDictionary
281
     1
  3
ACAD_COLOR
350
1DD
  3
ACAD_DETAILVIEWSTYLE
350
1282
  3
ACAD_GROUP
350
D
  3
ACAD_LAYOUT
350
1DE
  3
ACAD_MATERIAL
350
1DC
  3
ACAD_MLEADERSTYLE
350
B13
  3
ACAD_MLINESTYLE
350
1B
  3
ACAD_PLOTSETTINGS
350
1DF
  3
ACAD_PLOTSTYLENAME
350
1DA
  3
ACAD_SCALELIST
350
AF1
  3
ACAD_SECTIONVIEWSTYLE
350
1283
  3
ACAD_TABLESTYLE
350
AEF
  3
ACAD_VISUALSTYLE
350
ADE
  3
ACDB_RECOMPOSE_DATA
350
12AB
  3
AcDbVariableDictionary
350
AAC
  3
APPDATA
350
11AE
  0
SUN
  5
11AF
330
AAF
100
AcDbSun
 90
        1
290
     0
 63
     7
421
 16777215
 40
1.0
291
     1
 91
  2455826
 92
 54000000
292
     0
 70
     2
 71
   256
280
     1
  0
DICTIONARY
  5
1225
330
2
100
AcDbDictionary
280
     1
281
     1
  3
ACAD_LAYERSTATES
360
1226
  0
DICTIONARY
  5
DCD
330
E
100
AcDbDictionary
280
     1
281
     1
  3
ADSK_XREC_LAYER_RECONCILED
360
DCE
  0
DICTIONARY
  5
DCF
330
39
100
AcDbDictionary
280
     1
281
     1
  3
ADSK_XREC_LAYER_RECONCILED
360
DD0
  0
DICTIONARY
  5
DD1
330
3A
100
AcDbDictionary
280
     1
281
     1
  3
ADSK_XREC_LAYER_RECONCILED
360
DD2
  0
DICTIONARY
  5
DD3
330
3B
100
AcDbDictionary
280
     1
281
     1
  3
ADSK_XREC_LAYER_RECONCILED
360
DD4
  0
DICTIONARY
  5
DD5
330
3C
100
AcDbDictionary
280
     1
281
     1
  3
ADSK_XREC_LAYER_RECONCILED
360
DD6
  0
DICTIONARY
  5
DD7
330
3D
100
AcDbDictionary
280
     1
281
     1
  3
ADSK_XREC_LAYER_RECONCILED
360
DD8
  0
DICTIONARY
  5
DD9
330
1E9
100
AcDbDictionary
280
     1
281
     1
  3
ADSK_XREC_LAYER_RECONCILED
360
DDA
  0
DICTIONARY
  5
DDB
330
1EA
100
AcDbDictionary
280
     1
281
     1
  3
ADSK_XREC_LAYER_RECONCILED
360
DDC
  0
DICTIONARY
  5
DDD
330
1EB
100
AcDbDictionary
280
     1
281
     1
  3
ADSK_XREC_LAYER_RECONCILED
360
DDE
  0
DICTIONARY
  5
DDF
330
1EC
100
AcDbDictionary
280
     1
281
     1
  3
ADSK_XREC_LAYER_RECONCILED
360
DE0
  0
DICTIONARY
  5
DE1
330
727
100
AcDbDictionary
280
     1
281
     1
  3
ADSK_XREC_LAYER_RECONCILED
360
DE2
  0
DICTIONARY
  5
127C
330
18
100
AcDbDictionary
280
     1
281
     1
  3
DIM_BOUNDING_BOXES_V1
360
127D
  0
DICTIONARY
  5
1DD
102
{ACAD_REACTORS
330
C
102
}
330
C
100
AcDbDictionary
281
     1
  0
DICTIONARY
  5
1282
102
{ACAD_REACTORS
330
C
102
}
330
C
100
AcDbDictionary
281
     1
  0
DICTIONARY
  5
D
102
{ACAD_REACTORS
330
C
102
}
330
C
100
AcDbDictionary
281
     1
  3
*A1
350
12A8
  0
DICTIONARY
  5
1DE
102
{ACAD_REACTORS
330
C
102
}
330
C
100
AcDbDictionary
281
     1
  3
Model
350
1E0
  3
レイアウト1
350
1E1
  0
DICTIONARY
  5
1DC
102
{ACAD_REACTORS
330
C
102
}
330
C
100
AcDbDictionary
281
     1
  3
ByBlock
350
ACE
  3
ByLayer
350
AC6
  3
Global
350
AD6
  0
DICTIONARY
  5
B13
102
{ACAD_REACTORS
330
C
102
}
330
C
100
AcDbDictionary
281
     1
  3
Standard
350
B14
  0
DICTIONARY
  5
1B
102
{ACAD_REACTORS
330
C
102
}
330
C
100
AcDbDictionary
281
     1
  3
STANDARD
350
1C
  0
DICTIONARY
  5
1DF
102
{ACAD_REACTORS
330
C
102
}
330
C
100
AcDbDictionary
281
     1
  0
ACDBDICTIONARYWDFLT
  5
1DA
102
{ACAD_REACTORS
330
C
102
}
330
C
100
AcDbDictionary
281
     1
  3
Normal
350
1DB
100
AcDbDictionaryWithDefault
340
1DB
  0
DICTIONARY
  5
AF1
102
{ACAD_REACTORS
330
C
102
}
330
C
100
AcDbDictionary
281
     1
  3
A0
350
AF2
  3
A1
350
AF3
  3
A2
350
AF4
  3
A3
350
AF5
  3
A4
350
AF6
  3
A5
350
AF7
  3
A6
350
AF8
  3
A7
350
AF9
  3
A8
350
AFA
  3
A9
350
AFB
  3
B0
350
AFC
  3
B1
350
AFD
  3
B2
350
AFE
  3
B3
350
AFF
  3
B4
350
B00
  3
B5
350
B01
  3
B6
350
B02
  3
B7
350
B03
  3
B8
350
B04
  3
B9
350
B05
  3
C0
350
B06
  3
C1
350
B07
  3
C2
350
B08
  3
C3
350
B09
  3
C4
350
B0A
  3
C5
350
B0B
  3
C6
350
B0C
  3
C7
350
B0D
  3
C8
350
B0E
  3
C9
350
B0F
  3
D0
350
B10
  3
D1
350
B11
  3
D2
350
B12
  0
DICTIONARY
  5
1283
102
{ACAD_REACTORS
330
C
102
}
330
C
100
AcDbDictionary
281
     1
  0
DICTIONARY
  5
AEF
102
{ACAD_REACTORS
330
C
102
}
330
C
100
AcDbDictionary
281
     1
  3
Standard
350
AF0
  0
DICTIONARY
  5
ADE
102
{ACAD_REACTORS
330
C
102
}
330
C
100
AcDbDictionary
281
     1
  3
2dWireframe
350
AE4
  3
3D Hidden
350
AE6
  3
3dWireframe
350
AE5
  3
Basic
350
AE3
  3
Brighten
350
AEA
  3
ColorChange
350
AEE
  3
Conceptual
350
AE7
  3
Dim
350
AE9
  3
EdgeColorOff
350
11A8
  3
Facepattern
350
AED
  3
Flat
350
ADF
  3
FlatWithEdges
350
AE0
  3
Gouraud
350
AE1
  3
GouraudWithEdges
350
AE2
  3
Hidden
350
11A5
  3
JitterOff
350
11A6
  3
Linepattern
350
AEC
  3
OverhangOff
350
11A7
  3
Realistic
350
AE8
  3
Shaded
350
11AD
  3
Shaded with edges
350
11AC
  3
Shades of Gray
350
11A9
  3
Sketchy
350
11AA
  3
Thicken
350
AEB
  3
Wireframe
350
11A4
  3
X-Ray
350
11AB
  0
XRECORD
  5
12AB
102
{ACAD_REACTORS
330
C
102
}
330
C
100
AcDbXrecord
280
     1
 90
        1
330
AF0
  0
DICTIONARY
  5
AAC
102
{ACAD_REACTORS
330
C
102
}
330
C
100
AcDbDictionary
281
     1
  3
CANNOSCALE
350
DE9
  3
CMLEADERSTYLE
350
DE7
  3
CTABLESTYLE
350
DE6
  3
DIMASSOC
350
AAD
  3
LIGHTINGUNITS
350
DEA
  3
MSLTSCALE
350
DE8
  3
PROJECTNAME
350
AAE
  3
XCLIPFRAME
350
1281
  0
DICTIONARY
  5
11AE
102
{ACAD_REACTORS
330
C
102
}
330
C
100
AcDbDictionary
281
     1
  0
DICTIONARY
  5
1226
102
{ACAD_REACTORS
330
1225
102
}
330
1225
100
AcDbDictionary
281
     1
  0
XRECORD
  5
DCE
102
{ACAD_REACTORS
330
DCD
102
}
330
DCD
100
AcDbXrecord
280
     1
290
     1
  0
XRECORD
  5
DD0
102
{ACAD_REACTORS
330
DCF
102
}
330
DCF
100
AcDbXrecord
280
     1
290
     1
  0
XRECORD
  5
DD2
102
{ACAD_REACTORS
330
DD1
102
}
330
DD1
100
AcDbXrecord
280
     1
290
     1
  0
XRECORD
  5
DD4
102
{ACAD_REACTORS
330
DD3
102
}
330
DD3
100
AcDbXrecord
280
     1
290
     1
  0
XRECORD
  5
DD6
102
{ACAD_REACTORS
330
DD5
102
}
330
DD5
100
AcDbXrecord
280
     1
290
     1
  0
XRECORD
  5
DD8
102
{ACAD_REACTORS
330
DD7
102
}
330
DD7
100
AcDbXrecord
280
     1
290
     1
  0
XRECORD
  5
DDA
102
{ACAD_REACTORS
330
DD9
102
}
330
DD9
100
AcDbXrecord
280
     1
290
     1
  0
XRECORD
  5
DDC
102
{ACAD_REACTORS
330
DDB
102
}
330
DDB
100
AcDbXrecord
280
     1
290
     1
  0
XRECORD
  5
DDE
102
{ACAD_REACTORS
330
DDD
102
}
330
DDD
100
AcDbXrecord
280
     1
290
     1
  0
XRECORD
  5
DE0
102
{ACAD_REACTORS
330
DDF
102
}
330
DDF
100
AcDbXrecord
280
     1
290
     1
  0
XRECORD
  5
DE2
102
{ACAD_REACTORS
330
DE1
102
}
330
DE1
100
AcDbXrecord
280
     1
290
     1
  0
DICTIONARY
  5
127D
102
{ACAD_REACTORS
330
127C
102
}
330
127C
100
AcDbDictionary
281
     1
  0
GROUP
  5
12A8
102
{ACAD_REACTORS
330
D
102
}
330
D
100
AcDbGroup
300

 70
     1
 71
     1
340
12A6
340
12A7
  0
LAYOUT
  5
1E0
102
{ACAD_REACTORS
330
1DE
102
}
330
1DE
100
AcDbPlotSettings
  1

  2
Kyocera Mita KM-2550(J) KX
  4
A4
  6

 40
4.984749794006346
 41
5.154074668884277
 42
5.11175537109375
 43
4.9847412109375
 44
210.0156707763672
 45
297.0106506347656
 46
0.0
 47
0.0
 48
0.0
 49
0.0
140
0.0
141
0.0
142
1.0
143
1.0
 70
 11952
 72
     0
 73
     1
 74
     0
  7

 75
     0
 76
     0
 77
     2
 78
   300
147
1.0
148
-181.8283954308979
149
2619.650698567118
100
AcDbLayout
  1
Model
 70
     1
 71
     0
 10
0.0
 20
0.0
 11
12.0
 21
9.0
 12
0.0
 22
0.0
 32
0.0
 14
1174.477725560749
 24
-295.5209073185706
 34
0.0
 15
1753.635992272127
 25
113.9791251669969
 35
0.0
146
0.0
 13
0.0
 23
0.0
 33
0.0
 16
1.0
 26
0.0
 36
0.0
 17
0.0
 27
1.0
 37
0.0
 76
     0
330
18
331
AAF
  0
LAYOUT
  5
1E1
102
{ACAD_REACTORS
330
1DE
102
}
330
1DE
100
AcDbPlotSettings
  1

  2
Kyocera Mita KM-2550(J) KX
  4

  6

 40
0.0
 41
0.0
 42
0.0
 43
0.0
 44
0.0
 45
0.0
 46
0.0
 47
0.0
 48
0.0
 49
0.0
140
0.0
141
0.0
142
1.0
143
1.0
 70
   688
 72
     0
 73
     0
 74
     5
  7

 75
    16
 76
     0
 77
     2
 78
   300
147
1.0
148
0.0
149
0.0
100
AcDbLayout
  1
レイアウト1
 70
     1
 71
     1
 10
0.0
 20
0.0
 11
12.0
 21
9.0
 12
0.0
 22
0.0
 32
0.0
 14
1.000000000000000E+20
 24
1.000000000000000E+20
 34
1.000000000000000E+20
 15
-1.000000000000000E+20
 25
-1.000000000000000E+20
 35
-1.000000000000000E+20
146
0.0
 13
0.0
 23
0.0
 33
0.0
 16
1.0
 26
0.0
 36
0.0
 17
0.0
 27
1.0
 37
0.0
 76
     0
330
15
  0
MATERIAL
  5
ACE
102
{ACAD_REACTORS
330
1DC
102
}
330
1DC
100
AcDbMaterial
  1
ByBlock
 72
     0
 43
0.0208333333333333
 43
0.0
 43
0.0
 43
0.0
 43
0.0
 43
0.0208333333333333
 43
0.0
 43
0.0
 43
0.0
 43
0.0
 43
1.0
 43
0.0
 43
0.0
 43
0.0
 43
0.0
 43
1.0
 77
     0
 47
0.0208333333333333
 47
0.0
 47
0.0
 47
0.0
 47
0.0
 47
0.0208333333333333
 47
0.0
 47
0.0
 47
0.0
 47
0.0
 47
1.0
 47
0.0
 47
0.0
 47
0.0
 47
0.0
 47
1.0
171
     0
 49
0.0208333333333333
 49
0.0
 49
0.0
 49
0.0
 49
0.0
 49
0.0208333333333333
 49
0.0
 49
0.0
 49
0.0
 49
0.0
 49
1.0
 49
0.0
 49
0.0
 49
0.0
 49
0.0
 49
1.0
175
     0
142
0.0208333333333333
142
0.0
142
0.0
142
0.0
142
0.0
142
0.0208333333333333
142
0.0
142
0.0
142
0.0
142
0.0
142
1.0
142
0.0
142
0.0
142
0.0
142
0.0
142
1.0
179
     0
144
0.0208333333333333
144
0.0
144
0.0
144
0.0
144
0.0
144
0.0208333333333333
144
0.0
144
0.0
144
0.0
144
0.0
144
1.0
144
0.0
144
0.0
144
0.0
144
0.0
144
1.0
147
0.0208333333333333
147
0.0
147
0.0
147
0.0
147
0.0
147
0.0208333333333333
147
0.0
147
0.0
147
0.0
147
0.0
147
1.0
147
0.0
147
0.0
147
0.0
147
0.0
147
1.0
 94
      127
  0
MATERIAL
  5
AC6
102
{ACAD_REACTORS
330
1DC
102
}
330
1DC
100
AcDbMaterial
  1
ByLayer
 72
     0
 43
0.0208333333333333
 43
0.0
 43
0.0
 43
0.0
 43
0.0
 43
0.0208333333333333
 43
0.0
 43
0.0
 43
0.0
 43
0.0
 43
1.0
 43
0.0
 43
0.0
 43
0.0
 43
0.0
 43
1.0
 77
     0
 47
0.0208333333333333
 47
0.0
 47
0.0
 47
0.0
 47
0.0
 47
0.0208333333333333
 47
0.0
 47
0.0
 47
0.0
 47
0.0
 47
1.0
 47
0.0
 47
0.0
 47
0.0
 47
0.0
 47
1.0
171
     0
 49
0.0208333333333333
 49
0.0
 49
0.0
 49
0.0
 49
0.0
 49
0.0208333333333333
 49
0.0
 49
0.0
 49
0.0
 49
0.0
 49
1.0
 49
0.0
 49
0.0
 49
0.0
 49
0.0
 49
1.0
175
     0
142
0.0208333333333333
142
0.0
142
0.0
142
0.0
142
0.0
142
0.0208333333333333
142
0.0
142
0.0
142
0.0
142
0.0
142
1.0
142
0.0
142
0.0
142
0.0
142
0.0
142
1.0
179
     0
144
0.0208333333333333
144
0.0
144
0.0
144
0.0
144
0.0
144
0.0208333333333333
144
0.0
144
0.0
144
0.0
144
0.0
144
1.0
144
0.0
144
0.0
144
0.0
144
0.0
144
1.0
147
0.0208333333333333
147
0.0
147
0.0
147
0.0
147
0.0
147
0.0208333333333333
147
0.0
147
0.0
147
0.0
147
0.0
147
1.0
147
0.0
147
0.0
147
0.0
147
0.0
147
1.0
 94
      127
  0
MATERIAL
  5
AD6
102
{ACAD_REACTORS
330
1DC
102
}
330
1DC
100
AcDbMaterial
  1
Global
 72
     0
 43
0.0208333333333333
 43
0.0
 43
0.0
 43
0.0
 43
0.0
 43
0.0208333333333333
 43
0.0
 43
0.0
 43
0.0
 43
0.0
 43
1.0
 43
0.0
 43
0.0
 43
0.0
 43
0.0
 43
1.0
 77
     0
 47
0.0208333333333333
 47
0.0
 47
0.0
 47
0.0
 47
0.0
 47
0.0208333333333333
 47
0.0
 47
0.0
 47
0.0
 47
0.0
 47
1.0
 47
0.0
 47
0.0
 47
0.0
 47
0.0
 47
1.0
171
     0
 49
0.0208333333333333
 49
0.0
 49
0.0
 49
0.0
 49
0.0
 49
0.0208333333333333
 49
0.0
 49
0.0
 49
0.0
 49
0.0
 49
1.0
 49
0.0
 49
0.0
 49
0.0
 49
0.0
 49
1.0
175
     0
142
0.0208333333333333
142
0.0
142
0.0
142
0.0
142
0.0
142
0.0208333333333333
142
0.0
142
0.0
142
0.0
142
0.0
142
1.0
142
0.0
142
0.0
142
0.0
142
0.0
142
1.0
179
     0
144
0.0208333333333333
144
0.0
144
0.0
144
0.0
144
0.0
144
0.0208333333333333
144
0.0
144
0.0
144
0.0
144
0.0
144
1.0
144
0.0
144
0.0
144
0.0
144
0.0
144
1.0
147
0.0208333333333333
147
0.0
147
0.0
147
0.0
147
0.0
147
0.0208333333333333
147
0.0
147
0.0
147
0.0
147
0.0
147
1.0
147
0.0
147
0.0
147
0.0
147
0.0
147
1.0
 94
      127
  0
MLEADERSTYLE
  5
B14
102
{ACAD_REACTORS
330
B13
102
}
330
B13
100
AcDbMLeaderStyle
179
     2
170
     2
171
     1
172
     0
 90
        2
 40
0.0
 41
0.0
173
     1
 91
-1056964608
340
12
 92
       -2
290
     1
 42
0.09
291
     1
 43
0.36
  3
Standard
341
0
 44
0.18
300

342
F
174
     1
178
     6
175
     1
176
     0
 93
-1056964608
 45
0.18
292
     0
297
     0
 46
0.18
343
0
 94
-1056964608
 47
1.0
 49
1.0
140
1.0
293
     1
141
0.0
294
     1
177
     0
142
1.0
295
     0
296
     0
143
0.125
271
     0
272
     9
273
     9
298
     0
  0
MLINESTYLE
  5
1C
102
{ACAD_REACTORS
330
1B
102
}
330
1B
100
AcDbMlineStyle
  2
STANDARD
 70
     0
  3

 62
   256
 51
90.0
 52
90.0
 71
     2
 49
0.5
 62
   256
  6
BYLAYER
 49
-0.5
 62
   256
  6
BYLAYER
  0
ACDBPLACEHOLDER
  5
1DB
102
{ACAD_REACTORS
330
1DA
102
}
330
1DA
  0
SCALE
  5
AF2
102
{ACAD_REACTORS
330
AF1
102
}
330
AF1
100
AcDbScale
 70
     0
300
1:1
140
1.0
141
1.0
290
     1
  0
SCALE
  5
AF3
102
{ACAD_REACTORS
330
AF1
102
}
330
AF1
100
AcDbScale
 70
     0
300
1:2
140
1.0
141
2.0
290
     0
  0
SCALE
  5
AF4
102
{ACAD_REACTORS
330
AF1
102
}
330
AF1
100
AcDbScale
 70
     0
300
1:4
140
1.0
141
4.0
290
     0
  0
SCALE
  5
AF5
102
{ACAD_REACTORS
330
AF1
102
}
330
AF1
100
AcDbScale
 70
     0
300
1:5
140
1.0
141
5.0
290
     0
  0
SCALE
  5
AF6
102
{ACAD_REACTORS
330
AF1
102
}
330
AF1
100
AcDbScale
 70
     0
300
1:8
140
1.0
141
8.0
290
     0
  0
SCALE
  5
AF7
102
{ACAD_REACTORS
330
AF1
102
}
330
AF1
100
AcDbScale
 70
     0
300
1:10
140
1.0
141
10.0
290
     0
  0
SCALE
  5
AF8
102
{ACAD_REACTORS
330
AF1
102
}
330
AF1
100
AcDbScale
 70
     0
300
1:16
140
1.0
141
16.0
290
     0
  0
SCALE
  5
AF9
102
{ACAD_REACTORS
330
AF1
102
}
330
AF1
100
AcDbScale
 70
     0
300
1:20
140
1.0
141
20.0
290
     0
  0
SCALE
  5
AFA
102
{ACAD_REACTORS
330
AF1
102
}
330
AF1
100
AcDbScale
 70
     0
300
1:30
140
1.0
141
30.0
290
     0
  0
SCALE
  5
AFB
102
{ACAD_REACTORS
330
AF1
102
}
330
AF1
100
AcDbScale
 70
     0
300
1:40
140
1.0
141
40.0
290
     0
  0
SCALE
  5
AFC
102
{ACAD_REACTORS
330
AF1
102
}
330
AF1
100
AcDbScale
 70
     0
300
1:50
140
1.0
141
50.0
290
     0
  0
SCALE
  5
AFD
102
{ACAD_REACTORS
330
AF1
102
}
330
AF1
100
AcDbScale
 70
     0
300
1:100
140
1.0
141
100.0
290
     0
  0
SCALE
  5
AFE
102
{ACAD_REACTORS
330
AF1
102
}
330
AF1
100
AcDbScale
 70
     0
300
2:1
140
2.0
141
1.0
290
     0
  0
SCALE
  5
AFF
102
{ACAD_REACTORS
330
AF1
102
}
330
AF1
100
AcDbScale
 70
     0
300
4:1
140
4.0
141
1.0
290
     0
  0
SCALE
  5
B00
102
{ACAD_REACTORS
330
AF1
102
}
330
AF1
100
AcDbScale
 70
     0
300
8:1
140
8.0
141
1.0
290
     0
  0
SCALE
  5
B01
102
{ACAD_REACTORS
330
AF1
102
}
330
AF1
100
AcDbScale
 70
     0
300
10:1
140
10.0
141
1.0
290
     0
  0
SCALE
  5
B02
102
{ACAD_REACTORS
330
AF1
102
}
330
AF1
100
AcDbScale
 70
     0
300
100:1
140
100.0
141
1.0
290
     0
  0
SCALE
  5
B03
102
{ACAD_REACTORS
330
AF1
102
}
330
AF1
100
AcDbScale
 70
     0
300
1/128" = 1'-0"
140
0.0078125
141
12.0
290
     0
  0
SCALE
  5
B04
102
{ACAD_REACTORS
330
AF1
102
}
330
AF1
100
AcDbScale
 70
     0
300
1/64" = 1'-0"
140
0.015625
141
12.0
290
     0
  0
SCALE
  5
B05
102
{ACAD_REACTORS
330
AF1
102
}
330
AF1
100
AcDbScale
 70
     0
300
1/32" = 1'-0"
140
0.03125
141
12.0
290
     0
  0
SCALE
  5
B06
102
{ACAD_REACTORS
330
AF1
102
}
330
AF1
100
AcDbScale
 70
     0
300
1/16" = 1'-0"
140
0.0625
141
12.0
290
     0
  0
SCALE
  5
B07
102
{ACAD_REACTORS
330
AF1
102
}
330
AF1
100
AcDbScale
 70
     0
300
3/32" = 1'-0"
140
0.09375
141
12.0
290
     0
  0
SCALE
  5
B08
102
{ACAD_REACTORS
330
AF1
102
}
330
AF1
100
AcDbScale
 70
     0
300
1/8" = 1'-0"
140
0.125
141
12.0
290
     0
  0
SCALE
  5
B09
102
{ACAD_REACTORS
330
AF1
102
}
330
AF1
100
AcDbScale
 70
     0
300
3/16" = 1'-0"
140
0.1875
141
12.0
290
     0
  0
SCALE
  5
B0A
102
{ACAD_REACTORS
330
AF1
102
}
330
AF1
100
AcDbScale
 70
     0
300
1/4" = 1'-0"
140
0.25
141
12.0
290
     0
  0
SCALE
  5
B0B
102
{ACAD_REACTORS
330
AF1
102
}
330
AF1
100
AcDbScale
 70
     0
300
3/8" = 1'-0"
140
0.375
141
12.0
290
     0
  0
SCALE
  5
B0C
102
{ACAD_REACTORS
330
AF1
102
}
330
AF1
100
AcDbScale
 70
     0
300
1/2" = 1'-0"
140
0.5
141
12.0
290
     0
  0
SCALE
  5
B0D
102
{ACAD_REACTORS
330
AF1
102
}
330
AF1
100
AcDbScale
 70
     0
300
3/4" = 1'-0"
140
0.75
141
12.0
290
     0
  0
SCALE
  5
B0E
102
{ACAD_REACTORS
330
AF1
102
}
330
AF1
100
AcDbScale
 70
     0
300
1" = 1'-0"
140
1.0
141
12.0
290
     0
  0
SCALE
  5
B0F
102
{ACAD_REACTORS
330
AF1
102
}
330
AF1
100
AcDbScale
 70
     0
300
1-1/2" = 1'-0"
140
1.5
141
12.0
290
     0
  0
SCALE
  5
B10
102
{ACAD_REACTORS
330
AF1
102
}
330
AF1
100
AcDbScale
 70
     0
300
3" = 1'-0"
140
3.0
141
12.0
290
     0
  0
SCALE
  5
B11
102
{ACAD_REACTORS
330
AF1
102
}
330
AF1
100
AcDbScale
 70
     0
300
6" = 1'-0"
140
6.0
141
12.0
290
     0
  0
SCALE
  5
B12
102
{ACAD_REACTORS
330
AF1
102
}
330
AF1
100
AcDbScale
 70
     0
300
1'-0" = 1'-0"
140
12.0
141
12.0
290
     0
  0
TABLESTYLE
  5
AF0
102
{ACAD_REACTORS
330
AEF
102
}
102
{ACAD_XDICTIONARY
360
12A9
102
}
330
AEF
100
AcDbTableStyle
  3
Standard
 70
     0
 71
     0
 40
0.06
 41
0.06
280
     0
281
     0
  7
STANDARD
140
0.18
170
     2
 62
     0
 63
   257
283
     0
 90
      512
 91
        0
  1

274
    -2
284
     1
 64
     0
275
    -2
285
     1
 65
     0
276
    -2
286
     1
 66
     0
277
    -2
287
     1
 67
     0
278
    -2
288
     1
 68
     0
279
    -2
289
     1
 69
     0
  7
STANDARD
140
0.25
170
     5
 62
     0
 63
   257
283
     0
 90
      512
 91
        0
  1

274
    -2
284
     1
 64
     0
275
    -2
285
     1
 65
     0
276
    -2
286
     1
 66
     0
277
    -2
287
     1
 67
     0
278
    -2
288
     1
 68
     0
279
    -2
289
     1
 69
     0
  7
STANDARD
140
0.18
170
     5
 62
     0
 63
   257
283
     0
 90
      512
 91
        0
  1

274
    -2
284
     1
 64
     0
275
    -2
285
     1
 65
     0
276
    -2
286
     1
 66
     0
277
    -2
287
     1
 67
     0
278
    -2
288
     1
 68
     0
279
    -2
289
     1
 69
     0
  0
VISUALSTYLE
  5
AE4
102
{ACAD_REACTORS
330
ADE
102
}
330
ADE
100
AcDbVisualStyle
  2
2dWireframe
 70
     4
177
     3
291
     0
 70
    58
 90
        0
176
     1
 90
        2
176
     1
 90
        0
176
     1
 90
        0
176
     1
 40
-0.6
176
     1
 40
-30.0
176
     1
 62
     7
420
 16777215
176
     1
 90
        1
176
     1
 90
        4
176
     1
 62
     7
176
     1
 62
   257
176
     1
 90
        1
176
     1
 90
        1
176
     1
 40
1.0
176
     1
 90
        0
176
     1
 62
   257
176
     1
 40
1.0
176
     1
 90
        1
176
     1
 90
        6
176
     1
 90
        2
176
     1
 62
     7
176
     1
 90
        5
176
     1
 90
        0
176
     1
 90
        0
176
     1
290
     0
176
     1
 90
        1
176
     1
 40
0.0
176
     1
 90
        0
176
     1
290
     1
176
     1
290
     1
176
     1
290
     0
176
     1
290
     0
176
     1
290
     0
176
     1
290
     0
176
     1
290
     0
176
     1
290
     0
176
     1
290
     0
176
     1
 90
       50
176
     1
 40
0.0
176
     1
 40
1.0
176
     1
 90
        0
176
     1
 62
    18
420
        0
176
     1
 90
       50
176
     1
 90
        3
176
     1
 62
     5
420
      255
176
     1
290
     0
176
     1
 90
       50
176
     1
 90
       50
176
     1
 90
       50
176
     1
290
     0
176
     1
 90
       50
176
     1
 62
   256
176
     0
 40
1.0
176
     0
 90
        2
176
     1
  1
strokes_ogs.tif
176
     1
290
     0
176
     1
 40
1.0
176
     1
 40
1.0
176
     1
  0
VISUALSTYLE
  5
AE6
102
{ACAD_REACTORS
330
ADE
102
}
330
ADE
100
AcDbVisualStyle
  2
3D Hidden
 70
     6
177
     3
291
     0
 70
    58
 90
        1
176
     1
 90
        2
176
     1
 90
        2
176
     1
 90
        0
176
     1
 40
-0.6
176
     1
 40
-30.0
176
     1
 62
     7
420
 16777215
176
     1
 90
        2
176
     1
 90
        2
176
     1
 62
     7
176
     1
 62
   257
176
     1
 90
        2
176
     1
 90
        1
176
     1
 40
40.0
176
     1
 90
        0
176
     1
 62
   257
176
     1
 40
1.0
176
     1
 90
        1
176
     1
 90
        6
176
     1
 90
        2
176
     1
 62
     7
176
     1
 90
        3
176
     1
 90
        0
176
     1
 90
        0
176
     1
290
     0
176
     1
 90
        1
176
     1
 40
0.0
176
     1
 90
        0
176
     1
290
     0
176
     1
290
     1
176
     1
290
     1
176
     1
290
     0
176
     1
290
     0
176
     1
290
     0
176
     1
290
     0
176
     1
290
     0
176
     1
290
     0
176
     1
 90
       50
176
     1
 40
0.0
176
     1
 40
1.0
176
     1
 90
        0
176
     1
 62
    18
420
        0
176
     1
 90
       50
176
     1
 90
        3
176
     1
 62
     5
420
      255
176
     1
290
     0
176
     1
 90
       50
176
     1
 90
       50
176
     1
 90
       50
176
     1
290
     0
176
     1
 90
       50
176
     1
 62
   256
176
     0
 40
1.0
176
     0
 90
        2
176
     1
  1
strokes_ogs.tif
176
     1
290
     0
176
     1
 40
1.0
176
     1
 40
1.0
176
     1
  0
VISUALSTYLE
  5
AE5
102
{ACAD_REACTORS
330
ADE
102
}
330
ADE
100
AcDbVisualStyle
  2
3dWireframe
 70
     5
177
     3
291
     0
 70
    58
 90
        0
176
     1
 90
        2
176
     1
 90
        0
176
     1
 90
        0
176
     1
 40
-0.6
176
     1
 40
-30.0
176
     1
 62
     7
420
 16777215
176
     1
 90
        1
176
     1
 90
        4
176
     1
 62
     7
176
     1
 62
   257
176
     1
 90
        1
176
     1
 90
        1
176
     1
 40
1.0
176
     1
 90
        0
176
     1
 62
   257
176
     1
 40
1.0
176
     1
 90
        1
176
     1
 90
        6
176
     1
 90
        2
176
     1
 62
     7
176
     1
 90
        5
176
     1
 90
        0
176
     1
 90
        0
176
     1
290
     0
176
     1
 90
        1
176
     1
 40
0.0
176
     1
 90
        0
176
     1
290
     0
176
     1
290
     1
176
     1
290
     1
176
     1
290
     0
176
     1
290
     0
176
     1
290
     0
176
     1
290
     0
176
     1
290
     0
176
     1
290
     0
176
     1
 90
       50
176
     1
 40
0.0
176
     1
 40
1.0
176
     1
 90
        0
176
     1
 62
    18
420
        0
176
     1
 90
       50
176
     1
 90
        3
176
     1
 62
     5
420
      255
176
     1
290
     0
176
     1
 90
       50
176
     1
 90
       50
176
     1
 90
       50
176
     1
290
     0
176
     1
 90
       50
176
     1
 62
   256
176
     0
 40
1.0
176
     0
 90
        2
176
     1
  1
strokes_ogs.tif
176
     1
290
     0
176
     1
 40
1.0
176
     1
 40
1.0
176
     1
  0
VISUALSTYLE
  5
AE3
102
{ACAD_REACTORS
330
ADE
102
}
330
ADE
100
AcDbVisualStyle
  2
Basic
 70
     7
177
     3
291
     1
 70
    58
 90
        1
176
     1
 90
        0
176
     1
 90
        1
176
     1
 90
        0
176
     1
 40
-0.6
176
     1
 40
-30.0
176
     1
 62
     7
420
 16777215
176
     1
 90
        0
176
     1
 90
        4
176
     1
 62
     7
176
     1
 62
   257
176
     1
 90
        1
176
     1
 90
        1
176
     1
 40
1.0
176
     1
 90
        8
176
     1
 62
     7
176
     1
 40
1.0
176
     1
 90
        1
176
     1
 90
        6
176
     1
 90
        2
176
     1
 62
     7
176
     1
 90
        5
176
     1
 90
        0
176
     1
 90
        0
176
     1
290
     0
176
     1
 90
        1
176
     1
 40
0.0
176
     1
 90
        0
176
     1
290
     0
176
     1
290
     1
176
     1
290
     1
176
     1
290
     0
176
     1
290
     0
176
     1
290
     0
176
     1
290
     0
176
     1
290
     0
176
     1
290
     0
176
     1
 90
       50
176
     1
 40
0.0
176
     1
 40
1.0
176
     1
 90
        0
176
     1
 62
    18
420
        0
176
     1
 90
       50
176
     1
 90
        3
176
     1
 62
     5
420
      255
176
     1
290
     0
176
     1
 90
       50
176
     1
 90
       50
176
     1
 90
       50
176
     1
290
     0
176
     1
 90
       50
176
     1
 62
   256
176
     0
 40
1.0
176
     0
 90
        2
176
     1
  1
strokes_ogs.tif
176
     1
290
     0
176
     1
 40
1.0
176
     1
 40
1.0
176
     1
  0
VISUALSTYLE
  5
AEA
102
{ACAD_REACTORS
330
ADE
102
}
330
ADE
100
AcDbVisualStyle
  2
Brighten
 70
    12
177
     3
291
     1
 70
    58
 90
        2
176
     1
 90
        2
176
     1
 90
        0
176
     1
 90
        0
176
     1
 40
-0.6
176
     1
 40
-30.0
176
     1
 62
     7
420
 16777215
176
     1
 90
        1
176
     1
 90
        4
176
     1
 62
     7
176
     1
 62
   257
176
     1
 90
        1
176
     1
 90
        1
176
     1
 40
1.0
176
     1
 90
        8
176
     1
 62
     7
176
     1
 40
1.0
176
     1
 90
        1
176
     1
 90
        6
176
     1
 90
        2
176
     1
 62
     7
176
     1
 90
        5
176
     1
 90
        0
176
     1
 90
        0
176
     1
290
     0
176
     1
 90
        1
176
     1
 40
50.0
176
     1
 90
        0
176
     1
290
     0
176
     1
290
     1
176
     1
290
     1
176
     1
290
     0
176
     1
290
     0
176
     1
290
     0
176
     1
290
     0
176
     1
290
     0
176
     1
290
     0
176
     1
 90
       50
176
     1
 40
0.0
176
     1
 40
1.0
176
     1
 90
        0
176
     1
 62
    18
420
        0
176
     1
 90
       50
176
     1
 90
        3
176
     1
 62
     5
420
      255
176
     1
290
     0
176
     1
 90
       50
176
     1
 90
       50
176
     1
 90
       50
176
     1
290
     0
176
     1
 90
       50
176
     1
 62
   256
176
     0
 40
1.0
176
     0
 90
        2
176
     1
  1
strokes_ogs.tif
176
     1
290
     0
176
     1
 40
1.0
176
     1
 40
1.0
176
     1
  0
VISUALSTYLE
  5
AEE
102
{ACAD_REACTORS
330
ADE
102
}
330
ADE
100
AcDbVisualStyle
  2
ColorChange
 70
    16
177
     3
291
     1
 70
    58
 90
        2
176
     1
 90
        2
176
     1
 90
        3
176
     1
 90
        0
176
     1
 40
-0.6
176
     1
 40
-30.0
176
     1
 62
     8
420
  8421504
176
     1
 90
        1
176
     1
 90
        4
176
     1
 62
     7
176
     1
 62
   257
176
     1
 90
        1
176
     1
 90
        1
176
     1
 40
1.0
176
     1
 90
        8
176
     1
 62
     8
420
  8421504
176
     1
 40
1.0
176
     1
 90
        1
176
     1
 90
        6
176
     1
 90
        2
176
     1
 62
     7
176
     1
 90
        5
176
     1
 90
        0
176
     1
 90
        0
176
     1
290
     0
176
     1
 90
        1
176
     1
 40
0.0
176
     1
 90
        0
176
     1
290
     0
176
     1
290
     1
176
     1
290
     1
176
     1
290
     0
176
     1
290
     0
176
     1
290
     0
176
     1
290
     0
176
     1
290
     0
176
     1
290
     0
176
     1
 90
       50
176
     1
 40
0.0
176
     1
 40
1.0
176
     1
 90
        0
176
     1
 62
    18
420
        0
176
     1
 90
       50
176
     1
 90
        3
176
     1
 62
     5
420
      255
176
     1
290
     0
176
     1
 90
       50
176
     1
 90
       50
176
     1
 90
       50
176
     1
290
     0
176
     1
 90
       50
176
     1
 62
   256
176
     0
 40
1.0
176
     0
 90
        2
176
     1
  1
strokes_ogs.tif
176
     1
290
     0
176
     1
 40
1.0
176
     1
 40
1.0
176
     1
  0
VISUALSTYLE
  5
AE7
102
{ACAD_REACTORS
330
ADE
102
}
330
ADE
100
AcDbVisualStyle
  2
Conceptual
 70
     9
177
     3
291
     0
 70
    58
 90
        3
176
     1
 90
        2
176
     1
 90
        0
176
     1
 90
        0
176
     1
 40
-0.6
176
     1
 40
-30.0
176
     1
 62
     7
420
 16777215
176
     1
 90
        2
176
     1
 90
        2
176
     1
 62
     7
176
     1
 62
   257
176
     1
 90
        1
176
     1
 90
        1
176
     1
 40
40.0
176
     1
 90
        8
176
     1
 62
     7
176
     1
 40
1.0
176
     1
 90
        1
176
     1
 90
        6
176
     1
 90
        2
176
     1
 62
     7
176
     1
 90
        3
176
     1
 90
        0
176
     1
 90
        0
176
     1
290
     0
176
     1
 90
        1
176
     1
 40
0.0
176
     1
 90
        0
176
     1
290
     0
176
     1
290
     1
176
     1
290
     1
176
     1
290
     0
176
     1
290
     0
176
     1
290
     0
176
     1
290
     0
176
     1
290
     0
176
     1
290
     0
176
     1
 90
       50
176
     1
 40
0.0
176
     1
 40
1.0
176
     1
 90
        0
176
     1
 62
    18
420
        0
176
     1
 90
       50
176
     1
 90
        3
176
     1
 62
     5
420
      255
176
     1
290
     0
176
     1
 90
       50
176
     1
 90
       50
176
     1
 90
       50
176
     1
290
     0
176
     1
 90
       50
176
     1
 62
   256
176
     0
 40
1.0
176
     0
 90
        2
176
     1
  1
strokes_ogs.tif
176
     1
290
     0
176
     1
 40
1.0
176
     1
 40
1.0
176
     1
  0
VISUALSTYLE
  5
AE9
102
{ACAD_REACTORS
330
ADE
102
}
330
ADE
100
AcDbVisualStyle
  2
Dim
 70
    11
177
     3
291
     1
 70
    58
 90
        2
176
     1
 90
        2
176
     1
 90
        0
176
     1
 90
        0
176
     1
 40
-0.6
176
     1
 40
-30.0
176
     1
 62
     7
420
 16777215
176
     1
 90
        1
176
     1
 90
        4
176
     1
 62
     7
176
     1
 62
   257
176
     1
 90
        1
176
     1
 90
        1
176
     1
 40
1.0
176
     1
 90
        8
176
     1
 62
     7
176
     1
 40
1.0
176
     1
 90
        1
176
     1
 90
        6
176
     1
 90
        2
176
     1
 62
     7
176
     1
 90
        5
176
     1
 90
        0
176
     1
 90
        0
176
     1
290
     0
176
     1
 90
        1
176
     1
 40
-50.0
176
     1
 90
        0
176
     1
290
     0
176
     1
290
     1
176
     1
290
     1
176
     1
290
     0
176
     1
290
     0
176
     1
290
     0
176
     1
290
     0
176
     1
290
     0
176
     1
290
     0
176
     1
 90
       50
176
     1
 40
0.0
176
     1
 40
1.0
176
     1
 90
        0
176
     1
 62
    18
420
        0
176
     1
 90
       50
176
     1
 90
        3
176
     1
 62
     5
420
      255
176
     1
290
     0
176
     1
 90
       50
176
     1
 90
       50
176
     1
 90
       50
176
     1
290
     0
176
     1
 90
       50
176
     1
 62
   256
176
     0
 40
1.0
176
     0
 90
        2
176
     1
  1
strokes_ogs.tif
176
     1
290
     0
176
     1
 40
1.0
176
     1
 40
1.0
176
     1
  0
VISUALSTYLE
  5
11A8
102
{ACAD_REACTORS
330
ADE
102
}
330
ADE
100
AcDbVisualStyle
  2
EdgeColorOff
 70
    22
177
     3
291
     1
 70
    58
 90
        2
176
     0
 90
        2
176
     0
 90
        0
176
     0
 90
        0
176
     0
 40
0.6
176
     0
 40
30.0
176
     0
 62
     7
420
 16777215
176
     0
 90
        1
176
     0
 90
        4
176
     0
 62
     7
176
     0
 62
   257
176
     0
 90
        1
176
     0
 90
        1
176
     0
 40
1.0
176
     0
 90
        8
176
     2
 62
     7
176
     0
 40
1.0
176
     0
 90
        1
176
     0
 90
        6
176
     0
 90
        2
176
     0
 62
     7
176
     0
 90
        5
176
     0
 90
        0
176
     0
 90
        0
176
     0
290
     0
176
     0
 90
        1
176
     0
 40
0.0
176
     0
 90
        0
176
     0
290
     0
176
     0
290
     1
176
     0
290
     1
176
     0
290
     0
176
     0
290
     0
176
     0
290
     0
176
     0
290
     0
176
     0
290
     0
176
     0
290
     0
176
     0
 90
       50
176
     0
 40
0.0
176
     0
 40
1.0
176
     0
 90
        0
176
     0
 62
    18
420
        0
176
     0
 90
       50
176
     0
 90
        3
176
     0
 62
     5
420
      255
176
     0
290
     0
176
     0
 90
       50
176
     0
 90
       50
176
     0
 90
       50
176
     0
290
     0
176
     0
 90
       50
176
     0
 62
   256
176
     0
 40
1.0
176
     0
 90
        2
176
     0
  1
strokes_ogs.tif
176
     0
290
     0
176
     0
 40
1.0
176
     0
 40
1.0
176
     0
  0
VISUALSTYLE
  5
AED
102
{ACAD_REACTORS
330
ADE
102
}
330
ADE
100
AcDbVisualStyle
  2
Facepattern
 70
    15
177
     3
291
     1
 70
    58
 90
        2
176
     1
 90
        2
176
     1
 90
        0
176
     1
 90
        0
176
     1
 40
-0.6
176
     1
 40
-30.0
176
     1
 62
     7
420
 16777215
176
     1
 90
        1
176
     1
 90
        4
176
     1
 62
     7
176
     1
 62
   257
176
     1
 90
        1
176
     1
 90
        1
176
     1
 40
1.0
176
     1
 90
        8
176
     1
 62
     7
176
     1
 40
1.0
176
     1
 90
        1
176
     1
 90
        6
176
     1
 90
        2
176
     1
 62
     7
176
     1
 90
        5
176
     1
 90
        0
176
     1
 90
        0
176
     1
290
     0
176
     1
 90
        1
176
     1
 40
0.0
176
     1
 90
        0
176
     1
290
     0
176
     1
290
     1
176
     1
290
     1
176
     1
290
     0
176
     1
290
     0
176
     1
290
     0
176
     1
290
     0
176
     1
290
     0
176
     1
290
     0
176
     1
 90
       50
176
     1
 40
0.0
176
     1
 40
1.0
176
     1
 90
        0
176
     1
 62
    18
420
        0
176
     1
 90
       50
176
     1
 90
        3
176
     1
 62
     5
420
      255
176
     1
290
     0
176
     1
 90
       50
176
     1
 90
       50
176
     1
 90
       50
176
     1
290
     0
176
     1
 90
       50
176
     1
 62
   256
176
     0
 40
1.0
176
     0
 90
        2
176
     1
  1
strokes_ogs.tif
176
     1
290
     0
176
     1
 40
1.0
176
     1
 40
1.0
176
     1
  0
VISUALSTYLE
  5
ADF
102
{ACAD_REACTORS
330
ADE
102
}
330
ADE
100
AcDbVisualStyle
  2
Flat
 70
     0
177
     3
291
     1
 70
    58
 90
        2
176
     1
 90
        1
176
     1
 90
        1
176
     1
 90
        2
176
     1
 40
-0.6
176
     1
 40
30.0
176
     1
 62
     7
420
 16777215
176
     1
 90
        0
176
     1
 90
        4
176
     1
 62
     7
176
     1
 62
   257
176
     1
 90
        1
176
     1
 90
        1
176
     1
 40
1.0
176
     1
 90
        8
176
     1
 62
     7
176
     1
 40
1.0
176
     1
 90
        1
176
     1
 90
        6
176
     1
 90
        2
176
     1
 62
     7
176
     1
 90
        5
176
     1
 90
        0
176
     1
 90
        0
176
     1
290
     0
176
     1
 90
       13
176
     1
 40
0.0
176
     1
 90
        0
176
     1
290
     0
176
     1
290
     1
176
     1
290
     1
176
     1
290
     0
176
     1
290
     0
176
     1
290
     0
176
     1
290
     0
176
     1
290
     0
176
     1
290
     0
176
     1
 90
       50
176
     1
 40
0.0
176
     1
 40
1.0
176
     1
 90
        0
176
     1
 62
    18
420
        0
176
     1
 90
       50
176
     1
 90
        3
176
     1
 62
     5
420
      255
176
     1
290
     0
176
     1
 90
       50
176
     1
 90
       50
176
     1
 90
       50
176
     1
290
     0
176
     1
 90
       50
176
     1
 62
   256
176
     0
 40
1.0
176
     0
 90
        2
176
     1
  1
strokes_ogs.tif
176
     1
290
     0
176
     1
 40
1.0
176
     1
 40
1.0
176
     1
  0
VISUALSTYLE
  5
AE0
102
{ACAD_REACTORS
330
ADE
102
}
330
ADE
100
AcDbVisualStyle
  2
FlatWithEdges
 70
     1
177
     3
291
     1
 70
    58
 90
        2
176
     1
 90
        1
176
     1
 90
        1
176
     1
 90
        2
176
     1
 40
-0.6
176
     1
 40
30.0
176
     1
 62
     7
420
 16777215
176
     1
 90
        1
176
     1
 90
        4
176
     1
 62
     7
176
     1
 62
   257
176
     1
 90
        1
176
     1
 90
        1
176
     1
 40
1.0
176
     1
 90
        0
176
     1
 62
   257
176
     1
 40
1.0
176
     1
 90
        1
176
     1
 90
        6
176
     1
 90
        2
176
     1
 62
     7
176
     1
 90
        5
176
     1
 90
        0
176
     1
 90
        0
176
     1
290
     0
176
     1
 90
       13
176
     1
 40
0.0
176
     1
 90
        0
176
     1
290
     0
176
     1
290
     1
176
     1
290
     1
176
     1
290
     0
176
     1
290
     0
176
     1
290
     0
176
     1
290
     0
176
     1
290
     0
176
     1
290
     0
176
     1
 90
       50
176
     1
 40
0.0
176
     1
 40
1.0
176
     1
 90
        0
176
     1
 62
    18
420
        0
176
     1
 90
       50
176
     1
 90
        3
176
     1
 62
     5
420
      255
176
     1
290
     0
176
     1
 90
       50
176
     1
 90
       50
176
     1
 90
       50
176
     1
290
     0
176
     1
 90
       50
176
     1
 62
   256
176
     0
 40
1.0
176
     0
 90
        2
176
     1
  1
strokes_ogs.tif
176
     1
290
     0
176
     1
 40
1.0
176
     1
 40
1.0
176
     1
  0
VISUALSTYLE
  5
AE1
102
{ACAD_REACTORS
330
ADE
102
}
330
ADE
100
AcDbVisualStyle
  2
Gouraud
 70
     2
177
     3
291
     1
 70
    58
 90
        2
176
     1
 90
        2
176
     1
 90
        1
176
     1
 90
        2
176
     1
 40
-0.6
176
     1
 40
30.0
176
     1
 62
     7
420
 16777215
176
     1
 90
        0
176
     1
 90
        4
176
     1
 62
     7
176
     1
 62
   257
176
     1
 90
        1
176
     1
 90
        1
176
     1
 40
1.0
176
     1
 90
        0
176
     1
 62
     7
176
     1
 40
1.0
176
     1
 90
        1
176
     1
 90
        6
176
     1
 90
        2
176
     1
 62
     7
176
     1
 90
        5
176
     1
 90
        0
176
     1
 90
        0
176
     1
290
     0
176
     1
 90
       13
176
     1
 40
0.0
176
     1
 90
        0
176
     1
290
     0
176
     1
290
     1
176
     1
290
     1
176
     1
290
     0
176
     1
290
     0
176
     1
290
     0
176
     1
290
     0
176
     1
290
     0
176
     1
290
     0
176
     1
 90
       50
176
     1
 40
0.0
176
     1
 40
1.0
176
     1
 90
        0
176
     1
 62
    18
420
        0
176
     1
 90
       50
176
     1
 90
        3
176
     1
 62
     5
420
      255
176
     1
290
     0
176
     1
 90
       50
176
     1
 90
       50
176
     1
 90
       50
176
     1
290
     0
176
     1
 90
       50
176
     1
 62
   256
176
     0
 40
1.0
176
     0
 90
        2
176
     1
  1
strokes_ogs.tif
176
     1
290
     0
176
     1
 40
1.0
176
     1
 40
1.0
176
     1
  0
VISUALSTYLE
  5
AE2
102
{ACAD_REACTORS
330
ADE
102
}
330
ADE
100
AcDbVisualStyle
  2
GouraudWithEdges
 70
     3
177
     3
291
     1
 70
    58
 90
        2
176
     1
 90
        2
176
     1
 90
        1
176
     1
 90
        2
176
     1
 40
-0.6
176
     1
 40
30.0
176
     1
 62
     7
420
 16777215
176
     1
 90
        1
176
     1
 90
        4
176
     1
 62
     7
176
     1
 62
   257
176
     1
 90
        1
176
     1
 90
        1
176
     1
 40
1.0
176
     1
 90
        0
176
     1
 62
   257
176
     1
 40
1.0
176
     1
 90
        1
176
     1
 90
        6
176
     1
 90
        2
176
     1
 62
     7
176
     1
 90
        5
176
     1
 90
        0
176
     1
 90
        0
176
     1
290
     0
176
     1
 90
       13
176
     1
 40
0.0
176
     1
 90
        0
176
     1
290
     0
176
     1
290
     1
176
     1
290
     1
176
     1
290
     0
176
     1
290
     0
176
     1
290
     0
176
     1
290
     0
176
     1
290
     0
176
     1
290
     0
176
     1
 90
       50
176
     1
 40
0.0
176
     1
 40
1.0
176
     1
 90
        0
176
     1
 62
    18
420
        0
176
     1
 90
       50
176
     1
 90
        3
176
     1
 62
     5
420
      255
176
     1
290
     0
176
     1
 90
       50
176
     1
 90
       50
176
     1
 90
       50
176
     1
290
     0
176
     1
 90
       50
176
     1
 62
   256
176
     0
 40
1.0
176
     0
 90
        2
176
     1
  1
strokes_ogs.tif
176
     1
290
     0
176
     1
 40
1.0
176
     1
 40
1.0
176
     1
  0
VISUALSTYLE
  5
11A5
102
{ACAD_REACTORS
330
ADE
102
}
330
ADE
100
AcDbVisualStyle
  2
Hidden
 70
     6
177
     3
291
     0
 70
    58
 90
        1
176
     1
 90
        2
176
     1
 90
        2
176
     1
 90
        0
176
     1
 40
0.6
176
     1
 40
30.0
176
     1
 62
     7
420
 16777215
176
     1
 90
        2
176
     1
 90
        2
176
     1
 62
     7
176
     1
 62
   257
176
     1
 90
        2
176
     1
 90
        1
176
     1
 40
40.0
176
     1
 90
        0
176
     1
 62
   257
176
     1
 40
1.0
176
     1
 90
        1
176
     1
 90
        6
176
     1
 90
        2
176
     1
 62
     7
176
     1
 90
        3
176
     1
 90
        0
176
     1
 90
        0
176
     1
290
     0
176
     1
 90
        1
176
     1
 40
0.0
176
     1
 90
        0
176
     1
290
     0
176
     1
290
     1
176
     1
290
     1
176
     1
290
     0
176
     1
290
     0
176
     1
290
     0
176
     1
290
     0
176
     1
290
     0
176
     1
290
     0
176
     1
 90
       50
176
     1
 40
0.0
176
     1
 40
1.0
176
     1
 90
        0
176
     1
 62
    18
420
        0
176
     1
 90
       50
176
     1
 90
        3
176
     1
 62
     5
420
      255
176
     1
290
     0
176
     1
 90
       50
176
     1
 90
       50
176
     1
 90
       50
176
     1
290
     0
176
     1
 90
       50
176
     1
 62
   256
176
     0
 40
1.0
176
     0
 90
        2
176
     1
  1
strokes_ogs.tif
176
     1
290
     0
176
     1
 40
1.0
176
     1
 40
1.0
176
     1
  0
VISUALSTYLE
  5
11A6
102
{ACAD_REACTORS
330
ADE
102
}
330
ADE
100
AcDbVisualStyle
  2
JitterOff
 70
    20
177
     3
291
     1
 70
    58
 90
        2
176
     0
 90
        2
176
     0
 90
        0
176
     0
 90
        0
176
     0
 40
0.6
176
     0
 40
30.0
176
     0
 62
     7
420
 16777215
176
     0
 90
        1
176
     0
 90
        4
176
     0
 62
     7
176
     0
 62
   257
176
     0
 90
        1
176
     0
 90
        1
176
     0
 40
1.0
176
     0
 90
       10
176
     2
 62
     7
176
     0
 40
1.0
176
     0
 90
        1
176
     0
 90
        6
176
     0
 90
        2
176
     0
 62
     7
176
     0
 90
        5
176
     0
 90
        0
176
     0
 90
        0
176
     0
290
     0
176
     0
 90
        1
176
     0
 40
0.0
176
     0
 90
        0
176
     0
290
     0
176
     0
290
     1
176
     0
290
     1
176
     0
290
     0
176
     0
290
     0
176
     0
290
     0
176
     0
290
     0
176
     0
290
     0
176
     0
290
     0
176
     0
 90
       50
176
     0
 40
0.0
176
     0
 40
1.0
176
     0
 90
        0
176
     0
 62
    18
420
        0
176
     0
 90
       50
176
     0
 90
        3
176
     0
 62
     5
420
      255
176
     0
290
     0
176
     0
 90
       50
176
     0
 90
       50
176
     0
 90
       50
176
     0
290
     0
176
     0
 90
       50
176
     0
 62
   256
176
     0
 40
1.0
176
     0
 90
        2
176
     0
  1
strokes_ogs.tif
176
     0
290
     0
176
     0
 40
1.0
176
     0
 40
1.0
176
     0
  0
VISUALSTYLE
  5
AEC
102
{ACAD_REACTORS
330
ADE
102
}
330
ADE
100
AcDbVisualStyle
  2
Linepattern
 70
    14
177
     3
291
     1
 70
    58
 90
        2
176
     1
 90
        2
176
     1
 90
        0
176
     1
 90
        0
176
     1
 40
-0.6
176
     1
 40
-30.0
176
     1
 62
     7
420
 16777215
176
     1
 90
        1
176
     1
 90
        4
176
     1
 62
     7
176
     1
 62
   257
176
     1
 90
        7
176
     1
 90
        7
176
     1
 40
1.0
176
     1
 90
        8
176
     1
 62
     7
176
     1
 40
1.0
176
     1
 90
        1
176
     1
 90
        6
176
     1
 90
        2
176
     1
 62
     7
176
     1
 90
        5
176
     1
 90
        0
176
     1
 90
        0
176
     1
290
     0
176
     1
 90
        1
176
     1
 40
0.0
176
     1
 90
        0
176
     1
290
     0
176
     1
290
     1
176
     1
290
     1
176
     1
290
     0
176
     1
290
     0
176
     1
290
     0
176
     1
290
     0
176
     1
290
     0
176
     1
290
     0
176
     1
 90
       50
176
     1
 40
0.0
176
     1
 40
1.0
176
     1
 90
        0
176
     1
 62
    18
420
        0
176
     1
 90
       50
176
     1
 90
        3
176
     1
 62
     5
420
      255
176
     1
290
     0
176
     1
 90
       50
176
     1
 90
       50
176
     1
 90
       50
176
     1
290
     0
176
     1
 90
       50
176
     1
 62
   256
176
     0
 40
1.0
176
     0
 90
        2
176
     1
  1
strokes_ogs.tif
176
     1
290
     0
176
     1
 40
1.0
176
     1
 40
1.0
176
     1
  0
VISUALSTYLE
  5
11A7
102
{ACAD_REACTORS
330
ADE
102
}
330
ADE
100
AcDbVisualStyle
  2
OverhangOff
 70
    21
177
     3
291
     1
 70
    58
 90
        2
176
     0
 90
        2
176
     0
 90
        0
176
     0
 90
        0
176
     0
 40
0.6
176
     0
 40
30.0
176
     0
 62
     7
420
 16777215
176
     0
 90
        1
176
     0
 90
        4
176
     0
 62
     7
176
     0
 62
   257
176
     0
 90
        1
176
     0
 90
        1
176
     0
 40
1.0
176
     0
 90
        9
176
     2
 62
     7
176
     0
 40
1.0
176
     0
 90
        1
176
     0
 90
        6
176
     0
 90
        2
176
     0
 62
     7
176
     0
 90
        5
176
     0
 90
        0
176
     0
 90
        0
176
     0
290
     0
176
     0
 90
        1
176
     0
 40
0.0
176
     0
 90
        0
176
     0
290
     0
176
     0
290
     1
176
     0
290
     1
176
     0
290
     0
176
     0
290
     0
176
     0
290
     0
176
     0
290
     0
176
     0
290
     0
176
     0
290
     0
176
     0
 90
       50
176
     0
 40
0.0
176
     0
 40
1.0
176
     0
 90
        0
176
     0
 62
    18
420
        0
176
     0
 90
       50
176
     0
 90
        3
176
     0
 62
     5
420
      255
176
     0
290
     0
176
     0
 90
       50
176
     0
 90
       50
176
     0
 90
       50
176
     0
290
     0
176
     0
 90
       50
176
     0
 62
   256
176
     0
 40
1.0
176
     0
 90
        2
176
     0
  1
strokes_ogs.tif
176
     0
290
     0
176
     0
 40
1.0
176
     0
 40
1.0
176
     0
  0
VISUALSTYLE
  5
AE8
102
{ACAD_REACTORS
330
ADE
102
}
330
ADE
100
AcDbVisualStyle
  2
Realistic
 70
     8
177
     3
291
     0
 70
    58
 90
        2
176
     1
 90
        2
176
     1
 90
        0
176
     1
 90
        0
176
     1
 40
-0.6
176
     1
 40
-30.0
176
     1
 62
     7
420
 16777215
176
     1
 90
        1
176
     1
 90
        0
176
     1
 62
     7
176
     1
 62
   257
176
     1
 90
        1
176
     1
 90
        1
176
     1
 40
1.0
176
     1
 90
        8
176
     1
 62
     8
420
  7895160
176
     1
 40
1.0
176
     1
 90
        1
176
     1
 90
        6
176
     1
 90
        2
176
     1
 62
     7
176
     1
 90
        5
176
     1
 90
        0
176
     1
 90
        0
176
     1
290
     0
176
     1
 90
       13
176
     1
 40
0.0
176
     1
 90
        0
176
     1
290
     0
176
     1
290
     1
176
     1
290
     1
176
     1
290
     0
176
     1
290
     0
176
     1
290
     0
176
     1
290
     0
176
     1
290
     0
176
     1
290
     0
176
     1
 90
       50
176
     1
 40
0.0
176
     1
 40
1.0
176
     1
 90
        0
176
     1
 62
    18
420
        0
176
     1
 90
       50
176
     1
 90
        3
176
     1
 62
     5
420
      255
176
     1
290
     0
176
     1
 90
       50
176
     1
 90
       50
176
     1
 90
       50
176
     1
290
     0
176
     1
 90
       50
176
     1
 62
   256
176
     0
 40
1.0
176
     0
 90
        2
176
     1
  1
strokes_ogs.tif
176
     1
290
     0
176
     1
 40
1.0
176
     1
 40
1.0
176
     1
  0
VISUALSTYLE
  5
11AD
102
{ACAD_REACTORS
330
ADE
102
}
330
ADE
100
AcDbVisualStyle
  2
Shaded
 70
    27
177
     3
291
     0
 70
    58
 90
        2
176
     1
 90
        2
176
     1
 90
        1
176
     1
 90
        2
176
     1
 40
0.6
176
     1
 40
30.0
176
     1
 62
     7
420
 16777215
176
     1
 90
        0
176
     1
 90
        4
176
     1
 62
     7
176
     1
 62
   257
176
     1
 90
        1
176
     1
 90
        1
176
     1
 40
1.0
176
     1
 90
        8
176
     1
 62
   257
176
     1
 40
1.0
176
     1
 90
        1
176
     1
 90
        6
176
     1
 90
        2
176
     1
 62
     8
420
  7895160
176
     1
 90
        3
176
     1
 90
        0
176
     1
 90
        0
176
     1
290
     0
176
     1
 90
        5
176
     1
 40
0.0
176
     1
 90
        0
176
     1
290
     0
176
     1
290
     1
176
     1
290
     1
176
     1
290
     0
176
     1
290
     0
176
     1
290
     0
176
     1
290
     0
176
     1
290
     0
176
     1
290
     0
176
     1
 90
       50
176
     1
 40
0.0
176
     1
 40
1.0
176
     1
 90
        0
176
     1
 62
    18
420
        0
176
     1
 90
       50
176
     1
 90
        3
176
     1
 62
     5
420
      255
176
     1
290
     0
176
     1
 90
       50
176
     1
 90
       50
176
     1
 90
       50
176
     1
290
     0
176
     1
 90
       50
176
     1
 62
   256
176
     0
 40
1.0
176
     0
 90
        2
176
     1
  1
strokes_ogs.tif
176
     1
290
     0
176
     1
 40
1.0
176
     1
 40
1.0
176
     1
  0
VISUALSTYLE
  5
11AC
102
{ACAD_REACTORS
330
ADE
102
}
330
ADE
100
AcDbVisualStyle
  2
Shaded with edges
 70
    26
177
     3
291
     0
 70
    58
 90
        2
176
     1
 90
        2
176
     1
 90
        1
176
     1
 90
        2
176
     1
 40
0.6
176
     1
 40
30.0
176
     1
 62
     7
420
 16777215
176
     1
 90
        1
176
     1
 90
       10
176
     1
 62
     7
176
     1
 62
   257
176
     1
 90
        2
176
     1
 90
        1
176
     1
 40
1.0
176
     1
 90
        8
176
     1
 62
   257
176
     1
 40
1.0
176
     1
 90
        1
176
     1
 90
        6
176
     1
 90
        2
176
     1
 62
     7
176
     1
 90
        3
176
     1
 90
        0
176
     1
 90
        0
176
     1
290
     0
176
     1
 90
        5
176
     1
 40
0.0
176
     1
 90
        0
176
     1
290
     0
176
     1
290
     1
176
     1
290
     1
176
     1
290
     0
176
     1
290
     0
176
     1
290
     0
176
     1
290
     0
176
     1
290
     0
176
     1
290
     0
176
     1
 90
       50
176
     1
 40
0.0
176
     1
 40
1.0
176
     1
 90
        0
176
     1
 62
    18
420
        0
176
     1
 90
       50
176
     1
 90
        3
176
     1
 62
     5
420
      255
176
     1
290
     0
176
     1
 90
       50
176
     1
 90
       50
176
     1
 90
       50
176
     1
290
     0
176
     1
 90
       50
176
     1
 62
   256
176
     0
 40
1.0
176
     0
 90
        2
176
     1
  1
strokes_ogs.tif
176
     1
290
     0
176
     1
 40
1.0
176
     1
 40
1.0
176
     1
  0
VISUALSTYLE
  5
11A9
102
{ACAD_REACTORS
330
ADE
102
}
330
ADE
100
AcDbVisualStyle
  2
Shades of Gray
 70
    23
177
     3
291
     0
 70
    58
 90
        2
176
     1
 90
        2
176
     1
 90
        3
176
     1
 90
        0
176
     1
 40
0.6
176
     1
 40
30.0
176
     1
 62
     7
420
 16777215
176
     1
 90
        2
176
     1
 90
        2
176
     1
 62
     7
176
     1
 62
     7
176
     1
 90
        1
176
     1
 90
        1
176
     1
 40
40.0
176
     1
 90
        8
176
     1
 62
     7
176
     1
 40
1.0
176
     1
 90
        1
176
     1
 90
        6
176
     1
 90
        2
176
     1
 62
     7
176
     1
 90
        3
176
     1
 90
        0
176
     1
 90
        0
176
     1
290
     0
176
     1
 90
        1
176
     1
 40
0.0
176
     1
 90
        0
176
     1
290
     0
176
     1
290
     1
176
     1
290
     1
176
     1
290
     0
176
     1
290
     0
176
     1
290
     0
176
     1
290
     0
176
     1
290
     0
176
     1
290
     0
176
     1
 90
       50
176
     1
 40
0.0
176
     1
 40
1.0
176
     1
 90
        0
176
     1
 62
    18
420
        0
176
     1
 90
       50
176
     1
 90
        3
176
     1
 62
     5
420
      255
176
     1
290
     0
176
     1
 90
       50
176
     1
 90
       50
176
     1
 90
       50
176
     1
290
     0
176
     1
 90
       50
176
     1
 62
   256
176
     0
 40
1.0
176
     0
 90
        2
176
     1
  1
strokes_ogs.tif
176
     1
290
     0
176
     1
 40
1.0
176
     1
 40
1.0
176
     1
  0
VISUALSTYLE
  5
11AA
102
{ACAD_REACTORS
330
ADE
102
}
330
ADE
100
AcDbVisualStyle
  2
Sketchy
 70
    24
177
     3
291
     0
 70
    58
 90
        1
176
     1
 90
        2
176
     1
 90
        2
176
     1
 90
        0
176
     1
 40
0.6
176
     1
 40
30.0
176
     1
 62
     7
420
 16777215
176
     1
 90
        2
176
     1
 90
        2
176
     1
 62
     7
176
     1
 62
     7
176
     1
 90
        1
176
     1
 90
        1
176
     1
 40
40.0
176
     1
 90
       11
176
     1
 62
     7
176
     1
 40
1.0
176
     1
 90
        1
176
     1
 90
        6
176
     1
 90
        2
176
     1
 62
     7
176
     1
 90
        6
176
     1
 90
        0
176
     1
 90
        0
176
     1
290
     0
176
     1
 90
        1
176
     1
 40
0.0
176
     1
 90
        0
176
     1
290
     0
176
     1
290
     1
176
     1
290
     1
176
     1
290
     0
176
     1
290
     0
176
     1
290
     0
176
     1
290
     0
176
     1
290
     0
176
     1
290
     0
176
     1
 90
       50
176
     1
 40
0.0
176
     1
 40
1.0
176
     1
 90
        0
176
     1
 62
    18
420
        0
176
     1
 90
       50
176
     1
 90
        3
176
     1
 62
     5
420
      255
176
     1
290
     0
176
     1
 90
       50
176
     1
 90
       50
176
     1
 90
       50
176
     1
290
     0
176
     1
 90
       50
176
     1
 62
   256
176
     0
 40
1.0
176
     0
 90
        2
176
     1
  1
strokes_ogs.tif
176
     1
290
     0
176
     1
 40
1.0
176
     1
 40
1.0
176
     1
  0
VISUALSTYLE
  5
AEB
102
{ACAD_REACTORS
330
ADE
102
}
330
ADE
100
AcDbVisualStyle
  2
Thicken
 70
    13
177
     3
291
     1
 70
    58
 90
        2
176
     1
 90
        2
176
     1
 90
        0
176
     1
 90
        0
176
     1
 40
-0.6
176
     1
 40
-30.0
176
     1
 62
     7
420
 16777215
176
     1
 90
        1
176
     1
 90
        4
176
     1
 62
     7
176
     1
 62
   257
176
     1
 90
        1
176
     1
 90
        1
176
     1
 40
1.0
176
     1
 90
       12
176
     1
 62
     7
176
     1
 40
1.0
176
     1
 90
        1
176
     1
 90
        6
176
     1
 90
        2
176
     1
 62
     7
176
     1
 90
        5
176
     1
 90
        0
176
     1
 90
        0
176
     1
290
     0
176
     1
 90
        1
176
     1
 40
0.0
176
     1
 90
        0
176
     1
290
     0
176
     1
290
     1
176
     1
290
     1
176
     1
290
     0
176
     1
290
     0
176
     1
290
     0
176
     1
290
     0
176
     1
290
     0
176
     1
290
     0
176
     1
 90
       50
176
     1
 40
0.0
176
     1
 40
1.0
176
     1
 90
        0
176
     1
 62
    18
420
        0
176
     1
 90
       50
176
     1
 90
        3
176
     1
 62
     5
420
      255
176
     1
290
     0
176
     1
 90
       50
176
     1
 90
       50
176
     1
 90
       50
176
     1
290
     0
176
     1
 90
       50
176
     1
 62
   256
176
     0
 40
1.0
176
     0
 90
        2
176
     1
  1
strokes_ogs.tif
176
     1
290
     0
176
     1
 40
1.0
176
     1
 40
1.0
176
     1
  0
VISUALSTYLE
  5
11A4
102
{ACAD_REACTORS
330
ADE
102
}
330
ADE
100
AcDbVisualStyle
  2
Wireframe
 70
     5
177
     3
291
     0
 70
    58
 90
        0
176
     1
 90
        2
176
     1
 90
        0
176
     1
 90
        0
176
     1
 40
0.6
176
     1
 40
30.0
176
     1
 62
     7
420
 16777215
176
     1
 90
        1
176
     1
 90
        4
176
     1
 62
     7
176
     1
 62
   257
176
     1
 90
        1
176
     1
 90
        1
176
     1
 40
1.0
176
     1
 90
        0
176
     1
 62
   257
176
     1
 40
1.0
176
     1
 90
        1
176
     1
 90
        6
176
     1
 90
        2
176
     1
 62
     7
176
     1
 90
        3
176
     1
 90
        0
176
     1
 90
        0
176
     1
290
     0
176
     1
 90
        1
176
     1
 40
0.0
176
     1
 90
        0
176
     1
290
     0
176
     1
290
     1
176
     1
290
     1
176
     1
290
     0
176
     1
290
     0
176
     1
290
     0
176
     1
290
     0
176
     1
290
     0
176
     1
290
     0
176
     1
 90
       50
176
     1
 40
0.0
176
     1
 40
1.0
176
     1
 90
        0
176
     1
 62
    18
420
        0
176
     1
 90
       50
176
     1
 90
        3
176
     1
 62
     5
420
      255
176
     1
290
     0
176
     1
 90
       50
176
     1
 90
       50
176
     1
 90
       50
176
     1
290
     0
176
     1
 90
       50
176
     1
 62
   256
176
     0
 40
1.0
176
     0
 90
        2
176
     1
  1
strokes_ogs.tif
176
     1
290
     0
176
     1
 40
1.0
176
     1
 40
1.0
176
     1
  0
VISUALSTYLE
  5
11AB
102
{ACAD_REACTORS
330
ADE
102
}
330
ADE
100
AcDbVisualStyle
  2
X-Ray
 70
    25
177
     3
291
     0
 70
    58
 90
        2
176
     1
 90
        2
176
     1
 90
        1
176
     1
 90
        1
176
     1
 40
0.5
176
     1
 40
30.0
176
     1
 62
     7
420
 16777215
176
     1
 90
        1
176
     1
 90
        0
176
     1
 62
     7
176
     1
 62
   257
176
     1
 90
        1
176
     1
 90
        1
176
     1
 40
1.0
176
     1
 90
        8
176
     1
 62
     7
176
     1
 40
1.0
176
     1
 90
        1
176
     1
 90
        6
176
     1
 90
        2
176
     1
 62
     7
176
     1
 90
        3
176
     1
 90
        0
176
     1
 90
        0
176
     1
290
     0
176
     1
 90
       13
176
     1
 40
0.0
176
     1
 90
        0
176
     1
290
     0
176
     1
290
     1
176
     1
290
     1
176
     1
290
     0
176
     1
290
     0
176
     1
290
     0
176
     1
290
     0
176
     1
290
     0
176
     1
290
     0
176
     1
 90
       50
176
     1
 40
0.0
176
     1
 40
1.0
176
     1
 90
        0
176
     1
 62
    18
420
        0
176
     1
 90
       50
176
     1
 90
        3
176
     1
 62
     5
420
      255
176
     1
290
     0
176
     1
 90
       50
176
     1
 90
       50
176
     1
 90
       50
176
     1
290
     0
176
     1
 90
       50
176
     1
 62
   256
176
     0
 40
1.0
176
     0
 90
        2
176
     1
  1
strokes_ogs.tif
176
     1
290
     0
176
     1
 40
1.0
176
     1
 40
1.0
176
     1
  0
DICTIONARYVAR
  5
DE9
102
{ACAD_REACTORS
330
AAC
102
}
330
AAC
100
DictionaryVariables
280
     0
  1
1:1
  0
DICTIONARYVAR
  5
DE7
102
{ACAD_REACTORS
330
AAC
102
}
330
AAC
100
DictionaryVariables
280
     0
  1
Standard
  0
DICTIONARYVAR
  5
DE6
102
{ACAD_REACTORS
330
AAC
102
}
330
AAC
100
DictionaryVariables
280
     0
  1
Standard
  0
DICTIONARYVAR
  5
AAD
102
{ACAD_REACTORS
330
AAC
102
}
330
AAC
100
DictionaryVariables
280
     0
  1
1
  0
DICTIONARYVAR
  5
DEA
102
{ACAD_REACTORS
330
AAC
102
}
330
AAC
100
DictionaryVariables
280
     0
  1
0
  0
DICTIONARYVAR
  5
DE8
102
{ACAD_REACTORS
330
AAC
102
}
330
AAC
100
DictionaryVariables
280
     0
  1
0
  0
DICTIONARYVAR
  5
AAE
102
{ACAD_REACTORS
330
AAC
102
}
330
AAC
100
DictionaryVariables
280
     0
  1

  0
DICTIONARYVAR
  5
1281
102
{ACAD_REACTORS
330
AAC
102
}
330
AAC
100
DictionaryVariables
280
     0
  1
0
  0
DICTIONARY
  5
12A9
330
AF0
100
AcDbDictionary
280
     1
281
     1
  3
ACAD_ROUNDTRIP_2008_TABLESTYLE_CELLSTYLEMAP
360
12AA
  0
CELLSTYLEMAP
  5
12AA
102
{ACAD_REACTORS
330
12A9
102
}
330
12A9
100
AcDbCellStyleMap
 90
        3
300
CELLSTYLE
  1
TABLEFORMAT_BEGIN
 90
        5
170
     1
 91
        0
 92
    32768
 62
   257
 93
        1
300
CONTENTFORMAT
  1
CONTENTFORMAT_BEGIN
 90
        0
 91
        0
 92
      512
 93
        0
300

 40
0.0
140
1.0
 94
        5
 62
     0
340
F
144
0.25
309
CONTENTFORMAT_END
171
     1
301
MARGIN
  1
CELLMARGIN_BEGIN
 40
0.06
 40
0.06
 40
0.06
 40
0.06
 40
0.18
 40
0.18
309
CELLMARGIN_END
 94
        6
 95
        1
302
GRIDFORMAT
  1
GRIDFORMAT_BEGIN
 90
        0
 91
        1
 62
     0
 92
       -2
340
0
 93
        0
 40
0.045
309
GRIDFORMAT_END
 95
        2
302
GRIDFORMAT
  1
GRIDFORMAT_BEGIN
 90
        0
 91
        1
 62
     0
 92
       -2
340
0
 93
        0
 40
0.045
309
GRIDFORMAT_END
 95
        4
302
GRIDFORMAT
  1
GRIDFORMAT_BEGIN
 90
        0
 91
        1
 62
     0
 92
       -2
340
0
 93
        0
 40
0.045
309
GRIDFORMAT_END
 95
        8
302
GRIDFORMAT
  1
GRIDFORMAT_BEGIN
 90
        0
 91
        1
 62
     0
 92
       -2
340
0
 93
        0
 40
0.045
309
GRIDFORMAT_END
 95
       16
302
GRIDFORMAT
  1
GRIDFORMAT_BEGIN
 90
        0
 91
        1
 62
     0
 92
       -2
340
0
 93
        0
 40
0.045
309
GRIDFORMAT_END
 95
       32
302
GRIDFORMAT
  1
GRIDFORMAT_BEGIN
 90
        0
 91
        1
 62
     0
 92
       -2
340
0
 93
        0
 40
0.045
309
GRIDFORMAT_END
309
TABLEFORMAT_END
  1
CELLSTYLE_BEGIN
 90
        1
 91
        1
300
_TITLE
309
CELLSTYLE_END
300
CELLSTYLE
  1
TABLEFORMAT_BEGIN
 90
        5
170
     1
 91
        0
 92
        0
 62
   257
 93
        1
300
CONTENTFORMAT
  1
CONTENTFORMAT_BEGIN
 90
        0
 91
        0
 92
      512
 93
        0
300

 40
0.0
140
1.0
 94
        5
 62
     0
340
F
144
0.18
309
CONTENTFORMAT_END
171
     1
301
MARGIN
  1
CELLMARGIN_BEGIN
 40
0.06
 40
0.06
 40
0.06
 40
0.06
 40
0.18
 40
0.18
309
CELLMARGIN_END
 94
        6
 95
        1
302
GRIDFORMAT
  1
GRIDFORMAT_BEGIN
 90
        0
 91
        1
 62
     0
 92
       -2
340
0
 93
        0
 40
0.045
309
GRIDFORMAT_END
 95
        2
302
GRIDFORMAT
  1
GRIDFORMAT_BEGIN
 90
        0
 91
        1
 62
     0
 92
       -2
340
0
 93
        0
 40
0.045
309
GRIDFORMAT_END
 95
        4
302
GRIDFORMAT
  1
GRIDFORMAT_BEGIN
 90
        0
 91
        1
 62
     0
 92
       -2
340
0
 93
        0
 40
0.045
309
GRIDFORMAT_END
 95
        8
302
GRIDFORMAT
  1
GRIDFORMAT_BEGIN
 90
        0
 91
        1
 62
     0
 92
       -2
340
0
 93
        0
 40
0.045
309
GRIDFORMAT_END
 95
       16
302
GRIDFORMAT
  1
GRIDFORMAT_BEGIN
 90
        0
 91
        1
 62
     0
 92
       -2
340
0
 93
        0
 40
0.045
309
GRIDFORMAT_END
 95
       32
302
GRIDFORMAT
  1
GRIDFORMAT_BEGIN
 90
        0
 91
        1
 62
     0
 92
       -2
340
0
 93
        0
 40
0.045
309
GRIDFORMAT_END
309
TABLEFORMAT_END
  1
CELLSTYLE_BEGIN
 90
        2
 91
        1
300
_HEADER
309
CELLSTYLE_END
300
CELLSTYLE
  1
TABLEFORMAT_BEGIN
 90
        5
170
     1
 91
        0
 92
        0
 62
   257
 93
        1
300
CONTENTFORMAT
  1
CONTENTFORMAT_BEGIN
 90
        0
 91
        0
 92
      512
 93
        0
300

 40
0.0
140
1.0
 94
        2
 62
     0
340
F
144
0.18
309
CONTENTFORMAT_END
171
     1
301
MARGIN
  1
CELLMARGIN_BEGIN
 40
0.06
 40
0.06
 40
0.06
 40
0.06
 40
0.18
 40
0.18
309
CELLMARGIN_END
 94
        6
 95
        1
302
GRIDFORMAT
  1
GRIDFORMAT_BEGIN
 90
        0
 91
        1
 62
     0
 92
       -2
340
0
 93
        0
 40
0.045
309
GRIDFORMAT_END
 95
        2
302
GRIDFORMAT
  1
GRIDFORMAT_BEGIN
 90
        0
 91
        1
 62
     0
 92
       -2
340
0
 93
        0
 40
0.045
309
GRIDFORMAT_END
 95
        4
302
GRIDFORMAT
  1
GRIDFORMAT_BEGIN
 90
        0
 91
        1
 62
     0
 92
       -2
340
0
 93
        0
 40
0.045
309
GRIDFORMAT_END
 95
        8
302
GRIDFORMAT
  1
GRIDFORMAT_BEGIN
 90
        0
 91
        1
 62
     0
 92
       -2
340
0
 93
        0
 40
0.045
309
GRIDFORMAT_END
 95
       16
302
GRIDFORMAT
  1
GRIDFORMAT_BEGIN
 90
        0
 91
        1
 62
     0
 92
       -2
340
0
 93
        0
 40
0.045
309
GRIDFORMAT_END
 95
       32
302
GRIDFORMAT
  1
GRIDFORMAT_BEGIN
 90
        0
 91
        1
 62
     0
 92
       -2
340
0
 93
        0
 40
0.045
309
GRIDFORMAT_END
309
TABLEFORMAT_END
  1
CELLSTYLE_BEGIN
 90
        3
 91
        2
300
_DATA
309
CELLSTYLE_END
  0
ENDSEC
  0
EOF
