  0
SECTION
  2
HEADER
  9
$ACADVER
  1
AC1032
  9
$ACADMAINTVER
 90
        4
  9
$DWGCODEPAGE
  3
ANSI_932
  9
$LASTSAVEDBY
  1
Hiroki Noike
  9
$REQUIREDVERSIONS
160
                 0
  9
$INSBASE
 10
0.0
 20
0.0
 30
0.0
  9
$EXTMIN
 10
890.5308160861155
 20
247.601904177936
 30
0.0
  9
$EXTMAX
 10
1425.138446896618
 20
625.6019341646137
 30
0.0
  9
$LIMMIN
 10
0.0
 20
0.0
  9
$LIMMAX
 10
420.0
 20
297.0
  9
$ORTHOMODE
 70
     0
  9
$REGENMODE
 70
     1
  9
$FILLMODE
 70
     1
  9
$QTEXTMODE
 70
     0
  9
$MIRRTEXT
 70
     0
  9
$LTSCALE
 40
8.4
  9
$ATTMODE
 70
     1
  9
$TEXTSIZE
 40
0.2
  9
$TRACEWID
 40
0.05
  9
$TEXTSTYLE
  7
STANDARD
  9
$CLAYER
  8
0
  9
$CELTYPE
  6
CONTINUOUS
  9
$CECOLOR
 62
   256
  9
$CELTSCALE
 40
1.0
  9
$DISPSILH
 70
     0
  9
$DIMSCALE
 40
1.0
  9
$DIMASZ
 40
0.18
  9
$DIMEXO
 40
0.0625
  9
$DIMDLI
 40
0.38
  9
$DIMRND
 40
0.0
  9
$DIMDLE
 40
0.0
  9
$DIMEXE
 40
0.18
  9
$DIMTP
 40
0.0
  9
$DIMTM
 40
0.0
  9
$DIMTXT
 40
0.18
  9
$DIMCEN
 40
0.09
  9
$DIMTSZ
 40
0.0
  9
$DIMTOL
 70
     0
  9
$DIMLIM
 70
     0
  9
$DIMTIH
 70
     1
  9
$DIMTOH
 70
     1
  9
$DIMSE1
 70
     0
  9
$DIMSE2
 70
     0
  9
$DIMTAD
 70
     0
  9
$DIMZIN
 70
     0
  9
$DIMBLK
  1

  9
$DIMASO
 70
     1
  9
$DIMSHO
 70
     1
  9
$DIMPOST
  1

  9
$DIMAPOST
  1

  9
$DIMALT
 70
     0
  9
$DIMALTD
 70
     2
  9
$DIMALTF
 40
25.4
  9
$DIMLFAC
 40
1.0
  9
$DIMTOFL
 70
     0
  9
$DIMTVP
 40
0.0
  9
$DIMTIX
 70
     0
  9
$DIMSOXD
 70
     0
  9
$DIMSAH
 70
     0
  9
$DIMBLK1
  1

  9
$DIMBLK2
  1

  9
$DIMSTYLE
  2
STANDARD
  9
$DIMCLRD
 70
     0
  9
$DIMCLRE
 70
     0
  9
$DIMCLRT
 70
     0
  9
$DIMTFAC
 40
1.0
  9
$DIMGAP
 40
0.09
  9
$DIMJUST
 70
     0
  9
$DIMSD1
 70
     0
  9
$DIMSD2
 70
     0
  9
$DIMTOLJ
 70
     1
  9
$DIMTZIN
 70
     0
  9
$DIMALTZ
 70
     0
  9
$DIMALTTZ
 70
     0
  9
$DIMUPT
 70
     0
  9
$DIMDEC
 70
     4
  9
$DIMTDEC
 70
     4
  9
$DIMALTU
 70
     2
  9
$DIMALTTD
 70
     2
  9
$DIMTXSTY
  7
STANDARD
  9
$DIMAUNIT
 70
     0
  9
$DIMADEC
 70
     0
  9
$DIMALTRND
 40
0.0
  9
$DIMAZIN
 70
     0
  9
$DIMDSEP
 70
    46
  9
$DIMATFIT
 70
     3
  9
$DIMFRAC
 70
     0
  9
$DIMLDRBLK
  1

  9
$DIMLUNIT
 70
     2
  9
$DIMLWD
 70
    -2
  9
$DIMLWE
 70
    -2
  9
$DIMTMOVE
 70
     0
  9
$DIMFXL
 40
1.0
  9
$DIMFXLON
 70
     0
  9
$DIMJOGANG
 40
0.7853981633974483
  9
$DIMTFILL
 70
     0
  9
$DIMTFILLCLR
 70
     0
  9
$DIMARCSYM
 70
     0
  9
$DIMLTYPE
  6

  9
$DIMLTEX1
  6

  9
$DIMLTEX2
  6

  9
$DIMTXTDIRECTION
 70
     0
  9
$LUNITS
 70
     2
  9
$LUPREC
 70
     4
  9
$SKETCHINC
 40
0.1
  9
$FILLETRAD
 40
0.0
  9
$AUNITS
 70
     0
  9
$AUPREC
 70
     0
  9
$MENU
  1
.
  9
$ELEVATION
 40
0.0
  9
$PELEVATION
 40
0.0
  9
$THICKNESS
 40
0.0
  9
$LIMCHECK
 70
     0
  9
$CHAMFERA
 40
0.0
  9
$CHAMFERB
 40
0.0
  9
$CHAMFERC
 40
0.0
  9
$CHAMFERD
 40
0.0
  9
$SKPOLY
 70
     0
  9
$TDCREATE
 40
2455000.691788183
  9
$TDUCREATE
 40
2455000.316788183
  9
$TDUPDATE
 40
2459744.392575996
  9
$TDUUPDATE
 40
2459744.017575996
  9
$TDINDWG
 40
0.0683750694
  9
$TDUSRTIMER
 40
0.0021219213
  9
$USRTIMER
 70
     1
  9
$ANGBASE
 50
0.0
  9
$ANGDIR
 70
     0
  9
$PDMODE
 70
     0
  9
$PDSIZE
 40
0.0
  9
$PLINEWID
 40
0.0
  9
$SPLFRAME
 70
     0
  9
$SPLINETYPE
 70
     6
  9
$SPLINESEGS
 70
     8
  9
$HANDSEED
  5
107F
  9
$SURFTAB1
 70
     6
  9
$SURFTAB2
 70
     6
  9
$SURFTYPE
 70
     6
  9
$SURFU
 70
     6
  9
$SURFV
 70
     6
  9
$UCSBASE
  2

  9
$UCSNAME
  2

  9
$UCSORG
 10
0.0
 20
0.0
 30
0.0
  9
$UCSXDIR
 10
1.0
 20
0.0
 30
0.0
  9
$UCSYDIR
 10
0.0
 20
1.0
 30
0.0
  9
$UCSORTHOREF
  2

  9
$UCSORTHOVIEW
 70
     0
  9
$UCSORGTOP
 10
0.0
 20
0.0
 30
0.0
  9
$UCSORGBOTTOM
 10
0.0
 20
0.0
 30
0.0
  9
$UCSORGLEFT
 10
0.0
 20
0.0
 30
0.0
  9
$UCSORGRIGHT
 10
0.0
 20
0.0
 30
0.0
  9
$UCSORGFRONT
 10
0.0
 20
0.0
 30
0.0
  9
$UCSORGBACK
 10
0.0
 20
0.0
 30
0.0
  9
$PUCSBASE
  2

  9
$PUCSNAME
  2

  9
$PUCSORG
 10
0.0
 20
0.0
 30
0.0
  9
$PUCSXDIR
 10
1.0
 20
0.0
 30
0.0
  9
$PUCSYDIR
 10
0.0
 20
1.0
 30
0.0
  9
$PUCSORTHOREF
  2

  9
$PUCSORTHOVIEW
 70
     0
  9
$PUCSORGTOP
 10
0.0
 20
0.0
 30
0.0
  9
$PUCSORGBOTTOM
 10
0.0
 20
0.0
 30
0.0
  9
$PUCSORGLEFT
 10
0.0
 20
0.0
 30
0.0
  9
$PUCSORGRIGHT
 10
0.0
 20
0.0
 30
0.0
  9
$PUCSORGFRONT
 10
0.0
 20
0.0
 30
0.0
  9
$PUCSORGBACK
 10
0.0
 20
0.0
 30
0.0
  9
$USERI1
 70
     0
  9
$USERI2
 70
     0
  9
$USERI3
 70
     0
  9
$USERI4
 70
     0
  9
$USERI5
 70
     0
  9
$USERR1
 40
0.0
  9
$USERR2
 40
0.0
  9
$USERR3
 40
0.0
  9
$USERR4
 40
0.0
  9
$USERR5
 40
0.0
  9
$WORLDVIEW
 70
     1
  9
$SHADEDGE
 70
     3
  9
$SHADEDIF
 70
    70
  9
$TILEMODE
 70
     1
  9
$MAXACTVP
 70
    64
  9
$PINSBASE
 10
0.0
 20
0.0
 30
0.0
  9
$PLIMCHECK
 70
     0
  9
$PEXTMIN
 10
1.000000000000000E+20
 20
1.000000000000000E+20
 30
1.000000000000000E+20
  9
$PEXTMAX
 10
-1.000000000000000E+20
 20
-1.000000000000000E+20
 30
-1.000000000000000E+20
  9
$PLIMMIN
 10
0.0
 20
0.0
  9
$PLIMMAX
 10
0.0
 20
0.0
  9
$UNITMODE
 70
     0
  9
$VISRETAIN
 70
     1
  9
$PLINEGEN
 70
     0
  9
$PSLTSCALE
 70
     1
  9
$TREEDEPTH
 70
  3020
  9
$CMLSTYLE
  2
STANDARD
  9
$CMLJUST
 70
     0
  9
$CMLSCALE
 40
1.0
  9
$PROXYGRAPHICS
 70
     1
  9
$MEASUREMENT
 70
     0
  9
$CELWEIGHT
370
    -1
  9
$ENDCAPS
280
     0
  9
$JOINSTYLE
280
     0
  9
$LWDISPLAY
290
     0
  9
$INSUNITS
 70
     0
  9
$HYPERLINKBASE
  1

  9
$STYLESHEET
  1

  9
$XEDIT
290
     1
  9
$CEPSNTYPE
380
     0
  9
$PSTYLEMODE
290
     1
  9
$FINGERPRINTGUID
  2
{5B10C6B8-AD29-4F8D-BC87-3669DF86C51B}
  9
$VERSIONGUID
  2
{92ACF99B-F150-408F-B601-638C67256E7F}
  9
$EXTNAMES
290
     1
  9
$PSVPSCALE
 40
0.0
  9
$OLESTARTUP
290
     0
  9
$SORTENTS
280
   127
  9
$INDEXCTL
280
     0
  9
$HIDETEXT
280
     0
  9
$XCLIPFRAME
280
     0
  9
$HALOGAP
280
     0
  9
$OBSCOLOR
 70
   257
  9
$OBSLTYPE
280
     0
  9
$INTERSECTIONDISPLAY
280
     0
  9
$INTERSECTIONCOLOR
 70
   257
  9
$DIMASSOC
280
     1
  9
$PROJECTNAME
  1

  9
$CAMERADISPLAY
290
     0
  9
$LENSLENGTH
 40
50.0
  9
$CAMERAHEIGHT
 40
0.0
  9
$STEPSPERSEC
 40
2.0
  9
$STEPSIZE
 40
6.0
  9
$3DDWFPREC
 40
2.0
  9
$PSOLWIDTH
 40
0.25
  9
$PSOLHEIGHT
 40
4.0
  9
$LOFTANG1
 40
1.570796326794896
  9
$LOFTANG2
 40
1.570796326794896
  9
$LOFTMAG1
 40
0.0
  9
$LOFTMAG2
 40
0.0
  9
$LOFTPARAM
 70
     7
  9
$LOFTNORMALS
280
     1
  9
$LATITUDE
 40
37.795
  9
$LONGITUDE
 40
-122.394
  9
$NORTHDIRECTION
 40
0.0
  9
$TIMEZONE
 70
 -8000
  9
$LIGHTGLYPHDISPLAY
280
     1
  9
$TILEMODELIGHTSYNCH
280
     1
  9
$CMATERIAL
347
AC6
  9
$SOLIDHIST
280
     1
  9
$SHOWHIST
280
     1
  9
$DWFFRAME
280
     2
  9
$DGNFRAME
280
     0
  9
$REALWORLDSCALE
290
     1
  9
$INTERFERECOLOR
 62
     1
  9
$INTERFEREOBJVS
345
AE8
  9
$INTERFEREVPVS
346
AE5
  9
$CSHADOW
280
     0
  9
$SHADOWPLANELOCATION
 40
0.0
  0
ENDSEC
  0
SECTION
  2
CLASSES
  0
CLASS
  1
ACDBDICTIONARYWDFLT
  2
AcDbDictionaryWithDefault
  3
ObjectDBX Classes
 90
        0
 91
        3
280
     0
281
     0
  0
CLASS
  1
DICTIONARYVAR
  2
AcDbDictionaryVar
  3
ObjectDBX Classes
 90
        0
 91
        3
280
     0
281
     0
  0
CLASS
  1
MATERIAL
  2
AcDbMaterial
  3
ObjectDBX Classes
 90
     1153
 91
        3
280
     0
281
     0
  0
CLASS
  1
VISUALSTYLE
  2
AcDbVisualStyle
  3
ObjectDBX Classes
 90
     4095
 91
        3
280
     0
281
     0
  0
CLASS
  1
TABLESTYLE
  2
AcDbTableStyle
  3
ObjectDBX Classes
 90
     4095
 91
        3
280
     0
281
     0
  0
CLASS
  1
SCALE
  2
AcDbScale
  3
ObjectDBX Classes
 90
     1153
 91
        3
280
     0
281
     0
  0
CLASS
  1
MLEADERSTYLE
  2
AcDbMLeaderStyle
  3
ACDB_MLEADERSTYLE_CLASS
 90
     4095
 91
        3
280
     0
281
     0
  0
CLASS
  1
CELLSTYLEMAP
  2
AcDbCellStyleMap
  3
ObjectDBX Classes
 90
     1152
 91
        3
280
     0
281
     0
  0
CLASS
  1
SUN
  2
AcDbSun
  3
SCENEOE
 90
     1153
 91
        3
280
     0
281
     0
  0
CLASS
  1
SORTENTSTABLE
  2
AcDbSortentsTable
  3
ObjectDBX Classes
 90
        0
 91
        3
280
     0
281
     0
  0
ENDSEC
  0
SECTION
  2
TABLES
  0
TABLE
  2
VPORT
  5
8
330
0
100
AcDbSymbolTable
 70
     1
  0
VPORT
  5
AAF
330
8
100
AcDbSymbolTableRecord
100
AcDbViewportTableRecord
  2
*Active
 70
     0
 10
0.0
 20
0.0
 11
1.0
 21
1.0
 12
1344.394862644394
 22
409.2918204247141
 13
0.0
 23
0.0
 14
1.0
 24
1.0
 15
0.0
 25
0.0
 16
0.0
 26
0.0
 36
1.0
 17
0.0
 27
0.0
 37
0.0
 40
428.9244079998065
 41
2.082079343365253
 42
50.0
 43
0.0
 44
0.0
 50
0.0
 51
0.0
 71
    16
 72
   100
 73
     1
 74
     1
 75
     0
 76
     0
 77
     0
 78
     0
281
     0
 65
     1
110
0.0
120
0.0
130
0.0
111
1.0
121
0.0
131
0.0
112
0.0
122
1.0
132
0.0
 79
     0
146
0.0
348
AE4
 60
     3
 61
     5
292
     1
282
     1
141
0.0
142
0.0
 63
   250
421
  3355443
361
C58
  0
ENDTAB
  0
TABLE
  2
LTYPE
  5
5
330
0
100
AcDbSymbolTable
 70
    25
  0
LTYPE
  5
12
330
5
100
AcDbSymbolTableRecord
100
AcDbLinetypeTableRecord
  2
BYBLOCK
 70
     0
  3

 72
    65
 73
     0
 40
0.0
  0
LTYPE
  5
13
330
5
100
AcDbSymbolTableRecord
100
AcDbLinetypeTableRecord
  2
BYLAYER
 70
     0
  3

 72
    65
 73
     0
 40
0.0
  0
LTYPE
  5
14
330
5
100
AcDbSymbolTableRecord
100
AcDbLinetypeTableRecord
  2
CONTINUOUS
 70
     0
  3
Solid line
 72
    65
 73
     0
 40
0.0
  0
LTYPE
  5
20
330
5
100
AcDbSymbolTableRecord
100
AcDbLinetypeTableRecord
  2
BORDER
 70
     0
  3
__ __ . __ __ . __ __ . __ __ . __ __ . __ __ .
 72
    65
 73
     6
 40
1.75
 49
0.5
 74
     0
 49
-0.25
 74
     0
 49
0.5
 74
     0
 49
-0.25
 74
     0
 49
0.0
 74
     0
 49
-0.25
 74
     0
  0
LTYPE
  5
21
330
5
100
AcDbSymbolTableRecord
100
AcDbLinetypeTableRecord
  2
BORDER2
 70
     0
  3
__.__.__.__.__.__.__.__.__.__.__.__.__.__.__.__
 72
    65
 73
     6
 40
0.875
 49
0.25
 74
     0
 49
-0.125
 74
     0
 49
0.25
 74
     0
 49
-0.125
 74
     0
 49
0.0
 74
     0
 49
-0.125
 74
     0
  0
LTYPE
  5
22
330
5
100
AcDbSymbolTableRecord
100
AcDbLinetypeTableRecord
  2
BORDERX2
 70
     0
  3
____  ____  .  ____  ____  .  ____  ____  .  __
 72
    65
 73
     6
 40
3.5
 49
1.0
 74
     0
 49
-0.5
 74
     0
 49
1.0
 74
     0
 49
-0.5
 74
     0
 49
0.0
 74
     0
 49
-0.5
 74
     0
  0
LTYPE
  5
23
330
5
100
AcDbSymbolTableRecord
100
AcDbLinetypeTableRecord
  2
CENTER
 70
     0
  3
____ _ ____ _ ____ _ ____ _ ____ _ ____ _ ____ 
 72
    65
 73
     4
 40
2.0
 49
1.25
 74
     0
 49
-0.25
 74
     0
 49
0.25
 74
     0
 49
-0.25
 74
     0
  0
LTYPE
  5
24
330
5
100
AcDbSymbolTableRecord
100
AcDbLinetypeTableRecord
  2
CENTER2
 70
     0
  3
___ _ ___ _ ___ _ ___ _ ___ _ ___ _ ___ _ ___ _
 72
    65
 73
     4
 40
1.125
 49
0.75
 74
     0
 49
-0.125
 74
     0
 49
0.125
 74
     0
 49
-0.125
 74
     0
  0
LTYPE
  5
25
330
5
100
AcDbSymbolTableRecord
100
AcDbLinetypeTableRecord
  2
CENTERX2
 70
     0
  3
________  __  ________  __  ________  __  _____
 72
    65
 73
     4
 40
4.0
 49
2.5
 74
     0
 49
-0.5
 74
     0
 49
0.5
 74
     0
 49
-0.5
 74
     0
  0
LTYPE
  5
26
330
5
100
AcDbSymbolTableRecord
100
AcDbLinetypeTableRecord
  2
DASHDOT
 70
     0
  3
__ . __ . __ . __ . __ . __ . __ . __ . __ . __
 72
    65
 73
     4
 40
1.0
 49
0.5
 74
     0
 49
-0.25
 74
     0
 49
0.0
 74
     0
 49
-0.25
 74
     0
  0
LTYPE
  5
27
330
5
100
AcDbSymbolTableRecord
100
AcDbLinetypeTableRecord
  2
DASHDOT2
 70
     0
  3
_._._._._._._._._._._._._._._._._._._._._._._._
 72
    65
 73
     4
 40
0.5
 49
0.25
 74
     0
 49
-0.125
 74
     0
 49
0.0
 74
     0
 49
-0.125
 74
     0
  0
LTYPE
  5
28
330
5
100
AcDbSymbolTableRecord
100
AcDbLinetypeTableRecord
  2
DASHDOTX2
 70
     0
  3
____  .  ____  .  ____  .  ____  .  ____  .  __
 72
    65
 73
     4
 40
2.0
 49
1.0
 74
     0
 49
-0.5
 74
     0
 49
0.0
 74
     0
 49
-0.5
 74
     0
  0
LTYPE
  5
29
330
5
100
AcDbSymbolTableRecord
100
AcDbLinetypeTableRecord
  2
DASHED
 70
     0
  3
__ __ __ __ __ __ __ __ __ __ __ __ __ __ __ __
 72
    65
 73
     2
 40
0.75
 49
0.5
 74
     0
 49
-0.25
 74
     0
  0
LTYPE
  5
2A
330
5
100
AcDbSymbolTableRecord
100
AcDbLinetypeTableRecord
  2
DASHED2
 70
     0
  3
_ _ _ _ _ _ _ _ _ _ _ _ _ _ _ _ _ _ _ _ _ _ _ _
 72
    65
 73
     2
 40
0.375
 49
0.25
 74
     0
 49
-0.125
 74
     0
  0
LTYPE
  5
2B
330
5
100
AcDbSymbolTableRecord
100
AcDbLinetypeTableRecord
  2
DASHEDX2
 70
     0
  3
____  ____  ____  ____  ____  ____  ____  ____ 
 72
    65
 73
     2
 40
1.5
 49
1.0
 74
     0
 49
-0.5
 74
     0
  0
LTYPE
  5
2C
330
5
100
AcDbSymbolTableRecord
100
AcDbLinetypeTableRecord
  2
DIVIDE
 70
     0
  3
____ . . ____ . . ____ . . ____ . . ____ . . __
 72
    65
 73
     6
 40
1.25
 49
0.5
 74
     0
 49
-0.25
 74
     0
 49
0.0
 74
     0
 49
-0.25
 74
     0
 49
0.0
 74
     0
 49
-0.25
 74
     0
  0
LTYPE
  5
2D
330
5
100
AcDbSymbolTableRecord
100
AcDbLinetypeTableRecord
  2
DIVIDE2
 70
     0
  3
__..__..__..__..__..__..__..__..__..__..__..__.
 72
    65
 73
     6
 40
0.625
 49
0.25
 74
     0
 49
-0.125
 74
     0
 49
0.0
 74
     0
 49
-0.125
 74
     0
 49
0.0
 74
     0
 49
-0.125
 74
     0
  0
LTYPE
  5
2E
330
5
100
AcDbSymbolTableRecord
100
AcDbLinetypeTableRecord
  2
DIVIDEX2
 70
     0
  3
________  .  .  ________  .  .  ________  .  . 
 72
    65
 73
     6
 40
2.5
 49
1.0
 74
     0
 49
-0.5
 74
     0
 49
0.0
 74
     0
 49
-0.5
 74
     0
 49
0.0
 74
     0
 49
-0.5
 74
     0
  0
LTYPE
  5
2F
330
5
100
AcDbSymbolTableRecord
100
AcDbLinetypeTableRecord
  2
DOT
 70
     0
  3
. . . . . . . . . . . . . . . . . . . . . . . .
 72
    65
 73
     2
 40
0.25
 49
0.0
 74
     0
 49
-0.25
 74
     0
  0
LTYPE
  5
30
330
5
100
AcDbSymbolTableRecord
100
AcDbLinetypeTableRecord
  2
DOT2
 70
     0
  3
...............................................
 72
    65
 73
     2
 40
0.125
 49
0.0
 74
     0
 49
-0.125
 74
     0
  0
LTYPE
  5
31
330
5
100
AcDbSymbolTableRecord
100
AcDbLinetypeTableRecord
  2
DOTX2
 70
     0
  3
.  .  .  .  .  .  .  .  .  .  .  .  .  .  .  . 
 72
    65
 73
     2
 40
0.5
 49
0.0
 74
     0
 49
-0.5
 74
     0
  0
LTYPE
  5
32
330
5
100
AcDbSymbolTableRecord
100
AcDbLinetypeTableRecord
  2
HIDDEN
 70
     0
  3
__ __ __ __ __ __ __ __ __ __ __ __ __ __ __ __
 72
    65
 73
     2
 40
0.375
 49
0.25
 74
     0
 49
-0.125
 74
     0
  0
LTYPE
  5
33
330
5
100
AcDbSymbolTableRecord
100
AcDbLinetypeTableRecord
  2
HIDDEN2
 70
     0
  3
_ _ _ _ _ _ _ _ _ _ _ _ _ _ _ _ _ _ _ _ _ _ _ _
 72
    65
 73
     2
 40
0.1875
 49
0.125
 74
     0
 49
-0.0625
 74
     0
  0
LTYPE
  5
34
330
5
100
AcDbSymbolTableRecord
100
AcDbLinetypeTableRecord
  2
HIDDENX2
 70
     0
  3
____ ____ ____ ____ ____ ____ ____ ____ ____ __
 72
    65
 73
     2
 40
0.75
 49
0.5
 74
     0
 49
-0.25
 74
     0
  0
LTYPE
  5
35
330
5
100
AcDbSymbolTableRecord
100
AcDbLinetypeTableRecord
  2
PHANTOM
 70
     0
  3
______  __  __  ______  __  __  ______  __  __ 
 72
    65
 73
     6
 40
2.5
 49
1.25
 74
     0
 49
-0.25
 74
     0
 49
0.25
 74
     0
 49
-0.25
 74
     0
 49
0.25
 74
     0
 49
-0.25
 74
     0
  0
LTYPE
  5
36
330
5
100
AcDbSymbolTableRecord
100
AcDbLinetypeTableRecord
  2
PHANTOM2
 70
     0
  3
___ _ _ ___ _ _ ___ _ _ ___ _ _ ___ _ _ ___ _ _
 72
    65
 73
     6
 40
1.25
 49
0.625
 74
     0
 49
-0.125
 74
     0
 49
0.125
 74
     0
 49
-0.125
 74
     0
 49
0.125
 74
     0
 49
-0.125
 74
     0
  0
LTYPE
  5
37
330
5
100
AcDbSymbolTableRecord
100
AcDbLinetypeTableRecord
  2
PHANTOMX2
 70
     0
  3
____________    ____    ____    ____________   
 72
    65
 73
     6
 40
5.0
 49
2.5
 74
     0
 49
-0.5
 74
     0
 49
0.5
 74
     0
 49
-0.5
 74
     0
 49
0.5
 74
     0
 49
-0.5
 74
     0
  0
ENDTAB
  0
TABLE
  2
LAYER
  5
2
102
{ACAD_XDICTIONARY
360
CCE
102
}
330
0
100
AcDbSymbolTable
 70
    12
  0
LAYER
  5
E
102
{ACAD_XDICTIONARY
360
B17
102
}
330
2
100
AcDbSymbolTableRecord
100
AcDbLayerTableRecord
  2
0
 70
     0
 62
     7
  6
CONTINUOUS
370
    -3
390
1DB
347
AD6
348
0
  0
LAYER
  5
39
102
{ACAD_XDICTIONARY
360
B19
102
}
330
2
100
AcDbSymbolTableRecord
100
AcDbLayerTableRecord
  2
LEVEL001
 70
     0
 62
     7
  6
CONTINUOUS
370
    -3
390
1DB
347
AD6
348
0
  0
LAYER
  5
3A
102
{ACAD_XDICTIONARY
360
B1B
102
}
330
2
100
AcDbSymbolTableRecord
100
AcDbLayerTableRecord
  2
LEVEL003
 70
     0
 62
     7
  6
CONTINUOUS
370
    -3
390
1DB
347
AD6
348
0
  0
LAYER
  5
3B
102
{ACAD_XDICTIONARY
360
B1D
102
}
330
2
100
AcDbSymbolTableRecord
100
AcDbLayerTableRecord
  2
LEVEL020
 70
     0
 62
     7
  6
CONTINUOUS
370
    -3
390
1DB
347
AD6
348
0
  0
LAYER
  5
3C
102
{ACAD_XDICTIONARY
360
B1F
102
}
330
2
100
AcDbSymbolTableRecord
100
AcDbLayerTableRecord
  2
LEVEL050
 70
     0
 62
     7
  6
CONTINUOUS
370
    -3
390
1DB
347
AD6
348
0
  0
LAYER
  5
3D
102
{ACAD_XDICTIONARY
360
B21
102
}
330
2
100
AcDbSymbolTableRecord
100
AcDbLayerTableRecord
  2
LEVEL110
 70
     0
 62
     7
  6
CONTINUOUS
370
    -3
390
1DB
347
AD6
348
0
  0
LAYER
  5
1E9
102
{ACAD_XDICTIONARY
360
B23
102
}
330
2
100
AcDbSymbolTableRecord
100
AcDbLayerTableRecord
  2
ﾚｲﾔ1
 70
     0
 62
     7
  6
CONTINUOUS
370
    -3
390
1DB
347
AD6
348
0
  0
LAYER
  5
1EA
102
{ACAD_XDICTIONARY
360
B25
102
}
330
2
100
AcDbSymbolTableRecord
100
AcDbLayerTableRecord
  2
図面
 70
     0
 62
     7
  6
CONTINUOUS
370
    40
390
1DB
347
AD6
348
0
  0
LAYER
  5
1EB
102
{ACAD_XDICTIONARY
360
B27
102
}
330
2
100
AcDbSymbolTableRecord
100
AcDbLayerTableRecord
  2
下図
 70
     0
 62
     8
  6
DASHDOT
290
     0
370
    -3
390
1DB
347
AD6
348
0
  0
LAYER
  5
1EC
102
{ACAD_XDICTIONARY
360
B29
102
}
330
2
100
AcDbSymbolTableRecord
100
AcDbLayerTableRecord
  2
寸法
 70
     0
 62
     1
  6
CONTINUOUS
370
    -3
390
1DB
347
AD6
348
0
  0
LAYER
  5
4DC
330
2
100
AcDbSymbolTableRecord
100
AcDbLayerTableRecord
  2
Defpoints
 70
     0
 62
     7
  6
CONTINUOUS
290
     0
370
    -3
390
1DB
347
AD6
348
0
  0
LAYER
  5
727
102
{ACAD_XDICTIONARY
360
B2B
102
}
330
2
100
AcDbSymbolTableRecord
100
AcDbLayerTableRecord
  2
図面枠
 70
     0
 62
     5
  6
CONTINUOUS
370
    -3
390
1DB
347
AD6
348
0
  0
ENDTAB
  0
TABLE
  2
STYLE
  5
3
330
0
100
AcDbSymbolTable
 70
     5
  0
STYLE
  5
F
330
3
100
AcDbSymbolTableRecord
100
AcDbTextStyleTableRecord
  2
STANDARD
 70
     0
 40
0.0
 41
1.0
 50
0.0
 71
     0
 42
0.2
  3
TXT
  4
BIGFONT
  0
STYLE
  5
38
330
3
100
AcDbSymbolTableRecord
100
AcDbTextStyleTableRecord
  2
STANDARD1
 70
     4
 40
0.0
 41
1.0
 50
0.0
 71
     0
 42
0.2
  3
TXT
  4
BIGFONT
  0
STYLE
  5
3E
330
3
100
AcDbSymbolTableRecord
100
AcDbTextStyleTableRecord
  2
GMM001
 70
     0
 40
0.0
 41
1.0
 50
0.0
 71
     0
 42
1.0
  3
txt.shx
  4
bigfont.shx
  0
STYLE
  5
1ED
330
3
100
AcDbSymbolTableRecord
100
AcDbTextStyleTableRecord
  2
TextStyle01
 70
     0
 40
0.0
 41
1.0
 50
0.0
 71
     0
 42
0.0
  3
TXT
  4
BIGFONT
  0
STYLE
  5
C6A
330
3
100
AcDbSymbolTableRecord
100
AcDbTextStyleTableRecord
  2
DIMFONT1
 70
     0
 40
0.0
 41
1.193548387096774
 50
0.0
 71
     0
 42
0.2
  3
msgothic.ttc
  4

1001
ACAD
1000
MS PGothic
1071
    32818
  0
ENDTAB
  0
TABLE
  2
VIEW
  5
6
330
0
100
AcDbSymbolTable
 70
     0
  0
ENDTAB
  0
TABLE
  2
UCS
  5
7
330
0
100
AcDbSymbolTable
 70
     0
  0
ENDTAB
  0
TABLE
  2
APPID
  5
9
330
0
100
AcDbSymbolTable
 70
     4
  0
APPID
  5
10
330
9
100
AcDbSymbolTableRecord
100
AcDbRegAppTableRecord
  2
ACAD
 70
     0
  0
APPID
  5
B15
330
9
100
AcDbSymbolTableRecord
100
AcDbRegAppTableRecord
  2
ACAD_MLEADERVER
 70
     0
  0
APPID
  5
C6C
330
9
100
AcDbSymbolTableRecord
100
AcDbRegAppTableRecord
  2
ACAD_NAV_VCDISPLAY
 70
     0
  0
APPID
  5
102C
330
9
100
AcDbSymbolTableRecord
100
AcDbRegAppTableRecord
  2
PLOTTRANSPARENCY
 70
     0
  0
ENDTAB
  0
TABLE
  2
DIMSTYLE
  5
A
330
0
100
AcDbSymbolTable
 70
    12
100
AcDbDimStyleTable
  0
DIMSTYLE
105
1D
330
A
100
AcDbSymbolTableRecord
100
AcDbDimStyleTableRecord
  2
STANDARD
 70
     0
178
     0
340
F
  0
DIMSTYLE
105
3F
102
{ACAD_REACTORS
330
E7E
330
FCC
102
}
330
A
100
AcDbSymbolTableRecord
100
AcDbDimStyleTableRecord
  2
GMM001
 70
     0
 41
3.0
 42
1.0
 43
0.000001
 44
2.0
 73
     0
 74
     0
 77
     3
140
4.0
141
1.0
143
0.0394
146
0.625
147
0.79998779296875
172
     1
173
     1
176
     3
177
     3
271
     0
178
     3
271
     0
272
     0
275
     1
288
     1
340
3E
341
5E
343
5E
344
5E
  0
DIMSTYLE
105
40
102
{ACAD_REACTORS
330
E84
102
}
330
A
100
AcDbSymbolTableRecord
100
AcDbDimStyleTableRecord
  2
GMM002
 70
     0
 41
3.0
 42
1.0
 43
0.000001
 44
2.0
 73
     0
 74
     0
 75
     1
 77
     3
140
4.0
141
1.0
143
0.0394
146
0.625
147
0.80000305175781
172
     1
173
     1
176
     3
177
     3
271
     0
178
     3
271
     0
272
     0
275
     1
288
     1
340
3E
341
5E
343
5E
344
5E
  0
DIMSTYLE
105
41
102
{ACAD_REACTORS
330
FD4
102
}
330
A
100
AcDbSymbolTableRecord
100
AcDbDimStyleTableRecord
  2
GMM003
 70
     0
 41
3.0
 42
1.0
 43
0.000001
 44
2.0
 73
     0
 74
     0
 77
     3
140
4.0
141
1.0
143
0.0394
146
0.625
147
0.79998779296875
172
     1
173
     1
176
     3
177
     3
271
     0
178
     3
271
     0
272
     0
275
     1
288
     1
340
3E
341
5E
343
5E
344
5E
  0
DIMSTYLE
105
42
102
{ACAD_REACTORS
330
E91
102
}
330
A
100
AcDbSymbolTableRecord
100
AcDbDimStyleTableRecord
  2
GMM004
 70
     0
 41
3.0
 42
1.0
 43
0.000001
 44
2.0
 73
     0
 74
     0
 77
     3
140
4.0
141
1.0
143
0.0394
146
0.625
147
0.80000305175781
172
     1
173
     1
176
     3
177
     3
271
     0
178
     3
271
     0
272
     0
275
     1
288
     1
340
3E
341
5E
343
5E
344
5E
  0
DIMSTYLE
105
43
102
{ACAD_REACTORS
330
FCF
102
}
330
A
100
AcDbSymbolTableRecord
100
AcDbDimStyleTableRecord
  2
GMM005
 70
     0
 41
3.0
 42
1.0
 43
0.000001
 44
2.0
 73
     0
 74
     0
 77
     1
140
4.0
141
1.0
143
0.0394
146
0.625
147
0.0
172
     1
173
     1
176
     3
177
     3
271
     0
178
     7
271
     0
272
     0
275
     1
288
     1
340
F
341
5E
343
5E
344
5E
  0
DIMSTYLE
105
44
102
{ACAD_REACTORS
330
FCE
102
}
330
A
100
AcDbSymbolTableRecord
100
AcDbDimStyleTableRecord
  2
GMM006
 70
     0
 41
3.0
 42
1.0
 43
0.000001
 44
2.0
 73
     0
 74
     0
 77
     3
140
4.0
141
1.0
143
0.0394
146
0.625
147
0.80000305175781
172
     1
173
     1
176
     3
177
     3
271
     1
178
     3
271
     1
272
     0
275
     1
288
     1
340
3E
341
5E
343
5E
344
5E
  0
DIMSTYLE
105
45
102
{ACAD_REACTORS
330
FCD
102
}
330
A
100
AcDbSymbolTableRecord
100
AcDbDimStyleTableRecord
  2
GMM007
 70
     0
 41
3.0
 42
1.0
 43
0.000001
 44
2.0
 73
     0
 74
     0
 77
     3
140
4.0
141
1.0
143
0.0394
146
0.625
147
0.80000305175781
172
     1
173
     1
176
     3
177
     3
271
     0
178
     3
271
     0
272
     0
275
     1
288
     1
340
3E
341
58
343
58
344
5E
  0
DIMSTYLE
105
46
102
{ACAD_REACTORS
330
FCB
102
}
330
A
100
AcDbSymbolTableRecord
100
AcDbDimStyleTableRecord
  2
GMM008
 70
     0
 41
3.0
 42
1.0
 43
0.000001
 44
2.0
 75
     1
 77
     3
140
4.0
141
1.0
143
0.0394
146
0.625
147
5.6239087600866
172
     1
173
     1
176
     3
177
     3
271
     0
178
     3
271
     0
272
     0
288
     1
340
3E
341
58
343
58
344
5E
  0
DIMSTYLE
105
47
102
{ACAD_REACTORS
330
FB9
102
}
330
A
100
AcDbSymbolTableRecord
100
AcDbDimStyleTableRecord
  2
GMM009
 70
     0
 41
3.0
 42
1.0
 43
8.0
 44
2.0
 73
     0
 74
     0
 75
     1
 76
     1
 77
     3
 78
     8
140
4.0
141
1.0
143
0.0394
146
0.625
147
0.8
172
     1
173
     1
176
     3
177
     3
271
     1
178
     3
271
     1
272
     0
340
3E
341
5E
343
5E
344
5E
  0
DIMSTYLE
105
C69
330
A
100
AcDbSymbolTableRecord
100
AcDbDimStyleTableRecord
  2
DIM001
 70
     0
 40
10.0
 41
1.0
 42
0.0
 44
1.0
 45
1.0
 73
     0
 74
     0
 77
     3
140
1.216216216216216
147
0.2
172
     1
176
     7
177
     7
271
     0
178
     7
271
     0
273
     6
340
C6A
  0
DIMSTYLE
105
C6B
330
A
100
AcDbSymbolTableRecord
100
AcDbDimStyleTableRecord
  2
DIM002
 70
     0
 40
10.0
 41
1.0
 42
0.0
 44
0.0
 45
1.0
 73
     0
 74
     0
 77
     3
140
1.216216216216216
147
0.2
172
     1
176
     7
177
     7
271
     0
178
     7
271
     0
273
     6
340
C6A
  0
ENDTAB
  0
TABLE
  2
BLOCK_RECORD
  5
1
330
0
100
AcDbSymbolTable
 70
    50
  0
BLOCK_RECORD
  5
18
102
{ACAD_XDICTIONARY
360
102F
102
}
330
1
100
AcDbSymbolTableRecord
100
AcDbBlockTableRecord
  2
*MODEL_SPACE
340
1E0
 70
     0
280
     1
281
     0
  0
BLOCK_RECORD
  5
15
330
1
100
AcDbSymbolTableRecord
100
AcDbBlockTableRecord
  2
*PAPER_SPACE
340
1E1
 70
     0
280
     1
281
     0
  0
BLOCK_RECORD
  5
51
330
1
100
AcDbSymbolTableRecord
100
AcDbBlockTableRecord
  2
_ARCHTICK
340
0
 70
     0
280
     1
281
     0
  0
BLOCK_RECORD
  5
52
330
1
100
AcDbSymbolTableRecord
100
AcDbBlockTableRecord
  2
_BOXBLANK
340
0
 70
     0
280
     1
281
     0
  0
BLOCK_RECORD
  5
53
330
1
100
AcDbSymbolTableRecord
100
AcDbBlockTableRecord
  2
_BOXFILLED
340
0
 70
     0
280
     1
281
     0
  0
BLOCK_RECORD
  5
54
330
1
100
AcDbSymbolTableRecord
100
AcDbBlockTableRecord
  2
_CLOSED
340
0
 70
     0
280
     1
281
     0
  0
BLOCK_RECORD
  5
55
330
1
100
AcDbSymbolTableRecord
100
AcDbBlockTableRecord
  2
_CLOSEDBLANK
340
0
 70
     0
280
     1
281
     0
  0
BLOCK_RECORD
  5
56
330
1
100
AcDbSymbolTableRecord
100
AcDbBlockTableRecord
  2
_DATUMBLANK
340
0
 70
     0
280
     1
281
     0
  0
BLOCK_RECORD
  5
57
330
1
100
AcDbSymbolTableRecord
100
AcDbBlockTableRecord
  2
_DATUMFILLED
340
0
 70
     0
280
     1
281
     0
  0
BLOCK_RECORD
  5
58
330
1
100
AcDbSymbolTableRecord
100
AcDbBlockTableRecord
  2
_DOT
340
0
102
{BLKREFS
331
C1E
331
C31
331
E23
331
E3E
331
F4E
331
F67
331
FEC
331
1005
102
}
 70
     0
280
     1
281
     0
  0
BLOCK_RECORD
  5
59
330
1
100
AcDbSymbolTableRecord
100
AcDbBlockTableRecord
  2
_DOTBLANK
340
0
 70
     0
280
     1
281
     0
  0
BLOCK_RECORD
  5
5A
330
1
100
AcDbSymbolTableRecord
100
AcDbBlockTableRecord
  2
_DOTSMALL
340
0
 70
     0
280
     1
281
     0
  0
BLOCK_RECORD
  5
5B
330
1
100
AcDbSymbolTableRecord
100
AcDbBlockTableRecord
  2
_INTEGRAL
340
0
 70
     0
280
     1
281
     0
  0
BLOCK_RECORD
  5
5C
330
1
100
AcDbSymbolTableRecord
100
AcDbBlockTableRecord
  2
_NONE
340
0
 70
     0
280
     1
281
     0
  0
BLOCK_RECORD
  5
5D
330
1
100
AcDbSymbolTableRecord
100
AcDbBlockTableRecord
  2
_OBLIQUE
340
0
 70
     0
280
     1
281
     0
  0
BLOCK_RECORD
  5
5E
330
1
100
AcDbSymbolTableRecord
100
AcDbBlockTableRecord
  2
_OPEN
340
0
102
{BLKREFS
331
C0F
331
C10
331
BFE
331
BFF
331
C06
331
C07
331
C16
331
C17
331
C28
331
C29
331
C32
331
C3C
331
C3D
331
C45
331
C46
331
D6B
331
D6C
331
D7C
331
D7D
331
D95
331
D96
331
E06
331
E07
331
E31
331
E32
331
E3F
331
E4E
331
E4F
331
E5F
331
E60
331
F22
331
F23
331
F2D
331
F2E
331
F39
331
F3A
331
F43
331
F44
331
F5B
331
F5C
331
F68
331
F76
331
F77
331
F82
331
F83
331
FE1
331
FE2
331
FF9
331
FFA
331
1006
331
1014
331
1015
331
1020
331
1021
102
}
 70
     0
280
     1
281
     0
  0
BLOCK_RECORD
  5
5F
330
1
100
AcDbSymbolTableRecord
100
AcDbBlockTableRecord
  2
_OPEN30
340
0
 70
     0
280
     1
281
     0
  0
BLOCK_RECORD
  5
60
330
1
100
AcDbSymbolTableRecord
100
AcDbBlockTableRecord
  2
_OPEN90
340
0
 70
     0
280
     1
281
     0
  0
BLOCK_RECORD
  5
61
330
1
100
AcDbSymbolTableRecord
100
AcDbBlockTableRecord
  2
_ORIGIN
340
0
 70
     0
280
     1
281
     0
  0
BLOCK_RECORD
  5
525
330
1
100
AcDbSymbolTableRecord
100
AcDbBlockTableRecord
  2
*D17
340
0
 70
     0
280
     1
281
     0
  0
BLOCK_RECORD
  5
531
330
1
100
AcDbSymbolTableRecord
100
AcDbBlockTableRecord
  2
*D18
340
0
 70
     0
280
     1
281
     0
  0
BLOCK_RECORD
  5
53D
330
1
100
AcDbSymbolTableRecord
100
AcDbBlockTableRecord
  2
*D19
340
0
 70
     0
280
     1
281
     0
  0
BLOCK_RECORD
  5
8B9
330
1
100
AcDbSymbolTableRecord
100
AcDbBlockTableRecord
  2
*D20
340
0
 70
     0
280
     1
281
     0
  0
BLOCK_RECORD
  5
8C3
330
1
100
AcDbSymbolTableRecord
100
AcDbBlockTableRecord
  2
*D21
340
0
 70
     0
280
     1
281
     0
  0
BLOCK_RECORD
  5
8CF
330
1
100
AcDbSymbolTableRecord
100
AcDbBlockTableRecord
  2
*D22
340
0
 70
     0
280
     1
281
     0
  0
BLOCK_RECORD
  5
8DB
330
1
100
AcDbSymbolTableRecord
100
AcDbBlockTableRecord
  2
*D23
340
0
 70
     0
280
     1
281
     0
  0
BLOCK_RECORD
  5
8E7
330
1
100
AcDbSymbolTableRecord
100
AcDbBlockTableRecord
  2
*D24
340
0
 70
     0
280
     1
281
     0
  0
BLOCK_RECORD
  5
8F5
330
1
100
AcDbSymbolTableRecord
100
AcDbBlockTableRecord
  2
*D25
340
0
 70
     0
280
     1
281
     0
  0
BLOCK_RECORD
  5
D66
330
1
100
AcDbSymbolTableRecord
100
AcDbBlockTableRecord
  2
*D26
340
0
 70
     0
280
     1
281
     0
  0
BLOCK_RECORD
  5
D78
330
1
100
AcDbSymbolTableRecord
100
AcDbBlockTableRecord
  2
*D27
340
0
 70
     0
280
     1
281
     0
  0
BLOCK_RECORD
  5
D90
330
1
100
AcDbSymbolTableRecord
100
AcDbBlockTableRecord
  2
*D28
340
0
 70
     0
280
     1
281
     0
  0
BLOCK_RECORD
  5
E03
330
1
100
AcDbSymbolTableRecord
100
AcDbBlockTableRecord
  2
*D29
340
0
 70
     0
280
     1
281
     0
  0
BLOCK_RECORD
  5
E1F
330
1
100
AcDbSymbolTableRecord
100
AcDbBlockTableRecord
  2
*D30
340
0
 70
     0
280
     1
281
     0
  0
BLOCK_RECORD
  5
E2C
330
1
100
AcDbSymbolTableRecord
100
AcDbBlockTableRecord
  2
*D31
340
0
 70
     0
280
     1
281
     0
  0
BLOCK_RECORD
  5
E39
330
1
100
AcDbSymbolTableRecord
100
AcDbBlockTableRecord
  2
*D32
340
0
 70
     0
280
     1
281
     0
  0
BLOCK_RECORD
  5
E46
330
1
100
AcDbSymbolTableRecord
100
AcDbBlockTableRecord
  2
*D33
340
0
 70
     0
280
     1
281
     0
  0
BLOCK_RECORD
  5
E5A
330
1
100
AcDbSymbolTableRecord
100
AcDbBlockTableRecord
  2
*D34
340
0
 70
     0
280
     1
281
     0
  0
BLOCK_RECORD
  5
F1C
330
1
100
AcDbSymbolTableRecord
100
AcDbBlockTableRecord
  2
*D35
340
0
 70
     0
280
     1
281
     0
  0
BLOCK_RECORD
  5
F28
330
1
100
AcDbSymbolTableRecord
100
AcDbBlockTableRecord
  2
*D36
340
0
 70
     0
280
     1
281
     0
  0
BLOCK_RECORD
  5
F33
330
1
100
AcDbSymbolTableRecord
100
AcDbBlockTableRecord
  2
*D37
340
0
 70
     0
280
     1
281
     0
  0
BLOCK_RECORD
  5
F3F
330
1
100
AcDbSymbolTableRecord
100
AcDbBlockTableRecord
  2
*D38
340
0
 70
     0
280
     1
281
     0
  0
BLOCK_RECORD
  5
F49
330
1
100
AcDbSymbolTableRecord
100
AcDbBlockTableRecord
  2
*D39
340
0
 70
     0
280
     1
281
     0
  0
BLOCK_RECORD
  5
F55
330
1
100
AcDbSymbolTableRecord
100
AcDbBlockTableRecord
  2
*D40
340
0
 70
     0
280
     1
281
     0
  0
BLOCK_RECORD
  5
F61
330
1
100
AcDbSymbolTableRecord
100
AcDbBlockTableRecord
  2
*D41
340
0
 70
     0
280
     1
281
     0
  0
BLOCK_RECORD
  5
F6D
330
1
100
AcDbSymbolTableRecord
100
AcDbBlockTableRecord
  2
*D42
340
0
 70
     0
280
     1
281
     0
  0
BLOCK_RECORD
  5
F7C
330
1
100
AcDbSymbolTableRecord
100
AcDbBlockTableRecord
  2
*D43
340
0
 70
     0
280
     1
281
     0
  0
BLOCK_RECORD
  5
FDD
330
1
100
AcDbSymbolTableRecord
100
AcDbBlockTableRecord
  2
*D44
340
0
 70
     0
280
     1
281
     0
  0
BLOCK_RECORD
  5
FE7
330
1
100
AcDbSymbolTableRecord
100
AcDbBlockTableRecord
  2
*D45
340
0
 70
     0
280
     1
281
     0
  0
BLOCK_RECORD
  5
FF3
330
1
100
AcDbSymbolTableRecord
100
AcDbBlockTableRecord
  2
*D46
340
0
 70
     0
280
     1
281
     0
  0
BLOCK_RECORD
  5
FFF
330
1
100
AcDbSymbolTableRecord
100
AcDbBlockTableRecord
  2
*D47
340
0
 70
     0
280
     1
281
     0
  0
BLOCK_RECORD
  5
100B
330
1
100
AcDbSymbolTableRecord
100
AcDbBlockTableRecord
  2
*D48
340
0
 70
     0
280
     1
281
     0
  0
BLOCK_RECORD
  5
101A
330
1
100
AcDbSymbolTableRecord
100
AcDbBlockTableRecord
  2
*D49
340
0
 70
     0
280
     1
281
     0
  0
ENDTAB
  0
ENDSEC
  0
SECTION
  2
BLOCKS
  0
BLOCK
  5
19
330
18
100
AcDbEntity
  8
0
100
AcDbBlockBegin
  2
*MODEL_SPACE
 70
     0
 10
0.0
 20
0.0
 30
0.0
  3
*MODEL_SPACE
  1

  0
ENDBLK
  5
1A
330
18
100
AcDbEntity
  8
0
100
AcDbBlockEnd
  0
BLOCK
  5
16
330
15
100
AcDbEntity
 67
     1
  8
0
100
AcDbBlockBegin
  2
*PAPER_SPACE
 70
     0
 10
0.0
 20
0.0
 30
0.0
  3
*PAPER_SPACE
  1

  0
ENDBLK
  5
17
330
15
100
AcDbEntity
 67
     1
  8
0
100
AcDbBlockEnd
  0
BLOCK
  5
62
330
51
100
AcDbEntity
  8
0
100
AcDbBlockBegin
  2
_ARCHTICK
 70
     0
 10
0.0
 20
0.0
 30
0.0
  3
_ARCHTICK
  1

  0
LWPOLYLINE
  5
63
330
51
100
AcDbEntity
  8
0
  6
ByBlock
 62
     0
100
AcDbPolyline
 90
        2
 70
     1
 43
0.15
 10
-0.5
 20
-0.5
 10
0.5
 20
0.5
  0
ENDBLK
  5
67
330
51
100
AcDbEntity
  8
0
100
AcDbBlockEnd
  0
BLOCK
  5
6B
330
52
100
AcDbEntity
  8
0
100
AcDbBlockBegin
  2
_BOXBLANK
 70
     0
 10
0.0
 20
0.0
 30
0.0
  3
_BOXBLANK
  1

  0
LINE
  5
6C
330
52
100
AcDbEntity
  8
0
  6
ByBlock
 62
     0
100
AcDbLine
 10
-0.5
 20
-0.5
 30
0.0
 11
0.5
 21
-0.5
 31
0.0
  0
LINE
  5
6D
330
52
100
AcDbEntity
  8
0
  6
ByBlock
 62
     0
100
AcDbLine
 10
0.5
 20
-0.5
 30
0.0
 11
0.5
 21
0.5
 31
0.0
  0
LINE
  5
6E
330
52
100
AcDbEntity
  8
0
  6
ByBlock
 62
     0
100
AcDbLine
 10
0.5
 20
0.5
 30
0.0
 11
-0.5
 21
0.5
 31
0.0
  0
LINE
  5
6F
330
52
100
AcDbEntity
  8
0
  6
ByBlock
 62
     0
100
AcDbLine
 10
-0.5
 20
0.5
 30
0.0
 11
-0.5
 21
-0.5
 31
0.0
  0
LINE
  5
70
330
52
100
AcDbEntity
  8
0
  6
ByBlock
 62
     0
100
AcDbLine
 10
-0.5
 20
0.0
 30
0.0
 11
-1.0
 21
0.0
 31
0.0
  0
ENDBLK
  5
71
330
52
100
AcDbEntity
  8
0
100
AcDbBlockEnd
  0
BLOCK
  5
72
330
53
100
AcDbEntity
  8
0
100
AcDbBlockBegin
  2
_BOXFILLED
 70
     0
 10
0.0
 20
0.0
 30
0.0
  3
_BOXFILLED
  1

  0
SOLID
  5
73
330
53
100
AcDbEntity
  8
0
  6
ByBlock
 62
     0
100
AcDbTrace
 10
-0.5
 20
0.5
 30
0.0
 11
0.5
 21
0.5
 31
0.0
 12
-0.5
 22
-0.5
 32
0.0
 13
0.5
 23
-0.5
 33
0.0
  0
LINE
  5
74
330
53
100
AcDbEntity
  8
0
  6
ByBlock
 62
     0
100
AcDbLine
 10
-0.5
 20
0.0
 30
0.0
 11
-1.0
 21
0.0
 31
0.0
  0
ENDBLK
  5
75
330
53
100
AcDbEntity
  8
0
100
AcDbBlockEnd
  0
BLOCK
  5
76
330
54
100
AcDbEntity
  8
0
100
AcDbBlockBegin
  2
_CLOSED
 70
     0
 10
0.0
 20
0.0
 30
0.0
  3
_CLOSED
  1

  0
LINE
  5
77
330
54
100
AcDbEntity
  8
0
  6
ByBlock
 62
     0
100
AcDbLine
 10
-1.0
 20
0.16666666666667
 30
0.0
 11
0.0
 21
0.0
 31
0.0
  0
LINE
  5
78
330
54
100
AcDbEntity
  8
0
  6
ByBlock
 62
     0
100
AcDbLine
 10
0.0
 20
0.0
 30
0.0
 11
-1.0
 21
-0.16666666666667
 31
0.0
  0
LINE
  5
79
330
54
100
AcDbEntity
  8
0
  6
ByBlock
 62
     0
100
AcDbLine
 10
-1.0
 20
0.16666666666667
 30
0.0
 11
-1.0
 21
-0.16666666666667
 31
0.0
  0
LINE
  5
7A
330
54
100
AcDbEntity
  8
0
  6
ByBlock
 62
     0
100
AcDbLine
 10
0.0
 20
0.0
 30
0.0
 11
-1.0
 21
0.0
 31
0.0
  0
ENDBLK
  5
7B
330
54
100
AcDbEntity
  8
0
100
AcDbBlockEnd
  0
BLOCK
  5
8B
330
55
100
AcDbEntity
  8
0
100
AcDbBlockBegin
  2
_CLOSEDBLANK
 70
     0
 10
0.0
 20
0.0
 30
0.0
  3
_CLOSEDBLANK
  1

  0
LINE
  5
8C
330
55
100
AcDbEntity
  8
0
  6
ByBlock
 62
     0
100
AcDbLine
 10
-1.0
 20
0.16666666666667
 30
0.0
 11
0.0
 21
0.0
 31
0.0
  0
LINE
  5
8D
330
55
100
AcDbEntity
  8
0
  6
ByBlock
 62
     0
100
AcDbLine
 10
0.0
 20
0.0
 30
0.0
 11
-1.0
 21
-0.16666666666667
 31
0.0
  0
LINE
  5
8E
330
55
100
AcDbEntity
  8
0
  6
ByBlock
 62
     0
100
AcDbLine
 10
-1.0
 20
0.16666666666667
 30
0.0
 11
-1.0
 21
-0.16666666666667
 31
0.0
  0
ENDBLK
  5
8F
330
55
100
AcDbEntity
  8
0
100
AcDbBlockEnd
  0
BLOCK
  5
9D
330
56
100
AcDbEntity
  8
0
100
AcDbBlockBegin
  2
_DATUMBLANK
 70
     0
 10
0.0
 20
0.0
 30
0.0
  3
_DATUMBLANK
  1

  0
LINE
  5
9E
330
56
100
AcDbEntity
  8
0
  6
ByBlock
 62
     0
100
AcDbLine
 10
0.0
 20
0.57735027
 30
0.0
 11
-1.0
 21
0.0
 31
0.0
  0
LINE
  5
9F
330
56
100
AcDbEntity
  8
0
  6
ByBlock
 62
     0
100
AcDbLine
 10
-1.0
 20
0.0
 30
0.0
 11
0.0
 21
-0.57735027
 31
0.0
  0
LINE
  5
A0
330
56
100
AcDbEntity
  8
0
  6
ByBlock
 62
     0
100
AcDbLine
 10
0.0
 20
-0.57735027
 30
0.0
 11
0.0
 21
0.57735027
 31
0.0
  0
ENDBLK
  5
A1
330
56
100
AcDbEntity
  8
0
100
AcDbBlockEnd
  0
BLOCK
  5
A2
330
57
100
AcDbEntity
  8
0
100
AcDbBlockBegin
  2
_DATUMFILLED
 70
     0
 10
0.0
 20
0.0
 30
0.0
  3
_DATUMFILLED
  1

  0
SOLID
  5
A3
330
57
100
AcDbEntity
  8
0
  6
ByBlock
 62
     0
100
AcDbTrace
 10
0.0
 20
0.57735027
 30
0.0
 11
-1.0
 21
0.0
 31
0.0
 12
0.0
 22
-0.57735027
 32
0.0
 13
0.0
 23
-0.57735027
 33
0.0
  0
ENDBLK
  5
A4
330
57
100
AcDbEntity
  8
0
100
AcDbBlockEnd
  0
BLOCK
  5
90
330
58
100
AcDbEntity
  8
0
100
AcDbBlockBegin
  2
_DOT
 70
     0
 10
0.0
 20
0.0
 30
0.0
  3
_DOT
  1

  0
LWPOLYLINE
  5
91
330
58
100
AcDbEntity
  8
0
  6
ByBlock
 62
     0
100
AcDbPolyline
 90
        2
 70
     1
 43
0.5
 10
-0.25
 20
0.0
 42
1.0
 10
0.25
 20
0.0
 42
1.0
  0
LINE
  5
95
330
58
100
AcDbEntity
  8
0
  6
ByBlock
 62
     0
100
AcDbLine
 10
-0.5
 20
0.0
 30
0.0
 11
-1.0
 21
0.0
 31
0.0
  0
ENDBLK
  5
96
330
58
100
AcDbEntity
  8
0
100
AcDbBlockEnd
  0
BLOCK
  5
AC
330
59
100
AcDbEntity
  8
0
100
AcDbBlockBegin
  2
_DOTBLANK
 70
     0
 10
0.0
 20
0.0
 30
0.0
  3
_DOTBLANK
  1

  0
CIRCLE
  5
AD
330
59
100
AcDbEntity
  8
0
  6
ByBlock
 62
     0
100
AcDbCircle
 10
0.0
 20
0.0
 30
0.0
 40
0.5
  0
LINE
  5
AE
330
59
100
AcDbEntity
  8
0
  6
ByBlock
 62
     0
100
AcDbLine
 10
-0.5
 20
0.0
 30
0.0
 11
-1.0
 21
0.0
 31
0.0
  0
ENDBLK
  5
AF
330
59
100
AcDbEntity
  8
0
100
AcDbBlockEnd
  0
BLOCK
  5
97
330
5A
100
AcDbEntity
  8
0
100
AcDbBlockBegin
  2
_DOTSMALL
 70
     0
 10
0.0
 20
0.0
 30
0.0
  3
_DOTSMALL
  1

  0
LWPOLYLINE
  5
98
330
5A
100
AcDbEntity
  8
0
  6
ByBlock
 62
     0
100
AcDbPolyline
 90
        2
 70
     1
 43
0.5
 10
-0.0625
 20
0.0
 42
1.0
 10
0.0625
 20
0.0
 42
1.0
  0
ENDBLK
  5
9C
330
5A
100
AcDbEntity
  8
0
100
AcDbBlockEnd
  0
BLOCK
  5
B0
330
5B
100
AcDbEntity
  8
0
100
AcDbBlockBegin
  2
_INTEGRAL
 70
     0
 10
0.0
 20
0.0
 30
0.0
  3
_INTEGRAL
  1

  0
ARC
  5
B1
330
5B
100
AcDbEntity
  8
0
  6
ByBlock
 62
     0
100
AcDbCircle
 10
0.444888
 20
-0.091335
 30
0.0
 40
0.454167
100
AcDbArc
 50
102.0
 51
168.0
  0
ARC
  5
B2
330
5B
100
AcDbEntity
  8
0
  6
ByBlock
 62
     0
100
AcDbCircle
 10
-0.444888
 20
0.091335
 30
0.0
 40
0.454167
100
AcDbArc
 50
281.9999999999999
 51
348.0
  0
ENDBLK
  5
B3
330
5B
100
AcDbEntity
  8
0
100
AcDbBlockEnd
  0
BLOCK
  5
A9
330
5C
100
AcDbEntity
  8
0
100
AcDbBlockBegin
  2
_NONE
 70
     0
 10
0.0
 20
0.0
 30
0.0
  3
_NONE
  1

  0
CIRCLE
  5
AA
330
5C
100
AcDbEntity
  8
0
  6
ByBlock
 62
     0
100
AcDbCircle
 10
0.0
 20
0.0
 30
0.0
 40
0.25
  0
ENDBLK
  5
AB
330
5C
100
AcDbEntity
  8
0
100
AcDbBlockEnd
  0
BLOCK
  5
68
330
5D
100
AcDbEntity
  8
0
100
AcDbBlockBegin
  2
_OBLIQUE
 70
     0
 10
0.0
 20
0.0
 30
0.0
  3
_OBLIQUE
  1

  0
LINE
  5
69
330
5D
100
AcDbEntity
  8
0
  6
ByBlock
 62
     0
100
AcDbLine
 10
-0.5
 20
-0.5
 30
0.0
 11
0.5
 21
0.5
 31
0.0
  0
ENDBLK
  5
6A
330
5D
100
AcDbEntity
  8
0
100
AcDbBlockEnd
  0
BLOCK
  5
7C
330
5E
100
AcDbEntity
  8
0
100
AcDbBlockBegin
  2
_OPEN
 70
     0
 10
0.0
 20
0.0
 30
0.0
  3
_OPEN
  1

  0
LINE
  5
7D
330
5E
100
AcDbEntity
  8
0
  6
ByBlock
 62
     0
100
AcDbLine
 10
-1.0
 20
0.16666666666667
 30
0.0
 11
0.0
 21
0.0
 31
0.0
  0
LINE
  5
7E
330
5E
100
AcDbEntity
  8
0
  6
ByBlock
 62
     0
100
AcDbLine
 10
0.0
 20
0.0
 30
0.0
 11
-1.0
 21
-0.16666666666667
 31
0.0
  0
LINE
  5
7F
330
5E
100
AcDbEntity
  8
0
  6
ByBlock
 62
     0
100
AcDbLine
 10
0.0
 20
0.0
 30
0.0
 11
-1.0
 21
0.0
 31
0.0
  0
ENDBLK
  5
80
330
5E
100
AcDbEntity
  8
0
100
AcDbBlockEnd
  0
BLOCK
  5
81
330
5F
100
AcDbEntity
  8
0
100
AcDbBlockBegin
  2
_OPEN30
 70
     0
 10
0.0
 20
0.0
 30
0.0
  3
_OPEN30
  1

  0
LINE
  5
82
330
5F
100
AcDbEntity
  8
0
  6
ByBlock
 62
     0
100
AcDbLine
 10
-1.0
 20
0.2679491924311
 30
0.0
 11
0.0
 21
0.0
 31
0.0
  0
LINE
  5
83
330
5F
100
AcDbEntity
  8
0
  6
ByBlock
 62
     0
100
AcDbLine
 10
0.0
 20
0.0
 30
0.0
 11
-1.0
 21
-0.2679491924311
 31
0.0
  0
LINE
  5
84
330
5F
100
AcDbEntity
  8
0
  6
ByBlock
 62
     0
100
AcDbLine
 10
0.0
 20
0.0
 30
0.0
 11
-1.0
 21
0.0
 31
0.0
  0
ENDBLK
  5
85
330
5F
100
AcDbEntity
  8
0
100
AcDbBlockEnd
  0
BLOCK
  5
86
330
60
100
AcDbEntity
  8
0
100
AcDbBlockBegin
  2
_OPEN90
 70
     0
 10
0.0
 20
0.0
 30
0.0
  3
_OPEN90
  1

  0
LINE
  5
87
330
60
100
AcDbEntity
  8
0
  6
ByBlock
 62
     0
100
AcDbLine
 10
-0.5
 20
0.5
 30
0.0
 11
0.0
 21
0.0
 31
0.0
  0
LINE
  5
88
330
60
100
AcDbEntity
  8
0
  6
ByBlock
 62
     0
100
AcDbLine
 10
0.0
 20
0.0
 30
0.0
 11
-0.5
 21
-0.5
 31
0.0
  0
LINE
  5
89
330
60
100
AcDbEntity
  8
0
  6
ByBlock
 62
     0
100
AcDbLine
 10
0.0
 20
0.0
 30
0.0
 11
-1.0
 21
0.0
 31
0.0
  0
ENDBLK
  5
8A
330
60
100
AcDbEntity
  8
0
100
AcDbBlockEnd
  0
BLOCK
  5
A5
330
61
100
AcDbEntity
  8
0
100
AcDbBlockBegin
  2
_ORIGIN
 70
     0
 10
0.0
 20
0.0
 30
0.0
  3
_ORIGIN
  1

  0
CIRCLE
  5
A6
330
61
100
AcDbEntity
  8
0
  6
ByBlock
 62
     0
100
AcDbCircle
 10
0.0
 20
0.0
 30
0.0
 40
0.5
  0
LINE
  5
A7
330
61
100
AcDbEntity
  8
0
  6
ByBlock
 62
     0
100
AcDbLine
 10
0.0
 20
0.0
 30
0.0
 11
-1.0
 21
0.0
 31
0.0
  0
ENDBLK
  5
A8
330
61
100
AcDbEntity
  8
0
100
AcDbBlockEnd
  0
BLOCK
  5
52F
330
525
100
AcDbEntity
  8
0
100
AcDbBlockBegin
  2
*D17
 70
     1
 10
0.0
 20
0.0
 30
0.0
  3
*D17
  1

  0
LINE
  5
C0C
330
525
100
AcDbEntity
  8
ﾚｲﾔ1
  6
Continuous
 62
     1
370
    -2
100
AcDbLine
 10
-53.52147920645435
 20
340.803589005668
 30
0.0
 11
40.57313551314439
 21
340.803589005668
 31
0.0
  0
LINE
  5
C0D
330
525
100
AcDbEntity
  8
ﾚｲﾔ1
  6
Continuous
 62
     1
370
    -2
100
AcDbLine
 10
-51.49136155042995
 20
284.803589005668
 30
0.0
 11
40.57313551314438
 21
284.803589005668
 31
0.0
  0
LINE
  5
C0E
330
525
100
AcDbEntity
  8
ﾚｲﾔ1
  6
Continuous
 62
     1
370
    -2
100
AcDbLine
 10
38.57313551314439
 20
337.803589005668
 30
0.0
 11
38.57313551314438
 21
287.8035890056679
 31
0.0
  0
INSERT
  5
C0F
330
525
100
AcDbEntity
  8
ﾚｲﾔ1
  6
Continuous
 62
     1
370
    -2
100
AcDbBlockReference
  2
_OPEN
 10
38.57313551314439
 20
340.803589005668
 30
0.0
 41
3.0
 42
3.0
 43
3.0
 50
90.0
  0
INSERT
  5
C10
330
525
100
AcDbEntity
  8
ﾚｲﾔ1
  6
Continuous
 62
     1
370
    -2
100
AcDbBlockReference
  2
_OPEN
 10
38.57313551314438
 20
284.803589005668
 30
0.0
 41
3.0
 42
3.0
 43
3.0
 50
270.0
  0
MTEXT
  5
C11
330
525
100
AcDbEntity
  8
ﾚｲﾔ1
  6
Continuous
 62
     1
100
AcDbMText
 10
35.77313246138653
 20
312.803589005668
 30
0.0
 40
4.0
 41
0.0
 46
0.0
 71
     5
 72
     1
  1
\A1;\A1;56
  7
GMM001
 11
1.000000000000000E-16
 21
1.0
 31
0.0
 73
     1
 44
1.0
  0
POINT
  5
C12
330
525
100
AcDbEntity
  8
Defpoints
  6
Continuous
 62
     0
100
AcDbPoint
 10
-54.52147920645436
 20
340.803589005668
 30
0.0
  0
POINT
  5
C13
330
525
100
AcDbEntity
  8
Defpoints
  6
Continuous
 62
     0
100
AcDbPoint
 10
-52.49136155042996
 20
284.803589005668
 30
0.0
  0
POINT
  5
C14
330
525
100
AcDbEntity
  8
Defpoints
  6
Continuous
 62
     0
100
AcDbPoint
 10
38.57313551314438
 20
284.803589005668
 30
0.0
  0
ENDBLK
  5
530
330
525
100
AcDbEntity
  8
0
100
AcDbBlockEnd
  0
BLOCK
  5
53B
330
531
100
AcDbEntity
  8
0
100
AcDbBlockBegin
  2
*D18
 70
     1
 10
0.0
 20
0.0
 30
0.0
  3
*D18
  1

  0
LINE
  5
BFB
330
531
100
AcDbEntity
  8
ﾚｲﾔ1
  6
Continuous
 62
     1
370
    -2
100
AcDbLine
 10
-132.4927163166965
 20
313.803589005668
 30
0.0
 11
-132.4927163166965
 21
364.803589005668
 31
0.0
  0
LINE
  5
BFC
330
531
100
AcDbEntity
  8
ﾚｲﾔ1
  6
Continuous
 62
     1
370
    -2
100
AcDbLine
 10
-49.49271631669564
 20
313.803589005668
 30
0.0
 11
-49.49271631669564
 21
364.803589005668
 31
0.0
  0
LINE
  5
BFD
330
531
100
AcDbEntity
  8
ﾚｲﾔ1
  6
Continuous
 62
     1
370
    -2
100
AcDbLine
 10
-129.4927163166965
 20
362.803589005668
 30
0.0
 11
-52.49271631669564
 21
362.803589005668
 31
0.0
  0
INSERT
  5
BFE
330
531
100
AcDbEntity
  8
ﾚｲﾔ1
  6
Continuous
 62
     1
370
    -2
100
AcDbBlockReference
  2
_OPEN
 10
-132.4927163166965
 20
362.803589005668
 30
0.0
 41
3.0
 42
3.0
 43
3.0
 50
180.0
  0
INSERT
  5
BFF
330
531
100
AcDbEntity
  8
ﾚｲﾔ1
  6
Continuous
 62
     1
370
    -2
100
AcDbBlockReference
  2
_OPEN
 10
-49.49271631669564
 20
362.803589005668
 30
0.0
 41
3.0
 42
3.0
 43
3.0
  0
MTEXT
  5
C00
330
531
100
AcDbEntity
  8
ﾚｲﾔ1
  6
Continuous
 62
     1
100
AcDbMText
 10
-90.99271631669555
 20
365.6035767986367
 30
0.0
 40
4.0
 41
0.0
 46
0.0
 71
     5
 72
     1
  1
\A1;\A1;83
  7
GMM001
 73
     1
 44
1.0
  0
POINT
  5
C01
330
531
100
AcDbEntity
  8
Defpoints
  6
Continuous
 62
     0
100
AcDbPoint
 10
-132.4927163166965
 20
312.803589005668
 30
0.0
  0
POINT
  5
C02
330
531
100
AcDbEntity
  8
Defpoints
  6
Continuous
 62
     0
100
AcDbPoint
 10
-49.49271631669564
 20
312.803589005668
 30
0.0
  0
POINT
  5
C03
330
531
100
AcDbEntity
  8
Defpoints
  6
Continuous
 62
     0
100
AcDbPoint
 10
-49.49271631669564
 20
362.803589005668
 30
0.0
  0
ENDBLK
  5
53C
330
531
100
AcDbEntity
  8
0
100
AcDbBlockEnd
  0
BLOCK
  5
546
330
53D
100
AcDbEntity
  8
0
100
AcDbBlockBegin
  2
*D19
 70
     1
 10
0.0
 20
0.0
 30
0.0
  3
*D19
  1

  0
LINE
  5
C04
330
53D
100
AcDbEntity
  8
ﾚｲﾔ1
  6
Continuous
 62
     1
370
    -2
100
AcDbLine
 10
-104.4927163166955
 20
343.803589005668
 30
0.0
 11
-104.4927163166955
 21
354.8035890056679
 31
0.0
  0
LINE
  5
C05
330
53D
100
AcDbEntity
  8
ﾚｲﾔ1
  6
Continuous
 62
     1
370
    -2
100
AcDbLine
 10
-129.4927163166965
 20
352.8035890056679
 30
0.0
 11
-107.4927163166955
 21
352.8035890056679
 31
0.0
  0
INSERT
  5
C06
330
53D
100
AcDbEntity
  8
ﾚｲﾔ1
  6
Continuous
 62
     1
370
    -2
100
AcDbBlockReference
  2
_OPEN
 10
-132.4927163166965
 20
352.8035890056679
 30
0.0
 41
3.0
 42
3.0
 43
3.0
 50
180.0
  0
INSERT
  5
C07
330
53D
100
AcDbEntity
  8
ﾚｲﾔ1
  6
Continuous
 62
     1
370
    -2
100
AcDbBlockReference
  2
_OPEN
 10
-104.4927163166955
 20
352.8035890056679
 30
0.0
 41
3.0
 42
3.0
 43
3.0
  0
MTEXT
  5
C08
330
53D
100
AcDbEntity
  8
ﾚｲﾔ1
  6
Continuous
 62
     1
100
AcDbMText
 10
-118.4927163166955
 20
355.6035920574258
 30
0.0
 40
4.0
 41
0.0
 46
0.0
 71
     5
 72
     1
  1
\A1;\A1;28
  7
GMM001
 73
     1
 44
1.0
  0
POINT
  5
C09
330
53D
100
AcDbEntity
  8
Defpoints
  6
Continuous
 62
     0
100
AcDbPoint
 10
-132.4927163166965
 20
352.8035890056679
 30
0.0
  0
POINT
  5
C0A
330
53D
100
AcDbEntity
  8
Defpoints
  6
Continuous
 62
     0
100
AcDbPoint
 10
-104.4927163166955
 20
342.803589005668
 30
0.0
  0
POINT
  5
C0B
330
53D
100
AcDbEntity
  8
Defpoints
  6
Continuous
 62
     0
100
AcDbPoint
 10
-104.4927163166955
 20
352.8035890056679
 30
0.0
  0
ENDBLK
  5
547
330
53D
100
AcDbEntity
  8
0
100
AcDbBlockEnd
  0
BLOCK
  5
8C1
330
8B9
100
AcDbEntity
  8
0
100
AcDbBlockBegin
  2
*D20
 70
     1
 10
0.0
 20
0.0
 30
0.0
  3
*D20
  1

  0
LINE
  5
C15
330
8B9
100
AcDbEntity
  8
ﾚｲﾔ1
  6
Continuous
 62
     1
370
    -2
100
AcDbLine
 10
-122.9927163518786
 20
217.7312837123926
 30
0.0
 11
-85.99271635187765
 21
217.7312837123926
 31
0.0
  0
INSERT
  5
C16
330
8B9
100
AcDbEntity
  8
ﾚｲﾔ1
  6
Continuous
 62
     1
370
    -2
100
AcDbBlockReference
  2
_OPEN
 10
-125.9927163518786
 20
217.7312837123926
 30
0.0
 41
3.0
 42
3.0
 43
3.0
 50
180.0
  0
INSERT
  5
C17
330
8B9
100
AcDbEntity
  8
ﾚｲﾔ1
  6
Continuous
 62
     1
370
    -2
100
AcDbBlockReference
  2
_OPEN
 10
-82.99271635187765
 20
217.7312837123926
 30
0.0
 41
3.0
 42
3.0
 43
3.0
  0
MTEXT
  5
C18
330
8B9
100
AcDbEntity
  8
ﾚｲﾔ1
  6
Continuous
 62
     1
100
AcDbMText
 10
-104.4927163518781
 20
220.5312837123926
 30
0.0
 40
4.0
 41
0.0
 46
0.0
 71
     5
 72
     1
  1
\A1;\A1;%%c43
  7
GMM001
 73
     1
 44
1.0
  0
POINT
  5
C19
330
8B9
100
AcDbEntity
  8
Defpoints
  6
Continuous
 62
     0
100
AcDbPoint
 10
-125.9927163518786
 20
217.7312837123926
 30
0.0
  0
POINT
  5
C1A
330
8B9
100
AcDbEntity
  8
Defpoints
  6
Continuous
 62
     0
100
AcDbPoint
 10
-82.99271635187765
 20
217.7312837123926
 30
0.0
  0
POINT
  5
C1B
330
8B9
100
AcDbEntity
  8
Defpoints
  6
Continuous
 62
     0
100
AcDbPoint
 10
-82.99271635187765
 20
217.7312837123926
 30
0.0
  0
ENDBLK
  5
8C2
330
8B9
100
AcDbEntity
  8
0
100
AcDbBlockEnd
  0
BLOCK
  5
8CD
330
8C3
100
AcDbEntity
  8
0
100
AcDbBlockBegin
  2
*D21
 70
     1
 10
0.0
 20
0.0
 30
0.0
  3
*D21
  1

  0
LINE
  5
C1C
330
8C3
100
AcDbEntity
  8
ﾚｲﾔ1
  6
Continuous
 62
     1
370
    -2
100
AcDbLine
 10
18.18511508382399
 20
231.9699543682868
 30
0.0
 11
31.07538704810238
 21
234.2428570239329
 31
0.0
  0
ARC
  5
C1D
330
8C3
100
AcDbEntity
  8
ﾚｲﾔ1
  6
Continuous
 62
     1
370
    -2
100
AcDbCircle
 10
-50.99267057550756
 20
219.7720447219627
 30
0.0
 40
81.33408960798106
100
AcDbArc
 50
2.113469084054844
 51
7.88653056967112
  0
INSERT
  5
C1E
330
8C3
100
AcDbEntity
  8
ﾚｲﾔ1
  6
Continuous
 62
     1
370
    -2
100
AcDbBlockReference
  2
_DOT
 10
30.34141903247348
 20
219.7720447219627
 30
0.0
 41
3.0
 42
3.0
 43
3.0
 50
271.0567345420275
  0
SOLID
  5
C1F
330
8C3
100
AcDbEntity
  8
ﾚｲﾔ1
  6
Continuous
 62
     1
100
AcDbTrace
 10
29.0782192673949
 20
230.8543042177433
 30
0.0
 11
30.06606202680788
 21
231.0097605867841
 31
0.0
 12
29.10577153997902
 22
233.8955606805027
 32
0.0
 13
29.10577153997902
 23
233.8955606805027
 33
0.0
  0
MTEXT
  5
C20
330
8C3
100
AcDbEntity
  8
ﾚｲﾔ1
  6
Continuous
 62
     1
100
AcDbMText
 10
30.27706810544231
 20
230.6307188660011
 30
0.0
 40
4.0
 41
0.0
 46
0.0
 71
     5
 72
     1
  1
\A1;\A1;10%%d
  7
GMM001
 73
     1
 44
1.0
  0
POINT
  5
C21
330
8C3
100
AcDbEntity
  8
Defpoints
  6
Continuous
 62
     0
100
AcDbPoint
 10
-50.99267057550756
 20
219.7720447219627
 30
0.0
  0
POINT
  5
C22
330
8C3
100
AcDbEntity
  8
Defpoints
  6
Continuous
 62
     0
100
AcDbPoint
 10
30.34141903247237
 20
219.7720447219627
 30
0.0
  0
POINT
  5
C23
330
8C3
100
AcDbEntity
  8
Defpoints
  6
Continuous
 62
     0
100
AcDbPoint
 10
17.20030732976232
 20
231.7963061965717
 30
0.0
  0
POINT
  5
C24
330
8C3
100
AcDbEntity
  8
Defpoints
  6
Continuous
 62
     0
100
AcDbPoint
 10
29.79146705320339
 20
229.2143558767899
 30
0.0
  0
ENDBLK
  5
8CE
330
8C3
100
AcDbEntity
  8
0
100
AcDbBlockEnd
  0
BLOCK
  5
8D9
330
8CF
100
AcDbEntity
  8
0
100
AcDbBlockBegin
  2
*D22
 70
     1
 10
0.0
 20
0.0
 30
0.0
  3
*D22
  1

  0
LINE
  5
C25
330
8CF
100
AcDbEntity
  8
ﾚｲﾔ1
  6
Continuous
 62
     1
370
    -2
100
AcDbLine
 10
-85.29271940363756
 20
246.7720447219626
 30
0.0
 11
42.34141903247248
 21
246.7720447219626
 31
0.0
  0
LINE
  5
C26
330
8CF
100
AcDbEntity
  8
ﾚｲﾔ1
  6
Continuous
 62
     1
370
    -2
100
AcDbLine
 10
-49.49271635187765
 20
203.7720447219626
 30
0.0
 11
42.34141903247248
 21
203.7720447219626
 31
0.0
  0
LINE
  5
C27
330
8CF
100
AcDbEntity
  8
ﾚｲﾔ1
  6
Continuous
 62
     1
370
    -2
100
AcDbLine
 10
40.3414190324725
 20
243.7720447219626
 30
0.0
 11
40.34141903247248
 21
206.7720447219626
 31
0.0
  0
INSERT
  5
C28
330
8CF
100
AcDbEntity
  8
ﾚｲﾔ1
  6
Continuous
 62
     1
370
    -2
100
AcDbBlockReference
  2
_OPEN
 10
40.3414190324725
 20
246.7720447219626
 30
0.0
 41
3.0
 42
3.0
 43
3.0
 50
90.0
  0
INSERT
  5
C29
330
8CF
100
AcDbEntity
  8
ﾚｲﾔ1
  6
Continuous
 62
     1
370
    -2
100
AcDbBlockReference
  2
_OPEN
 10
40.34141903247248
 20
203.7720447219626
 30
0.0
 41
3.0
 42
3.0
 43
3.0
 50
270.0
  0
MTEXT
  5
C2A
330
8CF
100
AcDbEntity
  8
ﾚｲﾔ1
  6
Continuous
 62
     1
100
AcDbMText
 10
37.54143123950371
 20
225.2720447219626
 30
0.0
 40
4.0
 41
0.0
 46
0.0
 71
     5
 72
     1
  1
\A1;\A1;43
  7
GMM001
 11
1.000000000000000E-16
 21
1.0
 31
0.0
 73
     1
 44
1.0
  0
POINT
  5
C2B
330
8CF
100
AcDbEntity
  8
Defpoints
  6
Continuous
 62
     0
100
AcDbPoint
 10
-86.29271940363755
 20
246.7720447219626
 30
0.0
  0
POINT
  5
C2C
330
8CF
100
AcDbEntity
  8
Defpoints
  6
Continuous
 62
     0
100
AcDbPoint
 10
-50.49271635187764
 20
203.7720447219626
 30
0.0
  0
POINT
  5
C2D
330
8CF
100
AcDbEntity
  8
Defpoints
  6
Continuous
 62
     0
100
AcDbPoint
 10
40.34141903247248
 20
203.7720447219626
 30
0.0
  0
ENDBLK
  5
8DA
330
8CF
100
AcDbEntity
  8
0
100
AcDbBlockEnd
  0
BLOCK
  5
8E5
330
8DB
100
AcDbEntity
  8
0
100
AcDbBlockBegin
  2
*D23
 70
     1
 10
0.0
 20
0.0
 30
0.0
  3
*D23
  1

  0
LINE
  5
C2E
330
8DB
100
AcDbEntity
  8
ﾚｲﾔ1
  6
Continuous
 62
     1
370
    -2
100
AcDbLine
 10
-49.99271635187764
 20
219.7720447219627
 30
0.0
 11
32.3414190324724
 21
219.7720447219627
 31
0.0
  0
LINE
  5
C2F
330
8DB
100
AcDbEntity
  8
ﾚｲﾔ1
  6
Continuous
 62
     1
370
    -2
100
AcDbLine
 10
-28.49271635187765
 20
203.7720447219626
 30
0.0
 11
32.3414190324724
 21
203.7720447219626
 31
0.0
  0
LINE
  5
C30
330
8DB
100
AcDbEntity
  8
ﾚｲﾔ1
  6
Continuous
 62
     1
370
    -2
100
AcDbLine
 10
30.34141903247241
 20
216.7720447219626
 30
0.0
 11
30.3414190324724
 21
206.7720447219626
 31
0.0
  0
INSERT
  5
C31
330
8DB
100
AcDbEntity
  8
ﾚｲﾔ1
  6
Continuous
 62
     1
370
    -2
100
AcDbBlockReference
  2
_DOT
 10
30.34141903247241
 20
219.7720447219627
 30
0.0
 41
3.0
 42
3.0
 43
3.0
 50
90.0
  0
INSERT
  5
C32
330
8DB
100
AcDbEntity
  8
ﾚｲﾔ1
  6
Continuous
 62
     1
370
    -2
100
AcDbBlockReference
  2
_OPEN
 10
30.3414190324724
 20
203.7720447219626
 30
0.0
 41
3.0
 42
3.0
 43
3.0
 50
270.0
  0
MTEXT
  5
C33
330
8DB
100
AcDbEntity
  8
ﾚｲﾔ1
  6
Continuous
 62
     1
100
AcDbMText
 10
27.54141598071456
 20
211.7720447219626
 30
0.0
 40
4.0
 41
0.0
 46
0.0
 71
     5
 72
     1
  1
\A1;\A1;16
  7
GMM001
 11
1.000000000000000E-16
 21
1.0
 31
0.0
 73
     1
 44
1.0
  0
POINT
  5
C34
330
8DB
100
AcDbEntity
  8
Defpoints
  6
Continuous
 62
     0
100
AcDbPoint
 10
-50.99271635187765
 20
219.7720447219627
 30
0.0
  0
POINT
  5
C35
330
8DB
100
AcDbEntity
  8
Defpoints
  6
Continuous
 62
     0
100
AcDbPoint
 10
-29.49271635187765
 20
203.7720447219626
 30
0.0
  0
POINT
  5
C36
330
8DB
100
AcDbEntity
  8
Defpoints
  6
Continuous
 62
     0
100
AcDbPoint
 10
30.3414190324724
 20
203.7720447219626
 30
0.0
  0
ENDBLK
  5
8E6
330
8DB
100
AcDbEntity
  8
0
100
AcDbBlockEnd
  0
BLOCK
  5
8F3
330
8E7
100
AcDbEntity
  8
0
100
AcDbBlockBegin
  2
*D24
 70
     1
 10
0.0
 20
0.0
 30
0.0
  3
*D24
  1

  0
LINE
  5
C37
330
8E7
100
AcDbEntity
  8
ﾚｲﾔ1
  6
Continuous
 62
     1
370
    -2
100
AcDbLine
 10
-23.49271635187765
 20
246.7720447219626
 30
0.0
 11
22.34141903247247
 21
246.7720447219626
 31
0.0
  0
LINE
  5
C38
330
8E7
100
AcDbEntity
  8
ﾚｲﾔ1
  6
Continuous
 62
     1
370
    -2
100
AcDbLine
 10
-49.49271635187765
 20
245.9720569289936
 30
0.0
 11
22.34141903247247
 21
245.9720569289936
 31
0.0
  0
LINE
  5
C39
330
8E7
100
AcDbEntity
  8
ﾚｲﾔ1
  6
Continuous
 62
     1
370
    -2
100
AcDbLine
 10
20.34141903247247
 20
242.9720569289937
 30
0.0
 11
20.34141903247247
 21
239.9720569289936
 31
0.0
  0
LINE
  5
C3A
330
8E7
100
AcDbEntity
  8
ﾚｲﾔ1
  6
Continuous
 62
     1
370
    -2
100
AcDbLine
 10
20.34141903247247
 20
249.7720447219626
 30
0.0
 11
20.34141903247247
 21
261.7053841588116
 31
0.0
  0
LINE
  5
C3B
330
8E7
100
AcDbEntity
  8
ﾚｲﾔ1
  6
Continuous
 62
     1
370
    -2
100
AcDbLine
 10
20.34141903247247
 20
245.9720569289936
 30
0.0
 11
20.34141903247247
 21
246.7720447219626
 31
0.0
  0
INSERT
  5
C3C
330
8E7
100
AcDbEntity
  8
ﾚｲﾔ1
  6
Continuous
 62
     1
370
    -2
100
AcDbBlockReference
  2
_OPEN
 10
20.34141903247247
 20
245.9720569289936
 30
0.0
 41
3.0
 42
3.0
 43
3.0
 50
90.0
  0
INSERT
  5
C3D
330
8E7
100
AcDbEntity
  8
ﾚｲﾔ1
  6
Continuous
 62
     1
370
    -2
100
AcDbBlockReference
  2
_OPEN
 10
20.34141903247247
 20
246.7720447219626
 30
0.0
 41
3.0
 42
3.0
 43
3.0
 50
270.0
  0
MTEXT
  5
C3E
330
8E7
100
AcDbEntity
  8
ﾚｲﾔ1
  6
Continuous
 62
     1
100
AcDbMText
 10
17.54141598071462
 20
257.2387144403871
 30
0.0
 40
4.0
 41
0.0
 46
0.0
 71
     5
 72
     1
  1
\A1;\A1;0.8
  7
GMM001
 11
1.000000000000000E-16
 21
1.0
 31
0.0
 73
     1
 44
1.0
  0
POINT
  5
C3F
330
8E7
100
AcDbEntity
  8
Defpoints
  6
Continuous
 62
     0
100
AcDbPoint
 10
-24.49271635187765
 20
246.7720447219626
 30
0.0
  0
POINT
  5
C40
330
8E7
100
AcDbEntity
  8
Defpoints
  6
Continuous
 62
     0
100
AcDbPoint
 10
-50.49271635187764
 20
245.9720569289936
 30
0.0
  0
POINT
  5
C41
330
8E7
100
AcDbEntity
  8
Defpoints
  6
Continuous
 62
     0
100
AcDbPoint
 10
20.34141903247247
 20
245.9720569289936
 30
0.0
  0
ENDBLK
  5
8F4
330
8E7
100
AcDbEntity
  8
0
100
AcDbBlockEnd
  0
BLOCK
  5
8FF
330
8F5
100
AcDbEntity
  8
0
100
AcDbBlockBegin
  2
*D25
 70
     1
 10
0.0
 20
0.0
 30
0.0
  3
*D25
  1

  0
LINE
  5
C42
330
8F5
100
AcDbEntity
  8
ﾚｲﾔ1
  6
Continuous
 62
     1
370
    -2
100
AcDbLine
 10
-85.49271635187765
 20
246.9720569289937
 30
0.0
 11
-85.49271635187765
 21
273.7720447219625
 31
0.0
  0
LINE
  5
C43
330
8F5
100
AcDbEntity
  8
ﾚｲﾔ1
  6
Continuous
 62
     1
370
    -2
100
AcDbLine
 10
-123.4927163518776
 20
246.9720569289937
 30
0.0
 11
-123.4927163518776
 21
273.7720447219625
 31
0.0
  0
LINE
  5
C44
330
8F5
100
AcDbEntity
  8
ﾚｲﾔ1
  6
Continuous
 62
     1
370
    -2
100
AcDbLine
 10
-88.49271635187765
 20
271.7720447219625
 30
0.0
 11
-120.4927163518776
 21
271.7720447219625
 31
0.0
  0
INSERT
  5
C45
330
8F5
100
AcDbEntity
  8
ﾚｲﾔ1
  6
Continuous
 62
     1
370
    -2
100
AcDbBlockReference
  2
_OPEN
 10
-85.49271635187765
 20
271.7720447219625
 30
0.0
 41
3.0
 42
3.0
 43
3.0
  0
INSERT
  5
C46
330
8F5
100
AcDbEntity
  8
ﾚｲﾔ1
  6
Continuous
 62
     1
370
    -2
100
AcDbBlockReference
  2
_OPEN
 10
-123.4927163518776
 20
271.7720447219625
 30
0.0
 41
3.0
 42
3.0
 43
3.0
 50
180.0
  0
MTEXT
  5
C47
330
8F5
100
AcDbEntity
  8
ﾚｲﾔ1
  6
Continuous
 62
     1
100
AcDbMText
 10
-104.4927140264276
 20
274.5720325149313
 30
0.0
 40
4.0
 41
0.0
 46
0.0
 71
     5
 72
     1
  1
\A1;\A1;%%c38
  7
GMM001
 73
     1
 44
1.0
  0
POINT
  5
C48
330
8F5
100
AcDbEntity
  8
Defpoints
  6
Continuous
 62
     0
100
AcDbPoint
 10
-85.49271635187765
 20
245.9720569289936
 30
0.0
  0
POINT
  5
C49
330
8F5
100
AcDbEntity
  8
Defpoints
  6
Continuous
 62
     0
100
AcDbPoint
 10
-123.4927163518776
 20
245.9720569289936
 30
0.0
  0
POINT
  5
C4A
330
8F5
100
AcDbEntity
  8
Defpoints
  6
Continuous
 62
     0
100
AcDbPoint
 10
-123.4927163518776
 20
271.7720447219625
 30
0.0
  0
ENDBLK
  5
900
330
8F5
100
AcDbEntity
  8
0
100
AcDbBlockEnd
  0
BLOCK
  5
D67
330
D66
100
AcDbEntity
  8
0
100
AcDbBlockBegin
  2
*D26
 70
     1
 10
0.0
 20
0.0
 30
0.0
  3
*D26
  1

  0
LINE
  5
D68
330
D66
100
AcDbEntity
  8
ﾚｲﾔ1
  6
Continuous
 62
     1
370
    -2
100
AcDbLine
 10
7.300003051758154
 20
125.0989112932754
 30
0.0
 11
7.300003051758154
 21
176.0989112932754
 31
0.0
  0
LINE
  5
D69
330
D66
100
AcDbEntity
  8
ﾚｲﾔ1
  6
Continuous
 62
     1
370
    -2
100
AcDbLine
 10
90.300003051759
 20
125.0989112932754
 30
0.0
 11
90.300003051759
 21
176.0989112932754
 31
0.0
  0
LINE
  5
D6A
330
D66
100
AcDbEntity
  8
ﾚｲﾔ1
  6
Continuous
 62
     1
370
    -2
100
AcDbLine
 10
10.30000305175815
 20
174.0989112932754
 30
0.0
 11
87.300003051759
 21
174.0989112932754
 31
0.0
  0
INSERT
  5
D6B
330
D66
100
AcDbEntity
  8
ﾚｲﾔ1
 62
     1
370
    -2
100
AcDbBlockReference
  2
_OPEN
 10
7.300003051758154
 20
174.0989112932754
 30
0.0
 41
3.0
 42
3.0
 43
3.0
 50
180.0
  0
INSERT
  5
D6C
330
D66
100
AcDbEntity
  8
ﾚｲﾔ1
 62
     1
370
    -2
100
AcDbBlockReference
  2
_OPEN
 10
90.300003051759
 20
174.0989112932754
 30
0.0
 41
3.0
 42
3.0
 43
3.0
  0
MTEXT
  5
D6D
330
D66
100
AcDbEntity
  8
ﾚｲﾔ1
  6
Continuous
 62
     1
100
AcDbMText
 10
48.80000305175909
 20
176.8988990862442
 30
0.0
 40
4.0
 41
0.0
 46
0.0
 71
     5
 72
     1
  1
\A1;\A1;83
  7
GMM001
 73
     1
 44
1.0
  0
POINT
  5
D6E
330
D66
100
AcDbEntity
  8
Defpoints
 62
     0
100
AcDbPoint
 10
7.300003051758154
 20
124.0989112932754
 30
0.0
  0
POINT
  5
D6F
330
D66
100
AcDbEntity
  8
Defpoints
 62
     0
100
AcDbPoint
 10
90.300003051759
 20
124.0989112932754
 30
0.0
  0
POINT
  5
D70
330
D66
100
AcDbEntity
  8
Defpoints
 62
     0
100
AcDbPoint
 10
90.300003051759
 20
174.0989112932754
 30
0.0
  0
ENDBLK
  5
D71
330
D66
100
AcDbEntity
  8
0
100
AcDbBlockEnd
  0
BLOCK
  5
D79
330
D78
100
AcDbEntity
  8
0
100
AcDbBlockBegin
  2
*D27
 70
     1
 10
0.0
 20
0.0
 30
0.0
  3
*D27
  1

  0
LINE
  5
D7A
330
D78
100
AcDbEntity
  8
ﾚｲﾔ1
  6
Continuous
 62
     1
370
    -2
100
AcDbLine
 10
35.30000305175913
 20
155.0989112932754
 30
0.0
 11
35.30000305175913
 21
166.0989112932753
 31
0.0
  0
LINE
  5
D7B
330
D78
100
AcDbEntity
  8
ﾚｲﾔ1
  6
Continuous
 62
     1
370
    -2
100
AcDbLine
 10
10.30000305175815
 20
164.0989112932753
 30
0.0
 11
32.30000305175913
 21
164.0989112932753
 31
0.0
  0
INSERT
  5
D7C
330
D78
100
AcDbEntity
  8
ﾚｲﾔ1
 62
     1
370
    -2
100
AcDbBlockReference
  2
_OPEN
 10
7.300003051758154
 20
164.0989112932753
 30
0.0
 41
3.0
 42
3.0
 43
3.0
 50
180.0
  0
INSERT
  5
D7D
330
D78
100
AcDbEntity
  8
ﾚｲﾔ1
 62
     1
370
    -2
100
AcDbBlockReference
  2
_OPEN
 10
35.30000305175913
 20
164.0989112932753
 30
0.0
 41
3.0
 42
3.0
 43
3.0
  0
MTEXT
  5
D7E
330
D78
100
AcDbEntity
  8
ﾚｲﾔ1
  6
Continuous
 62
     1
100
AcDbMText
 10
21.30000305175913
 20
166.8989143450331
 30
0.0
 40
4.0
 41
0.0
 46
0.0
 71
     5
 72
     1
  1
\A1;\A1;28
  7
GMM001
 73
     1
 44
1.0
  0
POINT
  5
D7F
330
D78
100
AcDbEntity
  8
Defpoints
 62
     0
100
AcDbPoint
 10
7.300003051758154
 20
164.0989112932753
 30
0.0
  0
POINT
  5
D80
330
D78
100
AcDbEntity
  8
Defpoints
 62
     0
100
AcDbPoint
 10
35.30000305175913
 20
154.0989112932754
 30
0.0
  0
POINT
  5
D81
330
D78
100
AcDbEntity
  8
Defpoints
 62
     0
100
AcDbPoint
 10
35.30000305175913
 20
164.0989112932753
 30
0.0
  0
ENDBLK
  5
D82
330
D78
100
AcDbEntity
  8
0
100
AcDbBlockEnd
  0
BLOCK
  5
D91
330
D90
100
AcDbEntity
  8
0
100
AcDbBlockBegin
  2
*D28
 70
     1
 10
0.0
 20
0.0
 30
0.0
  3
*D28
  1

  0
LINE
  5
D92
330
D90
100
AcDbEntity
  8
ﾚｲﾔ1
  6
Continuous
 62
     1
370
    -2
100
AcDbLine
 10
86.27124016200028
 20
152.0989112932754
 30
0.0
 11
180.365854881599
 21
152.0989112932754
 31
0.0
  0
LINE
  5
D93
330
D90
100
AcDbEntity
  8
ﾚｲﾔ1
  6
Continuous
 62
     1
370
    -2
100
AcDbLine
 10
88.30135781802468
 20
96.09891129327542
 30
0.0
 11
180.365854881599
 21
96.09891129327542
 31
0.0
  0
LINE
  5
D94
330
D90
100
AcDbEntity
  8
ﾚｲﾔ1
  6
Continuous
 62
     1
370
    -2
100
AcDbLine
 10
178.365854881599
 20
149.0989112932754
 30
0.0
 11
178.365854881599
 21
99.09891129327542
 31
0.0
  0
INSERT
  5
D95
330
D90
100
AcDbEntity
  8
ﾚｲﾔ1
 62
     1
370
    -2
100
AcDbBlockReference
  2
_OPEN
 10
178.365854881599
 20
152.0989112932754
 30
0.0
 41
3.0
 42
3.0
 43
3.0
 50
90.0
  0
INSERT
  5
D96
330
D90
100
AcDbEntity
  8
ﾚｲﾔ1
 62
     1
370
    -2
100
AcDbBlockReference
  2
_OPEN
 10
178.365854881599
 20
96.09891129327542
 30
0.0
 41
3.0
 42
3.0
 43
3.0
 50
270.0
  0
MTEXT
  5
D97
330
D90
100
AcDbEntity
  8
ﾚｲﾔ1
  6
Continuous
 62
     1
100
AcDbMText
 10
175.5658518298412
 20
124.0989112932754
 30
0.0
 40
4.0
 41
0.0
 46
0.0
 71
     5
 72
     1
  1
\A1;\A1;56
  7
GMM001
 11
0.0
 21
1.0
 31
0.0
 73
     1
 44
1.0
  0
POINT
  5
D98
330
D90
100
AcDbEntity
  8
Defpoints
 62
     0
100
AcDbPoint
 10
85.27124016200028
 20
152.0989112932754
 30
0.0
  0
POINT
  5
D99
330
D90
100
AcDbEntity
  8
Defpoints
 62
     0
100
AcDbPoint
 10
87.30135781802468
 20
96.09891129327542
 30
0.0
  0
POINT
  5
D9A
330
D90
100
AcDbEntity
  8
Defpoints
 62
     0
100
AcDbPoint
 10
178.365854881599
 20
96.0989112932754
 30
0.0
  0
ENDBLK
  5
D9B
330
D90
100
AcDbEntity
  8
0
100
AcDbBlockEnd
  0
BLOCK
  5
E04
330
E03
100
AcDbEntity
  8
0
100
AcDbBlockBegin
  2
*D29
 70
     1
 10
0.0
 20
0.0
 30
0.0
  3
*D29
  1

  0
LINE
  5
E05
330
E03
100
AcDbEntity
  8
ﾚｲﾔ1
  6
Continuous
 62
     1
370
    -2
100
AcDbLine
 10
16.80000301657604
 20
29.02660600000002
 30
0.0
 11
53.80000301657699
 21
29.02660600000002
 31
0.0
  0
INSERT
  5
E06
330
E03
100
AcDbEntity
  8
ﾚｲﾔ1
 62
     1
370
    -2
100
AcDbBlockReference
  2
_OPEN
 10
13.80000301657604
 20
29.02660600000002
 30
0.0
 41
3.0
 42
3.0
 43
3.0
 50
180.0
  0
INSERT
  5
E07
330
E03
100
AcDbEntity
  8
ﾚｲﾔ1
 62
     1
370
    -2
100
AcDbBlockReference
  2
_OPEN
 10
56.80000301657699
 20
29.02660600000002
 30
0.0
 41
3.0
 42
3.0
 43
3.0
  0
MTEXT
  5
E08
330
E03
100
AcDbEntity
  8
ﾚｲﾔ1
  6
Continuous
 62
     1
100
AcDbMText
 10
35.30000301657652
 20
31.82660600000002
 30
0.0
 40
4.0
 41
0.0
 46
0.0
 71
     5
 72
     1
  1
\A1;\A1;%%c43
  7
GMM001
 73
     1
 44
1.0
  0
POINT
  5
E09
330
E03
100
AcDbEntity
  8
Defpoints
 62
     0
100
AcDbPoint
 10
13.80000301657604
 20
29.02660600000002
 30
0.0
  0
POINT
  5
E0A
330
E03
100
AcDbEntity
  8
Defpoints
 62
     0
100
AcDbPoint
 10
56.80000301657699
 20
29.02660600000002
 30
0.0
  0
POINT
  5
E0B
330
E03
100
AcDbEntity
  8
Defpoints
 62
     0
100
AcDbPoint
 10
56.80000301657699
 20
29.02660600000002
 30
0.0
  0
ENDBLK
  5
E0C
330
E03
100
AcDbEntity
  8
0
100
AcDbBlockEnd
  0
BLOCK
  5
E20
330
E1F
100
AcDbEntity
  8
0
100
AcDbBlockBegin
  2
*D30
 70
     1
 10
0.0
 20
0.0
 30
0.0
  3
*D30
  1

  0
LINE
  5
E21
330
E1F
100
AcDbEntity
  8
ﾚｲﾔ1
  6
Continuous
 62
     1
370
    -2
100
AcDbLine
 10
157.9778344522786
 20
43.26527665589422
 30
0.0
 11
170.868106416557
 21
45.53817931154034
 31
0.0
  0
ARC
  5
E22
330
E1F
100
AcDbEntity
  8
ﾚｲﾔ1
  6
Continuous
 62
     1
370
    -2
100
AcDbCircle
 10
88.80004879294708
 20
31.06736700957009
 30
0.0
 40
81.33408960798101
100
AcDbArc
 50
2.113469084054845
 51
7.886530569671109
  0
INSERT
  5
E23
330
E1F
100
AcDbEntity
  8
ﾚｲﾔ1
 62
     1
370
    -2
100
AcDbBlockReference
  2
_DOT
 10
170.1341384009281
 20
31.06736700957009
 30
0.0
 41
3.0
 42
3.0
 43
3.0
 50
271.0567345420275
  0
SOLID
  5
E24
330
E1F
100
AcDbEntity
  8
ﾚｲﾔ1
 62
     1
100
AcDbTrace
 10
169.8587813952625
 20
42.30508287439154
 30
0.0
 11
168.8709386358495
 21
42.14962650535075
 31
0.0
 12
168.8984909084336
 22
45.19088296811009
 32
0.0
 13
168.8984909084336
 23
45.19088296811009
 33
0.0
  0
MTEXT
  5
E25
330
E1F
100
AcDbEntity
  8
ﾚｲﾔ1
  6
Continuous
 62
     1
100
AcDbMText
 10
170.0697874738969
 20
41.9260411536085
 30
0.0
 40
4.0
 41
0.0
 46
0.0
 71
     5
 72
     1
  1
\A1;10%%d
  7
GMM001
 73
     1
 44
1.0
  0
POINT
  5
E26
330
E1F
100
AcDbEntity
  8
Defpoints
 62
     0
100
AcDbPoint
 10
88.80004879294708
 20
31.06736700957009
 30
0.0
  0
POINT
  5
E27
330
E1F
100
AcDbEntity
  8
Defpoints
 62
     0
100
AcDbPoint
 10
170.134138400927
 20
31.06736700957009
 30
0.0
  0
POINT
  5
E28
330
E1F
100
AcDbEntity
  8
Defpoints
 62
     0
100
AcDbPoint
 10
156.993026698217
 20
43.0916284841791
 30
0.0
  0
POINT
  5
E29
330
E1F
100
AcDbEntity
  8
Defpoints
 62
     0
100
AcDbPoint
 10
169.9965340036879
 20
35.79652357084183
 30
0.0
  0
ENDBLK
  5
E2A
330
E1F
100
AcDbEntity
  8
0
100
AcDbBlockEnd
  0
BLOCK
  5
E2D
330
E2C
100
AcDbEntity
  8
0
100
AcDbBlockBegin
  2
*D31
 70
     1
 10
0.0
 20
0.0
 30
0.0
  3
*D31
  1

  0
LINE
  5
E2E
330
E2C
100
AcDbEntity
  8
ﾚｲﾔ1
  6
Continuous
 62
     1
370
    -2
100
AcDbLine
 10
54.49999996481709
 20
58.06736700957001
 30
0.0
 11
182.1341384009271
 21
58.06736700956998
 31
0.0
  0
LINE
  5
E2F
330
E2C
100
AcDbEntity
  8
ﾚｲﾔ1
  6
Continuous
 62
     1
370
    -2
100
AcDbLine
 10
90.300003016577
 20
15.06736700957001
 30
0.0
 11
182.1341384009271
 21
15.06736700956999
 31
0.0
  0
LINE
  5
E30
330
E2C
100
AcDbEntity
  8
ﾚｲﾔ1
  6
Continuous
 62
     1
370
    -2
100
AcDbLine
 10
180.1341384009271
 20
55.06736700956998
 30
0.0
 11
180.1341384009271
 21
18.06736700956999
 31
0.0
  0
INSERT
  5
E31
330
E2C
100
AcDbEntity
  8
ﾚｲﾔ1
 62
     1
370
    -2
100
AcDbBlockReference
  2
_OPEN
 10
180.1341384009271
 20
58.06736700956998
 30
0.0
 41
3.0
 42
3.0
 43
3.0
 50
90.0
  0
INSERT
  5
E32
330
E2C
100
AcDbEntity
  8
ﾚｲﾔ1
 62
     1
370
    -2
100
AcDbBlockReference
  2
_OPEN
 10
180.1341384009271
 20
15.06736700956999
 30
0.0
 41
3.0
 42
3.0
 43
3.0
 50
270.0
  0
MTEXT
  5
E33
330
E2C
100
AcDbEntity
  8
ﾚｲﾔ1
  6
Continuous
 62
     1
100
AcDbMText
 10
177.3341506079583
 20
36.56736700957001
 30
0.0
 40
4.0
 41
0.0
 46
0.0
 71
     5
 72
     1
  1
\A1;\A1;43
  7
GMM001
 11
0.0
 21
1.0
 31
0.0
 73
     1
 44
1.0
  0
POINT
  5
E34
330
E2C
100
AcDbEntity
  8
Defpoints
 62
     0
100
AcDbPoint
 10
53.49999996481709
 20
58.06736700957001
 30
0.0
  0
POINT
  5
E35
330
E2C
100
AcDbEntity
  8
Defpoints
 62
     0
100
AcDbPoint
 10
89.300003016577
 20
15.06736700957001
 30
0.0
  0
POINT
  5
E36
330
E2C
100
AcDbEntity
  8
Defpoints
 62
     0
100
AcDbPoint
 10
180.1341384009271
 20
15.06736700956999
 30
0.0
  0
ENDBLK
  5
E37
330
E2C
100
AcDbEntity
  8
0
100
AcDbBlockEnd
  0
BLOCK
  5
E3A
330
E39
100
AcDbEntity
  8
0
100
AcDbBlockBegin
  2
*D32
 70
     1
 10
0.0
 20
0.0
 30
0.0
  3
*D32
  1

  0
LINE
  5
E3B
330
E39
100
AcDbEntity
  8
ﾚｲﾔ1
  6
Continuous
 62
     1
370
    -2
100
AcDbLine
 10
89.800003016577
 20
31.06736700957009
 30
0.0
 11
172.134138400927
 21
31.06736700957008
 31
0.0
  0
LINE
  5
E3C
330
E39
100
AcDbEntity
  8
ﾚｲﾔ1
  6
Continuous
 62
     1
370
    -2
100
AcDbLine
 10
111.300003016577
 20
15.06736700957001
 30
0.0
 11
172.134138400927
 21
15.06736700957
 31
0.0
  0
LINE
  5
E3D
330
E39
100
AcDbEntity
  8
ﾚｲﾔ1
  6
Continuous
 62
     1
370
    -2
100
AcDbLine
 10
170.134138400927
 20
28.06736700957008
 30
0.0
 11
170.134138400927
 21
18.06736700957
 31
0.0
  0
INSERT
  5
E3E
330
E39
100
AcDbEntity
  8
ﾚｲﾔ1
 62
     1
370
    -2
100
AcDbBlockReference
  2
_DOT
 10
170.134138400927
 20
31.06736700957008
 30
0.0
 41
3.0
 42
3.0
 43
3.0
 50
90.0
  0
INSERT
  5
E3F
330
E39
100
AcDbEntity
  8
ﾚｲﾔ1
 62
     1
370
    -2
100
AcDbBlockReference
  2
_OPEN
 10
170.134138400927
 20
15.06736700957
 30
0.0
 41
3.0
 42
3.0
 43
3.0
 50
270.0
  0
MTEXT
  5
E40
330
E39
100
AcDbEntity
  8
ﾚｲﾔ1
  6
Continuous
 62
     1
100
AcDbMText
 10
167.3341353491692
 20
23.06736700957001
 30
0.0
 40
4.0
 41
0.0
 46
0.0
 71
     5
 72
     1
  1
\A1;\A1;16
  7
GMM001
 11
0.0
 21
1.0
 31
0.0
 73
     1
 44
1.0
  0
POINT
  5
E41
330
E39
100
AcDbEntity
  8
Defpoints
 62
     0
100
AcDbPoint
 10
88.800003016577
 20
31.06736700957009
 30
0.0
  0
POINT
  5
E42
330
E39
100
AcDbEntity
  8
Defpoints
 62
     0
100
AcDbPoint
 10
110.300003016577
 20
15.06736700957001
 30
0.0
  0
POINT
  5
E43
330
E39
100
AcDbEntity
  8
Defpoints
 62
     0
100
AcDbPoint
 10
170.134138400927
 20
15.06736700957
 30
0.0
  0
ENDBLK
  5
E44
330
E39
100
AcDbEntity
  8
0
100
AcDbBlockEnd
  0
BLOCK
  5
E47
330
E46
100
AcDbEntity
  8
0
100
AcDbBlockBegin
  2
*D33
 70
     1
 10
0.0
 20
0.0
 30
0.0
  3
*D33
  1

  0
LINE
  5
E48
330
E46
100
AcDbEntity
  8
ﾚｲﾔ1
  6
Continuous
 62
     1
370
    -2
100
AcDbLine
 10
116.300003016577
 20
58.06736700957001
 30
0.0
 11
162.1341384009271
 21
58.06736700957
 31
0.0
  0
LINE
  5
E49
330
E46
100
AcDbEntity
  8
ﾚｲﾔ1
  6
Continuous
 62
     1
370
    -2
100
AcDbLine
 10
90.300003016577
 20
57.267379216601
 30
0.0
 11
162.1341384009271
 21
57.26737921660099
 31
0.0
  0
LINE
  5
E4A
330
E46
100
AcDbEntity
  8
ﾚｲﾔ1
  6
Continuous
 62
     1
370
    -2
100
AcDbLine
 10
160.1341384009271
 20
58.06736700957
 30
0.0
 11
160.1341384009271
 21
73.000706446419
 31
0.0
  0
LINE
  5
E4B
330
E46
100
AcDbEntity
  8
ﾚｲﾔ1
  6
Continuous
 62
     1
370
    -2
100
AcDbLine
 10
160.1341384009271
 20
58.06736700957
 30
0.0
 11
160.1341384009271
 21
57.26737921660099
 31
0.0
  0
LINE
  5
E4C
330
E46
100
AcDbEntity
  8
ﾚｲﾔ1
  6
Continuous
 62
     1
370
    -2
100
AcDbLine
 10
160.1341384009271
 20
61.06736700957
 30
0.0
 11
160.1341384009271
 21
64.06736700957
 31
0.0
  0
LINE
  5
E4D
330
E46
100
AcDbEntity
  8
ﾚｲﾔ1
  6
Continuous
 62
     1
370
    -2
100
AcDbLine
 10
160.1341384009271
 20
54.26737921660099
 30
0.0
 11
160.1341384009271
 21
51.26737921660099
 31
0.0
  0
INSERT
  5
E4E
330
E46
100
AcDbEntity
  8
ﾚｲﾔ1
 62
     1
370
    -2
100
AcDbBlockReference
  2
_OPEN
 10
160.1341384009271
 20
58.06736700957
 30
0.0
 41
3.0
 42
3.0
 43
3.0
 50
270.0
  0
INSERT
  5
E4F
330
E46
100
AcDbEntity
  8
ﾚｲﾔ1
 62
     1
370
    -2
100
AcDbBlockReference
  2
_OPEN
 10
160.1341384009271
 20
57.26737921660099
 30
0.0
 41
3.0
 42
3.0
 43
3.0
 50
90.0
  0
MTEXT
  5
E50
330
E46
100
AcDbEntity
  8
ﾚｲﾔ1
  6
Continuous
 62
     1
100
AcDbMText
 10
157.3341353491693
 20
68.53403672799453
 30
0.0
 40
4.0
 41
0.0
 46
0.0
 71
     5
 72
     1
  1
\A1;\A1;0.8
  7
GMM001
 11
0.0
 21
1.0
 31
0.0
 73
     1
 44
1.0
  0
POINT
  5
E51
330
E46
100
AcDbEntity
  8
Defpoints
 62
     0
100
AcDbPoint
 10
115.300003016577
 20
58.06736700957001
 30
0.0
  0
POINT
  5
E52
330
E46
100
AcDbEntity
  8
Defpoints
 62
     0
100
AcDbPoint
 10
89.300003016577
 20
57.267379216601
 30
0.0
  0
POINT
  5
E70
330
E46
100
AcDbEntity
  8
Defpoints
 62
     0
100
AcDbPoint
 10
160.1341384009271
 20
57.26737921660099
 30
0.0
  0
ENDBLK
  5
E53
330
E46
100
AcDbEntity
  8
0
100
AcDbBlockEnd
  0
BLOCK
  5
E5B
330
E5A
100
AcDbEntity
  8
0
100
AcDbBlockBegin
  2
*D34
 70
     1
 10
0.0
 20
0.0
 30
0.0
  3
*D34
  1

  0
LINE
  5
E5C
330
E5A
100
AcDbEntity
  8
ﾚｲﾔ1
  6
Continuous
 62
     1
370
    -2
100
AcDbLine
 10
54.30000301657699
 20
58.267379216601
 30
0.0
 11
54.30000301657699
 21
85.06736700956992
 31
0.0
  0
LINE
  5
E5D
330
E5A
100
AcDbEntity
  8
ﾚｲﾔ1
  6
Continuous
 62
     1
370
    -2
100
AcDbLine
 10
16.30000301657704
 20
58.267379216601
 30
0.0
 11
16.30000301657704
 21
85.06736700956992
 31
0.0
  0
LINE
  5
E5E
330
E5A
100
AcDbEntity
  8
ﾚｲﾔ1
  6
Continuous
 62
     1
370
    -2
100
AcDbLine
 10
51.30000301657699
 20
83.06736700956992
 30
0.0
 11
19.30000301657704
 21
83.06736700956992
 31
0.0
  0
INSERT
  5
E5F
330
E5A
100
AcDbEntity
  8
ﾚｲﾔ1
 62
     1
370
    -2
100
AcDbBlockReference
  2
_OPEN
 10
54.30000301657699
 20
83.06736700956992
 30
0.0
 41
3.0
 42
3.0
 43
3.0
  0
INSERT
  5
E60
330
E5A
100
AcDbEntity
  8
ﾚｲﾔ1
 62
     1
370
    -2
100
AcDbBlockReference
  2
_OPEN
 10
16.30000301657704
 20
83.06736700956992
 30
0.0
 41
3.0
 42
3.0
 43
3.0
 50
180.0
  0
MTEXT
  5
E61
330
E5A
100
AcDbEntity
  8
ﾚｲﾔ1
  6
Continuous
 62
     1
100
AcDbMText
 10
35.30000534202703
 20
85.86735480253867
 30
0.0
 40
4.0
 41
0.0
 46
0.0
 71
     5
 72
     1
  1
\A1;\A1;%%c38
  7
GMM001
 73
     1
 44
1.0
  0
POINT
  5
E62
330
E5A
100
AcDbEntity
  8
Defpoints
 62
     0
100
AcDbPoint
 10
54.30000301657699
 20
57.267379216601
 30
0.0
  0
POINT
  5
E63
330
E5A
100
AcDbEntity
  8
Defpoints
 62
     0
100
AcDbPoint
 10
16.30000301657704
 20
57.267379216601
 30
0.0
  0
POINT
  5
E64
330
E5A
100
AcDbEntity
  8
Defpoints
 62
     0
100
AcDbPoint
 10
16.30000301657703
 20
83.06736700956992
 30
0.0
  0
ENDBLK
  5
E65
330
E5A
100
AcDbEntity
  8
0
100
AcDbBlockEnd
  0
BLOCK
  5
F1D
330
F1C
100
AcDbEntity
  8
0
100
AcDbBlockBegin
  2
*D35
 70
     1
 10
0.0
 20
0.0
 30
0.0
  3
*D35
  1

  0
LINE
  5
F1F
330
F1C
100
AcDbEntity
  8
ﾚｲﾔ1
  6
Continuous
 62
     1
370
    -2
100
AcDbLine
 10
950.6785078586355
 20
428.955439087434
 30
0.0
 11
950.6785078586355
 21
479.955439087434
 31
0.0
  0
LINE
  5
F20
330
F1C
100
AcDbEntity
  8
ﾚｲﾔ1
  6
Continuous
 62
     1
370
    -2
100
AcDbLine
 10
1033.678507858636
 20
428.955439087434
 30
0.0
 11
1033.678507858636
 21
479.955439087434
 31
0.0
  0
LINE
  5
F21
330
F1C
100
AcDbEntity
  8
ﾚｲﾔ1
  6
Continuous
 62
     1
370
    -2
100
AcDbLine
 10
953.6785078586355
 20
477.955439087434
 30
0.0
 11
1030.678507858636
 21
477.955439087434
 31
0.0
  0
INSERT
  5
F22
330
F1C
100
AcDbEntity
  8
ﾚｲﾔ1
 62
     1
370
    -2
100
AcDbBlockReference
  2
_OPEN
 10
950.6785078586355
 20
477.955439087434
 30
0.0
 41
3.0
 42
3.0
 43
3.0
 50
180.0
  0
INSERT
  5
F23
330
F1C
100
AcDbEntity
  8
ﾚｲﾔ1
 62
     1
370
    -2
100
AcDbBlockReference
  2
_OPEN
 10
1033.678507858636
 20
477.955439087434
 30
0.0
 41
3.0
 42
3.0
 43
3.0
  0
MTEXT
  5
F24
330
F1C
100
AcDbEntity
  8
ﾚｲﾔ1
  6
Continuous
 62
     1
100
AcDbMText
 10
992.1785078586364
 20
480.7554268804028
 30
0.0
 40
4.0
 41
0.0
 46
0.0
 71
     5
 72
     1
  1
\A1;\A1;83
  7
GMM001
 73
     1
 44
1.0
  0
POINT
  5
F25
330
F1C
100
AcDbEntity
  8
Defpoints
 62
     0
100
AcDbPoint
 10
950.6785078586355
 20
427.955439087434
 30
0.0
  0
POINT
  5
F26
330
F1C
100
AcDbEntity
  8
Defpoints
 62
     0
100
AcDbPoint
 10
1033.678507858636
 20
427.955439087434
 30
0.0
  0
POINT
  5
F27
330
F1C
100
AcDbEntity
  8
Defpoints
 62
     0
100
AcDbPoint
 10
1033.678507858636
 20
477.955439087434
 30
0.0
  0
ENDBLK
  5
F1E
330
F1C
100
AcDbEntity
  8
0
100
AcDbBlockEnd
  0
BLOCK
  5
F29
330
F28
100
AcDbEntity
  8
0
100
AcDbBlockBegin
  2
*D36
 70
     1
 10
0.0
 20
0.0
 30
0.0
  3
*D36
  1

  0
LINE
  5
F2B
330
F28
100
AcDbEntity
  8
ﾚｲﾔ1
  6
Continuous
 62
     1
370
    -2
100
AcDbLine
 10
978.6785078586365
 20
458.955439087434
 30
0.0
 11
978.6785078586365
 21
469.9554390874339
 31
0.0
  0
LINE
  5
F2C
330
F28
100
AcDbEntity
  8
ﾚｲﾔ1
  6
Continuous
 62
     1
370
    -2
100
AcDbLine
 10
953.6785078586355
 20
467.9554390874339
 30
0.0
 11
975.6785078586365
 21
467.9554390874339
 31
0.0
  0
INSERT
  5
F2D
330
F28
100
AcDbEntity
  8
ﾚｲﾔ1
 62
     1
370
    -2
100
AcDbBlockReference
  2
_OPEN
 10
950.6785078586355
 20
467.9554390874339
 30
0.0
 41
3.0
 42
3.0
 43
3.0
 50
180.0
  0
INSERT
  5
F2E
330
F28
100
AcDbEntity
  8
ﾚｲﾔ1
 62
     1
370
    -2
100
AcDbBlockReference
  2
_OPEN
 10
978.6785078586365
 20
467.9554390874339
 30
0.0
 41
3.0
 42
3.0
 43
3.0
  0
MTEXT
  5
F2F
330
F28
100
AcDbEntity
  8
ﾚｲﾔ1
  6
Continuous
 62
     1
100
AcDbMText
 10
964.6785078586365
 20
470.7554421391917
 30
0.0
 40
4.0
 41
0.0
 46
0.0
 71
     5
 72
     1
  1
\A1;\A1;28
  7
GMM001
 73
     1
 44
1.0
  0
POINT
  5
F30
330
F28
100
AcDbEntity
  8
Defpoints
 62
     0
100
AcDbPoint
 10
950.6785078586355
 20
467.9554390874339
 30
0.0
  0
POINT
  5
F31
330
F28
100
AcDbEntity
  8
Defpoints
 62
     0
100
AcDbPoint
 10
978.6785078586365
 20
457.955439087434
 30
0.0
  0
POINT
  5
F32
330
F28
100
AcDbEntity
  8
Defpoints
 62
     0
100
AcDbPoint
 10
978.6785078586365
 20
467.9554390874339
 30
0.0
  0
ENDBLK
  5
F2A
330
F28
100
AcDbEntity
  8
0
100
AcDbBlockEnd
  0
BLOCK
  5
F34
330
F33
100
AcDbEntity
  8
0
100
AcDbBlockBegin
  2
*D37
 70
     1
 10
0.0
 20
0.0
 30
0.0
  3
*D37
  1

  0
LINE
  5
F36
330
F33
100
AcDbEntity
  8
ﾚｲﾔ1
  6
Continuous
 62
     1
370
    -2
100
AcDbLine
 10
1029.649744968878
 20
455.955439087434
 30
0.0
 11
1123.744359688476
 21
455.955439087434
 31
0.0
  0
LINE
  5
F37
330
F33
100
AcDbEntity
  8
ﾚｲﾔ1
  6
Continuous
 62
     1
370
    -2
100
AcDbLine
 10
1031.679862624902
 20
399.955439087434
 30
0.0
 11
1123.744359688476
 21
399.955439087434
 31
0.0
  0
LINE
  5
F38
330
F33
100
AcDbEntity
  8
ﾚｲﾔ1
  6
Continuous
 62
     1
370
    -2
100
AcDbLine
 10
1121.744359688476
 20
452.955439087434
 30
0.0
 11
1121.744359688476
 21
402.955439087434
 31
0.0
  0
INSERT
  5
F39
330
F33
100
AcDbEntity
  8
ﾚｲﾔ1
 62
     1
370
    -2
100
AcDbBlockReference
  2
_OPEN
 10
1121.744359688476
 20
455.955439087434
 30
0.0
 41
3.0
 42
3.0
 43
3.0
 50
90.0
  0
INSERT
  5
F3A
330
F33
100
AcDbEntity
  8
ﾚｲﾔ1
 62
     1
370
    -2
100
AcDbBlockReference
  2
_OPEN
 10
1121.744359688476
 20
399.955439087434
 30
0.0
 41
3.0
 42
3.0
 43
3.0
 50
270.0
  0
MTEXT
  5
F3B
330
F33
100
AcDbEntity
  8
ﾚｲﾔ1
  6
Continuous
 62
     1
100
AcDbMText
 10
1118.944356636719
 20
427.955439087434
 30
0.0
 40
4.0
 41
0.0
 46
0.0
 71
     5
 72
     1
  1
\A1;\A1;56
  7
GMM001
 11
0.0
 21
1.0
 31
0.0
 73
     1
 44
1.0
  0
POINT
  5
F3C
330
F33
100
AcDbEntity
  8
Defpoints
 62
     0
100
AcDbPoint
 10
1028.649744968878
 20
455.955439087434
 30
0.0
  0
POINT
  5
F3D
330
F33
100
AcDbEntity
  8
Defpoints
 62
     0
100
AcDbPoint
 10
1030.679862624902
 20
399.955439087434
 30
0.0
  0
POINT
  5
F3E
330
F33
100
AcDbEntity
  8
Defpoints
 62
     0
100
AcDbPoint
 10
1121.744359688476
 20
399.955439087434
 30
0.0
  0
ENDBLK
  5
F35
330
F33
100
AcDbEntity
  8
0
100
AcDbBlockEnd
  0
BLOCK
  5
F40
330
F3F
100
AcDbEntity
  8
0
100
AcDbBlockBegin
  2
*D38
 70
     1
 10
0.0
 20
0.0
 30
0.0
  3
*D38
  1

  0
LINE
  5
F42
330
F3F
100
AcDbEntity
  8
ﾚｲﾔ1
  6
Continuous
 62
     1
370
    -2
100
AcDbLine
 10
960.1785078234534
 20
332.8831337941586
 30
0.0
 11
997.1785078234543
 21
332.8831337941586
 31
0.0
  0
INSERT
  5
F43
330
F3F
100
AcDbEntity
  8
ﾚｲﾔ1
 62
     1
370
    -2
100
AcDbBlockReference
  2
_OPEN
 10
957.1785078234534
 20
332.8831337941586
 30
0.0
 41
3.0
 42
3.0
 43
3.0
 50
180.0
  0
INSERT
  5
F44
330
F3F
100
AcDbEntity
  8
ﾚｲﾔ1
 62
     1
370
    -2
100
AcDbBlockReference
  2
_OPEN
 10
1000.178507823454
 20
332.8831337941586
 30
0.0
 41
3.0
 42
3.0
 43
3.0
  0
MTEXT
  5
F45
330
F3F
100
AcDbEntity
  8
ﾚｲﾔ1
  6
Continuous
 62
     1
100
AcDbMText
 10
978.6785078234539
 20
335.6831337941586
 30
0.0
 40
4.0
 41
0.0
 46
0.0
 71
     5
 72
     1
  1
\A1;\A1;%%c43
  7
GMM001
 73
     1
 44
1.0
  0
POINT
  5
F46
330
F3F
100
AcDbEntity
  8
Defpoints
 62
     0
100
AcDbPoint
 10
957.1785078234534
 20
332.8831337941586
 30
0.0
  0
POINT
  5
F47
330
F3F
100
AcDbEntity
  8
Defpoints
 62
     0
100
AcDbPoint
 10
1000.178507823454
 20
332.8831337941586
 30
0.0
  0
POINT
  5
F48
330
F3F
100
AcDbEntity
  8
Defpoints
 62
     0
100
AcDbPoint
 10
1000.178507823454
 20
332.8831337941586
 30
0.0
  0
ENDBLK
  5
F41
330
F3F
100
AcDbEntity
  8
0
100
AcDbBlockEnd
  0
BLOCK
  5
F4A
330
F49
100
AcDbEntity
  8
0
100
AcDbBlockBegin
  2
*D39
 70
     1
 10
0.0
 20
0.0
 30
0.0
  3
*D39
  1

  0
LINE
  5
F4C
330
F49
100
AcDbEntity
  8
ﾚｲﾔ1
  6
Continuous
 62
     1
370
    -2
100
AcDbLine
 10
1101.356339259156
 20
347.1218044500528
 30
0.0
 11
1114.246611223434
 21
349.394707105699
 31
0.0
  0
ARC
  5
F4D
330
F49
100
AcDbEntity
  8
ﾚｲﾔ1
  6
Continuous
 62
     1
370
    -2
100
AcDbCircle
 10
1032.178553599824
 20
334.9238948037287
 30
0.0
 40
81.33408960798091
100
AcDbArc
 50
2.113469084054845
 51
7.886530569671162
  0
INSERT
  5
F4E
330
F49
100
AcDbEntity
  8
ﾚｲﾔ1
 62
     1
370
    -2
100
AcDbBlockReference
  2
_DOT
 10
1113.512643207805
 20
334.9238948037287
 30
0.0
 41
3.0
 42
3.0
 43
3.0
 50
271.0567345420275
  0
SOLID
  5
F4F
330
F49
100
AcDbEntity
  8
ﾚｲﾔ1
 62
     1
100
AcDbTrace
 10
1113.23728620214
 20
346.1616106685502
 30
0.0
 11
1112.249443442727
 21
346.0061542995094
 31
0.0
 12
1112.276995715311
 22
349.0474107622687
 32
0.0
 13
1112.276995715311
 23
349.0474107622687
 33
0.0
  0
MTEXT
  5
F50
330
F49
100
AcDbEntity
  8
ﾚｲﾔ1
  6
Continuous
 62
     1
100
AcDbMText
 10
1113.448292280774
 20
345.7825689477671
 30
0.0
 40
4.0
 41
0.0
 46
0.0
 71
     5
 72
     1
  1
\A1;10%%d
  7
GMM001
 73
     1
 44
1.0
  0
POINT
  5
F51
330
F49
100
AcDbEntity
  8
Defpoints
 62
     0
100
AcDbPoint
 10
1032.178553599824
 20
334.9238948037287
 30
0.0
  0
POINT
  5
F52
330
F49
100
AcDbEntity
  8
Defpoints
 62
     0
100
AcDbPoint
 10
1113.512643207804
 20
334.9238948037287
 30
0.0
  0
POINT
  5
F53
330
F49
100
AcDbEntity
  8
Defpoints
 62
     0
100
AcDbPoint
 10
1100.371531505094
 20
346.9481562783377
 30
0.0
  0
POINT
  5
F54
330
F49
100
AcDbEntity
  8
Defpoints
 62
     0
100
AcDbPoint
 10
1113.375038810565
 20
339.6530513650004
 30
0.0
  0
ENDBLK
  5
F4B
330
F49
100
AcDbEntity
  8
0
100
AcDbBlockEnd
  0
BLOCK
  5
F56
330
F55
100
AcDbEntity
  8
0
100
AcDbBlockBegin
  2
*D40
 70
     1
 10
0.0
 20
0.0
 30
0.0
  3
*D40
  1

  0
LINE
  5
F58
330
F55
100
AcDbEntity
  8
ﾚｲﾔ1
  6
Continuous
 62
     1
370
    -2
100
AcDbLine
 10
997.8785047716945
 20
361.9238948037286
 30
0.0
 11
1125.512643207805
 21
361.9238948037286
 31
0.0
  0
LINE
  5
F59
330
F55
100
AcDbEntity
  8
ﾚｲﾔ1
  6
Continuous
 62
     1
370
    -2
100
AcDbLine
 10
1033.678507823454
 20
318.9238948037286
 30
0.0
 11
1125.512643207805
 21
318.9238948037286
 31
0.0
  0
LINE
  5
F5A
330
F55
100
AcDbEntity
  8
ﾚｲﾔ1
  6
Continuous
 62
     1
370
    -2
100
AcDbLine
 10
1123.512643207805
 20
358.9238948037286
 30
0.0
 11
1123.512643207805
 21
321.9238948037286
 31
0.0
  0
INSERT
  5
F5B
330
F55
100
AcDbEntity
  8
ﾚｲﾔ1
 62
     1
370
    -2
100
AcDbBlockReference
  2
_OPEN
 10
1123.512643207805
 20
361.9238948037286
 30
0.0
 41
3.0
 42
3.0
 43
3.0
 50
90.0
  0
INSERT
  5
F5C
330
F55
100
AcDbEntity
  8
ﾚｲﾔ1
 62
     1
370
    -2
100
AcDbBlockReference
  2
_OPEN
 10
1123.512643207805
 20
318.9238948037286
 30
0.0
 41
3.0
 42
3.0
 43
3.0
 50
270.0
  0
MTEXT
  5
F5D
330
F55
100
AcDbEntity
  8
ﾚｲﾔ1
  6
Continuous
 62
     1
100
AcDbMText
 10
1120.712655414836
 20
340.4238948037286
 30
0.0
 40
4.0
 41
0.0
 46
0.0
 71
     5
 72
     1
  1
\A1;\A1;43
  7
GMM001
 11
0.0
 21
1.0
 31
0.0
 73
     1
 44
1.0
  0
POINT
  5
F5E
330
F55
100
AcDbEntity
  8
Defpoints
 62
     0
100
AcDbPoint
 10
996.8785047716945
 20
361.9238948037286
 30
0.0
  0
POINT
  5
F5F
330
F55
100
AcDbEntity
  8
Defpoints
 62
     0
100
AcDbPoint
 10
1032.678507823454
 20
318.9238948037286
 30
0.0
  0
POINT
  5
F60
330
F55
100
AcDbEntity
  8
Defpoints
 62
     0
100
AcDbPoint
 10
1123.512643207805
 20
318.9238948037286
 30
0.0
  0
ENDBLK
  5
F57
330
F55
100
AcDbEntity
  8
0
100
AcDbBlockEnd
  0
BLOCK
  5
F62
330
F61
100
AcDbEntity
  8
0
100
AcDbBlockBegin
  2
*D41
 70
     1
 10
0.0
 20
0.0
 30
0.0
  3
*D41
  1

  0
LINE
  5
F64
330
F61
100
AcDbEntity
  8
ﾚｲﾔ1
  6
Continuous
 62
     1
370
    -2
100
AcDbLine
 10
1033.178507823454
 20
334.9238948037287
 30
0.0
 11
1115.512643207804
 21
334.9238948037287
 31
0.0
  0
LINE
  5
F65
330
F61
100
AcDbEntity
  8
ﾚｲﾔ1
  6
Continuous
 62
     1
370
    -2
100
AcDbLine
 10
1054.678507823454
 20
318.9238948037286
 30
0.0
 11
1115.512643207804
 21
318.9238948037286
 31
0.0
  0
LINE
  5
F66
330
F61
100
AcDbEntity
  8
ﾚｲﾔ1
  6
Continuous
 62
     1
370
    -2
100
AcDbLine
 10
1113.512643207804
 20
331.9238948037287
 30
0.0
 11
1113.512643207804
 21
321.9238948037286
 31
0.0
  0
INSERT
  5
F67
330
F61
100
AcDbEntity
  8
ﾚｲﾔ1
 62
     1
370
    -2
100
AcDbBlockReference
  2
_DOT
 10
1113.512643207804
 20
334.9238948037287
 30
0.0
 41
3.0
 42
3.0
 43
3.0
 50
90.0
  0
INSERT
  5
F68
330
F61
100
AcDbEntity
  8
ﾚｲﾔ1
 62
     1
370
    -2
100
AcDbBlockReference
  2
_OPEN
 10
1113.512643207804
 20
318.9238948037286
 30
0.0
 41
3.0
 42
3.0
 43
3.0
 50
270.0
  0
MTEXT
  5
F69
330
F61
100
AcDbEntity
  8
ﾚｲﾔ1
  6
Continuous
 62
     1
100
AcDbMText
 10
1110.712640156047
 20
326.9238948037286
 30
0.0
 40
4.0
 41
0.0
 46
0.0
 71
     5
 72
     1
  1
\A1;\A1;16
  7
GMM001
 11
0.0
 21
1.0
 31
0.0
 73
     1
 44
1.0
  0
POINT
  5
F6A
330
F61
100
AcDbEntity
  8
Defpoints
 62
     0
100
AcDbPoint
 10
1032.178507823454
 20
334.9238948037287
 30
0.0
  0
POINT
  5
F6B
330
F61
100
AcDbEntity
  8
Defpoints
 62
     0
100
AcDbPoint
 10
1053.678507823454
 20
318.9238948037286
 30
0.0
  0
POINT
  5
F6C
330
F61
100
AcDbEntity
  8
Defpoints
 62
     0
100
AcDbPoint
 10
1113.512643207804
 20
318.9238948037286
 30
0.0
  0
ENDBLK
  5
F63
330
F61
100
AcDbEntity
  8
0
100
AcDbBlockEnd
  0
BLOCK
  5
F6E
330
F6D
100
AcDbEntity
  8
0
100
AcDbBlockBegin
  2
*D42
 70
     1
 10
0.0
 20
0.0
 30
0.0
  3
*D42
  1

  0
LINE
  5
F70
330
F6D
100
AcDbEntity
  8
ﾚｲﾔ1
  6
Continuous
 62
     1
370
    -2
100
AcDbLine
 10
1059.678507823454
 20
361.9238948037286
 30
0.0
 11
1105.512643207804
 21
361.9238948037286
 31
0.0
  0
LINE
  5
F71
330
F6D
100
AcDbEntity
  8
ﾚｲﾔ1
  6
Continuous
 62
     1
370
    -2
100
AcDbLine
 10
1033.678507823454
 20
361.1239070107596
 30
0.0
 11
1105.512643207804
 21
361.1239070107596
 31
0.0
  0
LINE
  5
F72
330
F6D
100
AcDbEntity
  8
ﾚｲﾔ1
  6
Continuous
 62
     1
370
    -2
100
AcDbLine
 10
1103.512643207804
 20
361.9238948037286
 30
0.0
 11
1103.512643207804
 21
376.8572342405777
 31
0.0
  0
LINE
  5
F73
330
F6D
100
AcDbEntity
  8
ﾚｲﾔ1
  6
Continuous
 62
     1
370
    -2
100
AcDbLine
 10
1103.512643207804
 20
361.9238948037286
 30
0.0
 11
1103.512643207804
 21
361.1239070107596
 31
0.0
  0
LINE
  5
F74
330
F6D
100
AcDbEntity
  8
ﾚｲﾔ1
  6
Continuous
 62
     1
370
    -2
100
AcDbLine
 10
1103.512643207804
 20
364.9238948037286
 30
0.0
 11
1103.512643207804
 21
367.9238948037286
 31
0.0
  0
LINE
  5
F75
330
F6D
100
AcDbEntity
  8
ﾚｲﾔ1
  6
Continuous
 62
     1
370
    -2
100
AcDbLine
 10
1103.512643207804
 20
358.1239070107596
 30
0.0
 11
1103.512643207804
 21
355.1239070107596
 31
0.0
  0
INSERT
  5
F76
330
F6D
100
AcDbEntity
  8
ﾚｲﾔ1
 62
     1
370
    -2
100
AcDbBlockReference
  2
_OPEN
 10
1103.512643207804
 20
361.9238948037286
 30
0.0
 41
3.0
 42
3.0
 43
3.0
 50
270.0
  0
INSERT
  5
F77
330
F6D
100
AcDbEntity
  8
ﾚｲﾔ1
 62
     1
370
    -2
100
AcDbBlockReference
  2
_OPEN
 10
1103.512643207804
 20
361.1239070107596
 30
0.0
 41
3.0
 42
3.0
 43
3.0
 50
90.0
  0
MTEXT
  5
F78
330
F6D
100
AcDbEntity
  8
ﾚｲﾔ1
  6
Continuous
 62
     1
100
AcDbMText
 10
1100.712640156047
 20
372.3905645221531
 30
0.0
 40
4.0
 41
0.0
 46
0.0
 71
     5
 72
     1
  1
\A1;\A1;0.8
  7
GMM001
 11
0.0
 21
1.0
 31
0.0
 73
     1
 44
1.0
  0
POINT
  5
F79
330
F6D
100
AcDbEntity
  8
Defpoints
 62
     0
100
AcDbPoint
 10
1058.678507823454
 20
361.9238948037286
 30
0.0
  0
POINT
  5
F7A
330
F6D
100
AcDbEntity
  8
Defpoints
 62
     0
100
AcDbPoint
 10
1032.678507823454
 20
361.1239070107596
 30
0.0
  0
POINT
  5
F7B
330
F6D
100
AcDbEntity
  8
Defpoints
 62
     0
100
AcDbPoint
 10
1103.512643207804
 20
361.1239070107596
 30
0.0
  0
ENDBLK
  5
F6F
330
F6D
100
AcDbEntity
  8
0
100
AcDbBlockEnd
  0
BLOCK
  5
F7D
330
F7C
100
AcDbEntity
  8
0
100
AcDbBlockBegin
  2
*D43
 70
     1
 10
0.0
 20
0.0
 30
0.0
  3
*D43
  1

  0
LINE
  5
F7F
330
F7C
100
AcDbEntity
  8
ﾚｲﾔ1
  6
Continuous
 62
     1
370
    -2
100
AcDbLine
 10
997.6785078234543
 20
362.1239070107596
 30
0.0
 11
997.6785078234543
 21
388.9238948037285
 31
0.0
  0
LINE
  5
F80
330
F7C
100
AcDbEntity
  8
ﾚｲﾔ1
  6
Continuous
 62
     1
370
    -2
100
AcDbLine
 10
959.6785078234544
 20
362.1239070107596
 30
0.0
 11
959.6785078234544
 21
388.9238948037285
 31
0.0
  0
LINE
  5
F81
330
F7C
100
AcDbEntity
  8
ﾚｲﾔ1
  6
Continuous
 62
     1
370
    -2
100
AcDbLine
 10
994.6785078234543
 20
386.9238948037285
 30
0.0
 11
962.6785078234544
 21
386.9238948037285
 31
0.0
  0
INSERT
  5
F82
330
F7C
100
AcDbEntity
  8
ﾚｲﾔ1
 62
     1
370
    -2
100
AcDbBlockReference
  2
_OPEN
 10
997.6785078234543
 20
386.9238948037285
 30
0.0
 41
3.0
 42
3.0
 43
3.0
  0
INSERT
  5
F83
330
F7C
100
AcDbEntity
  8
ﾚｲﾔ1
 62
     1
370
    -2
100
AcDbBlockReference
  2
_OPEN
 10
959.6785078234544
 20
386.9238948037285
 30
0.0
 41
3.0
 42
3.0
 43
3.0
 50
180.0
  0
MTEXT
  5
F84
330
F7C
100
AcDbEntity
  8
ﾚｲﾔ1
  6
Continuous
 62
     1
100
AcDbMText
 10
978.6785101489044
 20
389.7238825966973
 30
0.0
 40
4.0
 41
0.0
 46
0.0
 71
     5
 72
     1
  1
\A1;\A1;%%c38
  7
GMM001
 73
     1
 44
1.0
  0
POINT
  5
F85
330
F7C
100
AcDbEntity
  8
Defpoints
 62
     0
100
AcDbPoint
 10
997.6785078234543
 20
361.1239070107596
 30
0.0
  0
POINT
  5
F86
330
F7C
100
AcDbEntity
  8
Defpoints
 62
     0
100
AcDbPoint
 10
959.6785078234544
 20
361.1239070107596
 30
0.0
  0
POINT
  5
F87
330
F7C
100
AcDbEntity
  8
Defpoints
 62
     0
100
AcDbPoint
 10
959.6785078234544
 20
386.9238948037285
 30
0.0
  0
ENDBLK
  5
F7E
330
F7C
100
AcDbEntity
  8
0
100
AcDbBlockEnd
  0
BLOCK
  5
FDE
330
FDD
100
AcDbEntity
  8
0
100
AcDbBlockBegin
  2
*D44
 70
     1
 10
0.0
 20
0.0
 30
0.0
  3
*D44
  1

  0
LINE
  5
FE0
330
FDD
100
AcDbEntity
  8
ﾚｲﾔ1
  6
Continuous
 62
     1
370
    -2
100
AcDbLine
 10
1174.520733971731
 20
419.5704199358227
 30
0.0
 11
1211.520733971732
 21
419.5704199358227
 31
0.0
  0
INSERT
  5
FE1
330
FDD
100
AcDbEntity
  8
ﾚｲﾔ1
 62
     1
370
    -2
100
AcDbBlockReference
  2
_OPEN
 10
1171.520733971731
 20
419.5704199358227
 30
0.0
 41
3.0
 42
3.0
 43
3.0
 50
180.0
  0
INSERT
  5
FE2
330
FDD
100
AcDbEntity
  8
ﾚｲﾔ1
 62
     1
370
    -2
100
AcDbBlockReference
  2
_OPEN
 10
1214.520733971732
 20
419.5704199358227
 30
0.0
 41
3.0
 42
3.0
 43
3.0
  0
MTEXT
  5
FE3
330
FDD
100
AcDbEntity
  8
ﾚｲﾔ1
  6
Continuous
 62
     1
100
AcDbMText
 10
1193.020733971732
 20
422.3704199358227
 30
0.0
 40
4.0
 41
0.0
 46
0.0
 71
     5
 72
     1
  1
\A1;\A1;%%c43
  7
GMM001
 73
     1
 44
1.0
  0
POINT
  5
FE4
330
FDD
100
AcDbEntity
  8
Defpoints
 62
     0
100
AcDbPoint
 10
1171.520733971731
 20
419.5704199358227
 30
0.0
  0
POINT
  5
FE5
330
FDD
100
AcDbEntity
  8
Defpoints
 62
     0
100
AcDbPoint
 10
1214.520733971732
 20
419.5704199358227
 30
0.0
  0
POINT
  5
FE6
330
FDD
100
AcDbEntity
  8
Defpoints
 62
     0
100
AcDbPoint
 10
1214.520733971732
 20
419.5704199358227
 30
0.0
  0
ENDBLK
  5
FDF
330
FDD
100
AcDbEntity
  8
0
100
AcDbBlockEnd
  0
BLOCK
  5
FE8
330
FE7
100
AcDbEntity
  8
0
100
AcDbBlockBegin
  2
*D45
 70
     1
 10
0.0
 20
0.0
 30
0.0
  3
*D45
  1

  0
LINE
  5
FEA
330
FE7
100
AcDbEntity
  8
ﾚｲﾔ1
  6
Continuous
 62
     1
370
    -2
100
AcDbLine
 10
1315.698565407434
 20
433.8090905917169
 30
0.0
 11
1328.588837371712
 21
436.0819932473631
 31
0.0
  0
ARC
  5
FEB
330
FE7
100
AcDbEntity
  8
ﾚｲﾔ1
  6
Continuous
 62
     1
370
    -2
100
AcDbCircle
 10
1246.520779748102
 20
421.6111809453928
 30
0.0
 40
81.33408960798091
100
AcDbArc
 50
2.113469084054845
 51
7.886530569671162
  0
INSERT
  5
FEC
330
FE7
100
AcDbEntity
  8
ﾚｲﾔ1
 62
     1
370
    -2
100
AcDbBlockReference
  2
_DOT
 10
1327.854869356083
 20
421.6111809453928
 30
0.0
 41
3.0
 42
3.0
 43
3.0
 50
271.0567345420275
  0
SOLID
  5
FED
330
FE7
100
AcDbEntity
  8
ﾚｲﾔ1
 62
     1
100
AcDbTrace
 10
1327.579512350418
 20
432.8488968102143
 30
0.0
 11
1326.591669591005
 21
432.6934404411735
 31
0.0
 12
1326.619221863589
 22
435.7346969039328
 32
0.0
 13
1326.619221863589
 23
435.7346969039328
 33
0.0
  0
MTEXT
  5
FEE
330
FE7
100
AcDbEntity
  8
ﾚｲﾔ1
  6
Continuous
 62
     1
100
AcDbMText
 10
1327.790518429052
 20
432.4698550894312
 30
0.0
 40
4.0
 41
0.0
 46
0.0
 71
     5
 72
     1
  1
\A1;10%%d
  7
GMM001
 73
     1
 44
1.0
  0
POINT
  5
FEF
330
FE7
100
AcDbEntity
  8
Defpoints
 62
     0
100
AcDbPoint
 10
1246.520779748102
 20
421.6111809453928
 30
0.0
  0
POINT
  5
FF0
330
FE7
100
AcDbEntity
  8
Defpoints
 62
     0
100
AcDbPoint
 10
1327.854869356082
 20
421.6111809453928
 30
0.0
  0
POINT
  5
FF1
330
FE7
100
AcDbEntity
  8
Defpoints
 62
     0
100
AcDbPoint
 10
1314.713757653372
 20
433.6354424200018
 30
0.0
  0
POINT
  5
FF2
330
FE7
100
AcDbEntity
  8
Defpoints
 62
     0
100
AcDbPoint
 10
1327.717264958843
 20
426.3403375066645
 30
0.0
  0
ENDBLK
  5
FE9
330
FE7
100
AcDbEntity
  8
0
100
AcDbBlockEnd
  0
BLOCK
  5
FF4
330
FF3
100
AcDbEntity
  8
0
100
AcDbBlockBegin
  2
*D46
 70
     1
 10
0.0
 20
0.0
 30
0.0
  3
*D46
  1

  0
LINE
  5
FF6
330
FF3
100
AcDbEntity
  8
ﾚｲﾔ1
  6
Continuous
 62
     1
370
    -2
100
AcDbLine
 10
1212.220730919972
 20
448.6111809453927
 30
0.0
 11
1339.854869356082
 21
448.6111809453927
 31
0.0
  0
LINE
  5
FF7
330
FF3
100
AcDbEntity
  8
ﾚｲﾔ1
  6
Continuous
 62
     1
370
    -2
100
AcDbLine
 10
1248.020733971732
 20
405.6111809453927
 30
0.0
 11
1339.854869356082
 21
405.6111809453927
 31
0.0
  0
LINE
  5
FF8
330
FF3
100
AcDbEntity
  8
ﾚｲﾔ1
  6
Continuous
 62
     1
370
    -2
100
AcDbLine
 10
1337.854869356082
 20
445.6111809453927
 30
0.0
 11
1337.854869356082
 21
408.6111809453927
 31
0.0
  0
INSERT
  5
FF9
330
FF3
100
AcDbEntity
  8
ﾚｲﾔ1
 62
     1
370
    -2
100
AcDbBlockReference
  2
_OPEN
 10
1337.854869356082
 20
448.6111809453927
 30
0.0
 41
3.0
 42
3.0
 43
3.0
 50
90.0
  0
INSERT
  5
FFA
330
FF3
100
AcDbEntity
  8
ﾚｲﾔ1
 62
     1
370
    -2
100
AcDbBlockReference
  2
_OPEN
 10
1337.854869356082
 20
405.6111809453927
 30
0.0
 41
3.0
 42
3.0
 43
3.0
 50
270.0
  0
MTEXT
  5
FFB
330
FF3
100
AcDbEntity
  8
ﾚｲﾔ1
  6
Continuous
 62
     1
100
AcDbMText
 10
1335.054881563114
 20
427.1111809453927
 30
0.0
 40
4.0
 41
0.0
 46
0.0
 71
     5
 72
     1
  1
\A1;\A1;43
  7
GMM001
 11
0.0
 21
1.0
 31
0.0
 73
     1
 44
1.0
  0
POINT
  5
FFC
330
FF3
100
AcDbEntity
  8
Defpoints
 62
     0
100
AcDbPoint
 10
1211.220730919972
 20
448.6111809453927
 30
0.0
  0
POINT
  5
FFD
330
FF3
100
AcDbEntity
  8
Defpoints
 62
     0
100
AcDbPoint
 10
1247.020733971732
 20
405.6111809453927
 30
0.0
  0
POINT
  5
FFE
330
FF3
100
AcDbEntity
  8
Defpoints
 62
     0
100
AcDbPoint
 10
1337.854869356082
 20
405.6111809453927
 30
0.0
  0
ENDBLK
  5
FF5
330
FF3
100
AcDbEntity
  8
0
100
AcDbBlockEnd
  0
BLOCK
  5
1000
330
FFF
100
AcDbEntity
  8
0
100
AcDbBlockBegin
  2
*D47
 70
     1
 10
0.0
 20
0.0
 30
0.0
  3
*D47
  1

  0
LINE
  5
1002
330
FFF
100
AcDbEntity
  8
ﾚｲﾔ1
  6
Continuous
 62
     1
370
    -2
100
AcDbLine
 10
1247.520733971732
 20
421.6111809453928
 30
0.0
 11
1329.854869356082
 21
421.6111809453928
 31
0.0
  0
LINE
  5
1003
330
FFF
100
AcDbEntity
  8
ﾚｲﾔ1
  6
Continuous
 62
     1
370
    -2
100
AcDbLine
 10
1269.020733971732
 20
405.6111809453927
 30
0.0
 11
1329.854869356082
 21
405.6111809453927
 31
0.0
  0
LINE
  5
1004
330
FFF
100
AcDbEntity
  8
ﾚｲﾔ1
  6
Continuous
 62
     1
370
    -2
100
AcDbLine
 10
1327.854869356082
 20
418.6111809453928
 30
0.0
 11
1327.854869356082
 21
408.6111809453927
 31
0.0
  0
INSERT
  5
1005
330
FFF
100
AcDbEntity
  8
ﾚｲﾔ1
 62
     1
370
    -2
100
AcDbBlockReference
  2
_DOT
 10
1327.854869356082
 20
421.6111809453928
 30
0.0
 41
3.0
 42
3.0
 43
3.0
 50
90.0
  0
INSERT
  5
1006
330
FFF
100
AcDbEntity
  8
ﾚｲﾔ1
 62
     1
370
    -2
100
AcDbBlockReference
  2
_OPEN
 10
1327.854869356082
 20
405.6111809453927
 30
0.0
 41
3.0
 42
3.0
 43
3.0
 50
270.0
  0
MTEXT
  5
1007
330
FFF
100
AcDbEntity
  8
ﾚｲﾔ1
  6
Continuous
 62
     1
100
AcDbMText
 10
1325.054866304324
 20
413.6111809453927
 30
0.0
 40
4.0
 41
0.0
 46
0.0
 71
     5
 72
     1
  1
\A1;\A1;16
  7
GMM001
 11
0.0
 21
1.0
 31
0.0
 73
     1
 44
1.0
  0
POINT
  5
1008
330
FFF
100
AcDbEntity
  8
Defpoints
 62
     0
100
AcDbPoint
 10
1246.520733971732
 20
421.6111809453928
 30
0.0
  0
POINT
  5
1009
330
FFF
100
AcDbEntity
  8
Defpoints
 62
     0
100
AcDbPoint
 10
1268.020733971732
 20
405.6111809453927
 30
0.0
  0
POINT
  5
100A
330
FFF
100
AcDbEntity
  8
Defpoints
 62
     0
100
AcDbPoint
 10
1327.854869356082
 20
405.6111809453927
 30
0.0
  0
ENDBLK
  5
1001
330
FFF
100
AcDbEntity
  8
0
100
AcDbBlockEnd
  0
BLOCK
  5
100C
330
100B
100
AcDbEntity
  8
0
100
AcDbBlockBegin
  2
*D48
 70
     1
 10
0.0
 20
0.0
 30
0.0
  3
*D48
  1

  0
LINE
  5
100E
330
100B
100
AcDbEntity
  8
ﾚｲﾔ1
  6
Continuous
 62
     1
370
    -2
100
AcDbLine
 10
1274.020733971732
 20
448.6111809453927
 30
0.0
 11
1319.854869356082
 21
448.6111809453927
 31
0.0
  0
LINE
  5
100F
330
100B
100
AcDbEntity
  8
ﾚｲﾔ1
  6
Continuous
 62
     1
370
    -2
100
AcDbLine
 10
1248.020733971732
 20
447.8111931524237
 30
0.0
 11
1319.854869356082
 21
447.8111931524237
 31
0.0
  0
LINE
  5
1010
330
100B
100
AcDbEntity
  8
ﾚｲﾔ1
  6
Continuous
 62
     1
370
    -2
100
AcDbLine
 10
1317.854869356082
 20
448.6111809453927
 30
0.0
 11
1317.854869356082
 21
463.5445203822418
 31
0.0
  0
LINE
  5
1011
330
100B
100
AcDbEntity
  8
ﾚｲﾔ1
  6
Continuous
 62
     1
370
    -2
100
AcDbLine
 10
1317.854869356082
 20
448.6111809453927
 30
0.0
 11
1317.854869356082
 21
447.8111931524237
 31
0.0
  0
LINE
  5
1012
330
100B
100
AcDbEntity
  8
ﾚｲﾔ1
  6
Continuous
 62
     1
370
    -2
100
AcDbLine
 10
1317.854869356082
 20
451.6111809453927
 30
0.0
 11
1317.854869356082
 21
454.6111809453927
 31
0.0
  0
LINE
  5
1013
330
100B
100
AcDbEntity
  8
ﾚｲﾔ1
  6
Continuous
 62
     1
370
    -2
100
AcDbLine
 10
1317.854869356082
 20
444.8111931524237
 30
0.0
 11
1317.854869356082
 21
441.8111931524237
 31
0.0
  0
INSERT
  5
1014
330
100B
100
AcDbEntity
  8
ﾚｲﾔ1
 62
     1
370
    -2
100
AcDbBlockReference
  2
_OPEN
 10
1317.854869356082
 20
448.6111809453927
 30
0.0
 41
3.0
 42
3.0
 43
3.0
 50
270.0
  0
INSERT
  5
1015
330
100B
100
AcDbEntity
  8
ﾚｲﾔ1
 62
     1
370
    -2
100
AcDbBlockReference
  2
_OPEN
 10
1317.854869356082
 20
447.8111931524237
 30
0.0
 41
3.0
 42
3.0
 43
3.0
 50
90.0
  0
MTEXT
  5
1016
330
100B
100
AcDbEntity
  8
ﾚｲﾔ1
  6
Continuous
 62
     1
100
AcDbMText
 10
1315.054866304324
 20
459.0778506638172
 30
0.0
 40
4.0
 41
0.0
 46
0.0
 71
     5
 72
     1
  1
\A1;\A1;0.8
  7
GMM001
 11
0.0
 21
1.0
 31
0.0
 73
     1
 44
1.0
  0
POINT
  5
1017
330
100B
100
AcDbEntity
  8
Defpoints
 62
     0
100
AcDbPoint
 10
1273.020733971732
 20
448.6111809453927
 30
0.0
  0
POINT
  5
1018
330
100B
100
AcDbEntity
  8
Defpoints
 62
     0
100
AcDbPoint
 10
1247.020733971732
 20
447.8111931524237
 30
0.0
  0
POINT
  5
1019
330
100B
100
AcDbEntity
  8
Defpoints
 62
     0
100
AcDbPoint
 10
1317.854869356082
 20
447.8111931524237
 30
0.0
  0
ENDBLK
  5
100D
330
100B
100
AcDbEntity
  8
0
100
AcDbBlockEnd
  0
BLOCK
  5
101B
330
101A
100
AcDbEntity
  8
0
100
AcDbBlockBegin
  2
*D49
 70
     1
 10
0.0
 20
0.0
 30
0.0
  3
*D49
  1

  0
LINE
  5
101D
330
101A
100
AcDbEntity
  8
ﾚｲﾔ1
  6
Continuous
 62
     1
370
    -2
100
AcDbLine
 10
1212.020733971732
 20
448.8111931524237
 30
0.0
 11
1212.020733971732
 21
475.6111809453926
 31
0.0
  0
LINE
  5
101E
330
101A
100
AcDbEntity
  8
ﾚｲﾔ1
  6
Continuous
 62
     1
370
    -2
100
AcDbLine
 10
1174.020733971732
 20
448.8111931524237
 30
0.0
 11
1174.020733971732
 21
475.6111809453926
 31
0.0
  0
LINE
  5
101F
330
101A
100
AcDbEntity
  8
ﾚｲﾔ1
  6
Continuous
 62
     1
370
    -2
100
AcDbLine
 10
1209.020733971732
 20
473.6111809453926
 30
0.0
 11
1177.020733971732
 21
473.6111809453926
 31
0.0
  0
INSERT
  5
1020
330
101A
100
AcDbEntity
  8
ﾚｲﾔ1
 62
     1
370
    -2
100
AcDbBlockReference
  2
_OPEN
 10
1212.020733971732
 20
473.6111809453926
 30
0.0
 41
3.0
 42
3.0
 43
3.0
  0
INSERT
  5
1021
330
101A
100
AcDbEntity
  8
ﾚｲﾔ1
 62
     1
370
    -2
100
AcDbBlockReference
  2
_OPEN
 10
1174.020733971732
 20
473.6111809453926
 30
0.0
 41
3.0
 42
3.0
 43
3.0
 50
180.0
  0
MTEXT
  5
1022
330
101A
100
AcDbEntity
  8
ﾚｲﾔ1
  6
Continuous
 62
     1
100
AcDbMText
 10
1193.020736297182
 20
476.4111687383614
 30
0.0
 40
4.0
 41
0.0
 46
0.0
 71
     5
 72
     1
  1
\A1;\A1;%%c38
  7
GMM001
 73
     1
 44
1.0
  0
POINT
  5
1023
330
101A
100
AcDbEntity
  8
Defpoints
 62
     0
100
AcDbPoint
 10
1212.020733971732
 20
447.8111931524237
 30
0.0
  0
POINT
  5
1024
330
101A
100
AcDbEntity
  8
Defpoints
 62
     0
100
AcDbPoint
 10
1174.020733971732
 20
447.8111931524237
 30
0.0
  0
POINT
  5
1025
330
101A
100
AcDbEntity
  8
Defpoints
 62
     0
100
AcDbPoint
 10
1174.020733971732
 20
473.6111809453926
 30
0.0
  0
ENDBLK
  5
101C
330
101A
100
AcDbEntity
  8
0
100
AcDbBlockEnd
  0
ENDSEC
  0
SECTION
  2
ENTITIES
  0
LWPOLYLINE
  5
CD3
330
18
100
AcDbEntity
  8
ﾚｲﾔ1
100
AcDbPolyline
 90
        4
 70
     1
 43
0.0
 10
890.5308160861155
 20
625.6019341646137
 10
1425.138446896618
 20
625.6019341646137
 10
1425.138446896618
 20
247.601904177936
 10
890.5308160861155
 20
247.601904177936
  0
LINE
  5
CD4
330
18
100
AcDbEntity
  8
図面枠
  6
Continuous
100
AcDbLine
 10
1396.523919772975
 20
609.8940368200562
 30
0.0
 11
914.6767146109619
 21
609.8940368200562
 31
0.0
  0
LINE
  5
CD5
330
18
100
AcDbEntity
  8
図面枠
  6
Continuous
100
AcDbLine
 10
918.4313681576882
 20
606.1393832733298
 30
0.0
 11
1392.769266226179
 21
606.1393832733298
 31
0.0
  0
LINE
  5
CD6
330
18
100
AcDbEntity
  8
図面枠
  6
Continuous
100
AcDbLine
 10
914.6767146109619
 20
609.8940368200562
 30
0.0
 11
914.6767146109619
 21
269.4721152510636
 31
0.0
  0
LINE
  5
CD7
330
18
100
AcDbEntity
  8
図面枠
  6
Continuous
100
AcDbLine
 10
918.4313681576882
 20
273.2267687977899
 30
0.0
 11
918.4313681576882
 21
606.1393832733298
 31
0.0
  0
LINE
  5
CD8
330
18
100
AcDbEntity
  8
図面枠
  6
Continuous
100
AcDbLine
 10
1392.769266226179
 20
273.2267687977899
 30
0.0
 11
918.4313681576882
 21
273.2267687977899
 31
0.0
  0
LINE
  5
CD9
330
18
100
AcDbEntity
  8
図面枠
  6
Continuous
100
AcDbLine
 10
1396.523919772975
 20
269.4721152510636
 30
0.0
 11
914.6767146109619
 21
269.4721152510636
 31
0.0
  0
LINE
  5
CDA
330
18
100
AcDbEntity
  8
図面枠
  6
Continuous
100
AcDbLine
 10
1392.769266226179
 20
285.7422806201645
 30
0.0
 11
1340.20411657215
 21
285.7422806201645
 31
0.0
  0
LINE
  5
CDB
330
18
100
AcDbEntity
  8
図面枠
  6
Continuous
100
AcDbLine
 10
1313.921541745171
 20
294.3779837776351
 30
0.0
 11
1388.764302443097
 21
294.3779837776351
 31
0.0
  0
LINE
  5
CDC
330
18
100
AcDbEntity
  8
図面枠
  6
Continuous
100
AcDbLine
 10
1340.20411657215
 20
273.2267687977899
 30
0.0
 11
1392.769266226179
 21
273.2267687977899
 31
0.0
  0
LINE
  5
CDD
330
18
100
AcDbEntity
  8
図面枠
  6
Continuous
100
AcDbLine
 10
1310.166888198479
 20
304.5155483537263
 30
0.0
 11
1392.769266226179
 21
304.5155483537263
 31
0.0
  0
LINE
  5
CDE
330
18
100
AcDbEntity
  8
図面枠
  6
Continuous
100
AcDbLine
 10
1392.769266226179
 20
304.5155483537263
 30
0.0
 11
1303.909132287292
 21
304.5155483537263
 31
0.0
  0
LINE
  5
CDF
330
18
100
AcDbEntity
  8
図面枠
  6
Continuous
100
AcDbLine
 10
1392.769266226179
 20
285.7422806201645
 30
0.0
 11
1310.166888198479
 21
285.7422806201645
 31
0.0
  0
MTEXT
  5
CE0
330
18
100
AcDbEntity
  8
図面枠
370
    30
100
AcDbMText
 10
1310.984289074854
 20
268.4688689865081
 30
0.0
 40
5.506825201851218
 41
90.88674212557531
 46
0.0
 71
     1
 72
     5
  1
株式会社　関東油機サービス
 73
     1
 44
1.0
  0
LINE
  5
CE1
330
18
100
AcDbEntity
  8
図面枠
  6
Continuous
100
AcDbLine
 10
1321.430848838623
 20
285.7422806201645
 30
0.0
 11
1303.909132287292
 21
285.7422806201645
 31
0.0
  0
LINE
  5
CE2
330
18
100
AcDbEntity
  8
図面枠
  6
Continuous
100
AcDbLine
 10
1303.909132287292
 20
279.4845247089772
 30
0.0
 11
1335.197911843263
 21
279.4845247089772
 31
0.0
  0
LINE
  5
CE3
330
18
100
AcDbEntity
  8
図面枠
  6
Continuous
100
AcDbLine
 10
1303.909132287292
 20
273.2267687977899
 30
0.0
 11
1321.430848838623
 21
273.2267687977899
 31
0.0
  0
MTEXT
  5
CE4
330
18
100
AcDbEntity
  8
ﾚｲﾔ1
100
AcDbMText
 10
1314.440798886098
 20
290.1503885554757
 30
0.0
 40
3.78
 41
70.96295203294494
 46
3.78
 71
     1
 72
     5
  1
{SM-101}
 73
     1
 44
1.0
  0
MTEXT
  5
CE5
330
18
100
AcDbEntity
  8
ﾚｲﾔ1
100
AcDbMText
 10
1314.233138709296
 20
299.0976481265065
 30
0.0
 40
3.78
 41
70.96295203294471
 46
3.78
 71
     1
 72
     5
  1
{100KN11st 単動ジャッキ}
 73
     1
 44
1.0
  0
LINE
  5
CE6
330
18
100
AcDbEntity
  8
図面枠
  6
Continuous
100
AcDbLine
 10
1303.909132287292
 20
298.257792442539
 30
0.0
 11
1303.909132287292
 21
292.0000365313517
 31
0.0
  0
LINE
  5
CE7
330
18
100
AcDbEntity
  8
図面枠
  6
Continuous
100
AcDbLine
 10
1303.909132287292
 20
292.0000365313517
 30
0.0
 11
1303.909132287292
 21
285.7422806201645
 31
0.0
  0
LINE
  5
CE8
330
18
100
AcDbEntity
  8
図面枠
  6
Continuous
100
AcDbLine
 10
1303.909132287292
 20
285.7422806201645
 30
0.0
 11
1303.909132287292
 21
273.2267687977899
 31
0.0
  0
LINE
  5
CE9
330
18
100
AcDbEntity
  8
図面枠
  6
Continuous
100
AcDbLine
 10
1303.909132287292
 20
285.7422806201645
 30
0.0
 11
1310.166888198479
 21
285.7422806201645
 31
0.0
  0
LINE
  5
CEA
330
18
100
AcDbEntity
  8
図面枠
  6
Continuous
100
AcDbLine
 10
1303.909132287292
 20
304.5155483537263
 30
0.0
 11
1303.909132287292
 21
285.7422806201645
 31
0.0
  0
LINE
  5
CEB
330
18
100
AcDbEntity
  8
図面枠
  6
Continuous
100
AcDbLine
 10
1310.166888198479
 20
285.7422806201645
 30
0.0
 11
1310.166888198479
 21
304.5155483537263
 31
0.0
  0
LINE
  5
CEC
330
18
100
AcDbEntity
  8
図面枠
  6
Continuous
100
AcDbLine
 10
1303.909132287292
 20
273.2267687977899
 30
0.0
 11
1303.909132287292
 21
285.7422806201645
 31
0.0
  0
LINE
  5
CED
330
18
100
AcDbEntity
  8
図面枠
  6
Continuous
100
AcDbLine
 10
1303.909132287292
 20
304.5155483537263
 30
0.0
 11
1303.909132287292
 21
298.257792442539
 31
0.0
  0
LINE
  5
CEE
330
18
100
AcDbEntity
  8
図面枠
  6
Continuous
100
AcDbLine
 10
1310.166888198479
 20
304.5155483537263
 30
0.0
 11
1303.909132287292
 21
304.5155483537263
 31
0.0
  0
LINE
  5
CEF
330
18
100
AcDbEntity
  8
図面枠
  6
Continuous
100
AcDbLine
 10
1310.166888198479
 20
285.7422806201645
 30
0.0
 11
1310.166888198479
 21
304.5155483537263
 31
0.0
  0
TEXT
  5
CF1
330
18
100
AcDbEntity
  8
図面枠
100
AcDbText
 10
1306.989227020067
 20
273.901028326005
 30
0.0
 40
3.754653546716742
  1
１：2
100
AcDbText
  0
TEXT
  5
CF2
330
18
100
AcDbEntity
  8
図面枠
100
AcDbText
 10
1306.123542976381
 20
280.0597016617332
 30
0.0
 40
5.006204728955655
  1
尺度
 41
1.125
100
AcDbText
  0
LINE
  5
CF3
330
18
100
AcDbEntity
  8
図面枠
  6
Continuous
100
AcDbLine
 10
1340.20411657215
 20
273.2267687977899
 30
0.0
 11
1340.20411657215
 21
285.7422806201645
 31
0.0
  0
LINE
  5
CF4
330
18
100
AcDbEntity
  8
図面枠
  6
Continuous
100
AcDbLine
 10
1340.20411657215
 20
285.7422806201645
 30
0.0
 11
1335.197911843263
 21
285.7422806201645
 31
0.0
  0
LINE
  5
CF5
330
18
100
AcDbEntity
  8
図面枠
  6
Continuous
100
AcDbLine
 10
1335.197911843263
 20
273.2267687977899
 30
0.0
 11
1340.20411657215
 21
273.2267687977899
 31
0.0
  0
LINE
  5
CF6
330
18
100
AcDbEntity
  8
図面枠
  6
Continuous
100
AcDbLine
 10
1335.197911843263
 20
285.7422806201645
 30
0.0
 11
1321.430848838623
 21
285.7422806201645
 31
0.0
  0
LINE
  5
CF7
330
18
100
AcDbEntity
  8
図面枠
  6
Continuous
100
AcDbLine
 10
1335.197911843263
 20
285.7422806201645
 30
0.0
 11
1335.197911843263
 21
273.2267687977899
 31
0.0
  0
LINE
  5
CF8
330
18
100
AcDbEntity
  8
図面枠
  6
Continuous
100
AcDbLine
 10
1321.430848838623
 20
285.7422806201645
 30
0.0
 11
1321.430848838623
 21
273.2267687977899
 31
0.0
  0
LINE
  5
CF9
330
18
100
AcDbEntity
  8
図面枠
  6
Continuous
100
AcDbLine
 10
1335.197911843263
 20
273.2267687977899
 30
0.0
 11
1335.197911843263
 21
285.7422806201645
 31
0.0
  0
LINE
  5
CFA
330
18
100
AcDbEntity
  8
図面枠
  6
Continuous
100
AcDbLine
 10
1321.430848838623
 20
273.2267687977899
 30
0.0
 11
1335.197911843263
 21
273.2267687977899
 31
0.0
  0
LINE
  5
CFB
330
18
100
AcDbEntity
  8
図面枠
  6
Continuous
100
AcDbLine
 10
1340.20411657215
 20
285.7422806201645
 30
0.0
 11
1340.20411657215
 21
273.2267687977899
 31
0.0
  0
LINE
  5
CFC
330
18
100
AcDbEntity
  8
図面枠
  6
Continuous
100
AcDbLine
 10
1321.430848838623
 20
273.2267687977899
 30
0.0
 11
1321.430848838623
 21
285.7422806201645
 31
0.0
  0
TEXT
  5
CFD
330
18
100
AcDbEntity
  8
図面枠
100
AcDbText
 10
1336.011420111697
 20
274.8537853346581
 30
0.0
 40
3.754653546716742
  1
番
100
AcDbText
  0
TEXT
  5
CFE
330
18
100
AcDbEntity
  8
図面枠
100
AcDbText
 10
1336.011420111697
 20
280.765374873034
 30
0.0
 40
3.754653546716742
  1
図
100
AcDbText
  0
LINE
  5
CFF
330
18
100
AcDbEntity
  8
図面枠
  6
Continuous
100
AcDbLine
 10
1392.769266226179
 20
304.5155483537263
 30
0.0
 11
1392.769266226179
 21
285.7422806201645
 31
0.0
  0
LINE
  5
D00
330
18
100
AcDbEntity
  8
図面枠
  6
Continuous
100
AcDbLine
 10
1392.769266226179
 20
273.2267687977899
 30
0.0
 11
1392.769266226179
 21
285.7422806201645
 31
0.0
  0
LINE
  5
D01
330
18
100
AcDbEntity
  8
ﾚｲﾔ1
100
AcDbLine
 10
1273.37698434496
 20
534.8264369571258
 30
0.0
 11
1379.573442186941
 21
534.8264369571258
 31
0.0
  0
LINE
  5
D02
330
18
100
AcDbEntity
  8
ﾚｲﾔ1
100
AcDbLine
 10
1273.37698434496
 20
554.2664369571397
 30
0.0
 11
1379.573442186941
 21
554.2664369571397
 31
0.0
  0
LINE
  5
D03
330
18
100
AcDbEntity
  8
ﾚｲﾔ1
100
AcDbLine
 10
1273.37698434496
 20
573.7064369570838
 30
0.0
 11
1379.573442186941
 21
573.7064369570838
 31
0.0
  0
LINE
  5
D04
330
18
100
AcDbEntity
  8
ﾚｲﾔ1
100
AcDbLine
 10
1273.37698434496
 20
563.9864369571118
 30
0.0
 11
1379.573442186941
 21
563.9864369571118
 31
0.0
  0
LINE
  5
D05
330
18
100
AcDbEntity
  8
ﾚｲﾔ1
100
AcDbLine
 10
1273.37698434496
 20
583.4264369571258
 30
0.0
 11
1379.573442186941
 21
583.4264369571258
 31
0.0
  0
LINE
  5
D06
330
18
100
AcDbEntity
  8
ﾚｲﾔ1
100
AcDbLine
 10
1273.37698434496
 20
544.5464369570979
 30
0.0
 11
1379.573442186941
 21
544.5464369570979
 31
0.0
  0
LINE
  5
D07
330
18
100
AcDbEntity
  8
ﾚｲﾔ1
100
AcDbLine
 10
1273.37698434496
 20
525.1064369571537
 30
0.0
 11
1379.573442186941
 21
525.1064369571537
 31
0.0
  0
MTEXT
  5
D08
330
18
100
AcDbEntity
  8
ﾚｲﾔ1
100
AcDbMText
 10
1273.748420546194
 20
528.7467546022872
 30
0.0
 40
3.239999999999997
 41
521.5612668193587
 46
0.0
 71
     1
 72
     5
  1
重　　量
 73
     1
 44
1.0
101
Embedded Object
 70
     1
 10
1.0
 20
0.0
 30
0.0
 11
1273.748420546194
 21
528.7467546022872
 31
0.0
 40
521.5612668193587
 41
0.0
 42
14.41799999999999
 43
3.239999999999997
 71
     2
 72
     1
 44
521.5612668193587
 45
27.0
 73
     0
 74
     0
 46
0.0
  0
MTEXT
  5
D09
330
18
100
AcDbEntity
  8
ﾚｲﾔ1
100
AcDbMText
 10
1273.951697293682
 20
587.7295865693271
 30
0.0
 40
3.78
 41
521.5612668193587
 46
0.0
 71
     1
 72
     5
  1
能　　力
 73
     1
 44
1.0
101
Embedded Object
 70
     1
 10
1.0
 20
0.0
 30
0.0
 11
1273.951697293682
 21
587.7295865693271
 31
0.0
 40
521.5612668193587
 41
0.0
 42
16.506
 43
3.78
 71
     2
 72
     1
 44
521.5612668193587
 45
27.0
 73
     0
 74
     0
 46
0.0
  0
MTEXT
  5
D0A
330
18
100
AcDbEntity
  8
ﾚｲﾔ1
100
AcDbMText
 10
1274.487105773158
 20
539.1681415353578
 30
0.0
 40
3.239999999999997
 41
521.5612668193587
 46
0.0
 71
     1
 72
     5
  1
ロ　ッ　ド　径
 73
     1
 44
1.0
101
Embedded Object
 70
     1
 10
1.0
 20
0.0
 30
0.0
 11
1274.487105773158
 21
539.1681415353578
 31
0.0
 40
521.5612668193587
 41
0.0
 42
25.59599999999998
 43
3.239999999999997
 71
     2
 72
     1
 44
521.5612668193587
 45
27.0
 73
     0
 74
     0
 46
0.0
  0
MTEXT
  5
D0B
330
18
100
AcDbEntity
  8
ﾚｲﾔ1
100
AcDbMText
 10
1273.832848567843
 20
558.8629010247907
 30
0.0
 40
3.78
 41
521.5612668193587
 46
0.0
 71
     1
 72
     5
  1
使　用　圧　力
 73
     1
 44
1.0
101
Embedded Object
 70
     1
 10
1.0
 20
0.0
 30
0.0
 11
1273.832848567843
 21
558.8629010247907
 31
0.0
 40
521.5612668193587
 41
0.0
 42
30.36600000000001
 43
3.78
 71
     2
 72
     1
 44
521.5612668193587
 45
27.0
 73
     0
 74
     0
 46
0.0
  0
MTEXT
  5
D0C
330
18
100
AcDbEntity
  8
ﾚｲﾔ1
100
AcDbMText
 10
1273.897419273412
 20
568.3100422901709
 30
0.0
 40
3.78
 41
521.5612668193584
 46
6.3
 71
     1
 72
     5
  1
{ス　ト　ロ　-　ク}
 73
     1
 44
1.0
  0
MTEXT
  5
D0D
330
18
100
AcDbEntity
  8
ﾚｲﾔ1
100
AcDbMText
 10
1273.860146354257
 20
549.3114258929065
 30
0.0
 40
3.78
 41
521.5612668193587
 46
0.0
 71
     1
 72
     5
  1
受　圧　面　積
 73
     1
 44
1.0
101
Embedded Object
 70
     1
 10
1.0
 20
0.0
 30
0.0
 11
1273.860146354257
 21
549.3114258929065
 31
0.0
 40
521.5612668193587
 41
0.0
 42
30.54600000000001
 43
3.78
 71
     2
 72
     1
 44
521.5612668193587
 45
27.0
 73
     0
 74
     0
 46
0.0
  0
MTEXT
  5
D0E
330
18
100
AcDbEntity
  8
ﾚｲﾔ1
100
AcDbMText
 10
1273.759623598064
 20
578.492153248531
 30
0.0
 40
3.78
 41
521.5612668193587
 46
0.0
 71
     1
 72
     5
  1
機　械　高　さ
 73
     1
 44
1.0
101
Embedded Object
 70
     1
 10
1.0
 20
0.0
 30
0.0
 11
1273.759623598064
 21
578.492153248531
 31
0.0
 40
521.5612668193587
 41
0.0
 42
29.77200000000001
 43
3.78
 71
     2
 72
     1
 44
521.5612668193587
 45
27.0
 73
     0
 74
     0
 46
0.0
  0
TEXT
  5
D0F
330
18
100
AcDbEntity
  8
ﾚｲﾔ1
100
AcDbText
 10
1372.248566631707
 20
584.5907177975078
 30
0.0
 40
3.6
  1
KN
 50
360.0
100
AcDbText
  0
TEXT
  5
D10
330
18
100
AcDbEntity
  8
ﾚｲﾔ1
100
AcDbText
 10
1348.445783422738
 20
584.6990697175406
 30
0.0
 40
3.6
  1
100
 50
360.0
100
AcDbText
  0
TEXT
  5
D11
330
18
100
AcDbEntity
  8
ﾚｲﾔ1
100
AcDbText
 10
1372.248566631707
 20
574.7731595764311
 30
0.0
 40
3.6
  1
mm
 50
360.0
100
AcDbText
  0
MTEXT
  5
D12
330
18
100
AcDbEntity
  8
ﾚｲﾔ1
100
AcDbMText
 10
1347.39355186521
 20
529.465268900702
 30
0.0
 40
3.6
 41
0.0
 46
6.0
 71
     1
 72
     5
  1
{約}
 73
     1
 44
1.0
  0
MTEXT
  5
D13
330
18
100
AcDbEntity
  8
ﾚｲﾔ1
100
AcDbMText
 10
1348.366383621296
 20
538.9648405946234
 30
0.0
 40
3.6
 41
0.0
 46
12.0
 71
     1
 72
     5
  1
{Φ}
 73
     1
 44
1.0
  0
TEXT
  5
D14
330
18
100
AcDbEntity
  8
ﾚｲﾔ1
100
AcDbText
 10
1369.847237398419
 20
545.2686458109554
 30
0.0
 40
3.6
  1
cm2
 50
360.0
100
AcDbText
  0
TEXT
  5
D15
330
18
100
AcDbEntity
  8
ﾚｲﾔ1
100
AcDbText
 10
1372.248566631707
 20
564.995019705957
 30
0.0
 40
3.6
  1
mm
 50
360.0
100
AcDbText
  0
TEXT
  5
D16
330
18
100
AcDbEntity
  8
ﾚｲﾔ1
100
AcDbText
 10
1372.248566631707
 20
526.0705188676391
 30
0.0
 40
3.6
  1
Kg
 50
360.0
100
AcDbText
  0
TEXT
  5
D17
330
18
100
AcDbEntity
  8
ﾚｲﾔ1
100
AcDbText
 10
1369.847237398419
 20
555.4670182973056
 30
0.0
 40
3.6
  1
Mpa
 50
360.0
100
AcDbText
  0
TEXT
  5
D18
330
18
100
AcDbEntity
  8
ﾚｲﾔ1
100
AcDbText
 10
1372.248566631707
 20
536.1153972977914
 30
0.0
 40
3.6
  1
mm
 50
360.0
100
AcDbText
  0
TEXT
  5
D19
330
18
100
AcDbEntity
  8
ﾚｲﾔ1
100
AcDbText
 10
1348.445783422738
 20
574.7350270392515
 30
0.0
 40
3.6
  1
43
 50
360.0
100
AcDbText
  0
TEXT
  5
D1B
330
18
100
AcDbEntity
  8
ﾚｲﾔ1
100
AcDbText
 10
1348.445783422738
 20
555.1456668910247
 30
0.0
 40
3.6
  1
72
 50
360.0
100
AcDbText
  0
TEXT
  5
D1C
330
18
100
AcDbEntity
  8
ﾚｲﾔ1
100
AcDbText
 10
1348.445783422738
 20
545.6481484372543
 30
0.0
 40
3.6
  1
14.52
 50
360.0
100
AcDbText
  0
TEXT
  5
D1D
330
18
100
AcDbEntity
  8
ﾚｲﾔ1
100
AcDbText
 10
1351.998886573316
 20
535.7100842657408
 30
0.0
 40
3.6
  1
38
 50
360.0
100
AcDbText
  0
TEXT
  5
D1E
330
18
100
AcDbEntity
  8
ﾚｲﾔ1
100
AcDbText
 10
1352.938438677161
 20
525.8154446675119
 30
0.0
 40
3.6
  1
1.4
 50
360.0
100
AcDbText
  0
LINE
  5
D1F
330
18
100
AcDbEntity
  8
ﾚｲﾔ1
100
AcDbLine
 10
1273.37698434496
 20
593.1477387782095
 30
0.0
 11
1287.146636191128
 21
593.1433231376253
 31
0.0
  0
MTEXT
  5
D20
330
18
100
AcDbEntity
  8
ﾚｲﾔ1
100
AcDbMText
 10
1274.103380905908
 20
596.729849258871
 30
0.0
 40
3.239999999999997
 41
521.5612668193587
 46
0.0
 71
     1
 72
     5
  1
仕  様
 73
     1
 44
1.0
101
Embedded Object
 70
     1
 10
1.0
 20
0.0
 30
0.0
 11
1274.103380905908
 21
596.729849258871
 31
0.0
 40
521.5612668193587
 41
0.0
 42
10.63799999999999
 43
3.239999999999997
 71
     2
 72
     1
 44
521.5612668193587
 45
27.0
 73
     0
 74
     0
 46
0.0
  0
LINE
  5
D21
330
18
100
AcDbEntity
  8
図面枠
  6
Continuous
100
AcDbLine
 10
1392.769266226179
 20
606.1393832733298
 30
0.0
 11
1392.769266226179
 21
273.2267687977899
 31
0.0
  0
LINE
  5
D22
330
18
100
AcDbEntity
  8
図面枠
  6
Continuous
100
AcDbLine
 10
1396.523919772975
 20
609.8940368200562
 30
0.0
 11
1396.523919772975
 21
269.4721152510636
 31
0.0
  0
LINE
  5
E72
330
18
100
AcDbEntity
  8
LEVEL001
  6
Continuous
 62
     7
100
AcDbLine
 10
961.5476408542365
 20
455.955439087434
 30
0.0
 11
1022.809382492426
 21
455.955439087434
 31
0.0
  0
LINE
  5
E73
330
18
100
AcDbEntity
  8
LEVEL001
  6
Continuous
 62
     7
100
AcDbLine
 10
961.5476408542365
 20
399.955439087434
 30
0.0
 11
1022.809382492426
 21
399.955439087434
 31
0.0
  0
ARC
  5
E74
330
18
100
AcDbEntity
  8
LEVEL001
  6
Continuous
 62
     7
100
AcDbCircle
 10
992.1785076392364
 20
427.955439087434
 30
0.0
 40
41.5
100
AcDbArc
 50
137.5692357122314
 51
222.4307642877686
  0
ARC
  5
E75
330
18
100
AcDbEntity
  8
LEVEL001
  6
Continuous
 62
     7
100
AcDbCircle
 10
992.1785157074364
 20
427.955439087434
 30
0.0
 40
41.5
100
AcDbArc
 50
317.5692357122313
 51
42.43076428777211
  0
LINE
  5
E76
330
18
100
AcDbEntity
  8
LEVEL001
  6
DOT
 62
     7
100
AcDbLine
 10
1032.839060837146
 20
436.286432739774
 30
0.0
 11
1032.839060837146
 21
419.624445435094
 31
0.0
  0
LINE
  5
E77
330
18
100
AcDbEntity
  8
LEVEL001
  6
DOT
 62
     7
100
AcDbLine
 10
1032.839060837146
 20
436.286432739774
 30
0.0
 11
1031.955454880116
 21
435.402826782744
 31
0.0
  0
LINE
  5
E78
330
18
100
AcDbEntity
  8
LEVEL001
  6
DOT
 62
     7
100
AcDbLine
 10
1032.839060837146
 20
419.624445435094
 30
0.0
 11
1031.955454880116
 21
420.508051392124
 31
0.0
  0
LINE
  5
E79
330
18
100
AcDbEntity
  8
LEVEL001
  6
DOT
 62
     1
100
AcDbLine
 10
1032.839060837146
 20
436.286432739774
 30
0.0
 11
1015.455454880116
 21
435.743158813994
 31
0.0
  0
LINE
  5
E7A
330
18
100
AcDbEntity
  8
LEVEL001
  6
DOT
 62
     1
100
AcDbLine
 10
1015.455454880116
 20
420.167719360874
 30
0.0
 11
1032.839060837146
 21
419.624445435094
 31
0.0
  0
LINE
  5
E7B
330
18
100
AcDbEntity
  8
LEVEL001
  6
DOT
 62
     7
100
AcDbLine
 10
1015.455454880116
 20
421.0237069097039
 30
0.0
 11
1031.955454880116
 21
420.508051392124
 31
0.0
  0
LINE
  5
E7C
330
18
100
AcDbEntity
  8
LEVEL001
  6
DOT
 62
     7
100
AcDbLine
 10
1031.955454880116
 20
420.508051392124
 30
0.0
 11
1031.955454880116
 21
435.402826782744
 31
0.0
  0
LINE
  5
E7D
330
18
100
AcDbEntity
  8
LEVEL001
  6
DOT
 62
     7
100
AcDbLine
 10
1031.955454880116
 20
435.402826782744
 30
0.0
 11
1015.455454880116
 21
434.8871712651639
 31
0.0
  0
DIMENSION
  5
E7E
330
18
100
AcDbEntity
  8
ﾚｲﾔ1
  6
Continuous
 62
     1
100
AcDbDimension
280
     0
  2
*D35
 10
1033.678507858636
 20
477.955439087434
 30
0.0
 11
992.1785078586364
 21
477.955439087434
 31
0.0
 70
   160
  1
\A1;83
 71
     5
 42
83.0000000000008
 73
     0
 74
     0
 75
     0
  3
GMM001
100
AcDbAlignedDimension
 13
950.6785078586355
 23
427.955439087434
 33
0.0
 14
1033.678507858636
 24
427.955439087434
 34
0.0
100
AcDbRotatedDimension
1001
ACAD
1000
DSTYLE
1002
{
1070
   178
1070
     1
1070
   177
1070
     1
1070
   176
1070
     1
1070
   344
1005
5E
1070
   343
1005
5E
1002
}
  0
CIRCLE
  5
E7F
330
18
100
AcDbEntity
  8
LEVEL001
  6
Continuous
 62
     7
100
AcDbCircle
 10
978.6785078586365
 20
427.955439087434
 30
0.0
 40
9.0
  0
CIRCLE
  5
E80
330
18
100
AcDbEntity
  8
LEVEL001
  6
Continuous
 62
     7
100
AcDbCircle
 10
978.6785078586365
 20
427.955439087434
 30
0.0
 40
11.0
  0
CIRCLE
  5
E81
330
18
100
AcDbEntity
  8
LEVEL001
  6
Continuous
 62
     7
100
AcDbCircle
 10
978.6785078586365
 20
427.955439087434
 30
0.0
 40
19.0
  0
CIRCLE
  5
E82
330
18
100
AcDbEntity
  8
LEVEL001
  6
DASHDOT
 62
     1
100
AcDbCircle
 10
978.6785078586365
 20
427.955439087434
 30
0.0
 40
10.0
  0
LINE
  5
E83
330
18
100
AcDbEntity
  8
LEVEL001
  6
DASHDOT
 62
     1
100
AcDbLine
 10
978.6785078586365
 20
397.955439087434
 30
0.0
 11
978.6785078586365
 21
457.955439087434
 31
0.0
  0
DIMENSION
  5
E84
330
18
100
AcDbEntity
  8
ﾚｲﾔ1
  6
Continuous
 62
     1
100
AcDbDimension
280
     0
  2
*D36
 10
978.6785078586365
 20
467.9554390874339
 30
0.0
 11
964.6785078586365
 21
467.9554390874339
 31
0.0
 70
   160
  1
\A1;28
 71
     5
 42
28.00000000000102
 73
     0
 74
     0
 75
     0
  3
GMM002
100
AcDbAlignedDimension
 13
950.6785078586355
 23
467.9554390874339
 33
0.0
 14
978.6785078586365
 24
457.955439087434
 34
0.0
100
AcDbRotatedDimension
1001
ACAD
1000
DSTYLE
1002
{
1070
   178
1070
     1
1070
   177
1070
     1
1070
   176
1070
     1
1070
   344
1005
5E
1070
   343
1005
5E
1002
}
  0
CIRCLE
  5
E85
330
18
100
AcDbEntity
  8
LEVEL001
  6
Continuous
 62
     7
100
AcDbCircle
 10
978.6785078586365
 20
427.955439087434
 30
0.0
 40
24.0
  0
CIRCLE
  5
E86
330
18
100
AcDbEntity
  8
LEVEL001
  6
Continuous
100
AcDbCircle
 10
978.6785078586365
 20
427.955439087434
 30
0.0
 40
25.0
  0
LINE
  5
E87
330
18
100
AcDbEntity
  8
LEVEL001
  6
Continuous
 62
     7
100
AcDbLine
 10
978.6785078586365
 20
430.8421883550139
 30
0.0
 11
981.1785078586365
 21
429.3988137212239
 31
0.0
  0
LINE
  5
E88
330
18
100
AcDbEntity
  8
LEVEL001
  6
Continuous
 62
     7
100
AcDbLine
 10
981.1785078586365
 20
429.3988137212239
 30
0.0
 11
981.1785078586365
 21
426.5120644536439
 31
0.0
  0
LINE
  5
E89
330
18
100
AcDbEntity
  8
LEVEL001
  6
Continuous
 62
     7
100
AcDbLine
 10
981.1785078586365
 20
426.5120644536439
 30
0.0
 11
978.6785154880265
 21
425.0686898198539
 31
0.0
  0
LINE
  5
E8A
330
18
100
AcDbEntity
  8
LEVEL001
  6
Continuous
 62
     7
100
AcDbLine
 10
978.6785154880265
 20
425.0686898198539
 30
0.0
 11
976.1785154880265
 21
426.5120491948539
 31
0.0
  0
LINE
  5
E8B
330
18
100
AcDbEntity
  8
LEVEL001
  6
Continuous
 62
     7
100
AcDbLine
 10
976.1785154880265
 20
426.5120491948539
 30
0.0
 11
976.1785002292365
 21
429.398798462434
 31
0.0
  0
LINE
  5
E8C
330
18
100
AcDbEntity
  8
LEVEL001
  6
Continuous
 62
     7
100
AcDbLine
 10
976.1785002292365
 20
429.398798462434
 30
0.0
 11
978.6785078586365
 21
430.8421883550139
 31
0.0
  0
CIRCLE
  5
E8D
330
18
100
AcDbEntity
  8
LEVEL001
  6
Continuous
 62
     7
100
AcDbCircle
 10
978.6785078586365
 20
427.955439087434
 30
0.0
 40
5.0
  0
CIRCLE
  5
E8E
330
18
100
AcDbEntity
  8
LEVEL001
  6
Continuous
 62
     7
100
AcDbCircle
 10
978.6785078586365
 20
427.955439087434
 30
0.0
 40
4.480384349822998
  0
CIRCLE
  5
E8F
330
18
100
AcDbEntity
  8
LEVEL001
  6
Continuous
 62
     7
100
AcDbCircle
 10
978.6785078586365
 20
427.955439087434
 30
0.0
 40
6.0
  0
LINE
  5
E90
330
18
100
AcDbEntity
  8
LEVEL001
  6
DASHDOT
 62
     1
100
AcDbLine
 10
1100.422048767986
 20
427.955439087434
 30
0.0
 11
943.3785048068773
 21
427.955439087434
 31
0.0
  0
DIMENSION
  5
E91
330
18
100
AcDbEntity
  8
ﾚｲﾔ1
  6
Continuous
 62
     1
100
AcDbDimension
280
     0
  2
*D37
 10
1121.744359688476
 20
399.955439087434
 30
0.0
 11
1121.744359688476
 21
427.955439087434
 31
0.0
 70
   160
  1
\A1;56
 71
     5
 42
56.0
 73
     0
 74
     0
 75
     0
  3
GMM004
100
AcDbAlignedDimension
 13
1028.649744968878
 23
455.955439087434
 33
0.0
 14
1030.679862624902
 24
399.955439087434
 34
0.0
 50
-90.00000000000001
100
AcDbRotatedDimension
1001
ACAD
1000
DSTYLE
1002
{
1070
   178
1070
     1
1070
   177
1070
     1
1070
   176
1070
     1
1070
   344
1005
5E
1070
   343
1005
5E
1002
}
  0
CIRCLE
  5
E92
330
18
100
AcDbEntity
  8
LEVEL001
  6
Continuous
 62
     7
100
AcDbCircle
 10
956.1785078586355
 20
427.955439087434
 30
0.0
 40
1.5
  0
CIRCLE
  5
E93
330
18
100
AcDbEntity
  8
LEVEL001
  6
Continuous
 62
     7
100
AcDbCircle
 10
1001.178507858636
 20
427.955439087434
 30
0.0
 40
1.5
  0
CIRCLE
  5
E94
330
18
100
AcDbEntity
  8
LEVEL001
  6
DASHDOT
 62
     1
100
AcDbCircle
 10
978.6785078586365
 20
427.955439087434
 30
0.0
 40
22.5
  0
LINE
  5
E95
330
18
100
AcDbEntity
  8
寸法
  6
Continuous
100
AcDbLine
 10
1101.319519563417
 20
427.9787527619155
 30
0.0
 11
1071.319519563417
 21
427.9787527619155
 31
0.0
  0
LINE
  5
E96
330
18
100
AcDbEntity
  8
寸法
  6
Continuous
100
AcDbLine
 10
1076.319519563417
 20
427.9787527619155
 30
0.0
 11
1046.319519563417
 21
427.9787527619155
 31
0.0
  0
LINE
  5
E97
330
18
100
AcDbEntity
  8
図面
100
AcDbLine
 10
1094.769519120309
 20
415.9787527619155
 30
0.0
 11
1106.769519120309
 21
415.9787527619155
 31
0.0
  0
LINE
  5
E98
330
18
100
AcDbEntity
  8
図面
100
AcDbLine
 10
1083.769519120309
 20
416.9787527619155
 30
0.0
 11
1079.769519120309
 21
416.9787527619155
 31
0.0
  0
LINE
  5
E99
330
18
100
AcDbEntity
  8
図面
100
AcDbLine
 10
1090.769519120309
 20
416.9787527619155
 30
0.0
 11
1083.769519120309
 21
416.9787527619155
 31
0.0
  0
LINE
  5
E9A
330
18
100
AcDbEntity
  8
図面
100
AcDbLine
 10
1083.769519120309
 20
416.9787527619155
 30
0.0
 11
1094.765487870309
 21
416.9787527619155
 31
0.0
  0
LINE
  5
E9B
330
18
100
AcDbEntity
  8
図面
100
AcDbLine
 10
1079.769519120309
 20
415.9787527619155
 30
0.0
 11
1094.769519120309
 21
415.9787527619155
 31
0.0
  0
LINE
  5
E9C
330
18
100
AcDbEntity
  8
図面
100
AcDbLine
 10
1103.769519120309
 20
424.7287527619155
 30
0.0
 11
1103.769519120309
 21
431.2287527619155
 31
0.0
  0
LINE
  5
E9D
330
18
100
AcDbEntity
  8
図面
100
AcDbLine
 10
1094.769519120309
 20
439.9787527619155
 30
0.0
 11
1106.769519120309
 21
439.9787527619155
 31
0.0
  0
LINE
  5
E9E
330
18
100
AcDbEntity
  8
図面
100
AcDbLine
 10
1090.769519120309
 20
438.9787527619155
 30
0.0
 11
1094.769519120309
 21
438.9787527619155
 31
0.0
  0
ARC
  5
E9F
330
18
100
AcDbEntity
  8
図面
100
AcDbCircle
 10
1100.76951972027
 20
431.2287522372411
 30
0.0
 40
3.000000006720465
100
AcDbArc
 50
0.0
 51
90.0
  0
LINE
  5
EA0
330
18
100
AcDbEntity
  8
図面
100
AcDbLine
 10
1090.769519120309
 20
438.9787527619155
 30
0.0
 11
1083.769519120309
 21
438.9787527619155
 31
0.0
  0
LINE
  5
EA1
330
18
100
AcDbEntity
  8
図面
100
AcDbLine
 10
1090.769519120309
 20
438.9787527619155
 30
0.0
 11
1079.769519120309
 21
438.9787527619155
 31
0.0
  0
LINE
  5
EA2
330
18
100
AcDbEntity
  8
図面
100
AcDbLine
 10
1094.769519120309
 20
439.9787527619155
 30
0.0
 11
1079.769519120309
 21
439.9787527619155
 31
0.0
  0
LWPOLYLINE
  5
EA3
330
18
100
AcDbEntity
  8
図面
100
AcDbPolyline
 90
        4
 70
     1
 43
0.0
 10
1079.769519120309
 20
417.9787527619155
 10
1083.769519120309
 20
417.9787527619155
 10
1083.769519120309
 20
437.9787527619155
 10
1079.769519120309
 20
437.9787527619155
  0
LWPOLYLINE
  5
EA4
330
18
100
AcDbEntity
  8
図面
100
AcDbPolyline
 90
        4
 70
     1
 43
0.0
 10
1083.769519120309
 20
415.9787527619155
 10
1090.769519120309
 20
415.9787527619155
 10
1090.769519120309
 20
439.9787527619155
 10
1083.769519120309
 20
439.9787527619155
  0
ARC
  5
EA5
330
18
100
AcDbEntity
  8
図面
100
AcDbCircle
 10
1100.76951972027
 20
424.7287522372411
 30
0.0
 40
3.000000006720465
100
AcDbArc
 50
270.0
 51
0.0
  0
LWPOLYLINE
  5
EA6
330
18
100
AcDbEntity
  8
図面
100
AcDbPolyline
 90
        4
 70
     0
 43
0.0
 10
1100.769519120309
 20
434.2287527619155
 10
1090.769519120309
 20
434.2287527619155
 10
1090.769519120309
 20
421.7287527619155
 10
1100.769519120309
 20
421.7287527619155
  0
LWPOLYLINE
  5
EA7
330
18
100
AcDbEntity
  8
図面
100
AcDbPolyline
 90
        4
 70
     1
 43
0.0
 10
1079.769519120309
 20
412.9787527619155
 10
1094.769519120309
 20
412.9787527619155
 10
1094.769519120309
 20
442.9787527619155
 10
1079.769519120309
 20
442.9787527619155
  0
LINE
  5
EA8
330
18
100
AcDbEntity
  8
図面
100
AcDbLine
 10
1106.769519120309
 20
439.9787527619155
 30
0.0
 11
1106.769519120309
 21
415.9787527619155
 31
0.0
  0
LWPOLYLINE
  5
EA9
330
18
100
AcDbEntity
  8
図面
100
AcDbPolyline
 90
        4
 70
     1
 43
0.0
 10
1094.769519120309
 20
412.9787527619155
 10
1109.769519120309
 20
412.9787527619155
 10
1109.769519120309
 20
442.9787527619155
 10
1094.769519120309
 20
442.9787527619155
  0
ARC
  5
EAA
330
18
100
AcDbEntity
  8
図面
100
AcDbCircle
 10
1044.269519593701
 20
418.9787522372453
 30
0.0
 40
5.000000011203287
100
AcDbArc
 50
323.1301023541174
 51
36.86989764580494
  0
LINE
  5
EAB
330
18
100
AcDbEntity
  8
図面
100
AcDbLine
 10
1048.269519120309
 20
415.9787527619155
 30
0.0
 11
1044.769519120309
 21
415.9787527619155
 31
0.0
  0
LINE
  5
EAC
330
18
100
AcDbEntity
  8
図面
100
AcDbLine
 10
1048.269519120309
 20
421.9787527619155
 30
0.0
 11
1044.769519120309
 21
421.9787527619155
 31
0.0
  0
LINE
  5
EAD
330
18
100
AcDbEntity
  8
図面
100
AcDbLine
 10
1049.168499120309
 20
419.9787502619156
 30
0.0
 11
1054.769519120309
 21
420.2569890119156
 31
0.0
  0
LINE
  5
EAE
330
18
100
AcDbEntity
  8
図面
100
AcDbLine
 10
1049.269519120309
 20
420.9850027619156
 30
0.0
 11
1054.769519120309
 21
421.2582227619157
 31
0.0
  0
LINE
  5
EAF
330
18
100
AcDbEntity
  8
図面
100
AcDbLine
 10
1048.269519120309
 20
433.9787527619155
 30
0.0
 11
1044.769519120309
 21
433.9787527619155
 31
0.0
  0
LINE
  5
EB0
330
18
100
AcDbEntity
  8
図面
100
AcDbLine
 10
1048.269519120309
 20
439.9787527619155
 30
0.0
 11
1044.769519120309
 21
439.9787527619155
 31
0.0
  0
LINE
  5
EB1
330
18
100
AcDbEntity
  8
図面
100
AcDbLine
 10
1049.168499120309
 20
435.9787552619156
 30
0.0
 11
1054.769519120309
 21
435.7005165119155
 31
0.0
  0
LINE
  5
EB2
330
18
100
AcDbEntity
  8
図面
100
AcDbLine
 10
1049.269519120309
 20
434.9725027619156
 30
0.0
 11
1054.769519120309
 21
434.6992827619156
 31
0.0
  0
ARC
  5
EB3
330
18
100
AcDbEntity
  8
図面
100
AcDbCircle
 10
1044.269519593701
 20
436.9787522372368
 30
0.0
 40
5.000000011203287
100
AcDbArc
 50
323.1301023541951
 51
36.86989764588258
  0
ARC
  5
EB4
330
18
100
AcDbEntity
  8
図面
100
AcDbCircle
 10
1030.769519563417
 20
427.9787522372401
 30
0.0
 40
18.50000004148328
100
AcDbArc
 50
341.0753555839833
 51
18.92464441601667
  0
LINE
  5
EB5
330
18
100
AcDbEntity
  8
図面
100
AcDbLine
 10
1049.269519120309
 20
418.9787527619155
 30
0.0
 11
1049.269519120309
 21
436.9787527619155
 31
0.0
  0
LWPOLYLINE
  5
EB6
330
18
100
AcDbEntity
  8
図面
100
AcDbPolyline
 90
        4
 70
     1
 43
0.0
 10
1054.769519120309
 20
416.4787527619155
 10
1065.769519120309
 20
416.4787527619155
 10
1065.769519120309
 20
439.4787527619155
 10
1054.769519120309
 20
439.4787527619155
  0
ARC
  5
EB7
330
18
100
AcDbEntity
  8
図面
100
AcDbCircle
 10
1045.269519595941
 20
418.9787522372453
 30
0.0
 40
5.000000011203287
100
AcDbArc
 50
143.1301023541951
 51
216.8698976458826
  0
LINE
  5
EB8
330
18
100
AcDbEntity
  8
図面
100
AcDbLine
 10
1040.370539120309
 20
419.9787502619156
 30
0.0
 11
1032.974943480837
 21
420.3461368244338
 31
0.0
  0
LINE
  5
EB9
330
18
100
AcDbEntity
  8
図面
100
AcDbLine
 10
1040.269519120309
 20
420.9850027619156
 30
0.0
 11
1033.147650009177
 21
421.3387907995196
 31
0.0
  0
LINE
  5
EBA
330
18
100
AcDbEntity
  8
図面
100
AcDbLine
 10
1040.707127870309
 20
423.9787527619157
 30
0.0
 11
1033.487545784024
 21
423.9787527619157
 31
0.0
  0
LINE
  5
EBB
330
18
100
AcDbEntity
  8
図面
100
AcDbLine
 10
1040.707127870309
 20
431.9787527619155
 30
0.0
 11
1033.483030558439
 21
431.9787527619157
 31
0.0
  0
LINE
  5
EBC
330
18
100
AcDbEntity
  8
図面
100
AcDbLine
 10
1040.370539120309
 20
435.9787552619156
 30
0.0
 11
1032.966299619315
 21
435.6109393034803
 31
0.0
  0
LINE
  5
EBD
330
18
100
AcDbEntity
  8
図面
100
AcDbLine
 10
1040.269519120309
 20
434.9725027619156
 30
0.0
 11
1033.140152892027
 21
434.6183422953435
 31
0.0
  0
ARC
  5
EBE
330
18
100
AcDbEntity
  8
図面
100
AcDbCircle
 10
1045.269519595941
 20
436.9787522372368
 30
0.0
 40
5.000000011203287
100
AcDbArc
 50
143.1301023541174
 51
216.8698976458049
  0
ARC
  5
EBF
330
18
100
AcDbEntity
  8
図面
100
AcDbCircle
 10
1058.769519626225
 20
427.9787522372401
 30
0.0
 40
18.50000004148328
100
AcDbArc
 50
161.0753555839831
 51
198.9246444160169
  0
LINE
  5
EC0
330
18
100
AcDbEntity
  8
図面
100
AcDbLine
 10
1040.269519120309
 20
418.9787527619155
 30
0.0
 11
1040.269519120309
 21
436.9787527619155
 31
0.0
  0
LINE
  5
EC1
330
18
100
AcDbEntity
  8
図面
100
AcDbLine
 10
1041.269519120309
 20
415.9787527619155
 30
0.0
 11
1044.769519120309
 21
415.9787527619155
 31
0.0
  0
LINE
  5
EC2
330
18
100
AcDbEntity
  8
図面
100
AcDbLine
 10
1041.269519120309
 20
421.9787527619155
 30
0.0
 11
1044.769519120309
 21
421.9787527619155
 31
0.0
  0
LINE
  5
EC3
330
18
100
AcDbEntity
  8
図面
100
AcDbLine
 10
1041.269519120309
 20
433.9787527619155
 30
0.0
 11
1044.769519120309
 21
433.9787527619155
 31
0.0
  0
LINE
  5
EC4
330
18
100
AcDbEntity
  8
図面
100
AcDbLine
 10
1041.269519120309
 20
439.9787527619155
 30
0.0
 11
1044.769519120309
 21
439.9787527619155
 31
0.0
  0
LINE
  5
EC5
330
18
100
AcDbEntity
  8
寸法
  6
Continuous
100
AcDbLine
 10
1100.243732554704
 20
427.9787527619155
 30
0.0
 11
1023.330141971369
 21
427.9787527619155
 31
0.0
  0
LWPOLYLINE
  5
EC6
330
18
100
AcDbEntity
  8
図面
100
AcDbPolyline
 90
        4
 70
     1
 43
0.0
 10
1065.769519120309
 20
413.9787527619155
 10
1079.769519120309
 20
413.9787527619155
 10
1079.769519120309
 20
441.9787527619155
 10
1065.769519120309
 20
441.9787527619155
  0
LWPOLYLINE
  5
F88
330
18
100
AcDbEntity
  8
図面
100
AcDbPolyline
 90
        4
 70
     1
 43
0.0
 10
1312.27920202683
 20
417.3794966402416
 10
1327.080678437656
 20
419.8118403782359
 10
1322.215990961668
 20
449.4147931998881
 10
1307.414514550842
 20
446.9824494618936
  0
LWPOLYLINE
  5
F89
330
18
100
AcDbEntity
  8
図面
100
AcDbPolyline
 90
        4
 70
     1
 43
0.0
 10
1283.500858050034
 20
413.6637305075075
 10
1297.315569366805
 20
415.9339179963023
 10
1292.775194389215
 20
443.5633406298443
 10
1278.960483072444
 20
441.2931531410495
  0
LINE
  5
F8A
330
18
100
AcDbEntity
  8
図面
100
AcDbLine
 10
1255.109050766494
 20
435.3467948475485
 30
0.0
 11
1258.562728595687
 21
435.9143417197472
 31
0.0
  0
LINE
  5
F8B
330
18
100
AcDbEntity
  8
図面
100
AcDbLine
 10
1256.081988261692
 20
429.4262042832182
 30
0.0
 11
1259.535666090885
 21
429.9937511554169
 31
0.0
  0
LINE
  5
F8C
330
18
100
AcDbEntity
  8
図面
100
AcDbLine
 10
1258.027863252087
 20
417.5850231545573
 30
0.0
 11
1261.48154108128
 21
418.152570026756
 31
0.0
  0
LINE
  5
F8D
330
18
100
AcDbEntity
  8
図面
100
AcDbLine
 10
1259.000800747285
 20
411.6644325902269
 30
0.0
 11
1262.454478576478
 21
412.2319794624256
 31
0.0
  0
LINE
  5
F8E
330
18
100
AcDbEntity
  8
図面
100
AcDbLine
 10
1257.527566905631
 20
414.4625716231926
 30
0.0
 11
1254.608754420038
 21
432.2243433161837
 31
0.0
  0
ARC
  5
F8F
330
18
100
AcDbEntity
  8
図面
100
AcDbCircle
 10
1274.323315487153
 20
426.3433476441872
 30
0.0
 40
18.50000004148328
100
AcDbArc
 50
170.4074304358543
 51
208.2567192678885
  0
ARC
  5
F90
330
18
100
AcDbEntity
  8
図面
100
AcDbCircle
 10
1259.54258044473
 20
433.0351241215739
 30
0.0
 40
5.000000011203287
100
AcDbArc
 50
152.4621772059902
 51
226.2019724976781
  0
LINE
  5
F91
330
18
100
AcDbEntity
  8
図面
100
AcDbLine
 10
1254.934080394995
 20
430.2446458462358
 30
0.0
 11
1248.020733971732
 21
428.7529610652733
 31
0.0
  0
LINE
  5
F92
330
18
100
AcDbEntity
  8
図面
100
AcDbLine
 10
1254.870593273648
 20
431.2539617133355
 30
0.0
 11
1248.020733971732
 21
429.7759746955279
 31
0.0
  0
LINE
  5
F93
330
18
100
AcDbEntity
  8
図面
100
AcDbLine
 10
1255.851352705389
 20
427.3614788394254
 30
0.0
 11
1248.020733971732
 21
426.0746642060215
 31
0.0
  0
LINE
  5
F94
330
18
100
AcDbEntity
  8
図面
100
AcDbLine
 10
1257.148602698986
 20
419.4673580869848
 30
0.0
 11
1248.020733971732
 21
417.9673648617326
 31
0.0
  0
LINE
  5
F95
330
18
100
AcDbEntity
  8
図面
100
AcDbLine
 10
1257.202240930674
 20
416.4422690931405
 30
0.0
 11
1248.020733971732
 21
415.3980886636227
 31
0.0
  0
LINE
  5
F96
330
18
100
AcDbEntity
  8
図面
100
AcDbLine
 10
1257.465094071624
 20
415.465715274629
 30
0.0
 11
1248.020733971732
 21
414.391642524297
 31
0.0
  0
ARC
  5
F97
330
18
100
AcDbEntity
  8
図面
100
AcDbCircle
 10
1262.461392930322
 20
415.273352428591
 30
0.0
 40
5.000000011203287
100
AcDbArc
 50
152.4621772060682
 51
226.2019724977542
  0
LWPOLYLINE
  5
F98
330
18
100
AcDbEntity
  8
図面
100
AcDbPolyline
 90
        4
 70
     1
 43
0.0
 10
1272.241051392429
 20
414.3469245014493
 10
1283.095467427035
 20
416.1306432426452
 10
1279.365873695443
 20
438.8262404059117
 10
1268.511457660838
 20
437.0425216647159
  0
LINE
  5
F99
330
18
100
AcDbEntity
  8
図面
100
AcDbLine
 10
1266.408452752127
 20
415.9219778659892
 30
0.0
 11
1263.489640266534
 21
433.6837495589803
 31
0.0
  0
ARC
  5
F9A
330
18
100
AcDbEntity
  8
図面
100
AcDbCircle
 10
1246.693892791634
 20
421.802972656413
 30
0.0
 40
18.50000004148328
100
AcDbArc
 50
350.4074304358576
 51
28.25671926788857
  0
ARC
  5
F9B
330
18
100
AcDbEntity
  8
図面
100
AcDbCircle
 10
1258.555815348465
 20
432.872967872011
 30
0.0
 40
5.000000011203287
100
AcDbArc
 50
332.4621772060682
 51
46.20197249775412
  0
LINE
  5
F9C
330
18
100
AcDbEntity
  8
図面
100
AcDbLine
 10
1263.81496624149
 20
431.7040520890324
 30
0.0
 11
1269.2864785892
 21
432.3263075006325
 31
0.0
  0
LINE
  5
F9D
330
18
100
AcDbEntity
  8
図面
100
AcDbLine
 10
1263.552113100541
 20
432.6806059075439
 30
0.0
 11
1269.124122279728
 21
433.3142900161224
 31
0.0
  0
LINE
  5
F9E
330
18
100
AcDbEntity
  8
図面
100
AcDbLine
 10
1262.01640642488
 20
436.481888591946
 30
0.0
 11
1258.562728595687
 21
435.9143417197472
 31
0.0
  0
LINE
  5
F9F
330
18
100
AcDbEntity
  8
図面
100
AcDbLine
 10
1262.989343920077
 20
430.5612980276155
 30
0.0
 11
1259.535666090885
 21
429.9937511554169
 31
0.0
  0
LINE
  5
FA0
330
18
100
AcDbEntity
  8
図面
100
AcDbLine
 10
1266.08312677717
 20
417.9016753359371
 30
0.0
 11
1271.466030464067
 21
419.0631386655328
 31
0.0
  0
LINE
  5
FA1
330
18
100
AcDbEntity
  8
図面
100
AcDbLine
 10
1266.146613898517
 20
416.8923594688373
 30
0.0
 11
1271.628386773539
 21
418.0751561500428
 31
0.0
  0
LINE
  5
FA2
330
18
100
AcDbEntity
  8
図面
100
AcDbLine
 10
1264.935218910473
 20
418.7201168989547
 30
0.0
 11
1261.48154108128
 21
418.152570026756
 31
0.0
  0
LINE
  5
FA3
330
18
100
AcDbEntity
  8
図面
100
AcDbLine
 10
1265.908156405671
 20
412.7995263346243
 30
0.0
 11
1262.454478576478
 21
412.2319794624256
 31
0.0
  0
ARC
  5
FA4
330
18
100
AcDbEntity
  8
図面
100
AcDbCircle
 10
1261.474627834057
 20
415.111196179028
 30
0.0
 40
5.000000011203287
100
AcDbArc
 50
332.4621772059902
 51
46.20197249767811
  0
LINE
  5
FA5
330
18
100
AcDbEntity
  8
図面
100
AcDbLine
 10
1319.742164427101
 20
445.968029170124
 30
0.0
 11
1323.633914407892
 21
422.2856669128022
 31
0.0
  0
LWPOLYLINE
  5
FA6
330
18
100
AcDbEntity
  8
図面
100
AcDbPolyline
 90
        4
 70
     1
 43
0.0
 10
1297.477725616004
 20
414.9471529022472
 10
1312.27920202683
 20
417.3794966402416
 10
1307.414514550842
 20
446.9824494618936
 10
1292.613038140016
 20
444.5501057238992
  0
LWPOLYLINE
  5
FA7
330
18
100
AcDbEntity
  8
図面
100
AcDbPolyline
 90
        4
 70
     0
 43
0.0
 10
1314.753972295669
 20
439.3211923841095
 10
1304.886321355118
 20
437.6996298921134
 10
1306.913274470113
 20
425.3650662164249
 10
1316.780925410664
 20
426.9866287084212
  0
ARC
  5
FA8
330
18
100
AcDbEntity
  8
図面
100
AcDbCircle
 10
1316.294457340164
 20
429.9469235701433
 30
0.0
 40
3.000000006720465
100
AcDbArc
 50
279.3320748518757
 51
9.332074851873537
  0
LWPOLYLINE
  5
FA9
330
18
100
AcDbEntity
  8
図面
100
AcDbPolyline
 90
        4
 70
     1
 43
0.0
 10
1300.938317244626
 20
418.5560731812109
 10
1307.845672903011
 20
419.6911669256083
 10
1303.95392292222
 20
443.37352918293
 10
1297.046567263835
 20
442.2384354385326
  0
LWPOLYLINE
  5
FAA
330
18
100
AcDbEntity
  8
図面
100
AcDbPolyline
 90
        4
 70
     1
 43
0.0
 10
1296.666944370006
 20
419.8809783725225
 10
1300.614004746226
 20
420.5296033693211
 10
1297.370879762234
 20
440.2649052504225
 10
1293.423819386014
 20
439.616280253624
  0
LINE
  5
FAB
330
18
100
AcDbEntity
  8
図面
100
AcDbLine
 10
1307.90098329844
 20
444.0221541797285
 30
0.0
 11
1293.099506887615
 21
441.5898104417341
 31
0.0
  0
LINE
  5
FAC
330
18
100
AcDbEntity
  8
図面
100
AcDbLine
 10
1304.11607917142
 20
442.3867640888748
 30
0.0
 11
1293.261663136814
 21
440.603045347679
 31
0.0
  0
LINE
  5
FAD
330
18
100
AcDbEntity
  8
図面
100
AcDbLine
 10
1304.11607917142
 20
442.3867640888748
 30
0.0
 11
1297.208723513034
 21
441.2516703444775
 31
0.0
  0
ARC
  5
FAE
330
18
100
AcDbEntity
  8
図面
100
AcDbCircle
 10
1315.240441720367
 20
436.3608966815012
 30
0.0
 40
3.000000006720465
100
AcDbArc
 50
9.332074851873537
 51
99.33207485187138
  0
LINE
  5
FAF
330
18
100
AcDbEntity
  8
図面
100
AcDbLine
 10
1304.11607917142
 20
442.3867640888748
 30
0.0
 11
1308.06313954764
 21
443.0353890856733
 31
0.0
  0
LINE
  5
FB0
330
18
100
AcDbEntity
  8
ﾚｲﾔ1
 62
     1
100
AcDbLine
 10
1307.90098329844
 20
444.0221541797285
 30
0.0
 11
1319.742164427101
 21
445.968029170124
 31
0.0
  0
LINE
  5
FB1
330
18
100
AcDbEntity
  8
図面
100
AcDbLine
 10
1319.254751945231
 20
430.4333927381852
 30
0.0
 11
1318.200736325433
 21
436.8473658495432
 31
0.0
  0
LINE
  5
FB2
330
18
100
AcDbEntity
  8
図面
100
AcDbLine
 10
1296.991256868406
 20
417.9074481844124
 30
0.0
 11
1311.792733279231
 21
420.3397919224069
 31
0.0
  0
LINE
  5
FB3
330
18
100
AcDbEntity
  8
図面
100
AcDbLine
 10
1300.776160995426
 20
419.542838275266
 30
0.0
 11
1311.626599133246
 21
421.3259033240823
 31
0.0
  0
LINE
  5
FB4
330
18
100
AcDbEntity
  8
図面
100
AcDbLine
 10
1307.683516653812
 20
420.6779320196634
 30
0.0
 11
1300.776160995426
 21
419.542838275266
 31
0.0
  0
LINE
  5
FB5
330
18
100
AcDbEntity
  8
図面
100
AcDbLine
 10
1300.776160995426
 20
419.542838275266
 30
0.0
 11
1296.829100619206
 21
418.8942132784675
 31
0.0
  0
LINE
  5
FB6
330
18
100
AcDbEntity
  8
図面
100
AcDbLine
 10
1311.792733279231
 20
420.3397919224069
 30
0.0
 11
1323.633914407892
 21
422.2856669128022
 31
0.0
  0
LINE
  5
FB7
330
18
100
AcDbEntity
  8
LEVEL001
  6
DASHDOT
 62
     1
100
AcDbLine
 10
1193.020733971732
 20
419.5704199358227
 30
0.0
 11
1193.020733971732
 21
401.8763176641427
 31
0.0
  0
LINE
  5
FB8
330
18
100
AcDbEntity
  8
LEVEL001
  6
DASHDOT
 62
     1
100
AcDbLine
 10
1193.020733971732
 20
451.1034065923646
 30
0.0
 11
1193.020733971732
 21
424.5704199358227
 31
0.0
  0
DIMENSION
  5
FB9
330
18
100
AcDbEntity
  8
ﾚｲﾔ1
  6
Continuous
 62
     1
100
AcDbDimension
280
     0
  2
*D44
 10
1214.520733971732
 20
419.5704199358227
 30
0.0
 11
1193.020733971732
 21
422.3704199358227
 31
0.0
 70
    32
  1
\A1;%%c43
 71
     5
 42
43.00000000000091
 73
     0
 74
     0
 75
     0
  3
GMM009
100
AcDbAlignedDimension
 13
1171.520733971731
 23
419.5704199358227
 33
0.0
 14
1214.520733971732
 24
419.5704199358227
 34
0.0
100
AcDbRotatedDimension
1001
ACAD
1000
DSTYLE
1002
{
1070
   178
1070
     1
1070
   176
1070
     1
1070
   344
1005
5E
1070
   343
1005
5E
1002
}
  0
LINE
  5
FBA
330
18
100
AcDbEntity
  8
LEVEL001
  6
Continuous
 62
     7
100
AcDbLine
 10
1176.889866967332
 20
447.8111778936347
 30
0.0
 11
1175.889866967332
 21
446.8111778936347
 31
0.0
  0
LINE
  5
FBB
330
18
100
AcDbEntity
  8
LEVEL001
  6
Continuous
 62
     7
100
AcDbLine
 10
1175.889866967332
 20
406.6111809453927
 30
0.0
 11
1176.889866967332
 21
405.6111809453927
 31
0.0
  0
LINE
  5
FBC
330
18
100
AcDbEntity
  8
LEVEL001
  6
Continuous
 62
     7
100
AcDbLine
 10
1236.151608605522
 20
405.6111809453927
 30
0.0
 11
1237.151608605522
 21
406.6111809453927
 31
0.0
  0
LINE
  5
FBD
330
18
100
AcDbEntity
  8
LEVEL001
  6
Continuous
 62
     7
100
AcDbLine
 10
1237.151608605522
 20
446.8111778936347
 30
0.0
 11
1236.151608605522
 21
447.8111778936347
 31
0.0
  0
LINE
  5
FBE
330
18
100
AcDbEntity
  8
LEVEL001
  6
Continuous
 62
     7
100
AcDbLine
 10
1175.889866967332
 20
446.8111778936347
 30
0.0
 11
1175.889866967332
 21
406.6111809453927
 31
0.0
  0
LINE
  5
FBF
330
18
100
AcDbEntity
  8
LEVEL001
  6
Continuous
 62
     7
100
AcDbLine
 10
1237.151608605522
 20
446.8111778936347
 30
0.0
 11
1237.151608605522
 21
406.6111809453927
 31
0.0
  0
LINE
  5
FC0
330
18
100
AcDbEntity
  8
LEVEL001
  6
Continuous
 62
     7
100
AcDbLine
 10
1193.020733971732
 20
447.8111778936347
 30
0.0
 11
1247.020733971732
 21
447.8111778936347
 31
0.0
  0
LINE
  5
FC1
330
18
100
AcDbEntity
  8
LEVEL001
  6
Continuous
 62
     7
100
AcDbLine
 10
1248.020733971732
 20
446.8111778936347
 30
0.0
 11
1193.020733971732
 21
446.8111778936347
 31
0.0
  0
LINE
  5
FC2
330
18
100
AcDbEntity
  8
LEVEL001
  6
Continuous
 62
     7
100
AcDbLine
 10
1165.020733971731
 20
406.6111809453927
 30
0.0
 11
1248.020733971732
 21
406.6111809453927
 31
0.0
  0
LINE
  5
FC3
330
18
100
AcDbEntity
  8
LEVEL001
  6
DOT
 62
     1
100
AcDbLine
 10
1171.520733971731
 20
413.8111778936347
 30
0.0
 11
1171.520733971731
 21
437.0111778936347
 31
0.0
  0
LINE
  5
FC4
330
18
100
AcDbEntity
  8
LEVEL001
  6
DOT
 62
     1
100
AcDbLine
 10
1174.020733971732
 20
431.0111702642398
 30
0.0
 11
1174.020733971732
 21
447.8111778936347
 31
0.0
  0
LINE
  5
FC5
330
18
100
AcDbEntity
  8
LEVEL001
  6
Continuous
 62
     7
100
AcDbLine
 10
1211.220730919972
 20
448.6111809453927
 30
0.0
 11
1193.020733971732
 21
448.6111809453927
 31
0.0
  0
LINE
  5
FC6
330
18
100
AcDbEntity
  8
LEVEL001
  6
DASHDOT
 62
     1
100
AcDbLine
 10
1314.713757653372
 20
433.6354424200018
 30
0.0
 11
1214.520733971732
 21
415.9687105952817
 31
0.0
  0
LINE
  5
FC7
330
18
100
AcDbEntity
  8
LEVEL001
  6
Continuous
 62
     7
100
AcDbLine
 10
1248.020733971732
 20
406.6111809453927
 30
0.0
 11
1248.020733971732
 21
446.8111778936347
 31
0.0
  0
LINE
  5
FC8
330
18
100
AcDbEntity
  8
LEVEL001
  6
Continuous
 62
     7
100
AcDbLine
 10
1174.820737023492
 20
448.6111809453927
 30
0.0
 11
1193.020733971732
 21
448.6111809453927
 31
0.0
  0
LINE
  5
FC9
330
18
100
AcDbEntity
  8
LEVEL001
  6
DOT
 62
     1
100
AcDbLine
 10
1214.520733971732
 20
413.8111778936347
 30
0.0
 11
1214.520733971732
 21
437.0111778936347
 31
0.0
  0
LINE
  5
FCA
330
18
100
AcDbEntity
  8
LEVEL001
  6
DOT
 62
     1
100
AcDbLine
 10
1212.020733971732
 20
431.0111702642398
 30
0.0
 11
1212.020733971732
 21
447.8111778936347
 31
0.0
  0
DIMENSION
  5
FCB
330
18
100
AcDbEntity
  8
ﾚｲﾔ1
  6
Continuous
 62
     1
100
AcDbDimension
280
     0
  2
*D45
 10
1327.717264958843
 20
426.3403375066645
 30
0.0
 11
1327.790518429052
 21
424.8459463293446
 31
0.0
 70
   165
  1
\A1;10%%d
 71
     5
 42
0.1745329191558113
 73
     0
 74
     0
 75
     0
  3
GMM008
100
AcDb3PointAngularDimension
 13
1327.854869356082
 23
421.6111809453928
 33
0.0
 14
1314.713757653372
 24
433.6354424200018
 34
0.0
 15
1246.520779748102
 25
421.6111809453928
 35
0.0
1001
ACAD
1000
DSTYLE
1002
{
1070
   178
1070
     1
1070
   177
1070
     1
1070
   176
1070
     1
1070
   344
1005
0
1002
}
  0
DIMENSION
  5
FCC
330
18
100
AcDbEntity
  8
ﾚｲﾔ1
  6
Continuous
 62
     1
100
AcDbDimension
280
     0
  2
*D46
 10
1337.854869356082
 20
405.6111809453927
 30
0.0
 11
1337.854869356082
 21
427.1111809453927
 31
0.0
 70
   160
  1
\A1;43
 71
     5
 42
42.99999999999999
 73
     0
 74
     0
 75
     0
  3
GMM001
100
AcDbAlignedDimension
 13
1211.220730919972
 23
448.6111809453927
 33
0.0
 14
1247.020733971732
 24
405.6111809453927
 34
0.0
 50
-90.00000000000001
100
AcDbRotatedDimension
1001
ACAD
1000
DSTYLE
1002
{
1070
   178
1070
     1
1070
   177
1070
     1
1070
   176
1070
     1
1070
   344
1005
5E
1070
   343
1005
5E
1002
}
  0
DIMENSION
  5
FCD
330
18
100
AcDbEntity
  8
ﾚｲﾔ1
  6
Continuous
 62
     1
100
AcDbDimension
280
     0
  2
*D47
 10
1327.854869356082
 20
405.6111809453927
 30
0.0
 11
1327.854869356082
 21
413.6111809453927
 31
0.0
 70
   160
  1
\A1;16
 71
     5
 42
16.00000000000011
 73
     0
 74
     0
 75
     0
  3
GMM007
100
AcDbAlignedDimension
 13
1246.520733971732
 23
421.6111809453928
 33
0.0
 14
1268.020733971732
 24
405.6111809453927
 34
0.0
 50
-90.00000000000001
100
AcDbRotatedDimension
1001
ACAD
1000
DSTYLE
1002
{
1070
   344
1005
5E
1070
   176
1070
     1
1070
   177
1070
     1
1070
   178
1070
     1
1002
}
  0
DIMENSION
  5
FCE
330
18
100
AcDbEntity
  8
ﾚｲﾔ1
  6
Continuous
 62
     1
100
AcDbDimension
280
     0
  2
*D48
 10
1317.854869356082
 20
447.8111931524237
 30
0.0
 11
1317.854869356082
 21
459.0778506638172
 31
0.0
 70
   160
  1
\A1;0.8
 71
     5
 42
0.7999877929689816
 73
     0
 74
     0
 75
     0
  3
GMM006
100
AcDbAlignedDimension
 13
1273.020733971732
 23
448.6111809453927
 33
0.0
 14
1247.020733971732
 24
447.8111931524237
 34
0.0
 50
-90.00000000000001
100
AcDbRotatedDimension
1001
ACAD
1000
DSTYLE
1002
{
1070
   178
1070
     1
1070
   177
1070
     1
1070
   176
1070
     1
1070
   344
1005
5E
1070
   343
1005
5E
1002
}
  0
LEADER
  5
FCF
330
18
100
AcDbEntity
  8
LEVEL003
  6
Continuous
 62
     3
100
AcDbLeader
  3
GMM005
 73
     0
 40
4.0
 76
     3
 10
1250.166401286352
 20
413.5438139358227
 30
0.0
 10
1261.366382975812
 20
390.5438139358227
 30
0.0
 10
1286.366382975812
 20
390.5438139358227
 30
0.0
1001
ACAD
1000
DSTYLE
1002
{
1070
   176
1070
   256
1070
   341
1005
0
1002
}
  0
TEXT
  5
FD0
330
18
100
AcDbEntity
  8
ﾚｲﾔ1
100
AcDbText
 10
1261.666386027562
 20
390.5438139358227
 30
0.0
 40
4.0
  1
ＮＰＴ３／８
100
AcDbText
  0
POINT
  5
FD1
330
18
100
AcDbEntity
  8
LEVEL001
 62
     7
100
AcDbPoint
 10
1212.020733971732
 20
447.8111778936347
 30
0.0
  0
LINE
  5
FD2
330
18
100
AcDbEntity
  8
LEVEL001
  6
Continuous
 62
     7
100
AcDbLine
 10
1165.020733971731
 20
446.8111778936347
 30
0.0
 11
1193.020733971732
 21
446.8111778936347
 31
0.0
  0
LINE
  5
FD3
330
18
100
AcDbEntity
  8
LEVEL001
  6
Continuous
 62
     7
100
AcDbLine
 10
1193.020733971732
 20
447.8111778936347
 30
0.0
 11
1166.020733971731
 21
447.8111778936347
 31
0.0
  0
DIMENSION
  5
FD4
330
18
100
AcDbEntity
  8
ﾚｲﾔ1
  6
Continuous
 62
     1
100
AcDbDimension
280
     0
  2
*D49
 10
1174.020733971732
 20
473.6111809453926
 30
0.0
 11
1193.020736297182
 21
473.6111809453926
 31
0.0
 70
   160
  1
\A1;%%c38
 71
     5
 42
38.0
 73
     0
 74
     0
 75
     0
 52
-270.0
  3
GMM003
100
AcDbAlignedDimension
 13
1212.020733971732
 23
447.8111931524237
 33
0.0
 14
1174.020733971732
 24
447.8111931524237
 34
0.0
 50
180.0
100
AcDbRotatedDimension
1001
ACAD
1000
DSTYLE
1002
{
1070
   178
1070
     1
1070
   177
1070
     1
1070
   176
1070
     1
1070
   344
1005
5E
1070
   343
1005
5E
1002
}
  0
LINE
  5
FD5
330
18
100
AcDbEntity
  8
LEVEL001
  6
Continuous
 62
     7
100
AcDbLine
 10
1166.020733971731
 20
405.6111809453927
 30
0.0
 11
1247.020733971732
 21
405.6111809453927
 31
0.0
  0
LINE
  5
FD6
330
18
100
AcDbEntity
  8
LEVEL001
  6
Continuous
 62
     7
100
AcDbLine
 10
1247.020733971732
 20
405.6111809453927
 30
0.0
 11
1248.020733971732
 21
406.6111809453927
 31
0.0
  0
LINE
  5
FD7
330
18
100
AcDbEntity
  8
LEVEL001
  6
Continuous
 62
     7
100
AcDbLine
 10
1248.020733971732
 20
446.8111778936347
 30
0.0
 11
1247.020733971732
 21
447.8111778936347
 31
0.0
  0
LINE
  5
FD8
330
18
100
AcDbEntity
  8
LEVEL001
  6
Continuous
 62
     7
100
AcDbLine
 10
1165.020733971731
 20
446.8111778936347
 30
0.0
 11
1165.020733971731
 21
406.6111809453927
 31
0.0
  0
LINE
  5
FD9
330
18
100
AcDbEntity
  8
LEVEL001
  6
Continuous
 62
     7
100
AcDbLine
 10
1166.020733971731
 20
447.8111778936347
 30
0.0
 11
1165.020733971731
 21
446.8111778936347
 31
0.0
  0
LINE
  5
FDA
330
18
100
AcDbEntity
  8
LEVEL001
  6
Continuous
 62
     7
100
AcDbLine
 10
1165.020733971731
 20
406.6111809453927
 30
0.0
 11
1166.020733971731
 21
405.6111809453927
 31
0.0
  0
LINE
  5
FDB
330
18
100
AcDbEntity
  8
LEVEL001
  6
Continuous
 62
     7
100
AcDbLine
 10
1174.020733971732
 20
447.8111778936347
 30
0.0
 11
1174.820737023492
 21
448.6111809453927
 31
0.0
  0
LINE
  5
FDC
330
18
100
AcDbEntity
  8
LEVEL001
  6
Continuous
 62
     7
100
AcDbLine
 10
1211.220730919972
 20
448.6111809453927
 30
0.0
 11
1212.020733971732
 21
447.8111778936347
 31
0.0
  0
TEXT
  5
102B
330
18
100
AcDbEntity
  8
ﾚｲﾔ1
100
AcDbText
 10
1348.445783422738
 20
564.9927872510768
 30
0.0
 40
3.6
  1
11
 50
360.0
100
AcDbText
  0
MTEXT
  5
1056
330
18
100
AcDbEntity
  8
0
  6
Continuous
100
AcDbMText
 10
1067.791768558221
 20
373.1116601652918
 30
0.0
 40
10.0
 41
167.5930653670302
 46
13.53652542016152
 71
     1
 72
     5
  1
※注意\P\P11ｍｍ以上ロッドを伸ばすとシリンダーが抜けます
 73
     1
 44
1.0
  0
TEXT
  5
1079
102
{ACAD_REACTORS
330
107B
102
}
330
18
100
AcDbEntity
  8
図面枠
100
AcDbText
 10
1304.542634282544
 20
296.8643337746813
 30
0.0
 40
5.767147847756914
  1
名
100
AcDbText
  0
TEXT
  5
107A
102
{ACAD_REACTORS
330
107B
102
}
330
18
100
AcDbEntity
  8
図面枠
100
AcDbText
 10
1304.542634282544
 20
287.7841322437271
 30
0.0
 40
5.767147847756914
  1
称
100
AcDbText
  0
ENDSEC
  0
SECTION
  2
OBJECTS
  0
DICTIONARY
  5
C
330
0
100
AcDbDictionary
281
     1
  3
ACAD_COLOR
350
1DD
  3
ACAD_DETAILVIEWSTYLE
350
1029
  3
ACAD_GROUP
350
D
  3
ACAD_LAYOUT
350
1DE
  3
ACAD_MATERIAL
350
1DC
  3
ACAD_MLEADERSTYLE
350
B13
  3
ACAD_MLINESTYLE
350
1B
  3
ACAD_PLOTSETTINGS
350
1DF
  3
ACAD_PLOTSTYLENAME
350
1DA
  3
ACAD_SCALELIST
350
AF1
  3
ACAD_SECTIONVIEWSTYLE
350
102A
  3
ACAD_TABLESTYLE
350
AEF
  3
ACAD_VISUALSTYLE
350
ADE
  3
ACDB_RECOMPOSE_DATA
350
107E
  3
AcDbVariableDictionary
350
AAC
  3
APPDATA
350
C57
  0
SUN
  5
C58
330
AAF
100
AcDbSun
 90
        1
290
     0
 63
     7
421
 16777215
 40
1.0
291
     1
 91
  2455826
 92
 54000000
292
     0
 70
     2
 71
   256
280
     1
  0
DICTIONARY
  5
CCE
330
2
100
AcDbDictionary
280
     1
281
     1
  3
ACAD_LAYERSTATES
360
CCF
  0
DICTIONARY
  5
B17
330
E
100
AcDbDictionary
280
     1
281
     1
  3
ADSK_XREC_LAYER_RECONCILED
360
B18
  0
DICTIONARY
  5
B19
330
39
100
AcDbDictionary
280
     1
281
     1
  3
ADSK_XREC_LAYER_RECONCILED
360
B1A
  0
DICTIONARY
  5
B1B
330
3A
100
AcDbDictionary
280
     1
281
     1
  3
ADSK_XREC_LAYER_RECONCILED
360
B1C
  0
DICTIONARY
  5
B1D
330
3B
100
AcDbDictionary
280
     1
281
     1
  3
ADSK_XREC_LAYER_RECONCILED
360
B1E
  0
DICTIONARY
  5
B1F
330
3C
100
AcDbDictionary
280
     1
281
     1
  3
ADSK_XREC_LAYER_RECONCILED
360
B20
  0
DICTIONARY
  5
B21
330
3D
100
AcDbDictionary
280
     1
281
     1
  3
ADSK_XREC_LAYER_RECONCILED
360
B22
  0
DICTIONARY
  5
B23
330
1E9
100
AcDbDictionary
280
     1
281
     1
  3
ADSK_XREC_LAYER_RECONCILED
360
B24
  0
DICTIONARY
  5
B25
330
1EA
100
AcDbDictionary
280
     1
281
     1
  3
ADSK_XREC_LAYER_RECONCILED
360
B26
  0
DICTIONARY
  5
B27
330
1EB
100
AcDbDictionary
280
     1
281
     1
  3
ADSK_XREC_LAYER_RECONCILED
360
B28
  0
DICTIONARY
  5
B29
330
1EC
100
AcDbDictionary
280
     1
281
     1
  3
ADSK_XREC_LAYER_RECONCILED
360
B2A
  0
DICTIONARY
  5
B2B
330
727
100
AcDbDictionary
280
     1
281
     1
  3
ADSK_XREC_LAYER_RECONCILED
360
B2C
  0
DICTIONARY
  5
102F
330
18
100
AcDbDictionary
280
     1
281
     1
  3
DIM_BOUNDING_BOXES_V1
360
1030
  0
DICTIONARY
  5
1DD
102
{ACAD_REACTORS
330
C
102
}
330
C
100
AcDbDictionary
281
     1
  0
DICTIONARY
  5
1029
102
{ACAD_REACTORS
330
C
102
}
330
C
100
AcDbDictionary
281
     1
  0
DICTIONARY
  5
D
102
{ACAD_REACTORS
330
C
102
}
330
C
100
AcDbDictionary
281
     1
  3
*A1
350
107B
  0
DICTIONARY
  5
1DE
102
{ACAD_REACTORS
330
C
102
}
330
C
100
AcDbDictionary
281
     1
  3
Model
350
1E0
  3
レイアウト1
350
1E1
  0
DICTIONARY
  5
1DC
102
{ACAD_REACTORS
330
C
102
}
330
C
100
AcDbDictionary
281
     1
  3
ByBlock
350
ACE
  3
ByLayer
350
AC6
  3
Global
350
AD6
  0
DICTIONARY
  5
B13
102
{ACAD_REACTORS
330
C
102
}
330
C
100
AcDbDictionary
281
     1
  3
Standard
350
B14
  0
DICTIONARY
  5
1B
102
{ACAD_REACTORS
330
C
102
}
330
C
100
AcDbDictionary
281
     1
  3
STANDARD
350
1C
  0
DICTIONARY
  5
1DF
102
{ACAD_REACTORS
330
C
102
}
330
C
100
AcDbDictionary
281
     1
  0
ACDBDICTIONARYWDFLT
  5
1DA
102
{ACAD_REACTORS
330
C
102
}
330
C
100
AcDbDictionary
281
     1
  3
Normal
350
1DB
100
AcDbDictionaryWithDefault
340
1DB
  0
DICTIONARY
  5
AF1
102
{ACAD_REACTORS
330
C
102
}
330
C
100
AcDbDictionary
281
     1
  3
A0
350
AF2
  3
A1
350
AF3
  3
A2
350
AF4
  3
A3
350
AF5
  3
A4
350
AF6
  3
A5
350
AF7
  3
A6
350
AF8
  3
A7
350
AF9
  3
A8
350
AFA
  3
A9
350
AFB
  3
B0
350
AFC
  3
B1
350
AFD
  3
B2
350
AFE
  3
B3
350
AFF
  3
B4
350
B00
  3
B5
350
B01
  3
B6
350
B02
  3
B7
350
B03
  3
B8
350
B04
  3
B9
350
B05
  3
C0
350
B06
  3
C1
350
B07
  3
C2
350
B08
  3
C3
350
B09
  3
C4
350
B0A
  3
C5
350
B0B
  3
C6
350
B0C
  3
C7
350
B0D
  3
C8
350
B0E
  3
C9
350
B0F
  3
D0
350
B10
  3
D1
350
B11
  3
D2
350
B12
  0
DICTIONARY
  5
102A
102
{ACAD_REACTORS
330
C
102
}
330
C
100
AcDbDictionary
281
     1
  0
DICTIONARY
  5
AEF
102
{ACAD_REACTORS
330
C
102
}
330
C
100
AcDbDictionary
281
     1
  3
Standard
350
AF0
  0
DICTIONARY
  5
ADE
102
{ACAD_REACTORS
330
C
102
}
330
C
100
AcDbDictionary
281
     1
  3
2dWireframe
350
AE4
  3
3D Hidden
350
AE6
  3
3dWireframe
350
AE5
  3
Basic
350
AE3
  3
Brighten
350
AEA
  3
ColorChange
350
AEE
  3
Conceptual
350
AE7
  3
Dim
350
AE9
  3
EdgeColorOff
350
C51
  3
Facepattern
350
AED
  3
Flat
350
ADF
  3
FlatWithEdges
350
AE0
  3
Gouraud
350
AE1
  3
GouraudWithEdges
350
AE2
  3
Hidden
350
C4E
  3
JitterOff
350
C4F
  3
Linepattern
350
AEC
  3
OverhangOff
350
C50
  3
Realistic
350
AE8
  3
Shaded
350
C56
  3
Shaded with edges
350
C55
  3
Shades of Gray
350
C52
  3
Sketchy
350
C53
  3
Thicken
350
AEB
  3
Wireframe
350
C4D
  3
X-Ray
350
C54
  0
XRECORD
  5
107E
102
{ACAD_REACTORS
330
C
102
}
330
C
100
AcDbXrecord
280
     1
 90
        1
330
AF0
  0
DICTIONARY
  5
AAC
102
{ACAD_REACTORS
330
C
102
}
330
C
100
AcDbDictionary
281
     1
  3
CANNOSCALE
350
B33
  3
CMLEADERSTYLE
350
B31
  3
CTABLESTYLE
350
B30
  3
DIMASSOC
350
AAD
  3
LIGHTINGUNITS
350
B34
  3
MSLTSCALE
350
B32
  3
PROJECTNAME
350
AAE
  3
XCLIPFRAME
350
1028
  0
DICTIONARY
  5
C57
102
{ACAD_REACTORS
330
C
102
}
330
C
100
AcDbDictionary
281
     1
  0
DICTIONARY
  5
CCF
102
{ACAD_REACTORS
330
CCE
102
}
330
CCE
100
AcDbDictionary
281
     1
  0
XRECORD
  5
B18
102
{ACAD_REACTORS
330
B17
102
}
330
B17
100
AcDbXrecord
280
     1
290
     1
  0
XRECORD
  5
B1A
102
{ACAD_REACTORS
330
B19
102
}
330
B19
100
AcDbXrecord
280
     1
290
     1
  0
XRECORD
  5
B1C
102
{ACAD_REACTORS
330
B1B
102
}
330
B1B
100
AcDbXrecord
280
     1
290
     1
  0
XRECORD
  5
B1E
102
{ACAD_REACTORS
330
B1D
102
}
330
B1D
100
AcDbXrecord
280
     1
290
     1
  0
XRECORD
  5
B20
102
{ACAD_REACTORS
330
B1F
102
}
330
B1F
100
AcDbXrecord
280
     1
290
     1
  0
XRECORD
  5
B22
102
{ACAD_REACTORS
330
B21
102
}
330
B21
100
AcDbXrecord
280
     1
290
     1
  0
XRECORD
  5
B24
102
{ACAD_REACTORS
330
B23
102
}
330
B23
100
AcDbXrecord
280
     1
290
     1
  0
XRECORD
  5
B26
102
{ACAD_REACTORS
330
B25
102
}
330
B25
100
AcDbXrecord
280
     1
290
     1
  0
XRECORD
  5
B28
102
{ACAD_REACTORS
330
B27
102
}
330
B27
100
AcDbXrecord
280
     1
290
     1
  0
XRECORD
  5
B2A
102
{ACAD_REACTORS
330
B29
102
}
330
B29
100
AcDbXrecord
280
     1
290
     1
  0
XRECORD
  5
B2C
102
{ACAD_REACTORS
330
B2B
102
}
330
B2B
100
AcDbXrecord
280
     1
290
     1
  0
DICTIONARY
  5
1030
102
{ACAD_REACTORS
330
102F
102
}
330
102F
100
AcDbDictionary
281
     1
  0
GROUP
  5
107B
102
{ACAD_REACTORS
330
D
102
}
330
D
100
AcDbGroup
300

 70
     1
 71
     1
340
1079
340
107A
  0
LAYOUT
  5
1E0
102
{ACAD_REACTORS
330
1DE
102
}
330
1DE
100
AcDbPlotSettings
  1

  2
Kyocera Mita KM-2550(J) KX
  4
A4
  6

 40
4.984749794006346
 41
5.154074668884277
 42
5.11175537109375
 43
4.9847412109375
 44
210.0156707763672
 45
297.0106506347656
 46
0.0
 47
0.0
 48
0.0
 49
0.0
140
0.0
141
0.0
142
1.0
143
1.0
 70
 11952
 72
     0
 73
     1
 74
     0
  7

 75
     0
 76
     0
 77
     2
 78
   300
147
1.0
148
-181.8283954308979
149
2619.650698567118
100
AcDbLayout
  1
Model
 70
     1
 71
     0
 10
0.0
 20
0.0
 11
12.0
 21
9.0
 12
0.0
 22
0.0
 32
0.0
 14
890.5308160861155
 24
247.601904177936
 34
0.0
 15
1425.138446896618
 25
625.6019341646137
 35
0.0
146
0.0
 13
0.0
 23
0.0
 33
0.0
 16
1.0
 26
0.0
 36
0.0
 17
0.0
 27
1.0
 37
0.0
 76
     0
330
18
331
AAF
  0
LAYOUT
  5
1E1
102
{ACAD_REACTORS
330
1DE
102
}
330
1DE
100
AcDbPlotSettings
  1

  2
Kyocera Mita KM-2550(J) KX
  4

  6

 40
0.0
 41
0.0
 42
0.0
 43
0.0
 44
0.0
 45
0.0
 46
0.0
 47
0.0
 48
0.0
 49
0.0
140
0.0
141
0.0
142
1.0
143
1.0
 70
   688
 72
     0
 73
     0
 74
     5
  7

 75
    16
 76
     0
 77
     2
 78
   300
147
1.0
148
0.0
149
0.0
100
AcDbLayout
  1
レイアウト1
 70
     1
 71
     1
 10
0.0
 20
0.0
 11
12.0
 21
9.0
 12
0.0
 22
0.0
 32
0.0
 14
1.000000000000000E+20
 24
1.000000000000000E+20
 34
1.000000000000000E+20
 15
-1.000000000000000E+20
 25
-1.000000000000000E+20
 35
-1.000000000000000E+20
146
0.0
 13
0.0
 23
0.0
 33
0.0
 16
1.0
 26
0.0
 36
0.0
 17
0.0
 27
1.0
 37
0.0
 76
     0
330
15
  0
MATERIAL
  5
ACE
102
{ACAD_REACTORS
330
1DC
102
}
330
1DC
100
AcDbMaterial
  1
ByBlock
 72
     0
 43
0.0208333333333333
 43
0.0
 43
0.0
 43
0.0
 43
0.0
 43
0.0208333333333333
 43
0.0
 43
0.0
 43
0.0
 43
0.0
 43
1.0
 43
0.0
 43
0.0
 43
0.0
 43
0.0
 43
1.0
 77
     0
 47
0.0208333333333333
 47
0.0
 47
0.0
 47
0.0
 47
0.0
 47
0.0208333333333333
 47
0.0
 47
0.0
 47
0.0
 47
0.0
 47
1.0
 47
0.0
 47
0.0
 47
0.0
 47
0.0
 47
1.0
171
     0
 49
0.0208333333333333
 49
0.0
 49
0.0
 49
0.0
 49
0.0
 49
0.0208333333333333
 49
0.0
 49
0.0
 49
0.0
 49
0.0
 49
1.0
 49
0.0
 49
0.0
 49
0.0
 49
0.0
 49
1.0
175
     0
142
0.0208333333333333
142
0.0
142
0.0
142
0.0
142
0.0
142
0.0208333333333333
142
0.0
142
0.0
142
0.0
142
0.0
142
1.0
142
0.0
142
0.0
142
0.0
142
0.0
142
1.0
179
     0
144
0.0208333333333333
144
0.0
144
0.0
144
0.0
144
0.0
144
0.0208333333333333
144
0.0
144
0.0
144
0.0
144
0.0
144
1.0
144
0.0
144
0.0
144
0.0
144
0.0
144
1.0
147
0.0208333333333333
147
0.0
147
0.0
147
0.0
147
0.0
147
0.0208333333333333
147
0.0
147
0.0
147
0.0
147
0.0
147
1.0
147
0.0
147
0.0
147
0.0
147
0.0
147
1.0
 94
      127
  0
MATERIAL
  5
AC6
102
{ACAD_REACTORS
330
1DC
102
}
330
1DC
100
AcDbMaterial
  1
ByLayer
 72
     0
 43
0.0208333333333333
 43
0.0
 43
0.0
 43
0.0
 43
0.0
 43
0.0208333333333333
 43
0.0
 43
0.0
 43
0.0
 43
0.0
 43
1.0
 43
0.0
 43
0.0
 43
0.0
 43
0.0
 43
1.0
 77
     0
 47
0.0208333333333333
 47
0.0
 47
0.0
 47
0.0
 47
0.0
 47
0.0208333333333333
 47
0.0
 47
0.0
 47
0.0
 47
0.0
 47
1.0
 47
0.0
 47
0.0
 47
0.0
 47
0.0
 47
1.0
171
     0
 49
0.0208333333333333
 49
0.0
 49
0.0
 49
0.0
 49
0.0
 49
0.0208333333333333
 49
0.0
 49
0.0
 49
0.0
 49
0.0
 49
1.0
 49
0.0
 49
0.0
 49
0.0
 49
0.0
 49
1.0
175
     0
142
0.0208333333333333
142
0.0
142
0.0
142
0.0
142
0.0
142
0.0208333333333333
142
0.0
142
0.0
142
0.0
142
0.0
142
1.0
142
0.0
142
0.0
142
0.0
142
0.0
142
1.0
179
     0
144
0.0208333333333333
144
0.0
144
0.0
144
0.0
144
0.0
144
0.0208333333333333
144
0.0
144
0.0
144
0.0
144
0.0
144
1.0
144
0.0
144
0.0
144
0.0
144
0.0
144
1.0
147
0.0208333333333333
147
0.0
147
0.0
147
0.0
147
0.0
147
0.0208333333333333
147
0.0
147
0.0
147
0.0
147
0.0
147
1.0
147
0.0
147
0.0
147
0.0
147
0.0
147
1.0
 94
      127
  0
MATERIAL
  5
AD6
102
{ACAD_REACTORS
330
1DC
102
}
330
1DC
100
AcDbMaterial
  1
Global
 72
     0
 43
0.0208333333333333
 43
0.0
 43
0.0
 43
0.0
 43
0.0
 43
0.0208333333333333
 43
0.0
 43
0.0
 43
0.0
 43
0.0
 43
1.0
 43
0.0
 43
0.0
 43
0.0
 43
0.0
 43
1.0
 77
     0
 47
0.0208333333333333
 47
0.0
 47
0.0
 47
0.0
 47
0.0
 47
0.0208333333333333
 47
0.0
 47
0.0
 47
0.0
 47
0.0
 47
1.0
 47
0.0
 47
0.0
 47
0.0
 47
0.0
 47
1.0
171
     0
 49
0.0208333333333333
 49
0.0
 49
0.0
 49
0.0
 49
0.0
 49
0.0208333333333333
 49
0.0
 49
0.0
 49
0.0
 49
0.0
 49
1.0
 49
0.0
 49
0.0
 49
0.0
 49
0.0
 49
1.0
175
     0
142
0.0208333333333333
142
0.0
142
0.0
142
0.0
142
0.0
142
0.0208333333333333
142
0.0
142
0.0
142
0.0
142
0.0
142
1.0
142
0.0
142
0.0
142
0.0
142
0.0
142
1.0
179
     0
144
0.0208333333333333
144
0.0
144
0.0
144
0.0
144
0.0
144
0.0208333333333333
144
0.0
144
0.0
144
0.0
144
0.0
144
1.0
144
0.0
144
0.0
144
0.0
144
0.0
144
1.0
147
0.0208333333333333
147
0.0
147
0.0
147
0.0
147
0.0
147
0.0208333333333333
147
0.0
147
0.0
147
0.0
147
0.0
147
1.0
147
0.0
147
0.0
147
0.0
147
0.0
147
1.0
 94
      127
  0
MLEADERSTYLE
  5
B14
102
{ACAD_REACTORS
330
B13
102
}
330
B13
100
AcDbMLeaderStyle
179
     2
170
     2
171
     1
172
     0
 90
        2
 40
0.0
 41
0.0
173
     1
 91
-1056964608
340
12
 92
       -2
290
     1
 42
0.09
291
     1
 43
0.36
  3
Standard
341
0
 44
0.18
300

342
F
174
     1
178
     6
175
     1
176
     0
 93
-1056964608
 45
0.18
292
     0
297
     0
 46
0.18
343
0
 94
-1056964608
 47
1.0
 49
1.0
140
1.0
293
     1
141
0.0
294
     1
177
     0
142
1.0
295
     0
296
     0
143
0.125
271
     0
272
     9
273
     9
298
     0
  0
MLINESTYLE
  5
1C
102
{ACAD_REACTORS
330
1B
102
}
330
1B
100
AcDbMlineStyle
  2
STANDARD
 70
     0
  3

 62
   256
 51
90.0
 52
90.0
 71
     2
 49
0.5
 62
   256
  6
BYLAYER
 49
-0.5
 62
   256
  6
BYLAYER
  0
ACDBPLACEHOLDER
  5
1DB
102
{ACAD_REACTORS
330
1DA
102
}
330
1DA
  0
SCALE
  5
AF2
102
{ACAD_REACTORS
330
AF1
102
}
330
AF1
100
AcDbScale
 70
     0
300
1:1
140
1.0
141
1.0
290
     1
  0
SCALE
  5
AF3
102
{ACAD_REACTORS
330
AF1
102
}
330
AF1
100
AcDbScale
 70
     0
300
1:2
140
1.0
141
2.0
290
     0
  0
SCALE
  5
AF4
102
{ACAD_REACTORS
330
AF1
102
}
330
AF1
100
AcDbScale
 70
     0
300
1:4
140
1.0
141
4.0
290
     0
  0
SCALE
  5
AF5
102
{ACAD_REACTORS
330
AF1
102
}
330
AF1
100
AcDbScale
 70
     0
300
1:5
140
1.0
141
5.0
290
     0
  0
SCALE
  5
AF6
102
{ACAD_REACTORS
330
AF1
102
}
330
AF1
100
AcDbScale
 70
     0
300
1:8
140
1.0
141
8.0
290
     0
  0
SCALE
  5
AF7
102
{ACAD_REACTORS
330
AF1
102
}
330
AF1
100
AcDbScale
 70
     0
300
1:10
140
1.0
141
10.0
290
     0
  0
SCALE
  5
AF8
102
{ACAD_REACTORS
330
AF1
102
}
330
AF1
100
AcDbScale
 70
     0
300
1:16
140
1.0
141
16.0
290
     0
  0
SCALE
  5
AF9
102
{ACAD_REACTORS
330
AF1
102
}
330
AF1
100
AcDbScale
 70
     0
300
1:20
140
1.0
141
20.0
290
     0
  0
SCALE
  5
AFA
102
{ACAD_REACTORS
330
AF1
102
}
330
AF1
100
AcDbScale
 70
     0
300
1:30
140
1.0
141
30.0
290
     0
  0
SCALE
  5
AFB
102
{ACAD_REACTORS
330
AF1
102
}
330
AF1
100
AcDbScale
 70
     0
300
1:40
140
1.0
141
40.0
290
     0
  0
SCALE
  5
AFC
102
{ACAD_REACTORS
330
AF1
102
}
330
AF1
100
AcDbScale
 70
     0
300
1:50
140
1.0
141
50.0
290
     0
  0
SCALE
  5
AFD
102
{ACAD_REACTORS
330
AF1
102
}
330
AF1
100
AcDbScale
 70
     0
300
1:100
140
1.0
141
100.0
290
     0
  0
SCALE
  5
AFE
102
{ACAD_REACTORS
330
AF1
102
}
330
AF1
100
AcDbScale
 70
     0
300
2:1
140
2.0
141
1.0
290
     0
  0
SCALE
  5
AFF
102
{ACAD_REACTORS
330
AF1
102
}
330
AF1
100
AcDbScale
 70
     0
300
4:1
140
4.0
141
1.0
290
     0
  0
SCALE
  5
B00
102
{ACAD_REACTORS
330
AF1
102
}
330
AF1
100
AcDbScale
 70
     0
300
8:1
140
8.0
141
1.0
290
     0
  0
SCALE
  5
B01
102
{ACAD_REACTORS
330
AF1
102
}
330
AF1
100
AcDbScale
 70
     0
300
10:1
140
10.0
141
1.0
290
     0
  0
SCALE
  5
B02
102
{ACAD_REACTORS
330
AF1
102
}
330
AF1
100
AcDbScale
 70
     0
300
100:1
140
100.0
141
1.0
290
     0
  0
SCALE
  5
B03
102
{ACAD_REACTORS
330
AF1
102
}
330
AF1
100
AcDbScale
 70
     0
300
1/128" = 1'-0"
140
0.0078125
141
12.0
290
     0
  0
SCALE
  5
B04
102
{ACAD_REACTORS
330
AF1
102
}
330
AF1
100
AcDbScale
 70
     0
300
1/64" = 1'-0"
140
0.015625
141
12.0
290
     0
  0
SCALE
  5
B05
102
{ACAD_REACTORS
330
AF1
102
}
330
AF1
100
AcDbScale
 70
     0
300
1/32" = 1'-0"
140
0.03125
141
12.0
290
     0
  0
SCALE
  5
B06
102
{ACAD_REACTORS
330
AF1
102
}
330
AF1
100
AcDbScale
 70
     0
300
1/16" = 1'-0"
140
0.0625
141
12.0
290
     0
  0
SCALE
  5
B07
102
{ACAD_REACTORS
330
AF1
102
}
330
AF1
100
AcDbScale
 70
     0
300
3/32" = 1'-0"
140
0.09375
141
12.0
290
     0
  0
SCALE
  5
B08
102
{ACAD_REACTORS
330
AF1
102
}
330
AF1
100
AcDbScale
 70
     0
300
1/8" = 1'-0"
140
0.125
141
12.0
290
     0
  0
SCALE
  5
B09
102
{ACAD_REACTORS
330
AF1
102
}
330
AF1
100
AcDbScale
 70
     0
300
3/16" = 1'-0"
140
0.1875
141
12.0
290
     0
  0
SCALE
  5
B0A
102
{ACAD_REACTORS
330
AF1
102
}
330
AF1
100
AcDbScale
 70
     0
300
1/4" = 1'-0"
140
0.25
141
12.0
290
     0
  0
SCALE
  5
B0B
102
{ACAD_REACTORS
330
AF1
102
}
330
AF1
100
AcDbScale
 70
     0
300
3/8" = 1'-0"
140
0.375
141
12.0
290
     0
  0
SCALE
  5
B0C
102
{ACAD_REACTORS
330
AF1
102
}
330
AF1
100
AcDbScale
 70
     0
300
1/2" = 1'-0"
140
0.5
141
12.0
290
     0
  0
SCALE
  5
B0D
102
{ACAD_REACTORS
330
AF1
102
}
330
AF1
100
AcDbScale
 70
     0
300
3/4" = 1'-0"
140
0.75
141
12.0
290
     0
  0
SCALE
  5
B0E
102
{ACAD_REACTORS
330
AF1
102
}
330
AF1
100
AcDbScale
 70
     0
300
1" = 1'-0"
140
1.0
141
12.0
290
     0
  0
SCALE
  5
B0F
102
{ACAD_REACTORS
330
AF1
102
}
330
AF1
100
AcDbScale
 70
     0
300
1-1/2" = 1'-0"
140
1.5
141
12.0
290
     0
  0
SCALE
  5
B10
102
{ACAD_REACTORS
330
AF1
102
}
330
AF1
100
AcDbScale
 70
     0
300
3" = 1'-0"
140
3.0
141
12.0
290
     0
  0
SCALE
  5
B11
102
{ACAD_REACTORS
330
AF1
102
}
330
AF1
100
AcDbScale
 70
     0
300
6" = 1'-0"
140
6.0
141
12.0
290
     0
  0
SCALE
  5
B12
102
{ACAD_REACTORS
330
AF1
102
}
330
AF1
100
AcDbScale
 70
     0
300
1'-0" = 1'-0"
140
12.0
141
12.0
290
     0
  0
TABLESTYLE
  5
AF0
102
{ACAD_REACTORS
330
AEF
102
}
102
{ACAD_XDICTIONARY
360
107C
102
}
330
AEF
100
AcDbTableStyle
  3
Standard
 70
     0
 71
     0
 40
0.06
 41
0.06
280
     0
281
     0
  7
STANDARD
140
0.18
170
     2
 62
     0
 63
   257
283
     0
 90
      512
 91
        0
  1

274
    -2
284
     1
 64
     0
275
    -2
285
     1
 65
     0
276
    -2
286
     1
 66
     0
277
    -2
287
     1
 67
     0
278
    -2
288
     1
 68
     0
279
    -2
289
     1
 69
     0
  7
STANDARD
140
0.25
170
     5
 62
     0
 63
   257
283
     0
 90
      512
 91
        0
  1

274
    -2
284
     1
 64
     0
275
    -2
285
     1
 65
     0
276
    -2
286
     1
 66
     0
277
    -2
287
     1
 67
     0
278
    -2
288
     1
 68
     0
279
    -2
289
     1
 69
     0
  7
STANDARD
140
0.18
170
     5
 62
     0
 63
   257
283
     0
 90
      512
 91
        0
  1

274
    -2
284
     1
 64
     0
275
    -2
285
     1
 65
     0
276
    -2
286
     1
 66
     0
277
    -2
287
     1
 67
     0
278
    -2
288
     1
 68
     0
279
    -2
289
     1
 69
     0
  0
VISUALSTYLE
  5
AE4
102
{ACAD_REACTORS
330
ADE
102
}
330
ADE
100
AcDbVisualStyle
  2
2dWireframe
 70
     4
177
     3
291
     0
 70
    58
 90
        0
176
     1
 90
        2
176
     1
 90
        0
176
     1
 90
        0
176
     1
 40
-0.6
176
     1
 40
-30.0
176
     1
 62
     7
420
 16777215
176
     1
 90
        1
176
     1
 90
        4
176
     1
 62
     7
176
     1
 62
   257
176
     1
 90
        1
176
     1
 90
        1
176
     1
 40
1.0
176
     1
 90
        0
176
     1
 62
   257
176
     1
 40
1.0
176
     1
 90
        1
176
     1
 90
        6
176
     1
 90
        2
176
     1
 62
     7
176
     1
 90
        5
176
     1
 90
        0
176
     1
 90
        0
176
     1
290
     0
176
     1
 90
        1
176
     1
 40
0.0
176
     1
 90
        0
176
     1
290
     1
176
     1
290
     1
176
     1
290
     0
176
     1
290
     0
176
     1
290
     0
176
     1
290
     0
176
     1
290
     0
176
     1
290
     0
176
     1
290
     0
176
     1
 90
       50
176
     1
 40
0.0
176
     1
 40
1.0
176
     1
 90
        0
176
     1
 62
    18
420
        0
176
     1
 90
       50
176
     1
 90
        3
176
     1
 62
     5
420
      255
176
     1
290
     0
176
     1
 90
       50
176
     1
 90
       50
176
     1
 90
       50
176
     1
290
     0
176
     1
 90
       50
176
     1
 62
   256
176
     0
 40
1.0
176
     0
 90
        2
176
     1
  1
strokes_ogs.tif
176
     1
290
     0
176
     1
 40
1.0
176
     1
 40
1.0
176
     1
  0
VISUALSTYLE
  5
AE6
102
{ACAD_REACTORS
330
ADE
102
}
330
ADE
100
AcDbVisualStyle
  2
3D Hidden
 70
     6
177
     3
291
     0
 70
    58
 90
        1
176
     1
 90
        2
176
     1
 90
        2
176
     1
 90
        0
176
     1
 40
-0.6
176
     1
 40
-30.0
176
     1
 62
     7
420
 16777215
176
     1
 90
        2
176
     1
 90
        2
176
     1
 62
     7
176
     1
 62
   257
176
     1
 90
        2
176
     1
 90
        1
176
     1
 40
40.0
176
     1
 90
        0
176
     1
 62
   257
176
     1
 40
1.0
176
     1
 90
        1
176
     1
 90
        6
176
     1
 90
        2
176
     1
 62
     7
176
     1
 90
        3
176
     1
 90
        0
176
     1
 90
        0
176
     1
290
     0
176
     1
 90
        1
176
     1
 40
0.0
176
     1
 90
        0
176
     1
290
     0
176
     1
290
     1
176
     1
290
     1
176
     1
290
     0
176
     1
290
     0
176
     1
290
     0
176
     1
290
     0
176
     1
290
     0
176
     1
290
     0
176
     1
 90
       50
176
     1
 40
0.0
176
     1
 40
1.0
176
     1
 90
        0
176
     1
 62
    18
420
        0
176
     1
 90
       50
176
     1
 90
        3
176
     1
 62
     5
420
      255
176
     1
290
     0
176
     1
 90
       50
176
     1
 90
       50
176
     1
 90
       50
176
     1
290
     0
176
     1
 90
       50
176
     1
 62
   256
176
     0
 40
1.0
176
     0
 90
        2
176
     1
  1
strokes_ogs.tif
176
     1
290
     0
176
     1
 40
1.0
176
     1
 40
1.0
176
     1
  0
VISUALSTYLE
  5
AE5
102
{ACAD_REACTORS
330
ADE
102
}
330
ADE
100
AcDbVisualStyle
  2
3dWireframe
 70
     5
177
     3
291
     0
 70
    58
 90
        0
176
     1
 90
        2
176
     1
 90
        0
176
     1
 90
        0
176
     1
 40
-0.6
176
     1
 40
-30.0
176
     1
 62
     7
420
 16777215
176
     1
 90
        1
176
     1
 90
        4
176
     1
 62
     7
176
     1
 62
   257
176
     1
 90
        1
176
     1
 90
        1
176
     1
 40
1.0
176
     1
 90
        0
176
     1
 62
   257
176
     1
 40
1.0
176
     1
 90
        1
176
     1
 90
        6
176
     1
 90
        2
176
     1
 62
     7
176
     1
 90
        5
176
     1
 90
        0
176
     1
 90
        0
176
     1
290
     0
176
     1
 90
        1
176
     1
 40
0.0
176
     1
 90
        0
176
     1
290
     0
176
     1
290
     1
176
     1
290
     1
176
     1
290
     0
176
     1
290
     0
176
     1
290
     0
176
     1
290
     0
176
     1
290
     0
176
     1
290
     0
176
     1
 90
       50
176
     1
 40
0.0
176
     1
 40
1.0
176
     1
 90
        0
176
     1
 62
    18
420
        0
176
     1
 90
       50
176
     1
 90
        3
176
     1
 62
     5
420
      255
176
     1
290
     0
176
     1
 90
       50
176
     1
 90
       50
176
     1
 90
       50
176
     1
290
     0
176
     1
 90
       50
176
     1
 62
   256
176
     0
 40
1.0
176
     0
 90
        2
176
     1
  1
strokes_ogs.tif
176
     1
290
     0
176
     1
 40
1.0
176
     1
 40
1.0
176
     1
  0
VISUALSTYLE
  5
AE3
102
{ACAD_REACTORS
330
ADE
102
}
330
ADE
100
AcDbVisualStyle
  2
Basic
 70
     7
177
     3
291
     1
 70
    58
 90
        1
176
     1
 90
        0
176
     1
 90
        1
176
     1
 90
        0
176
     1
 40
-0.6
176
     1
 40
-30.0
176
     1
 62
     7
420
 16777215
176
     1
 90
        0
176
     1
 90
        4
176
     1
 62
     7
176
     1
 62
   257
176
     1
 90
        1
176
     1
 90
        1
176
     1
 40
1.0
176
     1
 90
        8
176
     1
 62
     7
176
     1
 40
1.0
176
     1
 90
        1
176
     1
 90
        6
176
     1
 90
        2
176
     1
 62
     7
176
     1
 90
        5
176
     1
 90
        0
176
     1
 90
        0
176
     1
290
     0
176
     1
 90
        1
176
     1
 40
0.0
176
     1
 90
        0
176
     1
290
     0
176
     1
290
     1
176
     1
290
     1
176
     1
290
     0
176
     1
290
     0
176
     1
290
     0
176
     1
290
     0
176
     1
290
     0
176
     1
290
     0
176
     1
 90
       50
176
     1
 40
0.0
176
     1
 40
1.0
176
     1
 90
        0
176
     1
 62
    18
420
        0
176
     1
 90
       50
176
     1
 90
        3
176
     1
 62
     5
420
      255
176
     1
290
     0
176
     1
 90
       50
176
     1
 90
       50
176
     1
 90
       50
176
     1
290
     0
176
     1
 90
       50
176
     1
 62
   256
176
     0
 40
1.0
176
     0
 90
        2
176
     1
  1
strokes_ogs.tif
176
     1
290
     0
176
     1
 40
1.0
176
     1
 40
1.0
176
     1
  0
VISUALSTYLE
  5
AEA
102
{ACAD_REACTORS
330
ADE
102
}
330
ADE
100
AcDbVisualStyle
  2
Brighten
 70
    12
177
     3
291
     1
 70
    58
 90
        2
176
     1
 90
        2
176
     1
 90
        0
176
     1
 90
        0
176
     1
 40
-0.6
176
     1
 40
-30.0
176
     1
 62
     7
420
 16777215
176
     1
 90
        1
176
     1
 90
        4
176
     1
 62
     7
176
     1
 62
   257
176
     1
 90
        1
176
     1
 90
        1
176
     1
 40
1.0
176
     1
 90
        8
176
     1
 62
     7
176
     1
 40
1.0
176
     1
 90
        1
176
     1
 90
        6
176
     1
 90
        2
176
     1
 62
     7
176
     1
 90
        5
176
     1
 90
        0
176
     1
 90
        0
176
     1
290
     0
176
     1
 90
        1
176
     1
 40
50.0
176
     1
 90
        0
176
     1
290
     0
176
     1
290
     1
176
     1
290
     1
176
     1
290
     0
176
     1
290
     0
176
     1
290
     0
176
     1
290
     0
176
     1
290
     0
176
     1
290
     0
176
     1
 90
       50
176
     1
 40
0.0
176
     1
 40
1.0
176
     1
 90
        0
176
     1
 62
    18
420
        0
176
     1
 90
       50
176
     1
 90
        3
176
     1
 62
     5
420
      255
176
     1
290
     0
176
     1
 90
       50
176
     1
 90
       50
176
     1
 90
       50
176
     1
290
     0
176
     1
 90
       50
176
     1
 62
   256
176
     0
 40
1.0
176
     0
 90
        2
176
     1
  1
strokes_ogs.tif
176
     1
290
     0
176
     1
 40
1.0
176
     1
 40
1.0
176
     1
  0
VISUALSTYLE
  5
AEE
102
{ACAD_REACTORS
330
ADE
102
}
330
ADE
100
AcDbVisualStyle
  2
ColorChange
 70
    16
177
     3
291
     1
 70
    58
 90
        2
176
     1
 90
        2
176
     1
 90
        3
176
     1
 90
        0
176
     1
 40
-0.6
176
     1
 40
-30.0
176
     1
 62
     8
420
  8421504
176
     1
 90
        1
176
     1
 90
        4
176
     1
 62
     7
176
     1
 62
   257
176
     1
 90
        1
176
     1
 90
        1
176
     1
 40
1.0
176
     1
 90
        8
176
     1
 62
     8
420
  8421504
176
     1
 40
1.0
176
     1
 90
        1
176
     1
 90
        6
176
     1
 90
        2
176
     1
 62
     7
176
     1
 90
        5
176
     1
 90
        0
176
     1
 90
        0
176
     1
290
     0
176
     1
 90
        1
176
     1
 40
0.0
176
     1
 90
        0
176
     1
290
     0
176
     1
290
     1
176
     1
290
     1
176
     1
290
     0
176
     1
290
     0
176
     1
290
     0
176
     1
290
     0
176
     1
290
     0
176
     1
290
     0
176
     1
 90
       50
176
     1
 40
0.0
176
     1
 40
1.0
176
     1
 90
        0
176
     1
 62
    18
420
        0
176
     1
 90
       50
176
     1
 90
        3
176
     1
 62
     5
420
      255
176
     1
290
     0
176
     1
 90
       50
176
     1
 90
       50
176
     1
 90
       50
176
     1
290
     0
176
     1
 90
       50
176
     1
 62
   256
176
     0
 40
1.0
176
     0
 90
        2
176
     1
  1
strokes_ogs.tif
176
     1
290
     0
176
     1
 40
1.0
176
     1
 40
1.0
176
     1
  0
VISUALSTYLE
  5
AE7
102
{ACAD_REACTORS
330
ADE
102
}
330
ADE
100
AcDbVisualStyle
  2
Conceptual
 70
     9
177
     3
291
     0
 70
    58
 90
        3
176
     1
 90
        2
176
     1
 90
        0
176
     1
 90
        0
176
     1
 40
-0.6
176
     1
 40
-30.0
176
     1
 62
     7
420
 16777215
176
     1
 90
        2
176
     1
 90
        2
176
     1
 62
     7
176
     1
 62
   257
176
     1
 90
        1
176
     1
 90
        1
176
     1
 40
40.0
176
     1
 90
        8
176
     1
 62
     7
176
     1
 40
1.0
176
     1
 90
        1
176
     1
 90
        6
176
     1
 90
        2
176
     1
 62
     7
176
     1
 90
        3
176
     1
 90
        0
176
     1
 90
        0
176
     1
290
     0
176
     1
 90
        1
176
     1
 40
0.0
176
     1
 90
        0
176
     1
290
     0
176
     1
290
     1
176
     1
290
     1
176
     1
290
     0
176
     1
290
     0
176
     1
290
     0
176
     1
290
     0
176
     1
290
     0
176
     1
290
     0
176
     1
 90
       50
176
     1
 40
0.0
176
     1
 40
1.0
176
     1
 90
        0
176
     1
 62
    18
420
        0
176
     1
 90
       50
176
     1
 90
        3
176
     1
 62
     5
420
      255
176
     1
290
     0
176
     1
 90
       50
176
     1
 90
       50
176
     1
 90
       50
176
     1
290
     0
176
     1
 90
       50
176
     1
 62
   256
176
     0
 40
1.0
176
     0
 90
        2
176
     1
  1
strokes_ogs.tif
176
     1
290
     0
176
     1
 40
1.0
176
     1
 40
1.0
176
     1
  0
VISUALSTYLE
  5
AE9
102
{ACAD_REACTORS
330
ADE
102
}
330
ADE
100
AcDbVisualStyle
  2
Dim
 70
    11
177
     3
291
     1
 70
    58
 90
        2
176
     1
 90
        2
176
     1
 90
        0
176
     1
 90
        0
176
     1
 40
-0.6
176
     1
 40
-30.0
176
     1
 62
     7
420
 16777215
176
     1
 90
        1
176
     1
 90
        4
176
     1
 62
     7
176
     1
 62
   257
176
     1
 90
        1
176
     1
 90
        1
176
     1
 40
1.0
176
     1
 90
        8
176
     1
 62
     7
176
     1
 40
1.0
176
     1
 90
        1
176
     1
 90
        6
176
     1
 90
        2
176
     1
 62
     7
176
     1
 90
        5
176
     1
 90
        0
176
     1
 90
        0
176
     1
290
     0
176
     1
 90
        1
176
     1
 40
-50.0
176
     1
 90
        0
176
     1
290
     0
176
     1
290
     1
176
     1
290
     1
176
     1
290
     0
176
     1
290
     0
176
     1
290
     0
176
     1
290
     0
176
     1
290
     0
176
     1
290
     0
176
     1
 90
       50
176
     1
 40
0.0
176
     1
 40
1.0
176
     1
 90
        0
176
     1
 62
    18
420
        0
176
     1
 90
       50
176
     1
 90
        3
176
     1
 62
     5
420
      255
176
     1
290
     0
176
     1
 90
       50
176
     1
 90
       50
176
     1
 90
       50
176
     1
290
     0
176
     1
 90
       50
176
     1
 62
   256
176
     0
 40
1.0
176
     0
 90
        2
176
     1
  1
strokes_ogs.tif
176
     1
290
     0
176
     1
 40
1.0
176
     1
 40
1.0
176
     1
  0
VISUALSTYLE
  5
C51
102
{ACAD_REACTORS
330
ADE
102
}
330
ADE
100
AcDbVisualStyle
  2
EdgeColorOff
 70
    22
177
     3
291
     1
 70
    58
 90
        2
176
     0
 90
        2
176
     0
 90
        0
176
     0
 90
        0
176
     0
 40
0.6
176
     0
 40
30.0
176
     0
 62
     7
420
 16777215
176
     0
 90
        1
176
     0
 90
        4
176
     0
 62
     7
176
     0
 62
   257
176
     0
 90
        1
176
     0
 90
        1
176
     0
 40
1.0
176
     0
 90
        8
176
     2
 62
     7
176
     0
 40
1.0
176
     0
 90
        1
176
     0
 90
        6
176
     0
 90
        2
176
     0
 62
     7
176
     0
 90
        5
176
     0
 90
        0
176
     0
 90
        0
176
     0
290
     0
176
     0
 90
        1
176
     0
 40
0.0
176
     0
 90
        0
176
     0
290
     0
176
     0
290
     1
176
     0
290
     1
176
     0
290
     0
176
     0
290
     0
176
     0
290
     0
176
     0
290
     0
176
     0
290
     0
176
     0
290
     0
176
     0
 90
       50
176
     0
 40
0.0
176
     0
 40
1.0
176
     0
 90
        0
176
     0
 62
    18
420
        0
176
     0
 90
       50
176
     0
 90
        3
176
     0
 62
     5
420
      255
176
     0
290
     0
176
     0
 90
       50
176
     0
 90
       50
176
     0
 90
       50
176
     0
290
     0
176
     0
 90
       50
176
     0
 62
   256
176
     0
 40
1.0
176
     0
 90
        2
176
     0
  1
strokes_ogs.tif
176
     0
290
     0
176
     0
 40
1.0
176
     0
 40
1.0
176
     0
  0
VISUALSTYLE
  5
AED
102
{ACAD_REACTORS
330
ADE
102
}
330
ADE
100
AcDbVisualStyle
  2
Facepattern
 70
    15
177
     3
291
     1
 70
    58
 90
        2
176
     1
 90
        2
176
     1
 90
        0
176
     1
 90
        0
176
     1
 40
-0.6
176
     1
 40
-30.0
176
     1
 62
     7
420
 16777215
176
     1
 90
        1
176
     1
 90
        4
176
     1
 62
     7
176
     1
 62
   257
176
     1
 90
        1
176
     1
 90
        1
176
     1
 40
1.0
176
     1
 90
        8
176
     1
 62
     7
176
     1
 40
1.0
176
     1
 90
        1
176
     1
 90
        6
176
     1
 90
        2
176
     1
 62
     7
176
     1
 90
        5
176
     1
 90
        0
176
     1
 90
        0
176
     1
290
     0
176
     1
 90
        1
176
     1
 40
0.0
176
     1
 90
        0
176
     1
290
     0
176
     1
290
     1
176
     1
290
     1
176
     1
290
     0
176
     1
290
     0
176
     1
290
     0
176
     1
290
     0
176
     1
290
     0
176
     1
290
     0
176
     1
 90
       50
176
     1
 40
0.0
176
     1
 40
1.0
176
     1
 90
        0
176
     1
 62
    18
420
        0
176
     1
 90
       50
176
     1
 90
        3
176
     1
 62
     5
420
      255
176
     1
290
     0
176
     1
 90
       50
176
     1
 90
       50
176
     1
 90
       50
176
     1
290
     0
176
     1
 90
       50
176
     1
 62
   256
176
     0
 40
1.0
176
     0
 90
        2
176
     1
  1
strokes_ogs.tif
176
     1
290
     0
176
     1
 40
1.0
176
     1
 40
1.0
176
     1
  0
VISUALSTYLE
  5
ADF
102
{ACAD_REACTORS
330
ADE
102
}
330
ADE
100
AcDbVisualStyle
  2
Flat
 70
     0
177
     3
291
     1
 70
    58
 90
        2
176
     1
 90
        1
176
     1
 90
        1
176
     1
 90
        2
176
     1
 40
-0.6
176
     1
 40
30.0
176
     1
 62
     7
420
 16777215
176
     1
 90
        0
176
     1
 90
        4
176
     1
 62
     7
176
     1
 62
   257
176
     1
 90
        1
176
     1
 90
        1
176
     1
 40
1.0
176
     1
 90
        8
176
     1
 62
     7
176
     1
 40
1.0
176
     1
 90
        1
176
     1
 90
        6
176
     1
 90
        2
176
     1
 62
     7
176
     1
 90
        5
176
     1
 90
        0
176
     1
 90
        0
176
     1
290
     0
176
     1
 90
       13
176
     1
 40
0.0
176
     1
 90
        0
176
     1
290
     0
176
     1
290
     1
176
     1
290
     1
176
     1
290
     0
176
     1
290
     0
176
     1
290
     0
176
     1
290
     0
176
     1
290
     0
176
     1
290
     0
176
     1
 90
       50
176
     1
 40
0.0
176
     1
 40
1.0
176
     1
 90
        0
176
     1
 62
    18
420
        0
176
     1
 90
       50
176
     1
 90
        3
176
     1
 62
     5
420
      255
176
     1
290
     0
176
     1
 90
       50
176
     1
 90
       50
176
     1
 90
       50
176
     1
290
     0
176
     1
 90
       50
176
     1
 62
   256
176
     0
 40
1.0
176
     0
 90
        2
176
     1
  1
strokes_ogs.tif
176
     1
290
     0
176
     1
 40
1.0
176
     1
 40
1.0
176
     1
  0
VISUALSTYLE
  5
AE0
102
{ACAD_REACTORS
330
ADE
102
}
330
ADE
100
AcDbVisualStyle
  2
FlatWithEdges
 70
     1
177
     3
291
     1
 70
    58
 90
        2
176
     1
 90
        1
176
     1
 90
        1
176
     1
 90
        2
176
     1
 40
-0.6
176
     1
 40
30.0
176
     1
 62
     7
420
 16777215
176
     1
 90
        1
176
     1
 90
        4
176
     1
 62
     7
176
     1
 62
   257
176
     1
 90
        1
176
     1
 90
        1
176
     1
 40
1.0
176
     1
 90
        0
176
     1
 62
   257
176
     1
 40
1.0
176
     1
 90
        1
176
     1
 90
        6
176
     1
 90
        2
176
     1
 62
     7
176
     1
 90
        5
176
     1
 90
        0
176
     1
 90
        0
176
     1
290
     0
176
     1
 90
       13
176
     1
 40
0.0
176
     1
 90
        0
176
     1
290
     0
176
     1
290
     1
176
     1
290
     1
176
     1
290
     0
176
     1
290
     0
176
     1
290
     0
176
     1
290
     0
176
     1
290
     0
176
     1
290
     0
176
     1
 90
       50
176
     1
 40
0.0
176
     1
 40
1.0
176
     1
 90
        0
176
     1
 62
    18
420
        0
176
     1
 90
       50
176
     1
 90
        3
176
     1
 62
     5
420
      255
176
     1
290
     0
176
     1
 90
       50
176
     1
 90
       50
176
     1
 90
       50
176
     1
290
     0
176
     1
 90
       50
176
     1
 62
   256
176
     0
 40
1.0
176
     0
 90
        2
176
     1
  1
strokes_ogs.tif
176
     1
290
     0
176
     1
 40
1.0
176
     1
 40
1.0
176
     1
  0
VISUALSTYLE
  5
AE1
102
{ACAD_REACTORS
330
ADE
102
}
330
ADE
100
AcDbVisualStyle
  2
Gouraud
 70
     2
177
     3
291
     1
 70
    58
 90
        2
176
     1
 90
        2
176
     1
 90
        1
176
     1
 90
        2
176
     1
 40
-0.6
176
     1
 40
30.0
176
     1
 62
     7
420
 16777215
176
     1
 90
        0
176
     1
 90
        4
176
     1
 62
     7
176
     1
 62
   257
176
     1
 90
        1
176
     1
 90
        1
176
     1
 40
1.0
176
     1
 90
        0
176
     1
 62
     7
176
     1
 40
1.0
176
     1
 90
        1
176
     1
 90
        6
176
     1
 90
        2
176
     1
 62
     7
176
     1
 90
        5
176
     1
 90
        0
176
     1
 90
        0
176
     1
290
     0
176
     1
 90
       13
176
     1
 40
0.0
176
     1
 90
        0
176
     1
290
     0
176
     1
290
     1
176
     1
290
     1
176
     1
290
     0
176
     1
290
     0
176
     1
290
     0
176
     1
290
     0
176
     1
290
     0
176
     1
290
     0
176
     1
 90
       50
176
     1
 40
0.0
176
     1
 40
1.0
176
     1
 90
        0
176
     1
 62
    18
420
        0
176
     1
 90
       50
176
     1
 90
        3
176
     1
 62
     5
420
      255
176
     1
290
     0
176
     1
 90
       50
176
     1
 90
       50
176
     1
 90
       50
176
     1
290
     0
176
     1
 90
       50
176
     1
 62
   256
176
     0
 40
1.0
176
     0
 90
        2
176
     1
  1
strokes_ogs.tif
176
     1
290
     0
176
     1
 40
1.0
176
     1
 40
1.0
176
     1
  0
VISUALSTYLE
  5
AE2
102
{ACAD_REACTORS
330
ADE
102
}
330
ADE
100
AcDbVisualStyle
  2
GouraudWithEdges
 70
     3
177
     3
291
     1
 70
    58
 90
        2
176
     1
 90
        2
176
     1
 90
        1
176
     1
 90
        2
176
     1
 40
-0.6
176
     1
 40
30.0
176
     1
 62
     7
420
 16777215
176
     1
 90
        1
176
     1
 90
        4
176
     1
 62
     7
176
     1
 62
   257
176
     1
 90
        1
176
     1
 90
        1
176
     1
 40
1.0
176
     1
 90
        0
176
     1
 62
   257
176
     1
 40
1.0
176
     1
 90
        1
176
     1
 90
        6
176
     1
 90
        2
176
     1
 62
     7
176
     1
 90
        5
176
     1
 90
        0
176
     1
 90
        0
176
     1
290
     0
176
     1
 90
       13
176
     1
 40
0.0
176
     1
 90
        0
176
     1
290
     0
176
     1
290
     1
176
     1
290
     1
176
     1
290
     0
176
     1
290
     0
176
     1
290
     0
176
     1
290
     0
176
     1
290
     0
176
     1
290
     0
176
     1
 90
       50
176
     1
 40
0.0
176
     1
 40
1.0
176
     1
 90
        0
176
     1
 62
    18
420
        0
176
     1
 90
       50
176
     1
 90
        3
176
     1
 62
     5
420
      255
176
     1
290
     0
176
     1
 90
       50
176
     1
 90
       50
176
     1
 90
       50
176
     1
290
     0
176
     1
 90
       50
176
     1
 62
   256
176
     0
 40
1.0
176
     0
 90
        2
176
     1
  1
strokes_ogs.tif
176
     1
290
     0
176
     1
 40
1.0
176
     1
 40
1.0
176
     1
  0
VISUALSTYLE
  5
C4E
102
{ACAD_REACTORS
330
ADE
102
}
330
ADE
100
AcDbVisualStyle
  2
Hidden
 70
     6
177
     3
291
     0
 70
    58
 90
        1
176
     1
 90
        2
176
     1
 90
        2
176
     1
 90
        0
176
     1
 40
0.6
176
     1
 40
30.0
176
     1
 62
     7
420
 16777215
176
     1
 90
        2
176
     1
 90
        2
176
     1
 62
     7
176
     1
 62
   257
176
     1
 90
        2
176
     1
 90
        1
176
     1
 40
40.0
176
     1
 90
        0
176
     1
 62
   257
176
     1
 40
1.0
176
     1
 90
        1
176
     1
 90
        6
176
     1
 90
        2
176
     1
 62
     7
176
     1
 90
        3
176
     1
 90
        0
176
     1
 90
        0
176
     1
290
     0
176
     1
 90
        1
176
     1
 40
0.0
176
     1
 90
        0
176
     1
290
     0
176
     1
290
     1
176
     1
290
     1
176
     1
290
     0
176
     1
290
     0
176
     1
290
     0
176
     1
290
     0
176
     1
290
     0
176
     1
290
     0
176
     1
 90
       50
176
     1
 40
0.0
176
     1
 40
1.0
176
     1
 90
        0
176
     1
 62
    18
420
        0
176
     1
 90
       50
176
     1
 90
        3
176
     1
 62
     5
420
      255
176
     1
290
     0
176
     1
 90
       50
176
     1
 90
       50
176
     1
 90
       50
176
     1
290
     0
176
     1
 90
       50
176
     1
 62
   256
176
     0
 40
1.0
176
     0
 90
        2
176
     1
  1
strokes_ogs.tif
176
     1
290
     0
176
     1
 40
1.0
176
     1
 40
1.0
176
     1
  0
VISUALSTYLE
  5
C4F
102
{ACAD_REACTORS
330
ADE
102
}
330
ADE
100
AcDbVisualStyle
  2
JitterOff
 70
    20
177
     3
291
     1
 70
    58
 90
        2
176
     0
 90
        2
176
     0
 90
        0
176
     0
 90
        0
176
     0
 40
0.6
176
     0
 40
30.0
176
     0
 62
     7
420
 16777215
176
     0
 90
        1
176
     0
 90
        4
176
     0
 62
     7
176
     0
 62
   257
176
     0
 90
        1
176
     0
 90
        1
176
     0
 40
1.0
176
     0
 90
       10
176
     2
 62
     7
176
     0
 40
1.0
176
     0
 90
        1
176
     0
 90
        6
176
     0
 90
        2
176
     0
 62
     7
176
     0
 90
        5
176
     0
 90
        0
176
     0
 90
        0
176
     0
290
     0
176
     0
 90
        1
176
     0
 40
0.0
176
     0
 90
        0
176
     0
290
     0
176
     0
290
     1
176
     0
290
     1
176
     0
290
     0
176
     0
290
     0
176
     0
290
     0
176
     0
290
     0
176
     0
290
     0
176
     0
290
     0
176
     0
 90
       50
176
     0
 40
0.0
176
     0
 40
1.0
176
     0
 90
        0
176
     0
 62
    18
420
        0
176
     0
 90
       50
176
     0
 90
        3
176
     0
 62
     5
420
      255
176
     0
290
     0
176
     0
 90
       50
176
     0
 90
       50
176
     0
 90
       50
176
     0
290
     0
176
     0
 90
       50
176
     0
 62
   256
176
     0
 40
1.0
176
     0
 90
        2
176
     0
  1
strokes_ogs.tif
176
     0
290
     0
176
     0
 40
1.0
176
     0
 40
1.0
176
     0
  0
VISUALSTYLE
  5
AEC
102
{ACAD_REACTORS
330
ADE
102
}
330
ADE
100
AcDbVisualStyle
  2
Linepattern
 70
    14
177
     3
291
     1
 70
    58
 90
        2
176
     1
 90
        2
176
     1
 90
        0
176
     1
 90
        0
176
     1
 40
-0.6
176
     1
 40
-30.0
176
     1
 62
     7
420
 16777215
176
     1
 90
        1
176
     1
 90
        4
176
     1
 62
     7
176
     1
 62
   257
176
     1
 90
        7
176
     1
 90
        7
176
     1
 40
1.0
176
     1
 90
        8
176
     1
 62
     7
176
     1
 40
1.0
176
     1
 90
        1
176
     1
 90
        6
176
     1
 90
        2
176
     1
 62
     7
176
     1
 90
        5
176
     1
 90
        0
176
     1
 90
        0
176
     1
290
     0
176
     1
 90
        1
176
     1
 40
0.0
176
     1
 90
        0
176
     1
290
     0
176
     1
290
     1
176
     1
290
     1
176
     1
290
     0
176
     1
290
     0
176
     1
290
     0
176
     1
290
     0
176
     1
290
     0
176
     1
290
     0
176
     1
 90
       50
176
     1
 40
0.0
176
     1
 40
1.0
176
     1
 90
        0
176
     1
 62
    18
420
        0
176
     1
 90
       50
176
     1
 90
        3
176
     1
 62
     5
420
      255
176
     1
290
     0
176
     1
 90
       50
176
     1
 90
       50
176
     1
 90
       50
176
     1
290
     0
176
     1
 90
       50
176
     1
 62
   256
176
     0
 40
1.0
176
     0
 90
        2
176
     1
  1
strokes_ogs.tif
176
     1
290
     0
176
     1
 40
1.0
176
     1
 40
1.0
176
     1
  0
VISUALSTYLE
  5
C50
102
{ACAD_REACTORS
330
ADE
102
}
330
ADE
100
AcDbVisualStyle
  2
OverhangOff
 70
    21
177
     3
291
     1
 70
    58
 90
        2
176
     0
 90
        2
176
     0
 90
        0
176
     0
 90
        0
176
     0
 40
0.6
176
     0
 40
30.0
176
     0
 62
     7
420
 16777215
176
     0
 90
        1
176
     0
 90
        4
176
     0
 62
     7
176
     0
 62
   257
176
     0
 90
        1
176
     0
 90
        1
176
     0
 40
1.0
176
     0
 90
        9
176
     2
 62
     7
176
     0
 40
1.0
176
     0
 90
        1
176
     0
 90
        6
176
     0
 90
        2
176
     0
 62
     7
176
     0
 90
        5
176
     0
 90
        0
176
     0
 90
        0
176
     0
290
     0
176
     0
 90
        1
176
     0
 40
0.0
176
     0
 90
        0
176
     0
290
     0
176
     0
290
     1
176
     0
290
     1
176
     0
290
     0
176
     0
290
     0
176
     0
290
     0
176
     0
290
     0
176
     0
290
     0
176
     0
290
     0
176
     0
 90
       50
176
     0
 40
0.0
176
     0
 40
1.0
176
     0
 90
        0
176
     0
 62
    18
420
        0
176
     0
 90
       50
176
     0
 90
        3
176
     0
 62
     5
420
      255
176
     0
290
     0
176
     0
 90
       50
176
     0
 90
       50
176
     0
 90
       50
176
     0
290
     0
176
     0
 90
       50
176
     0
 62
   256
176
     0
 40
1.0
176
     0
 90
        2
176
     0
  1
strokes_ogs.tif
176
     0
290
     0
176
     0
 40
1.0
176
     0
 40
1.0
176
     0
  0
VISUALSTYLE
  5
AE8
102
{ACAD_REACTORS
330
ADE
102
}
330
ADE
100
AcDbVisualStyle
  2
Realistic
 70
     8
177
     3
291
     0
 70
    58
 90
        2
176
     1
 90
        2
176
     1
 90
        0
176
     1
 90
        0
176
     1
 40
-0.6
176
     1
 40
-30.0
176
     1
 62
     7
420
 16777215
176
     1
 90
        1
176
     1
 90
        0
176
     1
 62
     7
176
     1
 62
   257
176
     1
 90
        1
176
     1
 90
        1
176
     1
 40
1.0
176
     1
 90
        8
176
     1
 62
     8
420
  7895160
176
     1
 40
1.0
176
     1
 90
        1
176
     1
 90
        6
176
     1
 90
        2
176
     1
 62
     7
176
     1
 90
        5
176
     1
 90
        0
176
     1
 90
        0
176
     1
290
     0
176
     1
 90
       13
176
     1
 40
0.0
176
     1
 90
        0
176
     1
290
     0
176
     1
290
     1
176
     1
290
     1
176
     1
290
     0
176
     1
290
     0
176
     1
290
     0
176
     1
290
     0
176
     1
290
     0
176
     1
290
     0
176
     1
 90
       50
176
     1
 40
0.0
176
     1
 40
1.0
176
     1
 90
        0
176
     1
 62
    18
420
        0
176
     1
 90
       50
176
     1
 90
        3
176
     1
 62
     5
420
      255
176
     1
290
     0
176
     1
 90
       50
176
     1
 90
       50
176
     1
 90
       50
176
     1
290
     0
176
     1
 90
       50
176
     1
 62
   256
176
     0
 40
1.0
176
     0
 90
        2
176
     1
  1
strokes_ogs.tif
176
     1
290
     0
176
     1
 40
1.0
176
     1
 40
1.0
176
     1
  0
VISUALSTYLE
  5
C56
102
{ACAD_REACTORS
330
ADE
102
}
330
ADE
100
AcDbVisualStyle
  2
Shaded
 70
    27
177
     3
291
     0
 70
    58
 90
        2
176
     1
 90
        2
176
     1
 90
        1
176
     1
 90
        2
176
     1
 40
0.6
176
     1
 40
30.0
176
     1
 62
     7
420
 16777215
176
     1
 90
        0
176
     1
 90
        4
176
     1
 62
     7
176
     1
 62
   257
176
     1
 90
        1
176
     1
 90
        1
176
     1
 40
1.0
176
     1
 90
        8
176
     1
 62
   257
176
     1
 40
1.0
176
     1
 90
        1
176
     1
 90
        6
176
     1
 90
        2
176
     1
 62
     8
420
  7895160
176
     1
 90
        3
176
     1
 90
        0
176
     1
 90
        0
176
     1
290
     0
176
     1
 90
        5
176
     1
 40
0.0
176
     1
 90
        0
176
     1
290
     0
176
     1
290
     1
176
     1
290
     1
176
     1
290
     0
176
     1
290
     0
176
     1
290
     0
176
     1
290
     0
176
     1
290
     0
176
     1
290
     0
176
     1
 90
       50
176
     1
 40
0.0
176
     1
 40
1.0
176
     1
 90
        0
176
     1
 62
    18
420
        0
176
     1
 90
       50
176
     1
 90
        3
176
     1
 62
     5
420
      255
176
     1
290
     0
176
     1
 90
       50
176
     1
 90
       50
176
     1
 90
       50
176
     1
290
     0
176
     1
 90
       50
176
     1
 62
   256
176
     0
 40
1.0
176
     0
 90
        2
176
     1
  1
strokes_ogs.tif
176
     1
290
     0
176
     1
 40
1.0
176
     1
 40
1.0
176
     1
  0
VISUALSTYLE
  5
C55
102
{ACAD_REACTORS
330
ADE
102
}
330
ADE
100
AcDbVisualStyle
  2
Shaded with edges
 70
    26
177
     3
291
     0
 70
    58
 90
        2
176
     1
 90
        2
176
     1
 90
        1
176
     1
 90
        2
176
     1
 40
0.6
176
     1
 40
30.0
176
     1
 62
     7
420
 16777215
176
     1
 90
        1
176
     1
 90
       10
176
     1
 62
     7
176
     1
 62
   257
176
     1
 90
        2
176
     1
 90
        1
176
     1
 40
1.0
176
     1
 90
        8
176
     1
 62
   257
176
     1
 40
1.0
176
     1
 90
        1
176
     1
 90
        6
176
     1
 90
        2
176
     1
 62
     7
176
     1
 90
        3
176
     1
 90
        0
176
     1
 90
        0
176
     1
290
     0
176
     1
 90
        5
176
     1
 40
0.0
176
     1
 90
        0
176
     1
290
     0
176
     1
290
     1
176
     1
290
     1
176
     1
290
     0
176
     1
290
     0
176
     1
290
     0
176
     1
290
     0
176
     1
290
     0
176
     1
290
     0
176
     1
 90
       50
176
     1
 40
0.0
176
     1
 40
1.0
176
     1
 90
        0
176
     1
 62
    18
420
        0
176
     1
 90
       50
176
     1
 90
        3
176
     1
 62
     5
420
      255
176
     1
290
     0
176
     1
 90
       50
176
     1
 90
       50
176
     1
 90
       50
176
     1
290
     0
176
     1
 90
       50
176
     1
 62
   256
176
     0
 40
1.0
176
     0
 90
        2
176
     1
  1
strokes_ogs.tif
176
     1
290
     0
176
     1
 40
1.0
176
     1
 40
1.0
176
     1
  0
VISUALSTYLE
  5
C52
102
{ACAD_REACTORS
330
ADE
102
}
330
ADE
100
AcDbVisualStyle
  2
Shades of Gray
 70
    23
177
     3
291
     0
 70
    58
 90
        2
176
     1
 90
        2
176
     1
 90
        3
176
     1
 90
        0
176
     1
 40
0.6
176
     1
 40
30.0
176
     1
 62
     7
420
 16777215
176
     1
 90
        2
176
     1
 90
        2
176
     1
 62
     7
176
     1
 62
     7
176
     1
 90
        1
176
     1
 90
        1
176
     1
 40
40.0
176
     1
 90
        8
176
     1
 62
     7
176
     1
 40
1.0
176
     1
 90
        1
176
     1
 90
        6
176
     1
 90
        2
176
     1
 62
     7
176
     1
 90
        3
176
     1
 90
        0
176
     1
 90
        0
176
     1
290
     0
176
     1
 90
        1
176
     1
 40
0.0
176
     1
 90
        0
176
     1
290
     0
176
     1
290
     1
176
     1
290
     1
176
     1
290
     0
176
     1
290
     0
176
     1
290
     0
176
     1
290
     0
176
     1
290
     0
176
     1
290
     0
176
     1
 90
       50
176
     1
 40
0.0
176
     1
 40
1.0
176
     1
 90
        0
176
     1
 62
    18
420
        0
176
     1
 90
       50
176
     1
 90
        3
176
     1
 62
     5
420
      255
176
     1
290
     0
176
     1
 90
       50
176
     1
 90
       50
176
     1
 90
       50
176
     1
290
     0
176
     1
 90
       50
176
     1
 62
   256
176
     0
 40
1.0
176
     0
 90
        2
176
     1
  1
strokes_ogs.tif
176
     1
290
     0
176
     1
 40
1.0
176
     1
 40
1.0
176
     1
  0
VISUALSTYLE
  5
C53
102
{ACAD_REACTORS
330
ADE
102
}
330
ADE
100
AcDbVisualStyle
  2
Sketchy
 70
    24
177
     3
291
     0
 70
    58
 90
        1
176
     1
 90
        2
176
     1
 90
        2
176
     1
 90
        0
176
     1
 40
0.6
176
     1
 40
30.0
176
     1
 62
     7
420
 16777215
176
     1
 90
        2
176
     1
 90
        2
176
     1
 62
     7
176
     1
 62
     7
176
     1
 90
        1
176
     1
 90
        1
176
     1
 40
40.0
176
     1
 90
       11
176
     1
 62
     7
176
     1
 40
1.0
176
     1
 90
        1
176
     1
 90
        6
176
     1
 90
        2
176
     1
 62
     7
176
     1
 90
        6
176
     1
 90
        0
176
     1
 90
        0
176
     1
290
     0
176
     1
 90
        1
176
     1
 40
0.0
176
     1
 90
        0
176
     1
290
     0
176
     1
290
     1
176
     1
290
     1
176
     1
290
     0
176
     1
290
     0
176
     1
290
     0
176
     1
290
     0
176
     1
290
     0
176
     1
290
     0
176
     1
 90
       50
176
     1
 40
0.0
176
     1
 40
1.0
176
     1
 90
        0
176
     1
 62
    18
420
        0
176
     1
 90
       50
176
     1
 90
        3
176
     1
 62
     5
420
      255
176
     1
290
     0
176
     1
 90
       50
176
     1
 90
       50
176
     1
 90
       50
176
     1
290
     0
176
     1
 90
       50
176
     1
 62
   256
176
     0
 40
1.0
176
     0
 90
        2
176
     1
  1
strokes_ogs.tif
176
     1
290
     0
176
     1
 40
1.0
176
     1
 40
1.0
176
     1
  0
VISUALSTYLE
  5
AEB
102
{ACAD_REACTORS
330
ADE
102
}
330
ADE
100
AcDbVisualStyle
  2
Thicken
 70
    13
177
     3
291
     1
 70
    58
 90
        2
176
     1
 90
        2
176
     1
 90
        0
176
     1
 90
        0
176
     1
 40
-0.6
176
     1
 40
-30.0
176
     1
 62
     7
420
 16777215
176
     1
 90
        1
176
     1
 90
        4
176
     1
 62
     7
176
     1
 62
   257
176
     1
 90
        1
176
     1
 90
        1
176
     1
 40
1.0
176
     1
 90
       12
176
     1
 62
     7
176
     1
 40
1.0
176
     1
 90
        1
176
     1
 90
        6
176
     1
 90
        2
176
     1
 62
     7
176
     1
 90
        5
176
     1
 90
        0
176
     1
 90
        0
176
     1
290
     0
176
     1
 90
        1
176
     1
 40
0.0
176
     1
 90
        0
176
     1
290
     0
176
     1
290
     1
176
     1
290
     1
176
     1
290
     0
176
     1
290
     0
176
     1
290
     0
176
     1
290
     0
176
     1
290
     0
176
     1
290
     0
176
     1
 90
       50
176
     1
 40
0.0
176
     1
 40
1.0
176
     1
 90
        0
176
     1
 62
    18
420
        0
176
     1
 90
       50
176
     1
 90
        3
176
     1
 62
     5
420
      255
176
     1
290
     0
176
     1
 90
       50
176
     1
 90
       50
176
     1
 90
       50
176
     1
290
     0
176
     1
 90
       50
176
     1
 62
   256
176
     0
 40
1.0
176
     0
 90
        2
176
     1
  1
strokes_ogs.tif
176
     1
290
     0
176
     1
 40
1.0
176
     1
 40
1.0
176
     1
  0
VISUALSTYLE
  5
C4D
102
{ACAD_REACTORS
330
ADE
102
}
330
ADE
100
AcDbVisualStyle
  2
Wireframe
 70
     5
177
     3
291
     0
 70
    58
 90
        0
176
     1
 90
        2
176
     1
 90
        0
176
     1
 90
        0
176
     1
 40
0.6
176
     1
 40
30.0
176
     1
 62
     7
420
 16777215
176
     1
 90
        1
176
     1
 90
        4
176
     1
 62
     7
176
     1
 62
   257
176
     1
 90
        1
176
     1
 90
        1
176
     1
 40
1.0
176
     1
 90
        0
176
     1
 62
   257
176
     1
 40
1.0
176
     1
 90
        1
176
     1
 90
        6
176
     1
 90
        2
176
     1
 62
     7
176
     1
 90
        3
176
     1
 90
        0
176
     1
 90
        0
176
     1
290
     0
176
     1
 90
        1
176
     1
 40
0.0
176
     1
 90
        0
176
     1
290
     0
176
     1
290
     1
176
     1
290
     1
176
     1
290
     0
176
     1
290
     0
176
     1
290
     0
176
     1
290
     0
176
     1
290
     0
176
     1
290
     0
176
     1
 90
       50
176
     1
 40
0.0
176
     1
 40
1.0
176
     1
 90
        0
176
     1
 62
    18
420
        0
176
     1
 90
       50
176
     1
 90
        3
176
     1
 62
     5
420
      255
176
     1
290
     0
176
     1
 90
       50
176
     1
 90
       50
176
     1
 90
       50
176
     1
290
     0
176
     1
 90
       50
176
     1
 62
   256
176
     0
 40
1.0
176
     0
 90
        2
176
     1
  1
strokes_ogs.tif
176
     1
290
     0
176
     1
 40
1.0
176
     1
 40
1.0
176
     1
  0
VISUALSTYLE
  5
C54
102
{ACAD_REACTORS
330
ADE
102
}
330
ADE
100
AcDbVisualStyle
  2
X-Ray
 70
    25
177
     3
291
     0
 70
    58
 90
        2
176
     1
 90
        2
176
     1
 90
        1
176
     1
 90
        1
176
     1
 40
0.5
176
     1
 40
30.0
176
     1
 62
     7
420
 16777215
176
     1
 90
        1
176
     1
 90
        0
176
     1
 62
     7
176
     1
 62
   257
176
     1
 90
        1
176
     1
 90
        1
176
     1
 40
1.0
176
     1
 90
        8
176
     1
 62
     7
176
     1
 40
1.0
176
     1
 90
        1
176
     1
 90
        6
176
     1
 90
        2
176
     1
 62
     7
176
     1
 90
        3
176
     1
 90
        0
176
     1
 90
        0
176
     1
290
     0
176
     1
 90
       13
176
     1
 40
0.0
176
     1
 90
        0
176
     1
290
     0
176
     1
290
     1
176
     1
290
     1
176
     1
290
     0
176
     1
290
     0
176
     1
290
     0
176
     1
290
     0
176
     1
290
     0
176
     1
290
     0
176
     1
 90
       50
176
     1
 40
0.0
176
     1
 40
1.0
176
     1
 90
        0
176
     1
 62
    18
420
        0
176
     1
 90
       50
176
     1
 90
        3
176
     1
 62
     5
420
      255
176
     1
290
     0
176
     1
 90
       50
176
     1
 90
       50
176
     1
 90
       50
176
     1
290
     0
176
     1
 90
       50
176
     1
 62
   256
176
     0
 40
1.0
176
     0
 90
        2
176
     1
  1
strokes_ogs.tif
176
     1
290
     0
176
     1
 40
1.0
176
     1
 40
1.0
176
     1
  0
DICTIONARYVAR
  5
B33
102
{ACAD_REACTORS
330
AAC
102
}
330
AAC
100
DictionaryVariables
280
     0
  1
1:1
  0
DICTIONARYVAR
  5
B31
102
{ACAD_REACTORS
330
AAC
102
}
330
AAC
100
DictionaryVariables
280
     0
  1
Standard
  0
DICTIONARYVAR
  5
B30
102
{ACAD_REACTORS
330
AAC
102
}
330
AAC
100
DictionaryVariables
280
     0
  1
Standard
  0
DICTIONARYVAR
  5
AAD
102
{ACAD_REACTORS
330
AAC
102
}
330
AAC
100
DictionaryVariables
280
     0
  1
1
  0
DICTIONARYVAR
  5
B34
102
{ACAD_REACTORS
330
AAC
102
}
330
AAC
100
DictionaryVariables
280
     0
  1
0
  0
DICTIONARYVAR
  5
B32
102
{ACAD_REACTORS
330
AAC
102
}
330
AAC
100
DictionaryVariables
280
     0
  1
0
  0
DICTIONARYVAR
  5
AAE
102
{ACAD_REACTORS
330
AAC
102
}
330
AAC
100
DictionaryVariables
280
     0
  1

  0
DICTIONARYVAR
  5
1028
102
{ACAD_REACTORS
330
AAC
102
}
330
AAC
100
DictionaryVariables
280
     0
  1
0
  0
DICTIONARY
  5
107C
330
AF0
100
AcDbDictionary
280
     1
281
     1
  3
ACAD_ROUNDTRIP_2008_TABLESTYLE_CELLSTYLEMAP
360
107D
  0
CELLSTYLEMAP
  5
107D
102
{ACAD_REACTORS
330
107C
102
}
330
107C
100
AcDbCellStyleMap
 90
        3
300
CELLSTYLE
  1
TABLEFORMAT_BEGIN
 90
        5
170
     1
 91
        0
 92
    32768
 62
   257
 93
        1
300
CONTENTFORMAT
  1
CONTENTFORMAT_BEGIN
 90
        0
 91
        0
 92
      512
 93
        0
300

 40
0.0
140
1.0
 94
        5
 62
     0
340
F
144
0.25
309
CONTENTFORMAT_END
171
     0
 94
        0
309
TABLEFORMAT_END
  1
CELLSTYLE_BEGIN
 90
        1
 91
        1
300
_TITLE
309
CELLSTYLE_END
300
CELLSTYLE
  1
TABLEFORMAT_BEGIN
 90
        5
170
     1
 91
        0
 92
        0
 62
   257
 93
        1
300
CONTENTFORMAT
  1
CONTENTFORMAT_BEGIN
 90
        0
 91
        0
 92
      512
 93
        0
300

 40
0.0
140
1.0
 94
        5
 62
     0
340
F
144
0.18
309
CONTENTFORMAT_END
171
     0
 94
        0
309
TABLEFORMAT_END
  1
CELLSTYLE_BEGIN
 90
        2
 91
        1
300
_HEADER
309
CELLSTYLE_END
300
CELLSTYLE
  1
TABLEFORMAT_BEGIN
 90
        5
170
     1
 91
        0
 92
        0
 62
   257
 93
        1
300
CONTENTFORMAT
  1
CONTENTFORMAT_BEGIN
 90
        0
 91
        0
 92
      512
 93
        0
300

 40
0.0
140
1.0
 94
        2
 62
     0
340
F
144
0.18
309
CONTENTFORMAT_END
171
     0
 94
        0
309
TABLEFORMAT_END
  1
CELLSTYLE_BEGIN
 90
        3
 91
        2
300
_DATA
309
CELLSTYLE_END
  0
ENDSEC
  0
EOF
