  0
SECTION
  2
HEADER
  9
$ACADVER
  1
AC1015
  9
$ACADMAINTVER
 70
    20
  9
$DWGCODEPAGE
  3
ANSI_932
  9
$INSBASE
 10
0.0
 20
0.0
 30
0.0
  9
$EXTMIN
 10
-210.0
 20
11.6704370779471
 30
0.0
  9
$EXTMAX
 10
1470.0
 20
1199.670437077947
 30
0.0
  9
$LIMMIN
 10
-210.0
 20
-148.5
  9
$LIMMAX
 10
1470.0
 20
1039.5
  9
$ORTHOMODE
 70
     0
  9
$REGENMODE
 70
     1
  9
$FILLMODE
 70
     1
  9
$QTEXTMODE
 70
     0
  9
$MIRRTEXT
 70
     1
  9
$LTSCALE
 40
4.0
  9
$ATTMODE
 70
     1
  9
$TEXTSIZE
 40
1.0
  9
$TRACEWID
 40
0.05
  9
$TEXTSTYLE
  7
STANDARD
  9
$CLAYER
  8
図面
  9
$CELTYPE
  6
CONTINUOUS
  9
$CECOLOR
 62
   256
  9
$CELTSCALE
 40
1.0
  9
$DISPSILH
 70
     0
  9
$DIMSCALE
 40
1.0
  9
$DIMASZ
 40
12.0
  9
$DIMEXO
 40
0.5
  9
$DIMDLI
 40
0.5
  9
$DIMRND
 40
0.0
  9
$DIMDLE
 40
0.0
  9
$DIMEXE
 40
0.5
  9
$DIMTP
 40
0.0
  9
$DIMTM
 40
0.0
  9
$DIMTXT
 40
20.0
  9
$DIMCEN
 40
0.09
  9
$DIMTSZ
 40
0.0
  9
$DIMTOL
 70
     0
  9
$DIMLIM
 70
     0
  9
$DIMTIH
 70
     0
  9
$DIMTOH
 70
     0
  9
$DIMSE1
 70
     0
  9
$DIMSE2
 70
     0
  9
$DIMTAD
 70
     1
  9
$DIMZIN
 70
     0
  9
$DIMBLK
  1
Open30
  9
$DIMASO
 70
     1
  9
$DIMSHO
 70
     1
  9
$DIMPOST
  1

  9
$DIMAPOST
  1

  9
$DIMALT
 70
     0
  9
$DIMALTD
 70
     2
  9
$DIMALTF
 40
25.4
  9
$DIMLFAC
 40
1.0
  9
$DIMTOFL
 70
     0
  9
$DIMTVP
 40
0.0
  9
$DIMTIX
 70
     0
  9
$DIMSOXD
 70
     0
  9
$DIMSAH
 70
     0
  9
$DIMBLK1
  1

  9
$DIMBLK2
  1

  9
$DIMSTYLE
  2
Standard
  9
$DIMCLRD
 70
     1
  9
$DIMCLRE
 70
     1
  9
$DIMCLRT
 70
     1
  9
$DIMTFAC
 40
1.0
  9
$DIMGAP
 40
0.5
  9
$DIMJUST
 70
     0
  9
$DIMSD1
 70
     0
  9
$DIMSD2
 70
     0
  9
$DIMTOLJ
 70
     1
  9
$DIMTZIN
 70
     0
  9
$DIMALTZ
 70
     0
  9
$DIMALTTZ
 70
     0
  9
$DIMUPT
 70
     0
  9
$DIMDEC
 70
     0
  9
$DIMTDEC
 70
     0
  9
$DIMALTU
 70
     2
  9
$DIMALTTD
 70
     2
  9
$DIMTXSTY
  7
TextStyle01
  9
$DIMAUNIT
 70
     0
  9
$DIMADEC
 70
     0
  9
$DIMALTRND
 40
0.0
  9
$DIMAZIN
 70
     0
  9
$DIMDSEP
 70
    46
  9
$DIMATFIT
 70
     3
  9
$DIMFRAC
 70
     0
  9
$DIMLDRBLK
  1
Open30
  9
$DIMLUNIT
 70
     2
  9
$DIMLWD
 70
    -2
  9
$DIMLWE
 70
    -2
  9
$DIMTMOVE
 70
     2
  9
$LUNITS
 70
     2
  9
$LUPREC
 70
     4
  9
$SKETCHINC
 40
0.1
  9
$FILLETRAD
 40
3.0
  9
$AUNITS
 70
     0
  9
$AUPREC
 70
     0
  9
$MENU
  1
acad
  9
$ELEVATION
 40
0.0
  9
$PELEVATION
 40
0.0
  9
$THICKNESS
 40
0.0
  9
$LIMCHECK
 70
     0
  9
$CHAMFERA
 40
20.0
  9
$CHAMFERB
 40
20.0
  9
$CHAMFERC
 40
0.0
  9
$CHAMFERD
 40
0.0
  9
$SKPOLY
 70
     0
  9
$TDCREATE
 40
2449944.925517361
  9
$TDUCREATE
 40
2449944.550517361
  9
$TDUPDATE
 40
2455342.830250104
  9
$TDUUPDATE
 40
2455342.455250104
  9
$TDINDWG
 40
1.2252063657
  9
$TDUSRTIMER
 40
1.2252063657
  9
$USRTIMER
 70
     1
  9
$ANGBASE
 50
0.0
  9
$ANGDIR
 70
     0
  9
$PDMODE
 70
     0
  9
$PDSIZE
 40
1.5
  9
$PLINEWID
 40
0.0
  9
$SPLFRAME
 70
     0
  9
$SPLINETYPE
 70
     6
  9
$SPLINESEGS
 70
     8
  9
$HANDSEED
  5
E22
  9
$SURFTAB1
 70
     6
  9
$SURFTAB2
 70
     6
  9
$SURFTYPE
 70
     6
  9
$SURFU
 70
     6
  9
$SURFV
 70
     6
  9
$UCSBASE
  2

  9
$UCSNAME
  2

  9
$UCSORG
 10
0.0
 20
0.0
 30
0.0
  9
$UCSXDIR
 10
1.0
 20
0.0
 30
0.0
  9
$UCSYDIR
 10
0.0
 20
1.0
 30
0.0
  9
$UCSORTHOREF
  2

  9
$UCSORTHOVIEW
 70
     0
  9
$UCSORGTOP
 10
0.0
 20
0.0
 30
0.0
  9
$UCSORGBOTTOM
 10
0.0
 20
0.0
 30
0.0
  9
$UCSORGLEFT
 10
0.0
 20
0.0
 30
0.0
  9
$UCSORGRIGHT
 10
0.0
 20
0.0
 30
0.0
  9
$UCSORGFRONT
 10
0.0
 20
0.0
 30
0.0
  9
$UCSORGBACK
 10
0.0
 20
0.0
 30
0.0
  9
$PUCSBASE
  2

  9
$PUCSNAME
  2

  9
$PUCSORG
 10
0.0
 20
0.0
 30
0.0
  9
$PUCSXDIR
 10
1.0
 20
0.0
 30
0.0
  9
$PUCSYDIR
 10
0.0
 20
1.0
 30
0.0
  9
$PUCSORTHOREF
  2

  9
$PUCSORTHOVIEW
 70
     0
  9
$PUCSORGTOP
 10
0.0
 20
0.0
 30
0.0
  9
$PUCSORGBOTTOM
 10
0.0
 20
0.0
 30
0.0
  9
$PUCSORGLEFT
 10
0.0
 20
0.0
 30
0.0
  9
$PUCSORGRIGHT
 10
0.0
 20
0.0
 30
0.0
  9
$PUCSORGFRONT
 10
0.0
 20
0.0
 30
0.0
  9
$PUCSORGBACK
 10
0.0
 20
0.0
 30
0.0
  9
$USERI1
 70
     0
  9
$USERI2
 70
     0
  9
$USERI3
 70
     0
  9
$USERI4
 70
     0
  9
$USERI5
 70
     0
  9
$USERR1
 40
0.0
  9
$USERR2
 40
0.0
  9
$USERR3
 40
0.0
  9
$USERR4
 40
0.0
  9
$USERR5
 40
0.0
  9
$WORLDVIEW
 70
     1
  9
$SHADEDGE
 70
     3
  9
$SHADEDIF
 70
    70
  9
$TILEMODE
 70
     1
  9
$MAXACTVP
 70
    16
  9
$PINSBASE
 10
0.0
 20
0.0
 30
0.0
  9
$PLIMCHECK
 70
     0
  9
$PEXTMIN
 10
1.000000000000000E+20
 20
1.000000000000000E+20
 30
1.000000000000000E+20
  9
$PEXTMAX
 10
-1.000000000000000E+20
 20
-1.000000000000000E+20
 30
-1.000000000000000E+20
  9
$PLIMMIN
 10
0.0
 20
0.0
  9
$PLIMMAX
 10
12.0
 20
9.0
  9
$UNITMODE
 70
     0
  9
$VISRETAIN
 70
     0
  9
$PLINEGEN
 70
     0
  9
$PSLTSCALE
 70
     1
  9
$TREEDEPTH
 70
  3020
  9
$CMLSTYLE
  2
Standard
  9
$CMLJUST
 70
     0
  9
$CMLSCALE
 40
1.0
  9
$PROXYGRAPHICS
 70
     1
  9
$MEASUREMENT
 70
     0
  9
$CELWEIGHT
370
    -1
  9
$ENDCAPS
280
     0
  9
$JOINSTYLE
280
     0
  9
$LWDISPLAY
290
     0
  9
$INSUNITS
 70
     0
  9
$HYPERLINKBASE
  1

  9
$STYLESHEET
  1

  9
$XEDIT
290
     1
  9
$CEPSNTYPE
380
     0
  9
$PSTYLEMODE
290
     1
  9
$FINGERPRINTGUID
  2
{3F05092E-EABE-41D4-925D-E3C07104686B}
  9
$VERSIONGUID
  2
{95B69747-594B-4E01-9335-4CBD27F34E61}
  9
$EXTNAMES
290
     1
  9
$PSVPSCALE
 40
0.0
  9
$OLESTARTUP
290
     0
  0
ENDSEC
  0
SECTION
  2
CLASSES
  0
CLASS
  1
ACDBDICTIONARYWDFLT
  2
AcDbDictionaryWithDefault
  3
ObjectDBX Classes
 90
        0
280
     0
281
     0
  0
CLASS
  1
ACDBPLACEHOLDER
  2
AcDbPlaceHolder
  3
ObjectDBX Classes
 90
        0
280
     0
281
     0
  0
CLASS
  1
LAYOUT
  2
AcDbLayout
  3
ObjectDBX Classes
 90
        0
280
     0
281
     0
  0
CLASS
  1
DICTIONARYVAR
  2
AcDbDictionaryVar
  3
ObjectDBX Classes
 90
        0
280
     0
281
     0
  0
CLASS
  1
MATERIAL
  2
AcDbMaterial
  3
ObjectDBX Classes
 90
        0
280
     0
281
     0
  0
CLASS
  1
VISUALSTYLE
  2
AcDbVisualStyle
  3
ObjectDBX Classes
 90
     4095
280
     0
281
     0
  0
CLASS
  1
TABLESTYLE
  2
AcDbTableStyle
  3
ObjectDBX Classes
 90
     4095
280
     0
281
     0
  0
CLASS
  1
SCALE
  2
AcDbScale
  3
ObjectDBX Classes
 90
     1153
280
     0
281
     0
  0
CLASS
  1
MLEADERSTYLE
  2
AcDbMLeaderStyle
  3
ACDB_MLEADERSTYLE_CLASS
 90
     4095
280
     0
281
     0
  0
CLASS
  1
CELLSTYLEMAP
  2
AcDbCellStyleMap
  3
ObjectDBX Classes
 90
     1152
280
     0
281
     0
  0
ENDSEC
  0
SECTION
  2
TABLES
  0
TABLE
  2
VPORT
  5
8
102
{ACAD_XDICTIONARY
360
5B2
102
}
330
0
100
AcDbSymbolTable
 70
     2
  0
VPORT
  5
E19
330
8
100
AcDbSymbolTableRecord
100
AcDbViewportTableRecord
  2
*Active
 70
     0
 10
0.0
 20
0.0
 11
1.0
 21
1.0
 12
583.4894388029015
 22
782.0602462782836
 13
0.0
 23
0.0
 14
1.0
 24
1.0
 15
0.0
 25
0.0
 16
0.0
 26
0.0
 36
1.0
 17
0.0
 27
0.0
 37
0.0
 40
1467.929912170482
 41
2.138297872340425
 42
50.0
 43
0.0
 44
0.0
 50
0.0
 51
0.0
 71
     0
 72
   100
 73
     1
 74
     0
 75
     0
 76
     1
 77
     0
 78
     0
281
     0
 65
     1
110
0.0
120
0.0
130
0.0
111
1.0
121
0.0
131
0.0
112
0.0
122
1.0
132
0.0
 79
     0
146
0.0
  0
ENDTAB
  0
TABLE
  2
LTYPE
  5
5
330
0
100
AcDbSymbolTable
 70
    15
  0
LTYPE
  5
13
330
5
100
AcDbSymbolTableRecord
100
AcDbLinetypeTableRecord
  2
ByBlock
 70
     0
  3

 72
    65
 73
     0
 40
0.0
  0
LTYPE
  5
14
330
5
100
AcDbSymbolTableRecord
100
AcDbLinetypeTableRecord
  2
ByLayer
 70
     0
  3

 72
    65
 73
     0
 40
0.0
  0
LTYPE
  5
15
330
5
100
AcDbSymbolTableRecord
100
AcDbLinetypeTableRecord
  2
CONTINUOUS
 70
     0
  3
実線
 72
    65
 73
     0
 40
0.0
  0
LTYPE
  5
2D
330
5
100
AcDbSymbolTableRecord
100
AcDbLinetypeTableRecord
  2
DASHED
 70
     0
  3
破線A
 72
    65
 73
     2
 40
7.5
 49
5.0
 74
     0
 49
-2.5
 74
     0
  0
LTYPE
  5
2E
330
5
100
AcDbSymbolTableRecord
100
AcDbLinetypeTableRecord
  2
DASHEDX2
 70
     0
  3
破線B
 72
    65
 73
     2
 40
15.0
 49
10.0
 74
     0
 49
-5.0
 74
     0
  0
LTYPE
  5
2F
330
5
100
AcDbSymbolTableRecord
100
AcDbLinetypeTableRecord
  2
DASHDOT
 70
     0
  3
１点鎖線A
 72
    65
 73
     4
 40
10.0
 49
5.0
 74
     0
 49
-2.5
 74
     0
 49
0.0
 74
     0
 49
-2.5
 74
     0
  0
LTYPE
  5
30
330
5
100
AcDbSymbolTableRecord
100
AcDbLinetypeTableRecord
  2
DASHDOTX2
 70
     0
  3
１点鎖線B
 72
    65
 73
     4
 40
20.0
 49
10.0
 74
     0
 49
-5.0
 74
     0
 49
0.0
 74
     0
 49
-5.0
 74
     0
  0
LTYPE
  5
31
330
5
100
AcDbSymbolTableRecord
100
AcDbLinetypeTableRecord
  2
DIVIDE2
 70
     0
  3
２点鎖線A
 72
    65
 73
     6
 40
6.25
 49
2.5
 74
     0
 49
-1.25
 74
     0
 49
0.0
 74
     0
 49
-1.25
 74
     0
 49
0.0
 74
     0
 49
-1.25
 74
     0
  0
LTYPE
  5
32
330
5
100
AcDbSymbolTableRecord
100
AcDbLinetypeTableRecord
  2
DIVIDE
 70
     0
  3
２点鎖線B
 72
    65
 73
     6
 40
12.5
 49
5.0
 74
     0
 49
-2.5
 74
     0
 49
0.0
 74
     0
 49
-2.5
 74
     0
 49
0.0
 74
     0
 49
-2.5
 74
     0
  0
LTYPE
  5
33
330
5
100
AcDbSymbolTableRecord
100
AcDbLinetypeTableRecord
  2
DOT
 70
     0
  3
点線A
 72
    65
 73
     2
 40
2.5
 49
0.0
 74
     0
 49
-2.5
 74
     0
  0
LTYPE
  5
34
330
5
100
AcDbSymbolTableRecord
100
AcDbLinetypeTableRecord
  2
DOTX2
 70
     0
  3
点線B
 72
    65
 73
     2
 40
5.0
 49
0.0
 74
     0
 49
-5.0
 74
     0
  0
LTYPE
  5
35
330
5
100
AcDbSymbolTableRecord
100
AcDbLinetypeTableRecord
  2
CONTINUOUS
 70
     0
  3
実線
 72
    65
 73
     0
 40
0.0
  0
LTYPE
  5
36
330
5
100
AcDbSymbolTableRecord
100
AcDbLinetypeTableRecord
  2
CONTINUOUS
 70
     0
  3
実線
 72
    65
 73
     0
 40
0.0
  0
LTYPE
  5
37
330
5
100
AcDbSymbolTableRecord
100
AcDbLinetypeTableRecord
  2
CONTINUOUS
 70
     0
  3
実線
 72
    65
 73
     0
 40
0.0
  0
LTYPE
  5
38
330
5
100
AcDbSymbolTableRecord
100
AcDbLinetypeTableRecord
  2
CONTINUOUS
 70
     0
  3
実線
 72
    65
 73
     0
 40
0.0
  0
LTYPE
  5
39
330
5
100
AcDbSymbolTableRecord
100
AcDbLinetypeTableRecord
  2
CONTINUOUS
 70
     0
  3
実線
 72
    65
 73
     0
 40
0.0
  0
LTYPE
  5
3A
330
5
100
AcDbSymbolTableRecord
100
AcDbLinetypeTableRecord
  2
CONTINUOUS
 70
     0
  3
実線
 72
    65
 73
     0
 40
0.0
  0
ENDTAB
  0
TABLE
  2
LAYER
  5
2
330
0
100
AcDbSymbolTable
 70
     8
  0
LAYER
  5
10
102
{ACAD_XDICTIONARY
360
5A2
102
}
330
2
100
AcDbSymbolTableRecord
100
AcDbLayerTableRecord
  2
ﾚｲﾔ1
 70
     0
 62
     7
  6
CONTINUOUS
370
    -3
390
F
  0
LAYER
  5
42
102
{ACAD_XDICTIONARY
360
5A4
102
}
330
2
100
AcDbSymbolTableRecord
100
AcDbLayerTableRecord
  2
文字
 70
     0
 62
     7
  6
CONTINUOUS
370
    -3
390
F
  0
LAYER
  5
4C
102
{ACAD_XDICTIONARY
360
5BA
102
}
330
2
100
AcDbSymbolTableRecord
100
AcDbLayerTableRecord
  2
0
 70
     0
 62
     7
  6
CONTINUOUS
370
    -3
390
F
  0
LAYER
  5
16B
102
{ACAD_XDICTIONARY
360
5A6
102
}
330
2
100
AcDbSymbolTableRecord
100
AcDbLayerTableRecord
  2
図面
 70
     0
 62
     7
  6
CONTINUOUS
370
    -3
390
F
  0
LAYER
  5
16C
102
{ACAD_XDICTIONARY
360
5A8
102
}
330
2
100
AcDbSymbolTableRecord
100
AcDbLayerTableRecord
  2
図面枠
 70
     0
 62
     5
  6
CONTINUOUS
370
    -3
390
F
  0
LAYER
  5
1AB
102
{ACAD_XDICTIONARY
360
5AA
102
}
330
2
100
AcDbSymbolTableRecord
100
AcDbLayerTableRecord
  2
下図
 70
     0
 62
     8
  6
CONTINUOUS
290
     0
370
    -3
390
F
  0
LAYER
  5
1CD
102
{ACAD_XDICTIONARY
360
5AC
102
}
330
2
100
AcDbSymbolTableRecord
100
AcDbLayerTableRecord
  2
レール
 70
     0
 62
     6
  6
CONTINUOUS
370
    -3
390
F
  0
LAYER
  5
316
102
{ACAD_XDICTIONARY
360
5C0
102
}
330
2
100
AcDbSymbolTableRecord
100
AcDbLayerTableRecord
  2
Defpoints
 70
     0
 62
     7
  6
CONTINUOUS
290
     0
370
    -3
390
F
  0
ENDTAB
  0
TABLE
  2
STYLE
  5
3
330
0
100
AcDbSymbolTable
 70
    13
  0
STYLE
  5
11
330
3
100
AcDbSymbolTableRecord
100
AcDbTextStyleTableRecord
  2
STANDARD
 70
     0
 40
1.0
 41
1.0
 50
0.0
 71
     0
 42
1.0
  3
TXT
  4
BIGFONT
  0
STYLE
  5
22
330
3
100
AcDbSymbolTableRecord
100
AcDbTextStyleTableRecord
  2
TATE
 70
     4
 40
1.0
 41
1.0
 50
0.0
 71
     0
 42
1.0
  3
TXT
  4
BIGFONT
  0
STYLE
  5
23
330
3
100
AcDbSymbolTableRecord
100
AcDbTextStyleTableRecord
  2
TextStyle01
 70
     0
 40
0.0
 41
1.0
 50
0.0
 71
     0
 42
0.0
  3
TXT
  4
BIGFONT
  0
STYLE
  5
24
330
3
100
AcDbSymbolTableRecord
100
AcDbTextStyleTableRecord
  2
TextStyle02
 70
     0
 40
0.0
 41
1.0
 50
0.0
 71
     0
 42
0.0
  3
TXT
  4
BIGFONT
  0
STYLE
  5
25
330
3
100
AcDbSymbolTableRecord
100
AcDbTextStyleTableRecord
  2
TextStyle03
 70
     0
 40
0.0
 41
1.0
 50
0.0
 71
     0
 42
0.0
  3
TXT
  4
BIGFONT
  0
STYLE
  5
26
330
3
100
AcDbSymbolTableRecord
100
AcDbTextStyleTableRecord
  2
TextStyle04
 70
     0
 40
0.0
 41
1.0
 50
0.0
 71
     0
 42
0.0
  3
TXT
  4
BIGFONT
  0
STYLE
  5
27
330
3
100
AcDbSymbolTableRecord
100
AcDbTextStyleTableRecord
  2
TextStyle05
 70
     0
 40
0.0
 41
1.0
 50
0.0
 71
     0
 42
0.0
  3
TXT
  4
BIGFONT
  0
STYLE
  5
28
330
3
100
AcDbSymbolTableRecord
100
AcDbTextStyleTableRecord
  2
TextStyle06
 70
     0
 40
0.0
 41
1.0
 50
0.0
 71
     0
 42
0.0
  3

  4

  0
STYLE
  5
29
330
3
100
AcDbSymbolTableRecord
100
AcDbTextStyleTableRecord
  2
TextStyle07
 70
     0
 40
0.0
 41
1.0
 50
0.0
 71
     0
 42
0.0
  3

  4

  0
STYLE
  5
2A
330
3
100
AcDbSymbolTableRecord
100
AcDbTextStyleTableRecord
  2
TextStyle08
 70
     0
 40
0.0
 41
1.0
 50
0.0
 71
     0
 42
0.0
  3

  4

  0
STYLE
  5
2B
330
3
100
AcDbSymbolTableRecord
100
AcDbTextStyleTableRecord
  2
TextStyle09
 70
     0
 40
0.0
 41
1.0
 50
0.0
 71
     0
 42
0.0
  3

  4

  0
STYLE
  5
2C
330
3
100
AcDbSymbolTableRecord
100
AcDbTextStyleTableRecord
  2
TextStyle10
 70
     0
 40
0.0
 41
1.0
 50
0.0
 71
     0
 42
0.0
  3

  4

  0
STYLE
  5
532
330
3
100
AcDbSymbolTableRecord
100
AcDbTextStyleTableRecord
  2

 70
     1
 40
0.0
 41
1.0
 50
0.0
 71
     0
 42
1.0
  3
ltypeshp.shx
  4

  0
ENDTAB
  0
TABLE
  2
VIEW
  5
6
330
0
100
AcDbSymbolTable
 70
     0
  0
ENDTAB
  0
TABLE
  2
UCS
  5
7
330
0
100
AcDbSymbolTable
 70
     0
  0
ENDTAB
  0
TABLE
  2
APPID
  5
9
330
0
100
AcDbSymbolTable
 70
     2
  0
APPID
  5
12
330
9
100
AcDbSymbolTableRecord
100
AcDbRegAppTableRecord
  2
ACAD
 70
     0
  0
APPID
  5
59D
330
9
100
AcDbSymbolTableRecord
100
AcDbRegAppTableRecord
  2
ACAD_MLEADERVER
 70
     0
  0
ENDTAB
  0
TABLE
  2
DIMSTYLE
  5
A
330
0
100
AcDbSymbolTable
 70
     1
100
AcDbDimStyleTable
 71
     1
340
142
  0
DIMSTYLE
105
142
102
{ACAD_REACTORS
330
315
330
331
330
33D
330
323
330
363
330
370
330
38A
330
397
330
37D
330
3AD
330
3BA
330
3C7
330
3D4
330
3E1
330
3ED
330
3FA
330
407
330
4AF
330
DA2
330
DA3
330
DE1
330
4B9
330
4C6
102
}
330
A
100
AcDbSymbolTableRecord
100
AcDbDimStyleTableRecord
  2
Standard
 70
     0
340
11
  0
ENDTAB
  0
TABLE
  2
BLOCK_RECORD
  5
1
330
0
100
AcDbSymbolTable
 70
    25
  0
BLOCK_RECORD
  5
1E
330
1
100
AcDbSymbolTableRecord
100
AcDbBlockTableRecord
  2
*Model_Space
340
21
  0
BLOCK_RECORD
  5
1A
330
1
100
AcDbSymbolTableRecord
100
AcDbBlockTableRecord
  2
*Paper_Space
340
1D
  0
BLOCK_RECORD
  5
30F
330
1
100
AcDbSymbolTableRecord
100
AcDbBlockTableRecord
  2
_Open30
340
0
102
{BLKREFS
331
C14
331
C15
331
C1D
331
C1E
331
C25
331
C26
331
C2C
331
C2D
331
C35
331
C36
331
C3F
331
C40
331
C47
331
C48
331
C4F
331
C50
331
C59
331
C5A
331
C62
331
C63
331
C6A
331
C6B
331
C73
331
C74
331
C7C
331
C7D
331
C86
331
C87
331
C8E
331
C8F
331
C97
331
C98
331
C9F
331
CA0
331
CA7
331
CA8
331
CB6
331
CB7
331
DD2
331
DD3
331
DDB
331
DDC
331
E03
331
E04
102
}
  0
BLOCK_RECORD
  5
317
330
1
100
AcDbSymbolTableRecord
100
AcDbBlockTableRecord
  2
*D1
340
0
  0
BLOCK_RECORD
  5
324
330
1
100
AcDbSymbolTableRecord
100
AcDbBlockTableRecord
  2
*D2
340
0
  0
BLOCK_RECORD
  5
332
330
1
100
AcDbSymbolTableRecord
100
AcDbBlockTableRecord
  2
*D3
340
0
  0
BLOCK_RECORD
  5
33E
330
1
100
AcDbSymbolTableRecord
100
AcDbBlockTableRecord
  2
*D4
340
0
  0
BLOCK_RECORD
  5
34A
330
1
100
AcDbSymbolTableRecord
100
AcDbBlockTableRecord
  2
_None
340
0
  0
BLOCK_RECORD
  5
364
330
1
100
AcDbSymbolTableRecord
100
AcDbBlockTableRecord
  2
*D6
340
0
  0
BLOCK_RECORD
  5
371
330
1
100
AcDbSymbolTableRecord
100
AcDbBlockTableRecord
  2
*D7
340
0
  0
BLOCK_RECORD
  5
37E
330
1
100
AcDbSymbolTableRecord
100
AcDbBlockTableRecord
  2
*D8
340
0
  0
BLOCK_RECORD
  5
38B
330
1
100
AcDbSymbolTableRecord
100
AcDbBlockTableRecord
  2
*D9
340
0
  0
BLOCK_RECORD
  5
398
330
1
100
AcDbSymbolTableRecord
100
AcDbBlockTableRecord
  2
*D10
340
0
  0
BLOCK_RECORD
  5
3AE
330
1
100
AcDbSymbolTableRecord
100
AcDbBlockTableRecord
  2
*D11
340
0
  0
BLOCK_RECORD
  5
3BB
330
1
100
AcDbSymbolTableRecord
100
AcDbBlockTableRecord
  2
*D12
340
0
  0
BLOCK_RECORD
  5
3C8
330
1
100
AcDbSymbolTableRecord
100
AcDbBlockTableRecord
  2
*D13
340
0
  0
BLOCK_RECORD
  5
3D5
330
1
100
AcDbSymbolTableRecord
100
AcDbBlockTableRecord
  2
*D14
340
0
  0
BLOCK_RECORD
  5
3E2
330
1
100
AcDbSymbolTableRecord
100
AcDbBlockTableRecord
  2
*D15
340
0
  0
BLOCK_RECORD
  5
3EE
330
1
100
AcDbSymbolTableRecord
100
AcDbBlockTableRecord
  2
*D16
340
0
  0
BLOCK_RECORD
  5
3FB
330
1
100
AcDbSymbolTableRecord
100
AcDbBlockTableRecord
  2
*D17
340
0
  0
BLOCK_RECORD
  5
408
330
1
100
AcDbSymbolTableRecord
100
AcDbBlockTableRecord
  2
*D18
340
0
  0
BLOCK_RECORD
  5
4B0
330
1
100
AcDbSymbolTableRecord
100
AcDbBlockTableRecord
  2
*D19
340
0
  0
BLOCK_RECORD
  5
4BA
330
1
100
AcDbSymbolTableRecord
100
AcDbBlockTableRecord
  2
*D20
340
0
  0
BLOCK_RECORD
  5
4C7
330
1
100
AcDbSymbolTableRecord
100
AcDbBlockTableRecord
  2
*D21
340
0
  0
BLOCK_RECORD
  5
DA4
330
1
100
AcDbSymbolTableRecord
100
AcDbBlockTableRecord
  2
*D22
340
0
  0
BLOCK_RECORD
  5
DB0
330
1
100
AcDbSymbolTableRecord
100
AcDbBlockTableRecord
  2
*D23
340
0
  0
BLOCK_RECORD
  5
DE2
330
1
100
AcDbSymbolTableRecord
100
AcDbBlockTableRecord
  2
*D24
340
0
  0
ENDTAB
  0
ENDSEC
  0
SECTION
  2
BLOCKS
  0
BLOCK
  5
4F
330
1E
100
AcDbEntity
  8
0
100
AcDbBlockBegin
  2
*Model_Space
 70
     0
 10
0.0
 20
0.0
 30
0.0
  3
*Model_Space
  1

  0
ENDBLK
  5
50
330
1E
100
AcDbEntity
  8
0
100
AcDbBlockEnd
  0
BLOCK
  5
4D
330
1A
100
AcDbEntity
 67
     1
  8
0
100
AcDbBlockBegin
  2
*Paper_Space
 70
     0
 10
0.0
 20
0.0
 30
0.0
  3
*Paper_Space
  1

  0
ENDBLK
  5
4E
330
1A
100
AcDbEntity
 67
     1
  8
0
100
AcDbBlockEnd
  0
BLOCK
  5
313
330
30F
100
AcDbEntity
  8
0
100
AcDbBlockBegin
  2
_Open30
 70
     0
 10
0.0
 20
0.0
 30
0.0
  3
_Open30
  1

  0
LINE
  5
310
330
30F
100
AcDbEntity
  8
図面
  6
CONTINUOUS
 62
     0
370
    -2
100
AcDbLine
 10
-1.0
 20
0.26794919
 30
0.0
 11
0.0
 21
0.0
 31
0.0
  0
LINE
  5
311
330
30F
100
AcDbEntity
  8
図面
  6
CONTINUOUS
 62
     0
370
    -2
100
AcDbLine
 10
0.0
 20
0.0
 30
0.0
 11
-1.0
 21
-0.26794919
 31
0.0
  0
LINE
  5
312
330
30F
100
AcDbEntity
  8
図面
  6
CONTINUOUS
 62
     0
370
    -2
100
AcDbLine
 10
0.0
 20
0.0
 30
0.0
 11
-1.0
 21
0.0
 31
0.0
  0
ENDBLK
  5
314
330
30F
100
AcDbEntity
  8
0
100
AcDbBlockEnd
  0
BLOCK
  5
321
330
317
100
AcDbEntity
  8
0
100
AcDbBlockBegin
  2
*D1
 70
     1
 10
0.0
 20
0.0
 30
0.0
  3
*D1
  1

  0
LINE
  5
CB3
330
317
100
AcDbEntity
  8
図面
  6
CONTINUOUS
 62
     1
370
    -2
100
AcDbLine
 10
171.3709670526641
 20
961.9301258041543
 30
0.0
 11
171.3709670526641
 21
1014.080594701025
 31
0.0
  0
LINE
  5
CB4
330
317
100
AcDbEntity
  8
図面
  6
CONTINUOUS
 62
     1
370
    -2
100
AcDbLine
 10
411.3709670526641
 20
961.9301258041543
 30
0.0
 11
411.3709670526641
 21
1014.080594701025
 31
0.0
  0
LINE
  5
CB5
330
317
100
AcDbEntity
  8
図面
  6
CONTINUOUS
 62
     1
370
    -2
100
AcDbLine
 10
183.3709670526641
 20
1013.580594701025
 30
0.0
 11
399.3709670526641
 21
1013.580594701025
 31
0.0
  0
INSERT
  5
CB6
330
317
100
AcDbEntity
  8
図面
  6
CONTINUOUS
 62
     1
370
    -2
100
AcDbBlockReference
  2
_Open30
 10
171.3709670526641
 20
1013.580594701025
 30
0.0
 41
12.0
 42
12.0
 43
12.0
 50
180.0
  0
INSERT
  5
CB7
330
317
100
AcDbEntity
  8
図面
  6
CONTINUOUS
 62
     1
370
    -2
100
AcDbBlockReference
  2
_Open30
 10
411.3709670526641
 20
1013.580594701025
 30
0.0
 41
12.0
 42
12.0
 43
12.0
  0
MTEXT
  5
CB8
330
317
100
AcDbEntity
  8
図面
  6
CONTINUOUS
 62
     1
100
AcDbMText
 10
291.3709670526641
 20
1024.080594701025
 30
0.0
 40
20.0
 41
0.0
 71
     5
 72
     1
  1
\A1;240
  7
TextStyle01
 73
     1
 44
1.0
1001
ACAD
1000
MTEXTBEGIN
1070
    73
1070
     1
1070
    44
1040
1.0
1070
    74
1070
     0
1000
MTEXTEND
  0
POINT
  5
CB9
330
317
100
AcDbEntity
  8
Defpoints
  6
CONTINUOUS
 62
     0
100
AcDbPoint
 10
171.3709670526641
 20
961.4301258041543
 30
0.0
  0
POINT
  5
CBA
330
317
100
AcDbEntity
  8
Defpoints
  6
CONTINUOUS
 62
     0
100
AcDbPoint
 10
411.3709670526641
 20
961.4301258041543
 30
0.0
  0
POINT
  5
CBB
330
317
100
AcDbEntity
  8
Defpoints
  6
CONTINUOUS
 62
     0
100
AcDbPoint
 10
411.3709670526641
 20
1013.580594701025
 30
0.0
  0
ENDBLK
  5
322
330
317
100
AcDbEntity
  8
0
100
AcDbBlockEnd
  0
BLOCK
  5
32F
330
324
100
AcDbEntity
  8
0
100
AcDbBlockBegin
  2
*D2
 70
     1
 10
0.0
 20
0.0
 30
0.0
  3
*D2
  1

  0
LINE
  5
CAD
330
324
100
AcDbEntity
  8
図面
  6
CONTINUOUS
 62
     1
370
    -2
100
AcDbLine
 10
430.3709670526641
 20
951.9301258041542
 30
0.0
 11
430.3709670526641
 21
1013.702132758524
 31
0.0
  0
LINE
  5
CAE
330
324
100
AcDbEntity
  8
図面
  6
CONTINUOUS
 62
     1
370
    -2
100
AcDbLine
 10
430.3709670526641
 20
1013.202132758524
 30
0.0
 11
411.3709670526641
 21
1013.202132758524
 31
0.0
  0
MTEXT
  5
CAF
330
324
100
AcDbEntity
  8
図面
  6
CONTINUOUS
 62
     1
100
AcDbMText
 10
420.7297744155312
 20
1037.452165855097
 30
0.0
 40
20.0
 41
0.0
 71
     5
 72
     1
  1
\A1;19
  7
TextStyle01
 73
     1
 44
1.0
1001
ACAD
1000
MTEXTBEGIN
1070
    73
1070
     1
1070
    44
1040
1.0
1070
    74
1070
     0
1000
MTEXTEND
  0
POINT
  5
CB0
330
324
100
AcDbEntity
  8
Defpoints
  6
CONTINUOUS
 62
     0
100
AcDbPoint
 10
430.3709670526641
 20
951.4301258041543
 30
0.0
  0
POINT
  5
CB1
330
324
100
AcDbEntity
  8
Defpoints
  6
CONTINUOUS
 62
     0
100
AcDbPoint
 10
411.3709670526641
 20
1013.202132758524
 30
0.0
  0
POINT
  5
CB2
330
324
100
AcDbEntity
  8
Defpoints
  6
CONTINUOUS
 62
     0
100
AcDbPoint
 10
411.3709670526641
 20
1013.202132758524
 30
0.0
  0
ENDBLK
  5
330
330
324
100
AcDbEntity
  8
0
100
AcDbBlockEnd
  0
BLOCK
  5
33B
330
332
100
AcDbEntity
  8
0
100
AcDbBlockBegin
  2
*D3
 70
     1
 10
0.0
 20
0.0
 30
0.0
  3
*D3
  1

  0
LINE
  5
CA5
330
332
100
AcDbEntity
  8
図面
  6
CONTINUOUS
 62
     1
370
    -2
100
AcDbLine
 10
511.3709670526641
 20
921.9301258041543
 30
0.0
 11
511.3709670526641
 21
1013.702132758524
 31
0.0
  0
LINE
  5
CA6
330
332
100
AcDbEntity
  8
図面
  6
CONTINUOUS
 62
     1
370
    -2
100
AcDbLine
 10
442.370967052664
 20
1013.202132758524
 30
0.0
 11
499.3709670526641
 21
1013.202132758524
 31
0.0
  0
INSERT
  5
CA7
330
332
100
AcDbEntity
  8
図面
  6
CONTINUOUS
 62
     1
370
    -2
100
AcDbBlockReference
  2
_Open30
 10
430.3709670526641
 20
1013.202132758524
 30
0.0
 41
12.0
 42
12.0
 43
12.0
 50
180.0
  0
INSERT
  5
CA8
330
332
100
AcDbEntity
  8
図面
  6
CONTINUOUS
 62
     1
370
    -2
100
AcDbBlockReference
  2
_Open30
 10
511.3709670526641
 20
1013.202132758524
 30
0.0
 41
12.0
 42
12.0
 43
12.0
  0
MTEXT
  5
CA9
330
332
100
AcDbEntity
  8
図面
  6
CONTINUOUS
 62
     1
100
AcDbMText
 10
470.8709670526641
 20
1023.702132758524
 30
0.0
 40
20.0
 41
0.0
 71
     5
 72
     1
  1
\A1;81
  7
TextStyle01
 73
     1
 44
1.0
1001
ACAD
1000
MTEXTBEGIN
1070
    73
1070
     1
1070
    44
1040
1.0
1070
    74
1070
     0
1000
MTEXTEND
  0
POINT
  5
CAA
330
332
100
AcDbEntity
  8
Defpoints
  6
CONTINUOUS
 62
     0
100
AcDbPoint
 10
430.3709670526641
 20
1013.202132758524
 30
0.0
  0
POINT
  5
CAB
330
332
100
AcDbEntity
  8
Defpoints
  6
CONTINUOUS
 62
     0
100
AcDbPoint
 10
511.3709670526641
 20
921.4301258041542
 30
0.0
  0
POINT
  5
CAC
330
332
100
AcDbEntity
  8
Defpoints
  6
CONTINUOUS
 62
     0
100
AcDbPoint
 10
511.3709670526641
 20
1013.202132758524
 30
0.0
  0
ENDBLK
  5
33C
330
332
100
AcDbEntity
  8
0
100
AcDbBlockEnd
  0
BLOCK
  5
348
330
33E
100
AcDbEntity
  8
0
100
AcDbBlockBegin
  2
*D4
 70
     1
 10
0.0
 20
0.0
 30
0.0
  3
*D4
  1

  0
LINE
  5
C9D
330
33E
100
AcDbEntity
  8
図面
  6
CONTINUOUS
 62
     1
370
    -2
100
AcDbLine
 10
571.3709670526641
 20
901.9301258041542
 30
0.0
 11
571.3709670526641
 21
1013.702132758524
 31
0.0
  0
LINE
  5
C9E
330
33E
100
AcDbEntity
  8
図面
  6
CONTINUOUS
 62
     1
370
    -2
100
AcDbLine
 10
523.3709670526641
 20
1013.202132758524
 30
0.0
 11
559.3709670526641
 21
1013.202132758524
 31
0.0
  0
INSERT
  5
C9F
330
33E
100
AcDbEntity
  8
図面
  6
CONTINUOUS
 62
     1
370
    -2
100
AcDbBlockReference
  2
_Open30
 10
511.3709670526641
 20
1013.202132758524
 30
0.0
 41
12.0
 42
12.0
 43
12.0
 50
180.0
  0
INSERT
  5
CA0
330
33E
100
AcDbEntity
  8
図面
  6
CONTINUOUS
 62
     1
370
    -2
100
AcDbBlockReference
  2
_Open30
 10
571.3709670526641
 20
1013.202132758524
 30
0.0
 41
12.0
 42
12.0
 43
12.0
  0
MTEXT
  5
CA1
330
33E
100
AcDbEntity
  8
図面
  6
CONTINUOUS
 62
     1
100
AcDbMText
 10
541.3709670526641
 20
1023.702132758524
 30
0.0
 40
20.0
 41
0.0
 71
     5
 72
     1
  1
\A1;60
  7
TextStyle01
 73
     1
 44
1.0
1001
ACAD
1000
MTEXTBEGIN
1070
    73
1070
     1
1070
    44
1040
1.0
1070
    74
1070
     0
1000
MTEXTEND
  0
POINT
  5
CA2
330
33E
100
AcDbEntity
  8
Defpoints
  6
CONTINUOUS
 62
     0
100
AcDbPoint
 10
511.3709670526641
 20
1013.202132758524
 30
0.0
  0
POINT
  5
CA3
330
33E
100
AcDbEntity
  8
Defpoints
  6
CONTINUOUS
 62
     0
100
AcDbPoint
 10
571.3709670526641
 20
901.4301258041543
 30
0.0
  0
POINT
  5
CA4
330
33E
100
AcDbEntity
  8
Defpoints
  6
CONTINUOUS
 62
     0
100
AcDbPoint
 10
571.3709670526641
 20
1013.202132758524
 30
0.0
  0
ENDBLK
  5
349
330
33E
100
AcDbEntity
  8
0
100
AcDbBlockEnd
  0
BLOCK
  5
34B
330
34A
100
AcDbEntity
  8
0
100
AcDbBlockBegin
  2
_None
 70
     0
 10
0.0
 20
0.0
 30
0.0
  3
_None
  1

  0
ENDBLK
  5
34C
330
34A
100
AcDbEntity
  8
0
100
AcDbBlockEnd
  0
BLOCK
  5
36E
330
364
100
AcDbEntity
  8
0
100
AcDbBlockBegin
  2
*D6
 70
     1
 10
0.0
 20
0.0
 30
0.0
  3
*D6
  1

  0
LINE
  5
C94
330
364
100
AcDbEntity
  8
図面
  6
CONTINUOUS
 62
     1
370
    -2
100
AcDbLine
 10
170.8709670526641
 20
961.4301258041543
 30
0.0
 11
25.25558857232956
 21
961.4301258041543
 31
0.0
  0
LINE
  5
C95
330
364
100
AcDbEntity
  8
図面
  6
CONTINUOUS
 62
     1
370
    -2
100
AcDbLine
 10
148.3655209356396
 20
881.4301258041542
 30
0.0
 11
25.25558857232954
 21
881.4301258041542
 31
0.0
  0
LINE
  5
C96
330
364
100
AcDbEntity
  8
図面
  6
CONTINUOUS
 62
     1
370
    -2
100
AcDbLine
 10
25.75558857232955
 20
949.4301258041543
 30
0.0
 11
25.75558857232954
 21
893.4301258041543
 31
0.0
  0
INSERT
  5
C97
330
364
100
AcDbEntity
  8
図面
  6
CONTINUOUS
 62
     1
370
    -2
100
AcDbBlockReference
  2
_Open30
 10
25.75558857232956
 20
961.4301258041543
 30
0.0
 41
12.0
 42
12.0
 43
12.0
 50
90.0
  0
INSERT
  5
C98
330
364
100
AcDbEntity
  8
図面
  6
CONTINUOUS
 62
     1
370
    -2
100
AcDbBlockReference
  2
_Open30
 10
25.75558857232954
 20
881.4301258041542
 30
0.0
 41
12.0
 42
12.0
 43
12.0
 50
270.0
  0
MTEXT
  5
C99
330
364
100
AcDbEntity
  8
図面
  6
CONTINUOUS
 62
     1
100
AcDbMText
 10
15.2555885723294
 20
921.4301258041542
 30
0.0
 40
20.0
 41
0.0
 71
     5
 72
     1
  1
\A1;80
  7
TextStyle01
 11
0.0000000000000001
 21
1.0
 31
0.0
 73
     1
 44
1.0
1001
ACAD
1000
MTEXTBEGIN
1070
    73
1070
     1
1070
    44
1040
1.0
1070
    74
1070
     0
1000
MTEXTEND
  0
POINT
  5
C9A
330
364
100
AcDbEntity
  8
Defpoints
  6
CONTINUOUS
 62
     0
100
AcDbPoint
 10
171.3709670526641
 20
961.4301258041543
 30
0.0
  0
POINT
  5
C9B
330
364
100
AcDbEntity
  8
Defpoints
  6
CONTINUOUS
 62
     0
100
AcDbPoint
 10
148.8655209356396
 20
881.4301258041542
 30
0.0
  0
POINT
  5
C9C
330
364
100
AcDbEntity
  8
Defpoints
  6
CONTINUOUS
 62
     0
100
AcDbPoint
 10
25.75558857232954
 20
881.4301258041542
 30
0.0
  0
ENDBLK
  5
36F
330
364
100
AcDbEntity
  8
0
100
AcDbBlockEnd
  0
BLOCK
  5
37B
330
371
100
AcDbEntity
  8
0
100
AcDbBlockBegin
  2
*D7
 70
     1
 10
0.0
 20
0.0
 30
0.0
  3
*D7
  1

  0
LINE
  5
C8B
330
371
100
AcDbEntity
  8
図面
  6
CONTINUOUS
 62
     1
370
    -2
100
AcDbLine
 10
25.75558857232954
 20
881.4301258041542
 30
0.0
 11
26.25750240887647
 21
881.4301258041542
 31
0.0
  0
LINE
  5
C8C
330
371
100
AcDbEntity
  8
図面
  6
CONTINUOUS
 62
     1
370
    -2
100
AcDbLine
 10
148.3655209356396
 20
791.4301258041542
 30
0.0
 11
25.25750240887645
 21
791.4301258041542
 31
0.0
  0
LINE
  5
C8D
330
371
100
AcDbEntity
  8
図面
  6
CONTINUOUS
 62
     1
370
    -2
100
AcDbLine
 10
25.75750240887647
 20
869.4301258041543
 30
0.0
 11
25.75750240887645
 21
803.4301258041542
 31
0.0
  0
INSERT
  5
C8E
330
371
100
AcDbEntity
  8
図面
  6
CONTINUOUS
 62
     1
370
    -2
100
AcDbBlockReference
  2
_Open30
 10
25.75750240887647
 20
881.4301258041542
 30
0.0
 41
12.0
 42
12.0
 43
12.0
 50
90.0
  0
INSERT
  5
C8F
330
371
100
AcDbEntity
  8
図面
  6
CONTINUOUS
 62
     1
370
    -2
100
AcDbBlockReference
  2
_Open30
 10
25.75750240887645
 20
791.4301258041542
 30
0.0
 41
12.0
 42
12.0
 43
12.0
 50
270.0
  0
MTEXT
  5
C90
330
371
100
AcDbEntity
  8
図面
  6
CONTINUOUS
 62
     1
100
AcDbMText
 10
15.25750240887632
 20
836.4301258041543
 30
0.0
 40
20.0
 41
0.0
 71
     5
 72
     1
  1
\A1;90
  7
TextStyle01
 11
0.0000000000000001
 21
1.0
 31
0.0
 73
     1
 44
1.0
1001
ACAD
1000
MTEXTBEGIN
1070
    73
1070
     1
1070
    44
1040
1.0
1070
    74
1070
     0
1000
MTEXTEND
  0
POINT
  5
C91
330
371
100
AcDbEntity
  8
Defpoints
  6
CONTINUOUS
 62
     0
100
AcDbPoint
 10
25.25558857232954
 20
881.4301258041542
 30
0.0
  0
POINT
  5
C92
330
371
100
AcDbEntity
  8
Defpoints
  6
CONTINUOUS
 62
     0
100
AcDbPoint
 10
148.8655209356396
 20
791.4301258041542
 30
0.0
  0
POINT
  5
C93
330
371
100
AcDbEntity
  8
Defpoints
  6
CONTINUOUS
 62
     0
100
AcDbPoint
 10
25.75750240887645
 20
791.4301258041542
 30
0.0
  0
ENDBLK
  5
37C
330
371
100
AcDbEntity
  8
0
100
AcDbBlockEnd
  0
BLOCK
  5
388
330
37E
100
AcDbEntity
  8
0
100
AcDbBlockBegin
  2
*D8
 70
     1
 10
0.0
 20
0.0
 30
0.0
  3
*D8
  1

  0
LINE
  5
C82
330
37E
100
AcDbEntity
  8
図面
  6
CONTINUOUS
 62
     1
370
    -2
100
AcDbLine
 10
4.624459932051649
 20
711.4301258041543
 30
0.0
 11
25.362013381231
 21
711.4301258041543
 31
0.0
  0
LINE
  5
C83
330
37E
100
AcDbEntity
  8
図面
  6
CONTINUOUS
 62
     1
370
    -2
100
AcDbLine
 10
62.81980798172753
 20
741.4301258041543
 30
0.0
 11
24.36201338123101
 21
741.4301258041543
 31
0.0
  0
LINE
  5
C84
330
37E
100
AcDbEntity
  8
図面
  6
CONTINUOUS
 62
     1
370
    -2
100
AcDbLine
 10
24.862013381231
 20
723.4301258041544
 30
0.0
 11
24.86201338123101
 21
729.4301258041543
 31
0.0
  0
MTEXT
  5
C85
330
37E
100
AcDbEntity
  8
図面
  6
CONTINUOUS
 62
     1
100
AcDbMText
 10
8.747087629439192
 20
729.9233341108998
 30
0.0
 40
20.0
 41
0.0
 71
     5
 72
     1
  1
\A1;30
  7
TextStyle01
 11
0.0000000000000001
 21
1.0
 31
0.0
 73
     1
 44
1.0
1001
ACAD
1000
MTEXTBEGIN
1070
    73
1070
     1
1070
    44
1040
1.0
1070
    74
1070
     0
1000
MTEXTEND
  0
INSERT
  5
C86
330
37E
100
AcDbEntity
  8
図面
  6
CONTINUOUS
 62
     1
370
    -2
100
AcDbBlockReference
  2
_Open30
 10
24.862013381231
 20
711.4301258041543
 30
0.0
 41
12.0
 42
12.0
 43
12.0
 50
270.0
  0
INSERT
  5
C87
330
37E
100
AcDbEntity
  8
図面
  6
CONTINUOUS
 62
     1
370
    -2
100
AcDbBlockReference
  2
_Open30
 10
24.86201338123101
 20
741.4301258041543
 30
0.0
 41
12.0
 42
12.0
 43
12.0
 50
90.0
  0
POINT
  5
C88
330
37E
100
AcDbEntity
  8
Defpoints
  6
CONTINUOUS
 62
     0
100
AcDbPoint
 10
4.124459932051649
 20
711.4301258041543
 30
0.0
  0
POINT
  5
C89
330
37E
100
AcDbEntity
  8
Defpoints
  6
CONTINUOUS
 62
     0
100
AcDbPoint
 10
63.31980798172754
 20
741.4301258041543
 30
0.0
  0
POINT
  5
C8A
330
37E
100
AcDbEntity
  8
Defpoints
  6
CONTINUOUS
 62
     0
100
AcDbPoint
 10
24.86201338123101
 20
741.4301258041543
 30
0.0
  0
ENDBLK
  5
389
330
37E
100
AcDbEntity
  8
0
100
AcDbBlockEnd
  0
BLOCK
  5
395
330
38B
100
AcDbEntity
  8
0
100
AcDbBlockBegin
  2
*D9
 70
     1
 10
0.0
 20
0.0
 30
0.0
  3
*D9
  1

  0
LINE
  5
C79
330
38B
100
AcDbEntity
  8
図面
  6
CONTINUOUS
 62
     1
370
    -2
100
AcDbLine
 10
24.862013381231
 20
711.4301258041543
 30
0.0
 11
23.47035202668032
 21
711.4301258041543
 31
0.0
  0
LINE
  5
C7A
330
38B
100
AcDbEntity
  8
図面
  6
CONTINUOUS
 62
     1
370
    -2
100
AcDbLine
 10
170.8709670526641
 20
611.4301258041543
 30
0.0
 11
23.47035202668029
 21
611.4301258041543
 31
0.0
  0
LINE
  5
C7B
330
38B
100
AcDbEntity
  8
図面
  6
CONTINUOUS
 62
     1
370
    -2
100
AcDbLine
 10
23.97035202668032
 20
699.4301258041543
 30
0.0
 11
23.9703520266803
 21
623.4301258041544
 31
0.0
  0
INSERT
  5
C7C
330
38B
100
AcDbEntity
  8
図面
  6
CONTINUOUS
 62
     1
370
    -2
100
AcDbBlockReference
  2
_Open30
 10
23.97035202668032
 20
711.4301258041543
 30
0.0
 41
12.0
 42
12.0
 43
12.0
 50
90.0
  0
INSERT
  5
C7D
330
38B
100
AcDbEntity
  8
図面
  6
CONTINUOUS
 62
     1
370
    -2
100
AcDbBlockReference
  2
_Open30
 10
23.9703520266803
 20
611.4301258041543
 30
0.0
 41
12.0
 42
12.0
 43
12.0
 50
270.0
  0
MTEXT
  5
C7E
330
38B
100
AcDbEntity
  8
図面
  6
CONTINUOUS
 62
     1
100
AcDbMText
 10
13.4703520266802
 20
661.4301258041543
 30
0.0
 40
20.0
 41
0.0
 71
     5
 72
     1
  1
\A1;100
  7
TextStyle01
 11
0.0000000000000001
 21
1.0
 31
0.0
 73
     1
 44
1.0
1001
ACAD
1000
MTEXTBEGIN
1070
    73
1070
     1
1070
    44
1040
1.0
1070
    74
1070
     0
1000
MTEXTEND
  0
POINT
  5
C7F
330
38B
100
AcDbEntity
  8
Defpoints
  6
CONTINUOUS
 62
     0
100
AcDbPoint
 10
25.362013381231
 20
711.4301258041543
 30
0.0
  0
POINT
  5
C80
330
38B
100
AcDbEntity
  8
Defpoints
  6
CONTINUOUS
 62
     0
100
AcDbPoint
 10
171.3709670526641
 20
611.4301258041543
 30
0.0
  0
POINT
  5
C81
330
38B
100
AcDbEntity
  8
Defpoints
  6
CONTINUOUS
 62
     0
100
AcDbPoint
 10
23.9703520266803
 20
611.4301258041543
 30
0.0
  0
ENDBLK
  5
396
330
38B
100
AcDbEntity
  8
0
100
AcDbBlockEnd
  0
BLOCK
  5
3A2
330
398
100
AcDbEntity
  8
0
100
AcDbBlockBegin
  2
*D10
 70
     1
 10
0.0
 20
0.0
 30
0.0
  3
*D10
  1

  0
LINE
  5
C70
330
398
100
AcDbEntity
  8
図面
  6
CONTINUOUS
 62
     1
370
    -2
100
AcDbLine
 10
24.75558857232954
 20
961.4301258041543
 30
0.0
 11
-7.871655980901714
 21
961.4301258041543
 31
0.0
  0
LINE
  5
C71
330
398
100
AcDbEntity
  8
図面
  6
CONTINUOUS
 62
     1
370
    -2
100
AcDbLine
 10
22.97035202668031
 20
611.4301258041543
 30
0.0
 11
-7.871655980901791
 21
611.4301258041543
 31
0.0
  0
LINE
  5
C72
330
398
100
AcDbEntity
  8
図面
  6
CONTINUOUS
 62
     1
370
    -2
100
AcDbLine
 10
-7.371655980901717
 20
949.4301258041543
 30
0.0
 11
-7.371655980901789
 21
623.4301258041544
 31
0.0
  0
INSERT
  5
C73
330
398
100
AcDbEntity
  8
図面
  6
CONTINUOUS
 62
     1
370
    -2
100
AcDbBlockReference
  2
_Open30
 10
-7.371655980901715
 20
961.4301258041543
 30
0.0
 41
12.0
 42
12.0
 43
12.0
 50
90.0
  0
INSERT
  5
C74
330
398
100
AcDbEntity
  8
図面
  6
CONTINUOUS
 62
     1
370
    -2
100
AcDbBlockReference
  2
_Open30
 10
-7.371655980901792
 20
611.4301258041543
 30
0.0
 41
12.0
 42
12.0
 43
12.0
 50
270.0
  0
MTEXT
  5
C75
330
398
100
AcDbEntity
  8
図面
  6
CONTINUOUS
 62
     1
100
AcDbMText
 10
-17.87165598090188
 20
786.4301258041543
 30
0.0
 40
20.0
 41
0.0
 71
     5
 72
     1
  1
\A1;350
  7
TextStyle01
 11
0.0000000000000001
 21
1.0
 31
0.0
 73
     1
 44
1.0
1001
ACAD
1000
MTEXTBEGIN
1070
    73
1070
     1
1070
    44
1040
1.0
1070
    74
1070
     0
1000
MTEXTEND
  0
POINT
  5
C76
330
398
100
AcDbEntity
  8
Defpoints
  6
CONTINUOUS
 62
     0
100
AcDbPoint
 10
25.25558857232955
 20
961.4301258041543
 30
0.0
  0
POINT
  5
C77
330
398
100
AcDbEntity
  8
Defpoints
  6
CONTINUOUS
 62
     0
100
AcDbPoint
 10
23.47035202668031
 20
611.4301258041543
 30
0.0
  0
POINT
  5
C78
330
398
100
AcDbEntity
  8
Defpoints
  6
CONTINUOUS
 62
     0
100
AcDbPoint
 10
-7.371655980901792
 20
611.4301258041543
 30
0.0
  0
ENDBLK
  5
3A3
330
398
100
AcDbEntity
  8
0
100
AcDbBlockEnd
  0
BLOCK
  5
3B8
330
3AE
100
AcDbEntity
  8
0
100
AcDbBlockBegin
  2
*D11
 70
     1
 10
0.0
 20
0.0
 30
0.0
  3
*D11
  1

  0
LINE
  5
C67
330
3AE
100
AcDbEntity
  8
図面
  6
CONTINUOUS
 62
     1
370
    -2
100
AcDbLine
 10
551.8709670526641
 20
921.4301258041542
 30
0.0
 11
604.6998867545962
 21
921.4301258041542
 31
0.0
  0
LINE
  5
C68
330
3AE
100
AcDbEntity
  8
図面
  6
CONTINUOUS
 62
     1
370
    -2
100
AcDbLine
 10
551.8709670526641
 20
801.4301258041543
 30
0.0
 11
604.6998867545962
 21
801.4301258041543
 31
0.0
  0
LINE
  5
C69
330
3AE
100
AcDbEntity
  8
図面
  6
CONTINUOUS
 62
     1
370
    -2
100
AcDbLine
 10
604.1998867545962
 20
909.4301258041543
 30
0.0
 11
604.1998867545962
 21
813.4301258041542
 31
0.0
  0
INSERT
  5
C6A
330
3AE
100
AcDbEntity
  8
図面
  6
CONTINUOUS
 62
     1
370
    -2
100
AcDbBlockReference
  2
_Open30
 10
604.1998867545962
 20
921.4301258041542
 30
0.0
 41
12.0
 42
12.0
 43
12.0
 50
90.0
  0
INSERT
  5
C6B
330
3AE
100
AcDbEntity
  8
図面
  6
CONTINUOUS
 62
     1
370
    -2
100
AcDbBlockReference
  2
_Open30
 10
604.1998867545962
 20
801.4301258041543
 30
0.0
 41
12.0
 42
12.0
 43
12.0
 50
270.0
  0
MTEXT
  5
C6C
330
3AE
100
AcDbEntity
  8
図面
  6
CONTINUOUS
 62
     1
100
AcDbMText
 10
593.699886754596
 20
861.4301258041544
 30
0.0
 40
20.0
 41
0.0
 71
     5
 72
     1
  1
\A1;120
  7
TextStyle01
 11
0.0000000000000001
 21
1.0
 31
0.0
 73
     1
 44
1.0
1001
ACAD
1000
MTEXTBEGIN
1070
    73
1070
     1
1070
    44
1040
1.0
1070
    74
1070
     0
1000
MTEXTEND
  0
POINT
  5
C6D
330
3AE
100
AcDbEntity
  8
Defpoints
  6
CONTINUOUS
 62
     0
100
AcDbPoint
 10
551.3709670526641
 20
921.4301258041542
 30
0.0
  0
POINT
  5
C6E
330
3AE
100
AcDbEntity
  8
Defpoints
  6
CONTINUOUS
 62
     0
100
AcDbPoint
 10
551.3709670526641
 20
801.4301258041543
 30
0.0
  0
POINT
  5
C6F
330
3AE
100
AcDbEntity
  8
Defpoints
  6
CONTINUOUS
 62
     0
100
AcDbPoint
 10
604.1998867545962
 20
801.4301258041543
 30
0.0
  0
ENDBLK
  5
3B9
330
3AE
100
AcDbEntity
  8
0
100
AcDbBlockEnd
  0
BLOCK
  5
3C5
330
3BB
100
AcDbEntity
  8
0
100
AcDbBlockBegin
  2
*D12
 70
     1
 10
0.0
 20
0.0
 30
0.0
  3
*D12
  1

  0
LINE
  5
C5E
330
3BB
100
AcDbEntity
  8
図面
  6
CONTINUOUS
 62
     1
370
    -2
100
AcDbLine
 10
838.8104114147257
 20
961.9301258041543
 30
0.0
 11
838.8104114147257
 21
1028.416066939213
 31
0.0
  0
LINE
  5
C5F
330
3BB
100
AcDbEntity
  8
図面
  6
CONTINUOUS
 62
     1
370
    -2
100
AcDbLine
 10
872.8104114147255
 20
961.9301258041543
 30
0.0
 11
872.8104114147255
 21
1028.416066939213
 31
0.0
  0
LINE
  5
C60
330
3BB
100
AcDbEntity
  8
図面
  6
CONTINUOUS
 62
     1
370
    -2
100
AcDbLine
 10
850.8104114147256
 20
1027.916066939212
 30
0.0
 11
860.8104114147254
 21
1027.916066939212
 31
0.0
  0
MTEXT
  5
C61
330
3BB
100
AcDbEntity
  8
図面
  6
CONTINUOUS
 62
     1
100
AcDbMText
 10
855.8104114147255
 20
1039.916066939213
 30
0.0
 40
20.0
 41
0.0
 71
     5
 72
     1
  1
\A1;34
  7
TextStyle01
 73
     1
 44
1.0
1001
ACAD
1000
MTEXTBEGIN
1070
    73
1070
     1
1070
    44
1040
1.0
1070
    74
1070
     0
1000
MTEXTEND
  0
INSERT
  5
C62
330
3BB
100
AcDbEntity
  8
図面
  6
CONTINUOUS
 62
     1
370
    -2
100
AcDbBlockReference
  2
_Open30
 10
838.8104114147257
 20
1027.916066939212
 30
0.0
 41
12.0
 42
12.0
 43
12.0
 50
180.0
  0
INSERT
  5
C63
330
3BB
100
AcDbEntity
  8
図面
  6
CONTINUOUS
 62
     1
370
    -2
100
AcDbBlockReference
  2
_Open30
 10
872.8104114147255
 20
1027.916066939212
 30
0.0
 41
12.0
 42
12.0
 43
12.0
  0
POINT
  5
C64
330
3BB
100
AcDbEntity
  8
Defpoints
  6
CONTINUOUS
 62
     0
100
AcDbPoint
 10
838.8104114147257
 20
961.4301258041543
 30
0.0
  0
POINT
  5
C65
330
3BB
100
AcDbEntity
  8
Defpoints
  6
CONTINUOUS
 62
     0
100
AcDbPoint
 10
872.8104114147255
 20
961.4301258041543
 30
0.0
  0
POINT
  5
C66
330
3BB
100
AcDbEntity
  8
Defpoints
  6
CONTINUOUS
 62
     0
100
AcDbPoint
 10
872.8104114147255
 20
1027.916066939212
 30
0.0
  0
ENDBLK
  5
3C6
330
3BB
100
AcDbEntity
  8
0
100
AcDbBlockEnd
  0
BLOCK
  5
3D2
330
3C8
100
AcDbEntity
  8
0
100
AcDbBlockBegin
  2
*D13
 70
     1
 10
0.0
 20
0.0
 30
0.0
  3
*D13
  1

  0
LINE
  5
C55
330
3C8
100
AcDbEntity
  8
図面
  6
CONTINUOUS
 62
     1
370
    -2
100
AcDbLine
 10
872.8104114147255
 20
1027.916066939212
 30
0.0
 11
872.8104114147255
 21
1027.416066939212
 31
0.0
  0
LINE
  5
C56
330
3C8
100
AcDbEntity
  8
図面
  6
CONTINUOUS
 62
     1
370
    -2
100
AcDbLine
 10
904.8104114147253
 20
961.9301258041543
 30
0.0
 11
904.8104114147253
 21
1028.416066939213
 31
0.0
  0
LINE
  5
C57
330
3C8
100
AcDbEntity
  8
図面
  6
CONTINUOUS
 62
     1
370
    -2
100
AcDbLine
 10
884.8104114147254
 20
1027.916066939212
 30
0.0
 11
892.8104114147254
 21
1027.916066939212
 31
0.0
  0
MTEXT
  5
C58
330
3C8
100
AcDbEntity
  8
図面
  6
CONTINUOUS
 62
     1
100
AcDbMText
 10
888.8104114147253
 20
1059.166066939212
 30
0.0
 40
20.0
 41
0.0
 71
     5
 72
     1
  1
\A1;32
  7
TextStyle01
 73
     1
 44
1.0
1001
ACAD
1000
MTEXTBEGIN
1070
    73
1070
     1
1070
    44
1040
1.0
1070
    74
1070
     0
1000
MTEXTEND
  0
INSERT
  5
C59
330
3C8
100
AcDbEntity
  8
図面
  6
CONTINUOUS
 62
     1
370
    -2
100
AcDbBlockReference
  2
_Open30
 10
872.8104114147255
 20
1027.916066939212
 30
0.0
 41
12.0
 42
12.0
 43
12.0
 50
180.0
  0
INSERT
  5
C5A
330
3C8
100
AcDbEntity
  8
図面
  6
CONTINUOUS
 62
     1
370
    -2
100
AcDbBlockReference
  2
_Open30
 10
904.8104114147253
 20
1027.916066939212
 30
0.0
 41
12.0
 42
12.0
 43
12.0
  0
POINT
  5
C5B
330
3C8
100
AcDbEntity
  8
Defpoints
  6
CONTINUOUS
 62
     0
100
AcDbPoint
 10
872.8104114147255
 20
1028.416066939213
 30
0.0
  0
POINT
  5
C5C
330
3C8
100
AcDbEntity
  8
Defpoints
  6
CONTINUOUS
 62
     0
100
AcDbPoint
 10
904.8104114147253
 20
961.4301258041543
 30
0.0
  0
POINT
  5
C5D
330
3C8
100
AcDbEntity
  8
Defpoints
  6
CONTINUOUS
 62
     0
100
AcDbPoint
 10
904.8104114147253
 20
1027.916066939212
 30
0.0
  0
ENDBLK
  5
3D3
330
3C8
100
AcDbEntity
  8
0
100
AcDbBlockEnd
  0
BLOCK
  5
3DF
330
3D5
100
AcDbEntity
  8
0
100
AcDbBlockBegin
  2
*D14
 70
     1
 10
0.0
 20
0.0
 30
0.0
  3
*D14
  1

  0
LINE
  5
C4C
330
3D5
100
AcDbEntity
  8
図面
  6
CONTINUOUS
 62
     1
370
    -2
100
AcDbLine
 10
904.8104114147253
 20
1028.916066939213
 30
0.0
 11
904.8104114147253
 21
1029.496970397688
 31
0.0
  0
LINE
  5
C4D
330
3D5
100
AcDbEntity
  8
図面
  6
CONTINUOUS
 62
     1
370
    -2
100
AcDbLine
 10
972.8104114147255
 20
961.9301258041543
 30
0.0
 11
972.8104114147255
 21
1029.496970397688
 31
0.0
  0
LINE
  5
C4E
330
3D5
100
AcDbEntity
  8
図面
  6
CONTINUOUS
 62
     1
370
    -2
100
AcDbLine
 10
916.8104114147254
 20
1028.996970397688
 30
0.0
 11
960.8104114147254
 21
1028.996970397688
 31
0.0
  0
INSERT
  5
C4F
330
3D5
100
AcDbEntity
  8
図面
  6
CONTINUOUS
 62
     1
370
    -2
100
AcDbBlockReference
  2
_Open30
 10
904.8104114147253
 20
1028.996970397688
 30
0.0
 41
12.0
 42
12.0
 43
12.0
 50
180.0
  0
INSERT
  5
C50
330
3D5
100
AcDbEntity
  8
図面
  6
CONTINUOUS
 62
     1
370
    -2
100
AcDbBlockReference
  2
_Open30
 10
972.8104114147255
 20
1028.996970397688
 30
0.0
 41
12.0
 42
12.0
 43
12.0
  0
MTEXT
  5
C51
330
3D5
100
AcDbEntity
  8
図面
  6
CONTINUOUS
 62
     1
100
AcDbMText
 10
938.8104114147253
 20
1039.496970397688
 30
0.0
 40
20.0
 41
0.0
 71
     5
 72
     1
  1
\A1;68
  7
TextStyle01
 73
     1
 44
1.0
1001
ACAD
1000
MTEXTBEGIN
1070
    73
1070
     1
1070
    44
1040
1.0
1070
    74
1070
     0
1000
MTEXTEND
  0
POINT
  5
C52
330
3D5
100
AcDbEntity
  8
Defpoints
  6
CONTINUOUS
 62
     0
100
AcDbPoint
 10
904.8104114147253
 20
1028.416066939213
 30
0.0
  0
POINT
  5
C53
330
3D5
100
AcDbEntity
  8
Defpoints
  6
CONTINUOUS
 62
     0
100
AcDbPoint
 10
972.8104114147255
 20
961.4301258041543
 30
0.0
  0
POINT
  5
C54
330
3D5
100
AcDbEntity
  8
Defpoints
  6
CONTINUOUS
 62
     0
100
AcDbPoint
 10
972.8104114147255
 20
1028.996970397688
 30
0.0
  0
ENDBLK
  5
3E0
330
3D5
100
AcDbEntity
  8
0
100
AcDbBlockEnd
  0
BLOCK
  5
3EB
330
3E2
100
AcDbEntity
  8
0
100
AcDbBlockBegin
  2
*D15
 70
     1
 10
0.0
 20
0.0
 30
0.0
  3
*D15
  1

  0
LINE
  5
C44
330
3E2
100
AcDbEntity
  8
図面
  6
CONTINUOUS
 62
     1
370
    -2
100
AcDbLine
 10
1004.810411414725
 20
961.9301258041543
 30
0.0
 11
1004.810411414725
 21
1029.496970397688
 31
0.0
  0
LINE
  5
C45
330
3E2
100
AcDbEntity
  8
図面
  6
CONTINUOUS
 62
     1
370
    -2
100
AcDbLine
 10
984.8104114147254
 20
1028.996970397688
 30
0.0
 11
992.8104114147254
 21
1028.996970397688
 31
0.0
  0
MTEXT
  5
C46
330
3E2
100
AcDbEntity
  8
図面
  6
CONTINUOUS
 62
     1
100
AcDbMText
 10
988.8104114147253
 20
1060.246970397688
 30
0.0
 40
20.0
 41
0.0
 71
     5
 72
     1
  1
\A1;32
  7
TextStyle01
 73
     1
 44
1.0
1001
ACAD
1000
MTEXTBEGIN
1070
    73
1070
     1
1070
    44
1040
1.0
1070
    74
1070
     0
1000
MTEXTEND
  0
INSERT
  5
C47
330
3E2
100
AcDbEntity
  8
図面
  6
CONTINUOUS
 62
     1
370
    -2
100
AcDbBlockReference
  2
_Open30
 10
972.8104114147255
 20
1028.996970397688
 30
0.0
 41
12.0
 42
12.0
 43
12.0
 50
180.0
  0
INSERT
  5
C48
330
3E2
100
AcDbEntity
  8
図面
  6
CONTINUOUS
 62
     1
370
    -2
100
AcDbBlockReference
  2
_Open30
 10
1004.810411414725
 20
1028.996970397688
 30
0.0
 41
12.0
 42
12.0
 43
12.0
  0
POINT
  5
C49
330
3E2
100
AcDbEntity
  8
Defpoints
  6
CONTINUOUS
 62
     0
100
AcDbPoint
 10
972.8104114147255
 20
1028.996970397688
 30
0.0
  0
POINT
  5
C4A
330
3E2
100
AcDbEntity
  8
Defpoints
  6
CONTINUOUS
 62
     0
100
AcDbPoint
 10
1004.810411414725
 20
961.4301258041543
 30
0.0
  0
POINT
  5
C4B
330
3E2
100
AcDbEntity
  8
Defpoints
  6
CONTINUOUS
 62
     0
100
AcDbPoint
 10
1004.810411414725
 20
1028.996970397688
 30
0.0
  0
ENDBLK
  5
3EC
330
3E2
100
AcDbEntity
  8
0
100
AcDbBlockEnd
  0
BLOCK
  5
3F8
330
3EE
100
AcDbEntity
  8
0
100
AcDbBlockBegin
  2
*D16
 70
     1
 10
0.0
 20
0.0
 30
0.0
  3
*D16
  1

  0
LINE
  5
C3B
330
3EE
100
AcDbEntity
  8
図面
  6
CONTINUOUS
 62
     1
370
    -2
100
AcDbLine
 10
1004.810411414725
 20
1029.996970397688
 30
0.0
 11
1004.810411414725
 21
1030.577871059489
 31
0.0
  0
LINE
  5
C3C
330
3EE
100
AcDbEntity
  8
図面
  6
CONTINUOUS
 62
     1
370
    -2
100
AcDbLine
 10
1038.810411414725
 20
961.9301258041543
 30
0.0
 11
1038.810411414725
 21
1030.577871059489
 31
0.0
  0
LINE
  5
C3D
330
3EE
100
AcDbEntity
  8
図面
  6
CONTINUOUS
 62
     1
370
    -2
100
AcDbLine
 10
1016.810411414725
 20
1030.077871059489
 30
0.0
 11
1026.810411414725
 21
1030.077871059489
 31
0.0
  0
MTEXT
  5
C3E
330
3EE
100
AcDbEntity
  8
図面
  6
CONTINUOUS
 62
     1
100
AcDbMText
 10
1021.810411414725
 20
1042.077871059489
 30
0.0
 40
20.0
 41
0.0
 71
     5
 72
     1
  1
\A1;34
  7
TextStyle01
 73
     1
 44
1.0
1001
ACAD
1000
MTEXTBEGIN
1070
    73
1070
     1
1070
    44
1040
1.0
1070
    74
1070
     0
1000
MTEXTEND
  0
INSERT
  5
C3F
330
3EE
100
AcDbEntity
  8
図面
  6
CONTINUOUS
 62
     1
370
    -2
100
AcDbBlockReference
  2
_Open30
 10
1004.810411414725
 20
1030.077871059489
 30
0.0
 41
12.0
 42
12.0
 43
12.0
 50
180.0
  0
INSERT
  5
C40
330
3EE
100
AcDbEntity
  8
図面
  6
CONTINUOUS
 62
     1
370
    -2
100
AcDbBlockReference
  2
_Open30
 10
1038.810411414725
 20
1030.077871059489
 30
0.0
 41
12.0
 42
12.0
 43
12.0
  0
POINT
  5
C41
330
3EE
100
AcDbEntity
  8
Defpoints
  6
CONTINUOUS
 62
     0
100
AcDbPoint
 10
1004.810411414725
 20
1029.496970397688
 30
0.0
  0
POINT
  5
C42
330
3EE
100
AcDbEntity
  8
Defpoints
  6
CONTINUOUS
 62
     0
100
AcDbPoint
 10
1038.810411414725
 20
961.4301258041543
 30
0.0
  0
POINT
  5
C43
330
3EE
100
AcDbEntity
  8
Defpoints
  6
CONTINUOUS
 62
     0
100
AcDbPoint
 10
1038.810411414725
 20
1030.077871059489
 30
0.0
  0
ENDBLK
  5
3F9
330
3EE
100
AcDbEntity
  8
0
100
AcDbBlockEnd
  0
BLOCK
  5
405
330
3FB
100
AcDbEntity
  8
0
100
AcDbBlockBegin
  2
*D17
 70
     1
 10
0.0
 20
0.0
 30
0.0
  3
*D17
  1

  0
LINE
  5
C32
330
3FB
100
AcDbEntity
  8
図面
  6
CONTINUOUS
 62
     1
370
    -2
100
AcDbLine
 10
838.8104114147257
 20
1028.416066939213
 30
0.0
 11
838.8104114147257
 21
1074.894873703541
 31
0.0
  0
LINE
  5
C33
330
3FB
100
AcDbEntity
  8
図面
  6
CONTINUOUS
 62
     1
370
    -2
100
AcDbLine
 10
1038.810411414725
 20
1030.577871059489
 30
0.0
 11
1038.810411414725
 21
1074.894873703541
 31
0.0
  0
LINE
  5
C34
330
3FB
100
AcDbEntity
  8
図面
  6
CONTINUOUS
 62
     1
370
    -2
100
AcDbLine
 10
850.8104114147256
 20
1074.394873703541
 30
0.0
 11
1026.810411414725
 21
1074.394873703541
 31
0.0
  0
INSERT
  5
C35
330
3FB
100
AcDbEntity
  8
図面
  6
CONTINUOUS
 62
     1
370
    -2
100
AcDbBlockReference
  2
_Open30
 10
838.8104114147257
 20
1074.394873703541
 30
0.0
 41
12.0
 42
12.0
 43
12.0
 50
180.0
  0
INSERT
  5
C36
330
3FB
100
AcDbEntity
  8
図面
  6
CONTINUOUS
 62
     1
370
    -2
100
AcDbBlockReference
  2
_Open30
 10
1038.810411414725
 20
1074.394873703541
 30
0.0
 41
12.0
 42
12.0
 43
12.0
  0
MTEXT
  5
C37
330
3FB
100
AcDbEntity
  8
図面
  6
CONTINUOUS
 62
     1
100
AcDbMText
 10
938.8104114147255
 20
1084.894873703541
 30
0.0
 40
20.0
 41
0.0
 71
     5
 72
     1
  1
\A1;200
  7
TextStyle01
 73
     1
 44
1.0
1001
ACAD
1000
MTEXTBEGIN
1070
    73
1070
     1
1070
    44
1040
1.0
1070
    74
1070
     0
1000
MTEXTEND
  0
POINT
  5
C38
330
3FB
100
AcDbEntity
  8
Defpoints
  6
CONTINUOUS
 62
     0
100
AcDbPoint
 10
838.8104114147257
 20
1027.916066939212
 30
0.0
  0
POINT
  5
C39
330
3FB
100
AcDbEntity
  8
Defpoints
  6
CONTINUOUS
 62
     0
100
AcDbPoint
 10
1038.810411414725
 20
1030.077871059489
 30
0.0
  0
POINT
  5
C3A
330
3FB
100
AcDbEntity
  8
Defpoints
  6
CONTINUOUS
 62
     0
100
AcDbPoint
 10
1038.810411414725
 20
1074.394873703541
 30
0.0
  0
ENDBLK
  5
406
330
3FB
100
AcDbEntity
  8
0
100
AcDbBlockEnd
  0
BLOCK
  5
412
330
408
100
AcDbEntity
  8
0
100
AcDbBlockBegin
  2
*D18
 70
     1
 10
0.0
 20
0.0
 30
0.0
  3
*D18
  1

  0
LINE
  5
C29
330
408
100
AcDbEntity
  8
図面
  6
CONTINUOUS
 62
     1
370
    -2
100
AcDbLine
 10
411.8709670526641
 20
961.4301258041543
 30
0.0
 11
642.4133854146657
 21
961.4301258041543
 31
0.0
  0
LINE
  5
C2A
330
408
100
AcDbEntity
  8
図面
  6
CONTINUOUS
 62
     1
370
    -2
100
AcDbLine
 10
571.8709670526641
 20
861.4301258041543
 30
0.0
 11
642.4133854146657
 21
861.4301258041543
 31
0.0
  0
LINE
  5
C2B
330
408
100
AcDbEntity
  8
図面
  6
CONTINUOUS
 62
     1
370
    -2
100
AcDbLine
 10
641.9133854146657
 20
949.4301258041543
 30
0.0
 11
641.9133854146657
 21
873.4301258041542
 31
0.0
  0
INSERT
  5
C2C
330
408
100
AcDbEntity
  8
図面
  6
CONTINUOUS
 62
     1
370
    -2
100
AcDbBlockReference
  2
_Open30
 10
641.9133854146657
 20
961.4301258041543
 30
0.0
 41
12.0
 42
12.0
 43
12.0
 50
90.0
  0
INSERT
  5
C2D
330
408
100
AcDbEntity
  8
図面
  6
CONTINUOUS
 62
     1
370
    -2
100
AcDbBlockReference
  2
_Open30
 10
641.9133854146657
 20
861.4301258041543
 30
0.0
 41
12.0
 42
12.0
 43
12.0
 50
270.0
  0
MTEXT
  5
C2E
330
408
100
AcDbEntity
  8
図面
  6
CONTINUOUS
 62
     1
100
AcDbMText
 10
631.4133854146655
 20
911.4301258041544
 30
0.0
 40
20.0
 41
0.0
 71
     5
 72
     1
  1
\A1;100
  7
TextStyle01
 11
0.0000000000000001
 21
1.0
 31
0.0
 73
     1
 44
1.0
1001
ACAD
1000
MTEXTBEGIN
1070
    73
1070
     1
1070
    44
1040
1.0
1070
    74
1070
     0
1000
MTEXTEND
  0
POINT
  5
C2F
330
408
100
AcDbEntity
  8
Defpoints
  6
CONTINUOUS
 62
     0
100
AcDbPoint
 10
411.3709670526641
 20
961.4301258041543
 30
0.0
  0
POINT
  5
C30
330
408
100
AcDbEntity
  8
Defpoints
  6
CONTINUOUS
 62
     0
100
AcDbPoint
 10
571.3709670526641
 20
861.4301258041543
 30
0.0
  0
POINT
  5
C31
330
408
100
AcDbEntity
  8
Defpoints
  6
CONTINUOUS
 62
     0
100
AcDbPoint
 10
641.9133854146657
 20
861.4301258041543
 30
0.0
  0
ENDBLK
  5
413
330
408
100
AcDbEntity
  8
0
100
AcDbBlockEnd
  0
BLOCK
  5
4B7
330
4B0
100
AcDbEntity
  8
0
100
AcDbBlockBegin
  2
*D19
 70
     1
 10
0.0
 20
0.0
 30
0.0
  3
*D19
  1

  0
LINE
  5
C23
330
4B0
100
AcDbEntity
  8
図面
  6
CONTINUOUS
 62
     1
370
    -2
100
AcDbLine
 10
496.7802896457662
 20
850.8891518070399
 30
0.0
 11
525.961644459562
 21
871.9710998012686
 31
0.0
  0
MTEXT
  5
C24
330
4B0
100
AcDbEntity
  8
図面
  6
CONTINUOUS
 62
     1
100
AcDbMText
 10
503.4697080292971
 20
869.9960817239784
 30
0.0
 40
20.0
 41
0.0
 71
     5
 72
     1
  1
\A1;\U+220560
  7
TextStyle01
 11
0.8105931892721008
 21
0.5856096665063549
 31
0.0
 73
     1
 44
1.0
1001
ACAD
1000
MTEXTBEGIN
1070
    73
1070
     1
1070
    44
1040
1.0
1070
    74
1070
     0
1000
MTEXTEND
  0
INSERT
  5
C25
330
4B0
100
AcDbEntity
  8
図面
  6
CONTINUOUS
 62
     1
370
    -2
100
AcDbBlockReference
  2
_Open30
 10
487.0531713745011
 20
843.8618358089636
 30
0.0
 41
12.0
 42
12.0
 43
12.0
 50
215.8460718390164
  0
INSERT
  5
C26
330
4B0
100
AcDbEntity
  8
図面
  6
CONTINUOUS
 62
     1
370
    -2
100
AcDbBlockReference
  2
_Open30
 10
535.688762730827
 20
878.9984157993449
 30
0.0
 41
12.0
 42
12.0
 43
12.0
 50
35.84607183901635
  0
POINT
  5
C27
330
4B0
100
AcDbEntity
  8
Defpoints
  6
CONTINUOUS
 62
     0
100
AcDbPoint
 10
535.688762730827
 20
878.9984157993449
 30
0.0
  0
POINT
  5
C28
330
4B0
100
AcDbEntity
  8
Defpoints
  6
CONTINUOUS
 62
     0
100
AcDbPoint
 10
487.0531713745011
 20
843.8618358089636
 30
0.0
  0
ENDBLK
  5
4B8
330
4B0
100
AcDbEntity
  8
0
100
AcDbBlockEnd
  0
BLOCK
  5
4C4
330
4BA
100
AcDbEntity
  8
0
100
AcDbBlockBegin
  2
*D20
 70
     1
 10
0.0
 20
0.0
 30
0.0
  3
*D20
  1

  0
LINE
  5
C1A
330
4BA
100
AcDbEntity
  8
図面
  6
CONTINUOUS
 62
     1
370
    -2
100
AcDbLine
 10
249.3709670526641
 20
836.9301258041542
 30
0.0
 11
249.3709670526641
 21
819.801697918991
 31
0.0
  0
LINE
  5
C1B
330
4BA
100
AcDbEntity
  8
図面
  6
CONTINUOUS
 62
     1
370
    -2
100
AcDbLine
 10
329.3709670526641
 20
836.9301258041542
 30
0.0
 11
329.3709670526641
 21
819.801697918991
 31
0.0
  0
LINE
  5
C1C
330
4BA
100
AcDbEntity
  8
図面
  6
CONTINUOUS
 62
     1
370
    -2
100
AcDbLine
 10
261.3709670526641
 20
820.3016979189911
 30
0.0
 11
317.3709670526641
 21
820.3016979189911
 31
0.0
  0
INSERT
  5
C1D
330
4BA
100
AcDbEntity
  8
図面
  6
CONTINUOUS
 62
     1
370
    -2
100
AcDbBlockReference
  2
_Open30
 10
249.3709670526641
 20
820.3016979189911
 30
0.0
 41
12.0
 42
12.0
 43
12.0
 50
180.0
  0
INSERT
  5
C1E
330
4BA
100
AcDbEntity
  8
図面
  6
CONTINUOUS
 62
     1
370
    -2
100
AcDbBlockReference
  2
_Open30
 10
329.3709670526641
 20
820.3016979189911
 30
0.0
 41
12.0
 42
12.0
 43
12.0
  0
MTEXT
  5
C1F
330
4BA
100
AcDbEntity
  8
図面
  6
CONTINUOUS
 62
     1
100
AcDbMText
 10
289.3709670526641
 20
830.8016979189911
 30
0.0
 40
20.0
 41
0.0
 71
     5
 72
     1
  1
\A1;φ80
  7
TextStyle01
 73
     1
 44
1.0
1001
ACAD
1000
MTEXTBEGIN
1070
    73
1070
     1
1070
    44
1040
1.0
1070
    74
1070
     0
1000
MTEXTEND
  0
POINT
  5
C20
330
4BA
100
AcDbEntity
  8
Defpoints
  6
CONTINUOUS
 62
     0
100
AcDbPoint
 10
249.3709670526641
 20
837.4301258041542
 30
0.0
  0
POINT
  5
C21
330
4BA
100
AcDbEntity
  8
Defpoints
  6
CONTINUOUS
 62
     0
100
AcDbPoint
 10
329.3709670526641
 20
837.4301258041542
 30
0.0
  0
POINT
  5
C22
330
4BA
100
AcDbEntity
  8
Defpoints
  6
CONTINUOUS
 62
     0
100
AcDbPoint
 10
329.3709670526641
 20
820.3016979189911
 30
0.0
  0
ENDBLK
  5
4C5
330
4BA
100
AcDbEntity
  8
0
100
AcDbBlockEnd
  0
BLOCK
  5
4D1
330
4C7
100
AcDbEntity
  8
0
100
AcDbBlockBegin
  2
*D21
 70
     1
 10
0.0
 20
0.0
 30
0.0
  3
*D21
  1

  0
LINE
  5
C11
330
4C7
100
AcDbEntity
  8
図面
  6
CONTINUOUS
 62
     1
370
    -2
100
AcDbLine
 10
239.3709670526641
 20
887.9301258041543
 30
0.0
 11
239.3709670526641
 21
895.3018982274606
 31
0.0
  0
LINE
  5
C12
330
4C7
100
AcDbEntity
  8
図面
  6
CONTINUOUS
 62
     1
370
    -2
100
AcDbLine
 10
339.3709670526641
 20
887.9301258041543
 30
0.0
 11
339.3709670526641
 21
895.3018982274606
 31
0.0
  0
LINE
  5
C13
330
4C7
100
AcDbEntity
  8
図面
  6
CONTINUOUS
 62
     1
370
    -2
100
AcDbLine
 10
251.3709670526641
 20
894.8018982274607
 30
0.0
 11
327.3709670526641
 21
894.8018982274607
 31
0.0
  0
INSERT
  5
C14
330
4C7
100
AcDbEntity
  8
図面
  6
CONTINUOUS
 62
     1
370
    -2
100
AcDbBlockReference
  2
_Open30
 10
239.3709670526641
 20
894.8018982274607
 30
0.0
 41
12.0
 42
12.0
 43
12.0
 50
180.0
  0
INSERT
  5
C15
330
4C7
100
AcDbEntity
  8
図面
  6
CONTINUOUS
 62
     1
370
    -2
100
AcDbBlockReference
  2
_Open30
 10
339.3709670526641
 20
894.8018982274607
 30
0.0
 41
12.0
 42
12.0
 43
12.0
  0
MTEXT
  5
C16
330
4C7
100
AcDbEntity
  8
図面
  6
CONTINUOUS
 62
     1
100
AcDbMText
 10
289.3709670526641
 20
905.3018982274606
 30
0.0
 40
20.0
 41
0.0
 71
     5
 72
     1
  1
\A1;φ100
  7
TextStyle01
 73
     1
 44
1.0
1001
ACAD
1000
MTEXTBEGIN
1070
    73
1070
     1
1070
    44
1040
1.0
1070
    74
1070
     0
1000
MTEXTEND
  0
POINT
  5
C17
330
4C7
100
AcDbEntity
  8
Defpoints
  6
CONTINUOUS
 62
     0
100
AcDbPoint
 10
239.3709670526641
 20
887.4301258041542
 30
0.0
  0
POINT
  5
C18
330
4C7
100
AcDbEntity
  8
Defpoints
  6
CONTINUOUS
 62
     0
100
AcDbPoint
 10
339.3709670526641
 20
887.4301258041542
 30
0.0
  0
POINT
  5
C19
330
4C7
100
AcDbEntity
  8
Defpoints
  6
CONTINUOUS
 62
     0
100
AcDbPoint
 10
339.3709670526641
 20
894.8018982274607
 30
0.0
  0
ENDBLK
  5
4D2
330
4C7
100
AcDbEntity
  8
0
100
AcDbBlockEnd
  0
BLOCK
  5
DAE
330
DA4
100
AcDbEntity
  8
0
100
AcDbBlockBegin
  2
*D22
 70
     1
 10
0.0
 20
0.0
 30
0.0
  3
*D22
  1

  0
LINE
  5
DD8
330
DA4
100
AcDbEntity
  8
図面
  6
Continuous
 62
     1
370
    -2
100
AcDbLine
 10
165.7485724879461
 20
472.9167626738203
 30
0.0
 11
165.7485724879461
 21
506.083398574573
 31
0.0
  0
LINE
  5
DD9
330
DA4
100
AcDbEntity
  8
図面
  6
Continuous
 62
     1
370
    -2
100
AcDbLine
 10
405.3757641259421
 20
472.9167626738203
 30
0.0
 11
405.3757641259421
 21
506.083398574573
 31
0.0
  0
LINE
  5
DDA
330
DA4
100
AcDbEntity
  8
図面
  6
Continuous
 62
     1
370
    -2
100
AcDbLine
 10
177.7485724879461
 20
505.583398574573
 30
0.0
 11
393.3757641259422
 21
505.583398574573
 31
0.0
  0
INSERT
  5
DDB
330
DA4
100
AcDbEntity
  8
図面
  6
Continuous
 62
     1
370
    -2
100
AcDbBlockReference
  2
_Open30
 10
165.7485724879461
 20
505.583398574573
 30
0.0
 41
12.0
 42
12.0
 43
12.0
 50
180.0
  0
INSERT
  5
DDC
330
DA4
100
AcDbEntity
  8
図面
  6
Continuous
 62
     1
370
    -2
100
AcDbBlockReference
  2
_Open30
 10
405.3757641259421
 20
505.583398574573
 30
0.0
 41
12.0
 42
12.0
 43
12.0
  0
MTEXT
  5
DDD
330
DA4
100
AcDbEntity
  8
図面
  6
Continuous
 62
     1
100
AcDbMText
 10
285.5621683069442
 20
516.083398574573
 30
0.0
 40
20.0
 41
0.0
 71
     5
 72
     1
  1
\A1;240
  7
TextStyle01
 73
     1
 44
1.0
1001
ACAD
1000
MTEXTBEGIN
1070
    73
1070
     1
1070
    44
1040
1.0
1070
    74
1070
     0
1000
MTEXTEND
  0
POINT
  5
DDE
330
DA4
100
AcDbEntity
  8
Defpoints
  6
Continuous
 62
     0
100
AcDbPoint
 10
165.7485724879461
 20
472.4167626738204
 30
0.0
  0
POINT
  5
DDF
330
DA4
100
AcDbEntity
  8
Defpoints
  6
Continuous
 62
     0
100
AcDbPoint
 10
405.3757641259421
 20
472.4167626738204
 30
0.0
  0
POINT
  5
DE0
330
DA4
100
AcDbEntity
  8
Defpoints
  6
Continuous
 62
     0
100
AcDbPoint
 10
405.3757641259421
 20
505.583398574573
 30
0.0
  0
ENDBLK
  5
DAF
330
DA4
100
AcDbEntity
  8
0
100
AcDbBlockEnd
  0
BLOCK
  5
DBA
330
DB0
100
AcDbEntity
  8
0
100
AcDbBlockBegin
  2
*D23
 70
     1
 10
0.0
 20
0.0
 30
0.0
  3
*D23
  1

  0
LINE
  5
DCF
330
DB0
100
AcDbEntity
  8
図面
  6
Continuous
 62
     1
370
    -2
100
AcDbLine
 10
73.73649525296286
 20
418.7958102807783
 30
0.0
 11
30.75052117839098
 21
418.7958102807783
 31
0.0
  0
LINE
  5
DD0
330
DB0
100
AcDbEntity
  8
図面
  6
Continuous
 62
     1
370
    -2
100
AcDbLine
 10
73.73649525296286
 20
326.7958102807784
 30
0.0
 11
30.75052117839096
 21
326.7958102807784
 31
0.0
  0
LINE
  5
DD1
330
DB0
100
AcDbEntity
  8
図面
  6
Continuous
 62
     1
370
    -2
100
AcDbLine
 10
31.25052117839097
 20
406.7958102807783
 30
0.0
 11
31.25052117839096
 21
338.7958102807784
 31
0.0
  0
INSERT
  5
DD2
330
DB0
100
AcDbEntity
  8
図面
  6
Continuous
 62
     1
370
    -2
100
AcDbBlockReference
  2
_Open30
 10
31.25052117839098
 20
418.7958102807783
 30
0.0
 41
12.0
 42
12.0
 43
12.0
 50
90.0
  0
INSERT
  5
DD3
330
DB0
100
AcDbEntity
  8
図面
  6
Continuous
 62
     1
370
    -2
100
AcDbBlockReference
  2
_Open30
 10
31.25052117839095
 20
326.7958102807784
 30
0.0
 41
12.0
 42
12.0
 43
12.0
 50
270.0
  0
MTEXT
  5
DD4
330
DB0
100
AcDbEntity
  8
図面
  6
Continuous
 62
     1
100
AcDbMText
 10
20.7505211783909
 20
372.7958102807784
 30
0.0
 40
20.0
 41
0.0
 71
     5
 72
     1
  1
\A1;92
  7
TextStyle01
 11
0.0000000000000001
 21
1.0
 31
0.0
 73
     1
 44
1.0
1001
ACAD
1000
MTEXTBEGIN
1070
    73
1070
     1
1070
    44
1040
1.0
1070
    74
1070
     0
1000
MTEXTEND
  0
POINT
  5
DD5
330
DB0
100
AcDbEntity
  8
Defpoints
  6
Continuous
 62
     0
100
AcDbPoint
 10
74.23649525296287
 20
418.7958102807783
 30
0.0
  0
POINT
  5
DD6
330
DB0
100
AcDbEntity
  8
Defpoints
  6
Continuous
 62
     0
100
AcDbPoint
 10
74.23649525296287
 20
326.7958102807784
 30
0.0
  0
POINT
  5
DD7
330
DB0
100
AcDbEntity
  8
Defpoints
  6
Continuous
 62
     0
100
AcDbPoint
 10
31.25052117839095
 20
326.7958102807784
 30
0.0
  0
ENDBLK
  5
DBB
330
DB0
100
AcDbEntity
  8
0
100
AcDbBlockEnd
  0
BLOCK
  5
DEC
330
DE2
100
AcDbEntity
  8
0
100
AcDbBlockBegin
  2
*D24
 70
     1
 10
0.0
 20
0.0
 30
0.0
  3
*D24
  1

  0
LINE
  5
E00
330
DE2
100
AcDbEntity
  8
図面
  6
CONTINUOUS
 62
     1
370
    -2
100
AcDbLine
 10
75.77761762350245
 20
282.437396850918
 30
0.0
 11
75.77761762350244
 21
160.7950577639176
 31
0.0
  0
LINE
  5
E01
330
DE2
100
AcDbEntity
  8
図面
  6
CONTINUOUS
 62
     1
370
    -2
100
AcDbLine
 10
564.1359377193066
 20
273.9884579967238
 30
0.0
 11
564.1359377193066
 21
160.7950577639176
 31
0.0
  0
LINE
  5
E02
330
DE2
100
AcDbEntity
  8
図面
  6
CONTINUOUS
 62
     1
370
    -2
100
AcDbLine
 10
87.77761762350243
 20
161.2950577639176
 30
0.0
 11
552.1359377193066
 21
161.2950577639176
 31
0.0
  0
INSERT
  5
E03
330
DE2
100
AcDbEntity
  8
図面
  6
CONTINUOUS
 62
     1
370
    -2
100
AcDbBlockReference
  2
_Open30
 10
75.77761762350244
 20
161.2950577639176
 30
0.0
 41
12.0
 42
12.0
 43
12.0
 50
180.0
  0
INSERT
  5
E04
330
DE2
100
AcDbEntity
  8
図面
  6
CONTINUOUS
 62
     1
370
    -2
100
AcDbBlockReference
  2
_Open30
 10
564.1359377193066
 20
161.2950577639176
 30
0.0
 41
12.0
 42
12.0
 43
12.0
  0
MTEXT
  5
E05
330
DE2
100
AcDbEntity
  8
図面
  6
CONTINUOUS
 62
     1
100
AcDbMText
 10
319.9567776714046
 20
171.7950577639176
 30
0.0
 40
20.0
 41
0.0
 71
     5
 72
     1
  1
\A1;488
  7
TextStyle01
 73
     1
 44
1.0
1001
ACAD
1000
MTEXTBEGIN
1070
    73
1070
     1
1070
    44
1040
1.0
1070
    74
1070
     0
1000
MTEXTEND
  0
POINT
  5
E06
330
DE2
100
AcDbEntity
  8
Defpoints
  6
CONTINUOUS
 62
     0
100
AcDbPoint
 10
75.77761762350245
 20
282.937396850918
 30
0.0
  0
POINT
  5
E07
330
DE2
100
AcDbEntity
  8
Defpoints
  6
CONTINUOUS
 62
     0
100
AcDbPoint
 10
564.1359377193066
 20
274.4884579967238
 30
0.0
  0
POINT
  5
E08
330
DE2
100
AcDbEntity
  8
Defpoints
  6
CONTINUOUS
 62
     0
100
AcDbPoint
 10
564.1359377193066
 20
161.2950577639176
 30
0.0
  0
ENDBLK
  5
DED
330
DE2
100
AcDbEntity
  8
0
100
AcDbBlockEnd
  0
ENDSEC
  0
SECTION
  2
ENTITIES
  0
LWPOLYLINE
  5
51
330
1E
100
AcDbEntity
  8
図面枠
  6
Continuous
 62
     4
100
AcDbPolyline
 90
        4
 70
     1
 43
0.0
 10
-210.0
 20
11.6704370779471
 10
1470.0
 20
11.6704370779471
 10
1470.0
 20
1199.670437077947
 10
-210.0
 20
1199.670437077947
  0
LINE
  5
57
330
1E
100
AcDbEntity
  8
図面枠
  6
Continuous
100
AcDbLine
 10
1409.999999999999
 20
1159.670437077947
 30
0.0
 11
-130.0
 21
1159.670437077947
 31
0.0
  0
LINE
  5
58
330
1E
100
AcDbEntity
  8
図面枠
  6
Continuous
100
AcDbLine
 10
-130.0
 20
1159.670437077947
 30
0.0
 11
-130.0
 21
71.6704370779471
 31
0.0
  0
LINE
  5
59
330
1E
100
AcDbEntity
  8
図面枠
  6
Continuous
100
AcDbLine
 10
1409.999999999999
 20
71.6704370779471
 30
0.0
 11
-130.0
 21
71.6704370779471
 31
0.0
  0
LINE
  5
5A
330
1E
100
AcDbEntity
  8
図面枠
  6
Continuous
100
AcDbLine
 10
1409.999999999999
 20
1159.670437077947
 30
0.0
 11
1409.999999999999
 21
71.6704370779471
 31
0.0
  0
LINE
  5
5B
330
1E
100
AcDbEntity
  8
図面枠
  6
Continuous
100
AcDbLine
 10
937.9999999999995
 20
83.6704370779471
 30
0.0
 11
937.9999999999995
 21
123.6704370779471
 31
0.0
  0
LINE
  5
5C
330
1E
100
AcDbEntity
  8
図面枠
  6
Continuous
100
AcDbLine
 10
937.9999999999995
 20
123.6704370779471
 30
0.0
 11
897.9999999999995
 21
123.6704370779471
 31
0.0
  0
LINE
  5
5D
330
1E
100
AcDbEntity
  8
図面枠
  6
Continuous
100
AcDbLine
 10
937.9999999999995
 20
123.6704370779471
 30
0.0
 11
937.9999999999995
 21
83.6704370779471
 31
0.0
  0
LINE
  5
5E
330
1E
100
AcDbEntity
  8
図面枠
  6
Continuous
100
AcDbLine
 10
937.9999999999995
 20
83.6704370779471
 30
0.0
 11
977.9999999999995
 21
83.6704370779471
 31
0.0
  0
LINE
  5
5F
330
1E
100
AcDbEntity
  8
図面枠
  6
Continuous
100
AcDbLine
 10
977.9999999999995
 20
83.6704370779471
 30
0.0
 11
977.9999999999995
 21
123.6704370779471
 31
0.0
  0
LINE
  5
60
330
1E
100
AcDbEntity
  8
図面枠
  6
Continuous
100
AcDbLine
 10
977.9999999999995
 20
123.6704370779471
 30
0.0
 11
937.9999999999995
 21
123.6704370779471
 31
0.0
  0
LINE
  5
61
330
1E
100
AcDbEntity
  8
図面枠
  6
Continuous
100
AcDbLine
 10
977.9999999999995
 20
123.6704370779471
 30
0.0
 11
977.9999999999995
 21
83.6704370779471
 31
0.0
  0
LINE
  5
62
330
1E
100
AcDbEntity
  8
図面枠
  6
Continuous
100
AcDbLine
 10
977.9999999999995
 20
83.6704370779471
 30
0.0
 11
1017.999999999999
 21
83.6704370779471
 31
0.0
  0
LINE
  5
63
330
1E
100
AcDbEntity
  8
図面枠
  6
Continuous
100
AcDbLine
 10
1017.999999999999
 20
83.6704370779471
 30
0.0
 11
1017.999999999999
 21
123.6704370779471
 31
0.0
  0
LINE
  5
64
330
1E
100
AcDbEntity
  8
図面枠
  6
Continuous
100
AcDbLine
 10
1017.999999999999
 20
123.6704370779471
 30
0.0
 11
977.9999999999995
 21
123.6704370779471
 31
0.0
  0
LINE
  5
65
330
1E
100
AcDbEntity
  8
図面枠
  6
Continuous
100
AcDbLine
 10
1017.999999999999
 20
123.6704370779471
 30
0.0
 11
1017.999999999999
 21
83.6704370779471
 31
0.0
  0
LINE
  5
66
330
1E
100
AcDbEntity
  8
図面枠
  6
Continuous
100
AcDbLine
 10
1017.999999999999
 20
83.6704370779471
 30
0.0
 11
1057.999999999999
 21
83.6704370779471
 31
0.0
  0
LINE
  5
67
330
1E
100
AcDbEntity
  8
図面枠
  6
Continuous
100
AcDbLine
 10
1057.999999999999
 20
83.6704370779471
 30
0.0
 11
1057.999999999999
 21
123.6704370779471
 31
0.0
  0
LINE
  5
68
330
1E
100
AcDbEntity
  8
図面枠
  6
Continuous
100
AcDbLine
 10
1057.999999999999
 20
123.6704370779471
 30
0.0
 11
1017.999999999999
 21
123.6704370779471
 31
0.0
  0
LINE
  5
69
330
1E
100
AcDbEntity
  8
図面枠
  6
Continuous
100
AcDbLine
 10
1057.999999999999
 20
123.6704370779471
 30
0.0
 11
1057.999999999999
 21
83.6704370779471
 31
0.0
  0
LINE
  5
6A
330
1E
100
AcDbEntity
  8
図面枠
  6
Continuous
100
AcDbLine
 10
1057.999999999999
 20
83.6704370779471
 30
0.0
 11
1113.999999999999
 21
83.6704370779471
 31
0.0
  0
LINE
  5
6B
330
1E
100
AcDbEntity
  8
図面枠
  6
Continuous
100
AcDbLine
 10
1113.999999999999
 20
83.6704370779471
 30
0.0
 11
1113.999999999999
 21
123.6704370779471
 31
0.0
  0
LINE
  5
6C
330
1E
100
AcDbEntity
  8
図面枠
  6
Continuous
100
AcDbLine
 10
1113.999999999999
 20
123.6704370779471
 30
0.0
 11
1057.999999999999
 21
123.6704370779471
 31
0.0
  0
LINE
  5
6D
330
1E
100
AcDbEntity
  8
図面枠
  6
Continuous
100
AcDbLine
 10
1113.999999999999
 20
123.6704370779471
 30
0.0
 11
1113.999999999999
 21
83.6704370779471
 31
0.0
  0
LINE
  5
6E
330
1E
100
AcDbEntity
  8
図面枠
  6
Continuous
100
AcDbLine
 10
1113.999999999999
 20
83.6704370779471
 30
0.0
 11
1169.999999999999
 21
83.6704370779471
 31
0.0
  0
LINE
  5
6F
330
1E
100
AcDbEntity
  8
図面枠
  6
Continuous
100
AcDbLine
 10
1169.999999999999
 20
83.6704370779471
 30
0.0
 11
1169.999999999999
 21
123.6704370779471
 31
0.0
  0
LINE
  5
70
330
1E
100
AcDbEntity
  8
図面枠
  6
Continuous
100
AcDbLine
 10
1169.999999999999
 20
123.6704370779471
 30
0.0
 11
1113.999999999999
 21
123.6704370779471
 31
0.0
  0
LINE
  5
71
330
1E
100
AcDbEntity
  8
図面枠
  6
Continuous
100
AcDbLine
 10
1169.999999999999
 20
123.6704370779471
 30
0.0
 11
1169.999999999999
 21
83.6704370779471
 31
0.0
  0
LINE
  5
72
330
1E
100
AcDbEntity
  8
図面枠
  6
Continuous
100
AcDbLine
 10
1169.999999999999
 20
83.6704370779471
 30
0.0
 11
1213.999999999999
 21
83.6704370779471
 31
0.0
  0
LINE
  5
73
330
1E
100
AcDbEntity
  8
図面枠
  6
Continuous
100
AcDbLine
 10
1213.999999999999
 20
83.6704370779471
 30
0.0
 11
1213.999999999999
 21
123.6704370779471
 31
0.0
  0
LINE
  5
74
330
1E
100
AcDbEntity
  8
図面枠
  6
Continuous
100
AcDbLine
 10
1213.999999999999
 20
123.6704370779471
 30
0.0
 11
1169.999999999999
 21
123.6704370779471
 31
0.0
  0
LINE
  5
75
330
1E
100
AcDbEntity
  8
図面枠
  6
Continuous
100
AcDbLine
 10
1213.999999999999
 20
123.6704370779471
 30
0.0
 11
1213.999999999999
 21
83.6704370779471
 31
0.0
  0
LINE
  5
76
330
1E
100
AcDbEntity
  8
図面枠
  6
Continuous
100
AcDbLine
 10
1213.999999999999
 20
83.6704370779471
 30
0.0
 11
1229.999999999999
 21
83.6704370779471
 31
0.0
  0
LINE
  5
77
330
1E
100
AcDbEntity
  8
図面枠
  6
Continuous
100
AcDbLine
 10
1229.999999999999
 20
83.6704370779471
 30
0.0
 11
1229.999999999999
 21
123.6704370779471
 31
0.0
  0
LINE
  5
78
330
1E
100
AcDbEntity
  8
図面枠
  6
Continuous
100
AcDbLine
 10
1229.999999999999
 20
123.6704370779471
 30
0.0
 11
1213.999999999999
 21
123.6704370779471
 31
0.0
  0
LINE
  5
79
330
1E
100
AcDbEntity
  8
図面枠
  6
Continuous
100
AcDbLine
 10
1229.999999999999
 20
123.6704370779471
 30
0.0
 11
1229.999999999999
 21
83.6704370779471
 31
0.0
  0
LINE
  5
7A
330
1E
100
AcDbEntity
  8
図面枠
  6
Continuous
100
AcDbLine
 10
1229.999999999999
 20
83.6704370779471
 30
0.0
 11
1397.999999999999
 21
83.6704370779471
 31
0.0
  0
LINE
  5
7B
330
1E
100
AcDbEntity
  8
図面枠
  6
Continuous
100
AcDbLine
 10
1397.999999999999
 20
83.6704370779471
 30
0.0
 11
1397.999999999999
 21
123.6704370779471
 31
0.0
  0
LINE
  5
7C
330
1E
100
AcDbEntity
  8
図面枠
  6
Continuous
100
AcDbLine
 10
1397.999999999999
 20
123.6704370779471
 30
0.0
 11
1229.999999999999
 21
123.6704370779471
 31
0.0
  0
LINE
  5
7D
330
1E
100
AcDbEntity
  8
図面枠
  6
Continuous
100
AcDbLine
 10
897.9999999999995
 20
123.6704370779471
 30
0.0
 11
897.9999999999995
 21
143.6704370779471
 31
0.0
  0
LINE
  5
7E
330
1E
100
AcDbEntity
  8
図面枠
  6
Continuous
100
AcDbLine
 10
897.9999999999995
 20
143.6704370779471
 30
0.0
 11
1113.999999999999
 21
143.6704370779471
 31
0.0
  0
LINE
  5
7F
330
1E
100
AcDbEntity
  8
図面枠
  6
Continuous
100
AcDbLine
 10
1113.999999999999
 20
143.6704370779471
 30
0.0
 11
1113.999999999999
 21
123.6704370779471
 31
0.0
  0
LINE
  5
80
330
1E
100
AcDbEntity
  8
図面枠
  6
Continuous
100
AcDbLine
 10
1113.999999999999
 20
123.6704370779471
 30
0.0
 11
897.9999999999995
 21
123.6704370779471
 31
0.0
  0
LINE
  5
81
330
1E
100
AcDbEntity
  8
図面枠
  6
Continuous
100
AcDbLine
 10
897.9999999999995
 20
143.6704370779471
 30
0.0
 11
897.9999999999995
 21
163.6704370779471
 31
0.0
  0
LINE
  5
82
330
1E
100
AcDbEntity
  8
図面枠
  6
Continuous
100
AcDbLine
 10
897.9999999999995
 20
163.6704370779471
 30
0.0
 11
1113.999999999999
 21
163.6704370779471
 31
0.0
  0
LINE
  5
83
330
1E
100
AcDbEntity
  8
図面枠
  6
Continuous
100
AcDbLine
 10
1113.999999999999
 20
163.6704370779471
 30
0.0
 11
1113.999999999999
 21
143.6704370779471
 31
0.0
  0
LINE
  5
84
330
1E
100
AcDbEntity
  8
図面枠
  6
Continuous
100
AcDbLine
 10
1113.999999999999
 20
143.6704370779471
 30
0.0
 11
897.9999999999995
 21
143.6704370779471
 31
0.0
  0
LINE
  5
85
330
1E
100
AcDbEntity
  8
図面枠
  6
Continuous
100
AcDbLine
 10
897.9999999999995
 20
163.6704370779471
 30
0.0
 11
897.9999999999995
 21
183.6704370779471
 31
0.0
  0
LINE
  5
86
330
1E
100
AcDbEntity
  8
図面枠
  6
Continuous
100
AcDbLine
 10
897.9999999999995
 20
183.6704370779471
 30
0.0
 11
1113.999999999999
 21
183.6704370779471
 31
0.0
  0
LINE
  5
87
330
1E
100
AcDbEntity
  8
図面枠
  6
Continuous
100
AcDbLine
 10
1113.999999999999
 20
183.6704370779471
 30
0.0
 11
1113.999999999999
 21
163.6704370779471
 31
0.0
  0
LINE
  5
88
330
1E
100
AcDbEntity
  8
図面枠
  6
Continuous
100
AcDbLine
 10
1113.999999999999
 20
163.6704370779471
 30
0.0
 11
897.9999999999995
 21
163.6704370779471
 31
0.0
  0
LINE
  5
89
330
1E
100
AcDbEntity
  8
図面枠
  6
Continuous
100
AcDbLine
 10
1113.999999999999
 20
183.6704370779471
 30
0.0
 11
1113.999999999999
 21
123.6704370779471
 31
0.0
  0
LINE
  5
8A
330
1E
100
AcDbEntity
  8
図面枠
  6
Continuous
100
AcDbLine
 10
1113.999999999999
 20
123.6704370779471
 30
0.0
 11
1133.999999999999
 21
123.6704370779471
 31
0.0
  0
LINE
  5
8B
330
1E
100
AcDbEntity
  8
図面枠
  6
Continuous
100
AcDbLine
 10
1133.999999999999
 20
123.6704370779471
 30
0.0
 11
1133.999999999999
 21
183.6704370779471
 31
0.0
  0
LINE
  5
8C
330
1E
100
AcDbEntity
  8
図面枠
  6
Continuous
100
AcDbLine
 10
1133.999999999999
 20
183.6704370779471
 30
0.0
 11
1113.999999999999
 21
183.6704370779471
 31
0.0
  0
LINE
  5
8D
330
1E
100
AcDbEntity
  8
図面枠
  6
Continuous
100
AcDbLine
 10
1133.999999999999
 20
123.6704370779471
 30
0.0
 11
1133.999999999999
 21
183.6704370779471
 31
0.0
  0
LINE
  5
8E
330
1E
100
AcDbEntity
  8
図面枠
  6
Continuous
100
AcDbLine
 10
1133.999999999999
 20
183.6704370779471
 30
0.0
 11
1397.999999999999
 21
183.6704370779471
 31
0.0
  0
LINE
  5
8F
330
1E
100
AcDbEntity
  8
図面枠
  6
Continuous
100
AcDbLine
 10
1397.999999999999
 20
183.6704370779471
 30
0.0
 11
1397.999999999999
 21
123.6704370779471
 31
0.0
  0
LINE
  5
90
330
1E
100
AcDbEntity
  8
図面枠
  6
Continuous
100
AcDbLine
 10
1397.999999999999
 20
123.6704370779471
 30
0.0
 11
1133.999999999999
 21
123.6704370779471
 31
0.0
  0
LINE
  5
91
330
1E
100
AcDbEntity
  8
図面枠
  6
Continuous
100
AcDbLine
 10
897.9999999999995
 20
183.6704370779471
 30
0.0
 11
897.9999999999995
 21
263.6704370779471
 31
0.0
  0
LINE
  5
92
330
1E
100
AcDbEntity
  8
図面枠
  6
Continuous
100
AcDbLine
 10
897.9999999999995
 20
263.6704370779471
 30
0.0
 11
1397.999999999999
 21
263.6704370779471
 31
0.0
  0
LINE
  5
93
330
1E
100
AcDbEntity
  8
図面枠
  6
Continuous
100
AcDbLine
 10
1397.999999999999
 20
263.6704370779471
 30
0.0
 11
1397.999999999999
 21
183.6704370779471
 31
0.0
  0
LINE
  5
94
330
1E
100
AcDbEntity
  8
図面枠
  6
Continuous
100
AcDbLine
 10
1397.999999999999
 20
183.6704370779471
 30
0.0
 11
897.9999999999995
 21
183.6704370779471
 31
0.0
  0
LINE
  5
95
330
1E
100
AcDbEntity
  8
図面枠
  6
Continuous
100
AcDbLine
 10
897.9999999999995
 20
243.6704370779471
 30
0.0
 11
1397.999999999999
 21
243.6704370779471
 31
0.0
  0
LINE
  5
96
330
1E
100
AcDbEntity
  8
図面枠
  6
Continuous
100
AcDbLine
 10
897.9999999999995
 20
223.6704370779471
 30
0.0
 11
1397.999999999999
 21
223.6704370779471
 31
0.0
  0
LINE
  5
97
330
1E
100
AcDbEntity
  8
図面枠
  6
Continuous
100
AcDbLine
 10
897.9999999999995
 20
203.6704370779471
 30
0.0
 11
1397.999999999999
 21
203.6704370779471
 31
0.0
  0
LINE
  5
98
330
1E
100
AcDbEntity
  8
図面枠
  6
Continuous
100
AcDbLine
 10
925.9999999999996
 20
263.6704370779471
 30
0.0
 11
925.9999999999996
 21
143.6704370779471
 31
0.0
  0
LINE
  5
99
330
1E
100
AcDbEntity
  8
図面枠
  6
Continuous
100
AcDbLine
 10
957.9999999999996
 20
263.6704370779471
 30
0.0
 11
957.9999999999996
 21
143.6704370779471
 31
0.0
  0
LINE
  5
9A
330
1E
100
AcDbEntity
  8
図面枠
  6
Continuous
100
AcDbLine
 10
1085.999999999999
 20
263.6704370779471
 30
0.0
 11
1085.999999999999
 21
143.6704370779471
 31
0.0
  0
LINE
  5
9B
330
1E
100
AcDbEntity
  8
図面枠
  6
Continuous
100
AcDbLine
 10
1113.999999999999
 20
183.6704370779471
 30
0.0
 11
1113.999999999999
 21
263.6704370779471
 31
0.0
  0
LINE
  5
9C
330
1E
100
AcDbEntity
  8
図面枠
  6
Continuous
100
AcDbLine
 10
1141.999999999999
 20
183.6704370779471
 30
0.0
 11
1141.999999999999
 21
263.6704370779471
 31
0.0
  0
LINE
  5
9D
330
1E
100
AcDbEntity
  8
図面枠
  6
Continuous
100
AcDbLine
 10
1213.999999999999
 20
183.6704370779471
 30
0.0
 11
1213.999999999999
 21
263.6704370779471
 31
0.0
  0
LINE
  5
9E
330
1E
100
AcDbEntity
  8
図面枠
  6
Continuous
100
AcDbLine
 10
1245.999999999999
 20
263.6704370779471
 30
0.0
 11
1245.999999999999
 21
183.6704370779471
 31
0.0
  0
LINE
  5
9F
330
1E
100
AcDbEntity
  8
図面枠
  6
Continuous
100
AcDbLine
 10
1285.999999999999
 20
263.6704370779471
 30
0.0
 11
1285.999999999999
 21
183.6704370779471
 31
0.0
  0
LINE
  5
A0
330
1E
100
AcDbEntity
  8
図面枠
  6
Continuous
100
AcDbLine
 10
937.9999999999995
 20
143.6704370779471
 30
0.0
 11
937.9999999999995
 21
83.6704370779471
 31
0.0
  0
LINE
  5
A1
330
1E
100
AcDbEntity
  8
図面枠
  6
Continuous
100
AcDbLine
 10
977.9999999999995
 20
143.6704370779471
 30
0.0
 11
977.9999999999995
 21
83.6704370779471
 31
0.0
  0
LINE
  5
A2
330
1E
100
AcDbEntity
  8
図面枠
  6
Continuous
100
AcDbLine
 10
1017.999999999999
 20
143.6704370779471
 30
0.0
 11
1017.999999999999
 21
83.6704370779471
 31
0.0
  0
LINE
  5
A3
330
1E
100
AcDbEntity
  8
図面枠
  6
Continuous
100
AcDbLine
 10
1057.999999999999
 20
143.6704370779471
 30
0.0
 11
1057.999999999999
 21
83.6704370779471
 31
0.0
  0
LINE
  5
A4
330
1E
100
AcDbEntity
  8
図面枠
  6
Continuous
100
AcDbLine
 10
1057.999999999999
 20
103.6704370779471
 30
0.0
 11
1213.999999999999
 21
103.6704370779471
 31
0.0
  0
LINE
  5
A5
330
1E
100
AcDbEntity
  8
図面枠
  6
Continuous
100
AcDbLine
 10
1145.999999999999
 20
151.270437077947
 30
0.0
 11
1385.2
 21
151.270437077947
 31
0.0
  0
LINE
  5
A6
330
1E
100
AcDbEntity
  8
図面枠
  6
Continuous
100
AcDbLine
 10
-118.0
 20
1147.670437077947
 30
0.0
 11
1397.999999999999
 21
1147.670437077947
 31
0.0
  0
LINE
  5
A7
330
1E
100
AcDbEntity
  8
図面枠
  6
Continuous
100
AcDbLine
 10
-118.0
 20
83.6704370779471
 30
0.0
 11
-118.0
 21
1147.670437077947
 31
0.0
  0
LINE
  5
A8
330
1E
100
AcDbEntity
  8
図面枠
  6
Continuous
100
AcDbLine
 10
1397.999999999999
 20
1147.670437077947
 30
0.0
 11
1397.999999999999
 21
83.6704370779471
 31
0.0
  0
LINE
  5
A9
330
1E
100
AcDbEntity
  8
図面枠
  6
Continuous
100
AcDbLine
 10
897.9999999999995
 20
123.6704370779471
 30
0.0
 11
897.9999999999995
 21
83.6704370779471
 31
0.0
  0
LINE
  5
AA
330
1E
100
AcDbEntity
  8
図面枠
  6
Continuous
100
AcDbLine
 10
897.9999999999995
 20
83.6704370779471
 30
0.0
 11
937.9999999999995
 21
83.6704370779471
 31
0.0
  0
LINE
  5
AB
330
1E
100
AcDbEntity
  8
図面枠
  6
Continuous
100
AcDbLine
 10
1397.999999999999
 20
83.6704370779471
 30
0.0
 11
-118.0
 21
83.6704370779471
 31
0.0
  0
TEXT
  5
12A
330
1E
100
AcDbEntity
  8
図面枠
100
AcDbText
 10
901.1999999999998
 20
125.270437077947
 30
0.0
 40
16.0
  1
審査
100
AcDbText
  0
TEXT
  5
12D
330
1E
100
AcDbEntity
  8
図面枠
100
AcDbText
 10
939.5999999999997
 20
125.270437077947
 30
0.0
 40
16.0
  1
検図
100
AcDbText
  0
TEXT
  5
12E
330
1E
100
AcDbEntity
  8
図面枠
100
AcDbText
 10
980.3999999999996
 20
125.6704370779471
 30
0.0
 40
16.0
  1
設計
100
AcDbText
  0
TEXT
  5
12F
330
1E
100
AcDbEntity
  8
図面枠
100
AcDbText
 10
1021.2
 20
125.270437077947
 30
0.0
 40
16.0
  1
製図
100
AcDbText
  0
TEXT
  5
130
330
1E
100
AcDbEntity
  8
図面枠
100
AcDbText
 10
1065.077331620239
 20
125.5087221148433
 30
0.0
 40
16.0
  1
尺度
 41
1.125
100
AcDbText
  0
TEXT
  5
131
330
1E
100
AcDbEntity
  8
図面枠
100
AcDbText
 10
1115.31822108016
 20
175.9194428426651
 30
0.0
 40
16.0
  1
名 称
 50
270.0
100
AcDbText
  0
TEXT
  5
132
330
1E
100
AcDbEntity
  8
図面枠
100
AcDbText
 10
1116.2
 20
107.3512930872166
 30
0.0
 40
12.0
  1
設計年月日
 41
0.75
100
AcDbText
  0
TEXT
  5
136
330
1E
100
AcDbEntity
  8
図面枠
100
AcDbText
 10
1216.599999999999
 20
88.87043707794715
 30
0.0
 40
12.0
  1
番
100
AcDbText
  0
TEXT
  5
137
330
1E
100
AcDbEntity
  8
図面枠
100
AcDbText
 10
927.5999999999996
 20
146.470437077947
 30
0.0
 40
12.0
  1
年月日
 41
0.75
100
AcDbText
  0
TEXT
  5
138
330
1E
100
AcDbEntity
  8
図面枠
100
AcDbText
 10
901.1999999999998
 20
147.270437077947
 30
0.0
 40
12.0
  1
記号
100
AcDbText
  0
TEXT
  5
139
330
1E
100
AcDbEntity
  8
図面枠
100
AcDbText
 10
988.2586589507768
 20
147.270437077947
 30
0.0
 40
12.0
  1
訂 正 理 由
100
AcDbText
  0
TEXT
  5
13B
330
1E
100
AcDbEntity
  8
図面枠
100
AcDbText
 10
1086.829994062227
 20
147.9108650825815
 30
0.0
 40
10.0
  1
訂正者
 41
0.8
100
AcDbText
  0
TEXT
  5
13D
330
1E
100
AcDbEntity
  8
図面枠
100
AcDbText
 10
1114.466262955721
 20
186.870437077947
 30
0.0
 40
12.0
  1
番号
100
AcDbText
  0
TEXT
  5
13E
330
1E
100
AcDbEntity
  8
図面枠
100
AcDbText
 10
1153.668700002052
 20
188.669179936673
 30
0.0
 40
12.0
  1
名  称
100
AcDbText
  0
TEXT
  5
13F
330
1E
100
AcDbEntity
  8
図面枠
100
AcDbText
 10
1218.733737044278
 20
188.2029332986187
 30
0.0
 40
12.0
  1
数量
100
AcDbText
  0
TEXT
  5
140
330
1E
100
AcDbEntity
  8
図面枠
100
AcDbText
 10
1253.467479015442
 20
188.6691799366725
 30
0.0
 40
12.0
  1
材質
100
AcDbText
  0
TEXT
  5
141
330
1E
100
AcDbEntity
  8
図面枠
100
AcDbText
 10
1311.804261135912
 20
187.7366807714362
 30
0.0
 40
12.0
  1
記    事
100
AcDbText
  0
TEXT
  5
14C
330
1E
100
AcDbEntity
  8
図面枠
100
AcDbText
 10
1121.432419928735
 20
87.47645034526613
 30
0.0
 40
12.0
  1
重  量
100
AcDbText
  0
TEXT
  5
150
330
1E
100
AcDbEntity
  8
図面枠
100
AcDbText
 10
1067.844087166438
 20
105.8253933844466
 30
0.0
 40
12.0
  1
１：４
100
AcDbText
  0
TEXT
  5
152
330
1E
100
AcDbEntity
  8
図面枠
100
AcDbText
 10
1216.599999999999
 20
107.7640776170644
 30
0.0
 40
12.0
  1
図
100
AcDbText
  0
MTEXT
  5
191
330
1E
100
AcDbEntity
  8
図面枠
370
    30
100
AcDbMText
 10
1136.612440907002
 20
68.46402801119255
 30
0.0
 40
17.6
 41
290.4771084566817
 71
     1
 72
     5
  1
株式会社　関東油機サービス
 73
     1
 44
1.0
1001
ACAD
1000
MTEXTBEGIN
1070
    73
1070
     1
1070
    44
1040
1.0
1070
    74
1070
     0
1000
MTEXTEND
  0
LINE
  5
1B5
330
1E
100
AcDbEntity
  8
レール
100
AcDbLine
 10
4.124459932051649
 20
711.4301258041543
 30
0.0
 11
171.3709670526641
 21
711.4301258041543
 31
0.0
  0
LINE
  5
1B8
330
1E
100
AcDbEntity
  8
図面
100
AcDbLine
 10
171.3709670526641
 20
961.4301258041543
 30
0.0
 11
171.3709670526641
 21
611.4301258041543
 31
0.0
  0
LINE
  5
1B9
330
1E
100
AcDbEntity
  8
図面
100
AcDbLine
 10
171.3709670526641
 20
611.4301258041543
 30
0.0
 11
411.3709670526641
 21
611.4301258041543
 31
0.0
  0
LINE
  5
1BA
330
1E
100
AcDbEntity
  8
図面
100
AcDbLine
 10
411.3709670526641
 20
611.4301258041543
 30
0.0
 11
411.3709670526641
 21
961.4301258041543
 31
0.0
  0
LINE
  5
1BB
330
1E
100
AcDbEntity
  8
図面
100
AcDbLine
 10
411.3709670526641
 20
961.4301258041543
 30
0.0
 11
171.3709670526641
 21
961.4301258041543
 31
0.0
  0
LINE
  5
1BC
330
1E
100
AcDbEntity
  8
図面
100
AcDbLine
 10
838.8104114147257
 20
961.4301258041543
 30
0.0
 11
838.8104114147253
 21
621.4301258041544
 31
0.0
  0
LINE
  5
1BE
330
1E
100
AcDbEntity
  8
図面
100
AcDbLine
 10
1038.810411414725
 20
621.4301258041544
 30
0.0
 11
1038.810411414725
 21
961.4301258041543
 31
0.0
  0
LINE
  5
1BF
330
1E
100
AcDbEntity
  8
図面
100
AcDbLine
 10
1038.810411414725
 20
961.4301258041543
 30
0.0
 11
838.8104114147257
 21
961.4301258041543
 31
0.0
  0
LINE
  5
1C3
330
1E
100
AcDbEntity
  8
図面
100
AcDbLine
 10
411.3709670526641
 20
951.4301258041543
 30
0.0
 11
430.3709670526641
 21
951.4301258041543
 31
0.0
  0
LINE
  5
1C4
330
1E
100
AcDbEntity
  8
図面
100
AcDbLine
 10
430.3709670526641
 20
951.4301258041543
 30
0.0
 11
430.3709670526641
 21
766.4301258041542
 31
0.0
  0
LINE
  5
1C5
330
1E
100
AcDbEntity
  8
図面
100
AcDbLine
 10
430.3709670526641
 20
766.4301258041542
 30
0.0
 11
411.3709670526641
 21
766.4301258041542
 31
0.0
  0
LINE
  5
1C9
330
1E
100
AcDbEntity
  8
図面
100
AcDbLine
 10
436.3709670526641
 20
921.4301258041542
 30
0.0
 11
551.3709670526641
 21
921.4301258041542
 31
0.0
  0
LINE
  5
1CA
330
1E
100
AcDbEntity
  8
図面
100
AcDbLine
 10
571.3709670526641
 20
901.4301258041543
 30
0.0
 11
571.3709670526641
 21
821.4301258041542
 31
0.0
  0
LINE
  5
1CB
330
1E
100
AcDbEntity
  8
図面
100
AcDbLine
 10
551.3709670526641
 20
801.4301258041543
 30
0.0
 11
436.370967052664
 21
801.4301258041543
 31
0.0
  0
LINE
  5
1D0
330
1E
100
AcDbEntity
  8
図面
  6
DASHDOT
100
AcDbLine
 10
938.8104114147253
 20
471.7393176716459
 30
0.0
 11
938.8104114147253
 21
1130.026689950717
 31
0.0
  0
LINE
  5
1D3
330
1E
100
AcDbEntity
  8
図面
  6
DASHDOT
100
AcDbLine
 10
511.3709670526641
 20
921.4301258041542
 30
0.0
 11
511.3709670526641
 21
702.4301258041544
 31
0.0
  0
LINE
  5
1D4
330
1E
100
AcDbEntity
  8
図面
  6
DASHDOT
100
AcDbLine
 10
430.3709670526641
 20
861.4301258041543
 30
0.0
 11
571.3709670526641
 21
861.4301258041543
 31
0.0
  0
LINE
  5
1DE
330
1E
100
AcDbEntity
  8
レール
  6
CONTINUOUS
100
AcDbLine
 10
930.8104114147253
 20
667.4301258041544
 30
0.0
 11
930.8104114147253
 21
598.9193774875941
 31
0.0
  0
LINE
  5
1E4
330
1E
100
AcDbEntity
  8
レール
  6
CONTINUOUS
100
AcDbLine
 10
908.1820981724421
 20
707.1575957566283
 30
0.0
 11
904.1641372383953
 21
679.8354614051086
 31
0.0
  0
LINE
  5
1E5
330
1E
100
AcDbEntity
  8
レール
  6
CONTINUOUS
100
AcDbLine
 10
906.090271577019
 20
676.585733151453
 30
0.0
 11
930.8104114147253
 21
667.4301258041544
 31
0.0
  0
LINE
  5
1E6
330
1E
100
AcDbEntity
  8
レール
  6
CONTINUOUS
100
AcDbLine
 10
969.4387246570085
 20
707.1575957566285
 30
0.0
 11
973.4566855910557
 21
679.8354614051086
 31
0.0
  0
LINE
  5
1E7
330
1E
100
AcDbEntity
  8
レール
  6
CONTINUOUS
100
AcDbLine
 10
971.5305512524318
 20
676.585733151453
 30
0.0
 11
946.8104114147253
 21
667.4301258041544
 31
0.0
  0
LINE
  5
1E8
330
1E
100
AcDbEntity
  8
レール
100
AcDbLine
 10
913.1288938492664
 20
711.4301258041542
 30
0.0
 11
964.4919289801842
 21
711.4301258041543
 31
0.0
  0
ARC
  5
1EA
330
1E
100
AcDbEntity
  8
レール
  6
CONTINUOUS
100
AcDbCircle
 10
913.1288938492664
 20
706.4301258041541
 30
0.0
 40
5.0
100
AcDbArc
 50
90.00000000000005
 51
171.6341138759674
  0
ARC
  5
1EC
330
1E
100
AcDbEntity
  8
レール
  6
CONTINUOUS
100
AcDbCircle
 10
964.4919289801842
 20
706.4301258041544
 30
0.0
 40
5.0
100
AcDbArc
 50
8.365886124032579
 51
90.0000000000001
  0
ARC
  5
1ED
330
1E
100
AcDbEntity
  8
レール
  6
CONTINUOUS
100
AcDbCircle
 10
907.1322146444899
 20
679.3989794336241
 30
0.0
 40
3.0
100
AcDbArc
 50
171.6341138759675
 51
249.676863170337
  0
ARC
  5
1EE
330
1E
100
AcDbEntity
  8
レール
  6
CONTINUOUS
100
AcDbCircle
 10
970.4886081849611
 20
679.3989794336241
 30
0.0
 40
3.0
100
AcDbArc
 50
290.323136829663
 51
8.365886124032618
  0
LINE
  5
1EF
330
1E
100
AcDbEntity
  8
レール
  6
CONTINUOUS
100
AcDbLine
 10
946.8104114147253
 20
667.4301258041544
 30
0.0
 11
946.8104114147255
 21
598.9193774875941
 31
0.0
  0
LINE
  5
1F1
330
1E
100
AcDbEntity
  8
レール
  6
CONTINUOUS
100
AcDbLine
 10
873.8104114147253
 20
580.9701258041543
 30
0.0
 11
873.8104114147253
 21
566.9701258041543
 31
0.0
  0
LINE
  5
1F4
330
1E
100
AcDbEntity
  8
レール
  6
CONTINUOUS
100
AcDbLine
 10
927.0055066503372
 20
594.0643030929203
 30
0.0
 11
873.8104114147255
 21
580.9701258041543
 31
0.0
  0
ARC
  5
1F5
330
1E
100
AcDbEntity
  8
レール
  6
CONTINUOUS
100
AcDbCircle
 10
925.8104114147252
 20
598.9193774875941
 30
0.0
 40
5.0
100
AcDbArc
 50
283.8286509722802
 51
0.0
  0
ARC
  5
1F6
330
1E
100
AcDbEntity
  8
レール
  6
CONTINUOUS
100
AcDbCircle
 10
951.8104114147256
 20
598.9193774875941
 30
0.0
 40
5.0
100
AcDbArc
 50
180.0
 51
256.1713490277198
  0
LINE
  5
1F7
330
1E
100
AcDbEntity
  8
レール
  6
CONTINUOUS
100
AcDbLine
 10
950.6153161791134
 20
594.0643030929203
 30
0.0
 11
1003.810411414725
 21
580.9701258041543
 31
0.0
  0
LINE
  5
1F8
330
1E
100
AcDbEntity
  8
レール
  6
CONTINUOUS
100
AcDbLine
 10
1003.810411414725
 20
580.9701258041543
 30
0.0
 11
1003.810411414725
 21
566.9701258041543
 31
0.0
  0
LINE
  5
1F9
330
1E
100
AcDbEntity
  8
レール
  6
CONTINUOUS
100
AcDbLine
 10
873.8104114147253
 20
566.9701258041543
 30
0.0
 11
1003.810411414725
 21
566.9701258041543
 31
0.0
  0
LINE
  5
1FB
330
1E
100
AcDbEntity
  8
図面
  6
CONTINUOUS
100
AcDbLine
 10
914.8104114147256
 20
661.4301258041543
 30
0.0
 11
914.8104114147255
 21
621.4301258041544
 31
0.0
  0
LINE
  5
1FC
330
1E
100
AcDbEntity
  8
図面
  6
CONTINUOUS
100
AcDbLine
 10
901.3104114147253
 20
711.4301258041543
 30
0.0
 11
901.3104114147253
 21
664.9884548420621
 31
0.0
  0
LINE
  5
1FD
330
1E
100
AcDbEntity
  8
図面
  6
CONTINUOUS
100
AcDbLine
 10
901.3104114147253
 20
664.9884548420621
 30
0.0
 11
914.8104114147256
 21
661.4301258041543
 31
0.0
  0
LINE
  5
1FE
330
1E
100
AcDbEntity
  8
図面
  6
CONTINUOUS
100
AcDbLine
 10
848.8104114147255
 20
611.4301258041543
 30
0.0
 11
904.8104114147253
 21
611.4301258041543
 31
0.0
  0
LINE
  5
200
330
1E
100
AcDbEntity
  8
図面
  6
CONTINUOUS
100
AcDbLine
 10
904.8104114147253
 20
611.4301258041543
 30
0.0
 11
914.8104114147255
 21
621.4301258041544
 31
0.0
  0
LINE
  5
201
330
1E
100
AcDbEntity
  8
図面
  6
CONTINUOUS
100
AcDbLine
 10
848.8104114147255
 20
611.4301258041543
 30
0.0
 11
838.8104114147253
 21
621.4301258041544
 31
0.0
  0
LINE
  5
202
330
1E
100
AcDbEntity
  8
図面
  6
CONTINUOUS
100
AcDbLine
 10
1028.810411414725
 20
611.4301258041543
 30
0.0
 11
1038.810411414725
 21
621.4301258041544
 31
0.0
  0
LINE
  5
203
330
1E
100
AcDbEntity
  8
図面
  6
CONTINUOUS
100
AcDbLine
 10
1028.810411414725
 20
611.4301258041543
 30
0.0
 11
972.8104114147255
 21
611.4301258041543
 31
0.0
  0
LINE
  5
204
330
1E
100
AcDbEntity
  8
図面
  6
CONTINUOUS
100
AcDbLine
 10
972.8104114147255
 20
611.4301258041543
 30
0.0
 11
962.8104114147253
 21
621.4301258041544
 31
0.0
  0
LINE
  5
205
330
1E
100
AcDbEntity
  8
図面
  6
CONTINUOUS
100
AcDbLine
 10
962.8104114147252
 20
661.4301258041543
 30
0.0
 11
962.8104114147253
 21
621.4301258041544
 31
0.0
  0
LINE
  5
206
330
1E
100
AcDbEntity
  8
図面
  6
CONTINUOUS
100
AcDbLine
 10
976.3104114147253
 20
664.9884548420621
 30
0.0
 11
962.8104114147252
 21
661.4301258041543
 31
0.0
  0
LINE
  5
207
330
1E
100
AcDbEntity
  8
図面
  6
CONTINUOUS
100
AcDbLine
 10
976.3104114147253
 20
711.4301258041543
 30
0.0
 11
976.3104114147253
 21
664.9884548420621
 31
0.0
  0
LINE
  5
209
330
1E
100
AcDbEntity
  8
図面
  6
DASHED
100
AcDbLine
 10
171.3709670526641
 20
661.4301258041543
 30
0.0
 11
411.3709670526641
 21
661.4301258041543
 31
0.0
  0
LINE
  5
20A
330
1E
100
AcDbEntity
  8
図面
  6
DASHED
100
AcDbLine
 10
171.3709670526641
 20
711.4301258041543
 30
0.0
 11
411.3709670526641
 21
711.4301258041543
 31
0.0
  0
LINE
  5
20B
330
1E
100
AcDbEntity
  8
レール
100
AcDbLine
 10
411.3709670526641
 20
711.4301258041543
 30
0.0
 11
571.3709670526641
 21
711.4301258041543
 31
0.0
  0
LINE
  5
20C
330
1E
100
AcDbEntity
  8
図面
  6
CONTINUOUS
100
AcDbLine
 10
901.3104114147253
 20
711.4301258041543
 30
0.0
 11
976.3104114147253
 21
711.4301258041543
 31
0.0
  0
CIRCLE
  5
20E
330
1E
100
AcDbEntity
  8
図面
  6
CONTINUOUS
100
AcDbCircle
 10
511.3709670526641
 20
861.4301258041543
 30
0.0
 40
30.0
  0
LINE
  5
20F
330
1E
100
AcDbEntity
  8
図面
  6
CONTINUOUS
100
AcDbLine
 10
551.3709670526641
 20
801.4301258041543
 30
0.0
 11
571.3709670526641
 21
821.4301258041542
 31
0.0
  0
LINE
  5
210
330
1E
100
AcDbEntity
  8
図面
  6
CONTINUOUS
100
AcDbLine
 10
571.3709670526641
 20
901.4301258041543
 30
0.0
 11
551.3709670526641
 21
921.4301258041542
 31
0.0
  0
LINE
  5
212
330
1E
100
AcDbEntity
  8
図面
  6
CONTINUOUS
100
AcDbLine
 10
872.8104114147255
 20
921.4301258041542
 30
0.0
 11
872.8104114147255
 21
801.4301258041543
 31
0.0
  0
LINE
  5
213
330
1E
100
AcDbEntity
  8
図面
  6
CONTINUOUS
100
AcDbLine
 10
872.8104114147255
 20
801.4301258041543
 30
0.0
 11
904.8104114147253
 21
801.4301258041543
 31
0.0
  0
LINE
  5
214
330
1E
100
AcDbEntity
  8
図面
  6
CONTINUOUS
100
AcDbLine
 10
904.8104114147253
 20
801.4301258041543
 30
0.0
 11
904.8104114147253
 21
921.4301258041542
 31
0.0
  0
LINE
  5
215
330
1E
100
AcDbEntity
  8
図面
  6
CONTINUOUS
100
AcDbLine
 10
904.8104114147253
 20
921.4301258041542
 30
0.0
 11
872.8104114147255
 21
921.4301258041542
 31
0.0
  0
LINE
  5
216
330
1E
100
AcDbEntity
  8
図面
  6
CONTINUOUS
100
AcDbLine
 10
872.8104114147253
 20
901.4301258041543
 30
0.0
 11
904.8104114147253
 21
901.4301258041543
 31
0.0
  0
LINE
  5
217
330
1E
100
AcDbEntity
  8
図面
  6
CONTINUOUS
100
AcDbLine
 10
872.8104114147255
 20
821.4301258041542
 30
0.0
 11
904.8104114147253
 21
821.4301258041544
 31
0.0
  0
LINE
  5
218
330
1E
100
AcDbEntity
  8
図面
  6
CONTINUOUS
100
AcDbLine
 10
972.8104114147255
 20
801.4301258041543
 30
0.0
 11
972.8104114147255
 21
921.4301258041542
 31
0.0
  0
LINE
  5
219
330
1E
100
AcDbEntity
  8
図面
  6
CONTINUOUS
100
AcDbLine
 10
1004.810411414725
 20
921.4301258041542
 30
0.0
 11
1004.810411414725
 21
801.4301258041543
 31
0.0
  0
LINE
  5
21A
330
1E
100
AcDbEntity
  8
図面
  6
CONTINUOUS
100
AcDbLine
 10
1004.810411414725
 20
821.4301258041542
 30
0.0
 11
972.8104114147255
 21
821.4301258041544
 31
0.0
  0
LINE
  5
21B
330
1E
100
AcDbEntity
  8
図面
  6
CONTINUOUS
100
AcDbLine
 10
1004.810411414725
 20
801.4301258041543
 30
0.0
 11
972.8104114147255
 21
801.4301258041543
 31
0.0
  0
LINE
  5
21C
330
1E
100
AcDbEntity
  8
図面
  6
CONTINUOUS
100
AcDbLine
 10
1004.810411414725
 20
901.4301258041543
 30
0.0
 11
972.8104114147255
 21
901.4301258041543
 31
0.0
  0
LINE
  5
21D
330
1E
100
AcDbEntity
  8
図面
  6
CONTINUOUS
100
AcDbLine
 10
972.8104114147255
 20
921.4301258041542
 30
0.0
 11
1004.810411414725
 21
921.4301258041542
 31
0.0
  0
LINE
  5
21E
330
1E
100
AcDbEntity
  8
図面
  6
CONTINUOUS
100
AcDbLine
 10
838.8104114147257
 20
951.4301258041543
 30
0.0
 11
1038.810411414725
 21
951.4301258041543
 31
0.0
  0
LINE
  5
21F
330
1E
100
AcDbEntity
  8
図面
  6
CONTINUOUS
100
AcDbLine
 10
838.8104114147257
 20
766.4301258041542
 30
0.0
 11
876.8104114147252
 21
766.4301258041541
 31
0.0
  0
LINE
  5
222
330
1E
100
AcDbEntity
  8
図面
  6
DOT
100
AcDbLine
 10
872.8104114147255
 20
891.4301258041543
 30
0.0
 11
904.8104114147253
 21
891.4301258041543
 31
0.0
  0
LINE
  5
223
330
1E
100
AcDbEntity
  8
図面
  6
DOT
100
AcDbLine
 10
972.8104114147255
 20
891.4301258041543
 30
0.0
 11
1004.810411414725
 21
891.4301258041543
 31
0.0
  0
LINE
  5
224
330
1E
100
AcDbEntity
  8
図面
  6
DOT
100
AcDbLine
 10
872.8104114147255
 20
831.4301258041542
 30
0.0
 11
904.8104114147253
 21
831.4301258041542
 31
0.0
  0
LINE
  5
225
330
1E
100
AcDbEntity
  8
図面
  6
DOT
100
AcDbLine
 10
972.8104114147255
 20
831.4301258041542
 30
0.0
 11
1004.810411414725
 21
831.4301258041542
 31
0.0
  0
LINE
  5
22C
330
1E
100
AcDbEntity
  8
図面
  6
CONTINUOUS
100
AcDbLine
 10
876.8104114147252
 20
801.4301258041543
 30
0.0
 11
876.8104114147252
 21
719.4301258041543
 31
0.0
  0
LINE
  5
22D
330
1E
100
AcDbEntity
  8
図面
  6
CONTINUOUS
100
AcDbLine
 10
876.8104114147252
 20
719.4301258041543
 30
0.0
 11
888.8104114147253
 21
719.4301258041543
 31
0.0
  0
LINE
  5
22E
330
1E
100
AcDbEntity
  8
図面
  6
CONTINUOUS
100
AcDbLine
 10
888.8104114147253
 20
719.4301258041543
 30
0.0
 11
888.8104114147253
 21
801.4301258041543
 31
0.0
  0
LINE
  5
22F
330
1E
100
AcDbEntity
  8
図面
  6
CONTINUOUS
100
AcDbLine
 10
876.8104114147252
 20
751.4301258041544
 30
0.0
 11
873.8104114147253
 21
751.4301258041544
 31
0.0
  0
LINE
  5
230
330
1E
100
AcDbEntity
  8
図面
  6
CONTINUOUS
100
AcDbLine
 10
873.8104114147253
 20
751.4301258041544
 30
0.0
 11
873.8104114147253
 21
729.4301258041543
 31
0.0
  0
LINE
  5
231
330
1E
100
AcDbEntity
  8
図面
  6
CONTINUOUS
100
AcDbLine
 10
873.8104114147253
 20
729.4301258041543
 30
0.0
 11
876.8104114147252
 21
729.4301258041543
 31
0.0
  0
ARC
  5
236
330
1E
100
AcDbEntity
  8
図面
  6
CONTINUOUS
100
AcDbCircle
 10
511.3709670526641
 20
740.4301258041543
 30
0.0
 40
38.0
100
AcDbArc
 50
135.300855533395
 51
44.69914446660477
  0
LINE
  5
249
330
1E
100
AcDbEntity
  8
図面
  6
DASHDOT
100
AcDbLine
 10
471.2914170161802
 20
740.4301258041543
 30
0.0
 11
571.3709670526641
 21
740.4301258041543
 31
0.0
  0
ARC
  5
24A
330
1E
100
AcDbEntity
  8
図面
  6
CONTINUOUS
100
AcDbCircle
 10
511.3709670526641
 20
740.4301258041543
 30
0.0
 40
20.0
100
AcDbArc
 50
180.0
 51
0.0
  0
LINE
  5
253
330
1E
100
AcDbEntity
  8
図面
  6
CONTINUOUS
100
AcDbLine
 10
475.3709670526641
 20
801.4301258041543
 30
0.0
 11
491.3709670526641
 21
740.4301258041543
 31
0.0
  0
LINE
  5
254
330
1E
100
AcDbEntity
  8
図面
  6
CONTINUOUS
100
AcDbLine
 10
547.3709670526641
 20
801.4301258041543
 30
0.0
 11
531.3709670526641
 21
740.4301258041543
 31
0.0
  0
CIRCLE
  5
255
330
1E
100
AcDbEntity
  8
図面
  6
CONTINUOUS
100
AcDbCircle
 10
511.3709670526641
 20
740.4301258041543
 30
0.0
 40
10.0
  0
LINE
  5
259
330
1E
100
AcDbEntity
  8
図面
  6
CONTINUOUS
100
AcDbLine
 10
892.8104114147254
 20
778.4301258041543
 30
0.0
 11
892.8104114147254
 21
702.4301258041544
 31
0.0
  0
LINE
  5
25D
330
1E
100
AcDbEntity
  8
図面
  6
CONTINUOUS
100
AcDbLine
 10
898.8104114147255
 20
778.4301258041543
 30
0.0
 11
892.8104114147254
 21
778.4301258041543
 31
0.0
  0
LINE
  5
25E
330
1E
100
AcDbEntity
  8
図面
  6
CONTINUOUS
100
AcDbLine
 10
892.8104114147254
 20
702.4301258041544
 30
0.0
 11
898.8104114147255
 21
702.4301258041544
 31
0.0
  0
LINE
  5
25F
330
1E
100
AcDbEntity
  8
図面
  6
CONTINUOUS
100
AcDbLine
 10
898.8104114147255
 20
702.4301258041544
 30
0.0
 11
901.3104114147253
 21
711.4301258041543
 31
0.0
  0
LINE
  5
260
330
1E
100
AcDbEntity
  8
図面
  6
CONTINUOUS
100
AcDbLine
 10
901.3104114147253
 20
771.4301258041544
 30
0.0
 11
901.3104114147253
 21
711.4301258041543
 31
0.0
  0
LINE
  5
262
330
1E
100
AcDbEntity
  8
図面
  6
CONTINUOUS
100
AcDbLine
 10
898.8104114147255
 20
778.4301258041543
 30
0.0
 11
901.3104114147253
 21
771.4301258041544
 31
0.0
  0
LINE
  5
263
330
1E
100
AcDbEntity
  8
図面
  6
CONTINUOUS
100
AcDbLine
 10
901.3104114147253
 20
771.4301258041544
 30
0.0
 11
976.3104114147253
 21
771.4301258041544
 31
0.0
  0
LINE
  5
264
330
1E
100
AcDbEntity
  8
図面
  6
CONTINUOUS
100
AcDbLine
 10
976.3104114147253
 20
771.4301258041544
 30
0.0
 11
976.3104114147253
 21
711.4301258041543
 31
0.0
  0
LINE
  5
265
330
1E
100
AcDbEntity
  8
図面
  6
CONTINUOUS
100
AcDbLine
 10
984.8104114147254
 20
778.4301258041543
 30
0.0
 11
984.8104114147254
 21
702.4301258041544
 31
0.0
  0
LINE
  5
266
330
1E
100
AcDbEntity
  8
図面
  6
CONTINUOUS
100
AcDbLine
 10
984.8104114147254
 20
702.4301258041544
 30
0.0
 11
978.8104114147254
 21
702.4301258041544
 31
0.0
  0
LINE
  5
267
330
1E
100
AcDbEntity
  8
図面
  6
CONTINUOUS
100
AcDbLine
 10
978.8104114147254
 20
702.4301258041544
 30
0.0
 11
976.3104114147253
 21
711.4301258041543
 31
0.0
  0
LINE
  5
268
330
1E
100
AcDbEntity
  8
図面
  6
CONTINUOUS
100
AcDbLine
 10
978.8104114147254
 20
778.4301258041543
 30
0.0
 11
984.8104114147254
 21
778.4301258041543
 31
0.0
  0
LINE
  5
269
330
1E
100
AcDbEntity
  8
図面
  6
CONTINUOUS
100
AcDbLine
 10
978.8104114147254
 20
778.4301258041543
 30
0.0
 11
976.3104114147253
 21
771.4301258041544
 31
0.0
  0
LINE
  5
26A
330
1E
100
AcDbEntity
  8
図面
  6
CONTINUOUS
100
AcDbLine
 10
892.8104114147254
 20
751.4301258041544
 30
0.0
 11
888.8104114147253
 21
751.4301258041544
 31
0.0
  0
LINE
  5
26B
330
1E
100
AcDbEntity
  8
図面
  6
CONTINUOUS
100
AcDbLine
 10
892.8104114147254
 20
729.4301258041543
 30
0.0
 11
888.8104114147253
 21
729.4301258041543
 31
0.0
  0
LINE
  5
26C
330
1E
100
AcDbEntity
  8
図面
  6
DOT
100
AcDbLine
 10
876.8104114147252
 20
751.4301258041544
 30
0.0
 11
888.8104114147253
 21
751.4301258041544
 31
0.0
  0
LINE
  5
26D
330
1E
100
AcDbEntity
  8
図面
  6
DOT
100
AcDbLine
 10
876.8104114147252
 20
729.4301258041543
 30
0.0
 11
888.8104114147253
 21
729.4301258041543
 31
0.0
  0
LINE
  5
26E
330
1E
100
AcDbEntity
  8
図面
  6
DOT
100
AcDbLine
 10
888.8104114147253
 20
751.4301258041544
 30
0.0
 11
876.8104114147252
 21
751.4301258041544
 31
0.0
  0
LINE
  5
26F
330
1E
100
AcDbEntity
  8
図面
  6
DOT
100
AcDbLine
 10
876.8104114147252
 20
729.4301258041543
 30
0.0
 11
888.8104114147253
 21
729.4301258041543
 31
0.0
  0
LINE
  5
270
330
1E
100
AcDbEntity
  8
図面
  6
DOT
100
AcDbLine
 10
892.8104114147254
 20
751.4301258041544
 30
0.0
 11
976.3104114147253
 21
751.4301258041542
 31
0.0
  0
LINE
  5
271
330
1E
100
AcDbEntity
  8
図面
  6
DOT
100
AcDbLine
 10
892.8104114147254
 20
729.4301258041543
 30
0.0
 11
976.3104114147253
 21
729.4301258041542
 31
0.0
  0
LINE
  5
272
330
1E
100
AcDbEntity
  8
図面
  6
CONTINUOUS
100
AcDbLine
 10
898.8104114147255
 20
778.4301258041543
 30
0.0
 11
898.8104114147255
 21
702.4301258041544
 31
0.0
  0
LINE
  5
273
330
1E
100
AcDbEntity
  8
図面
  6
CONTINUOUS
100
AcDbLine
 10
978.8104114147254
 20
778.4301258041543
 30
0.0
 11
978.8104114147254
 21
702.4301258041544
 31
0.0
  0
LINE
  5
274
330
1E
100
AcDbEntity
  8
図面
  6
CONTINUOUS
100
AcDbLine
 10
1000.810411414725
 20
801.4301258041543
 30
0.0
 11
1000.810411414725
 21
719.4301258041543
 31
0.0
  0
LINE
  5
275
330
1E
100
AcDbEntity
  8
図面
  6
CONTINUOUS
100
AcDbLine
 10
988.8104114147255
 20
719.4301258041543
 30
0.0
 11
988.8104114147253
 21
801.4301258041543
 31
0.0
  0
LINE
  5
276
330
1E
100
AcDbEntity
  8
図面
  6
CONTINUOUS
100
AcDbLine
 10
1003.810411414725
 20
751.4301258041544
 30
0.0
 11
1003.810411414725
 21
729.4301258041543
 31
0.0
  0
LINE
  5
277
330
1E
100
AcDbEntity
  8
図面
  6
CONTINUOUS
100
AcDbLine
 10
1003.810411414725
 20
729.4301258041543
 30
0.0
 11
1000.810411414725
 21
729.4301258041543
 31
0.0
  0
LINE
  5
278
330
1E
100
AcDbEntity
  8
図面
  6
DOT
100
AcDbLine
 10
1000.810411414725
 20
729.4301258041543
 30
0.0
 11
988.8104114147255
 21
729.4301258041543
 31
0.0
  0
LINE
  5
279
330
1E
100
AcDbEntity
  8
図面
  6
DOT
100
AcDbLine
 10
1000.810411414725
 20
729.4301258041543
 30
0.0
 11
988.8104114147255
 21
729.4301258041543
 31
0.0
  0
LINE
  5
27A
330
1E
100
AcDbEntity
  8
図面
  6
CONTINUOUS
100
AcDbLine
 10
984.8104114147254
 20
729.4301258041543
 30
0.0
 11
988.8104114147255
 21
729.4301258041543
 31
0.0
  0
LINE
  5
27B
330
1E
100
AcDbEntity
  8
図面
  6
CONTINUOUS
100
AcDbLine
 10
1000.810411414725
 20
751.4301258041544
 30
0.0
 11
1003.810411414725
 21
751.4301258041544
 31
0.0
  0
LINE
  5
27C
330
1E
100
AcDbEntity
  8
図面
  6
DOT
100
AcDbLine
 10
988.8104114147255
 20
751.4301258041544
 30
0.0
 11
1000.810411414725
 21
751.4301258041544
 31
0.0
  0
LINE
  5
27D
330
1E
100
AcDbEntity
  8
図面
  6
DOT
100
AcDbLine
 10
1000.810411414725
 20
751.4301258041544
 30
0.0
 11
988.8104114147255
 21
751.4301258041544
 31
0.0
  0
LINE
  5
27E
330
1E
100
AcDbEntity
  8
図面
  6
CONTINUOUS
100
AcDbLine
 10
984.8104114147254
 20
751.4301258041544
 30
0.0
 11
988.8104114147255
 21
751.4301258041544
 31
0.0
  0
LINE
  5
27F
330
1E
100
AcDbEntity
  8
図面
  6
CONTINUOUS
100
AcDbLine
 10
988.8104114147255
 20
719.4301258041543
 30
0.0
 11
1000.810411414725
 21
719.4301258041543
 31
0.0
  0
LINE
  5
280
330
1E
100
AcDbEntity
  8
図面
  6
CONTINUOUS
100
AcDbLine
 10
984.8104114147256
 20
766.4301258041541
 30
0.0
 11
988.8104114147257
 21
766.4301258041541
 31
0.0
  0
LINE
  5
281
330
1E
100
AcDbEntity
  8
図面
  6
CONTINUOUS
100
AcDbLine
 10
888.8104114147251
 20
766.4301258041541
 30
0.0
 11
892.8104114147254
 21
766.4301258041542
 31
0.0
  0
LINE
  5
282
330
1E
100
AcDbEntity
  8
図面
  6
CONTINUOUS
100
AcDbLine
 10
1000.810411414725
 20
766.4301258041541
 30
0.0
 11
1038.810411414725
 21
766.4301258041542
 31
0.0
  0
LINE
  5
283
330
1E
100
AcDbEntity
  8
図面
  6
CONTINUOUS
100
AcDbLine
 10
876.8104114147252
 20
797.4301258041543
 30
0.0
 11
888.8104114147255
 21
797.4301258041543
 31
0.0
  0
LINE
  5
286
330
1E
100
AcDbEntity
  8
図面
  6
CONTINUOUS
100
AcDbLine
 10
873.8104114147253
 20
801.4301258041543
 30
0.0
 11
873.8104114147253
 21
800.4301258041543
 31
0.0
  0
LINE
  5
287
330
1E
100
AcDbEntity
  8
図面
  6
CONTINUOUS
100
AcDbLine
 10
891.8104114147254
 20
800.4301258041541
 30
0.0
 11
891.8104114147254
 21
801.4301258041543
 31
0.0
  0
ARC
  5
289
330
1E
100
AcDbEntity
  8
図面
  6
CONTINUOUS
100
AcDbCircle
 10
876.8104114147252
 20
800.4301258041543
 30
0.0
 40
3.0
100
AcDbArc
 50
180.0
 51
270.0
  0
ARC
  5
28A
330
1E
100
AcDbEntity
  8
図面
  6
CONTINUOUS
100
AcDbCircle
 10
888.8104114147255
 20
800.4301258041543
 30
0.0
 40
3.0
100
AcDbArc
 50
270.0
 51
359.9999999999984
  0
ARC
  5
28B
330
1E
100
AcDbEntity
  8
図面
  6
CONTINUOUS
100
AcDbCircle
 10
1000.810411414725
 20
800.4301258041543
 30
0.0
 40
3.0
100
AcDbArc
 50
270.0
 51
0.000000000000007
  0
LINE
  5
28C
330
1E
100
AcDbEntity
  8
図面
  6
CONTINUOUS
100
AcDbLine
 10
1003.810411414725
 20
801.4301258041543
 30
0.0
 11
1003.810411414725
 21
800.4301258041543
 31
0.0
  0
LINE
  5
28D
330
1E
100
AcDbEntity
  8
図面
  6
CONTINUOUS
100
AcDbLine
 10
985.8104114147252
 20
800.4301258041541
 30
0.0
 11
985.8104114147254
 21
801.4301258041543
 31
0.0
  0
LINE
  5
28E
330
1E
100
AcDbEntity
  8
図面
  6
CONTINUOUS
100
AcDbLine
 10
1000.810411414725
 20
797.4301258041543
 30
0.0
 11
988.8104114147253
 21
797.4301258041543
 31
0.0
  0
ARC
  5
28F
330
1E
100
AcDbEntity
  8
図面
  6
CONTINUOUS
100
AcDbCircle
 10
988.8104114147253
 20
800.4301258041543
 30
0.0
 40
3.0
100
AcDbArc
 50
180.0000000000016
 51
270.0
  0
LINE
  5
291
330
1E
100
AcDbEntity
  8
図面
  6
DASHDOT
100
AcDbLine
 10
63.31980798172754
 20
741.4301258041543
 30
0.0
 11
171.3709670526641
 21
741.4301258041543
 31
0.0
  0
ARC
  5
292
330
1E
100
AcDbEntity
  8
図面
  6
CONTINUOUS
100
AcDbCircle
 10
121.3709670526641
 20
741.4301258041543
 30
0.0
 40
38.0
100
AcDbArc
 50
45.30085553339506
 51
328.2431361407029
  0
LINE
  5
294
330
1E
100
AcDbEntity
  8
図面
  6
CONTINUOUS
100
AcDbLine
 10
171.3709670526641
 20
774.544879902515
 30
0.0
 11
121.3709670526641
 21
761.4301258041543
 31
0.0
  0
CIRCLE
  5
295
330
1E
100
AcDbEntity
  8
図面
  6
CONTINUOUS
100
AcDbCircle
 10
121.3709670526641
 20
741.4301258041543
 30
0.0
 40
10.0
  0
ARC
  5
296
330
1E
100
AcDbEntity
  8
図面
  6
CONTINUOUS
100
AcDbCircle
 10
121.3709670526641
 20
741.4301258041543
 30
0.0
 40
20.0
100
AcDbArc
 50
89.99999999999998
 51
270.0
  0
LINE
  5
299
330
1E
100
AcDbEntity
  8
図面
  6
CONTINUOUS
100
AcDbLine
 10
121.3709670526641
 20
721.4301258041544
 30
0.0
 11
171.3709670526641
 21
721.4301258041544
 31
0.0
  0
LINE
  5
29F
330
1E
100
AcDbEntity
  8
下図
  6
CONTINUOUS
100
AcDbLine
 10
436.3709670526641
 20
801.4301258041543
 30
0.0
 11
474.0560452156869
 21
801.4301258041543
 31
0.0
  0
LINE
  5
2A2
330
1E
100
AcDbEntity
  8
図面
  6
CONTINUOUS
100
AcDbLine
 10
430.3709670526641
 20
927.4301258041543
 30
0.0
 11
433.3709670526641
 21
927.4301258041543
 31
0.0
  0
LINE
  5
2A3
330
1E
100
AcDbEntity
  8
図面
  6
CONTINUOUS
100
AcDbLine
 10
436.3709670526641
 20
924.4301258041543
 30
0.0
 11
436.370967052664
 21
798.4301258041543
 31
0.0
  0
LINE
  5
2A4
330
1E
100
AcDbEntity
  8
図面
  6
CONTINUOUS
100
AcDbLine
 10
433.3709670526641
 20
795.4301258041542
 30
0.0
 11
430.3709670526641
 21
795.4301258041542
 31
0.0
  0
ARC
  5
2A5
330
1E
100
AcDbEntity
  8
図面
  6
CONTINUOUS
100
AcDbCircle
 10
433.3709670526641
 20
924.4301258041543
 30
0.0
 40
3.0
100
AcDbArc
 50
0.0
 51
90.0
  0
ARC
  5
2A6
330
1E
100
AcDbEntity
  8
図面
  6
CONTINUOUS
100
AcDbCircle
 10
433.3709670526641
 20
798.4301258041543
 30
0.0
 40
3.0
100
AcDbArc
 50
270.0
 51
0.0
  0
LINE
  5
2B2
330
1E
100
AcDbEntity
  8
図面
  6
CONTINUOUS
100
AcDbLine
 10
213.3709670526641
 20
927.4301258041543
 30
0.0
 11
213.3709670526641
 21
731.4301258041544
 31
0.0
  0
LINE
  5
2B3
330
1E
100
AcDbEntity
  8
図面
  6
CONTINUOUS
100
AcDbLine
 10
213.3709670526641
 20
731.4301258041544
 30
0.0
 11
249.3709670526641
 21
731.4301258041544
 31
0.0
  0
LINE
  5
2B4
330
1E
100
AcDbEntity
  8
図面
  6
CONTINUOUS
100
AcDbLine
 10
365.3709670526641
 20
731.4301258041544
 30
0.0
 11
365.3709670526641
 21
927.4301258041543
 31
0.0
  0
LINE
  5
2B5
330
1E
100
AcDbEntity
  8
図面
  6
CONTINUOUS
100
AcDbLine
 10
365.3709670526641
 20
927.4301258041543
 30
0.0
 11
213.3709670526641
 21
927.4301258041543
 31
0.0
  0
LINE
  5
2BB
330
1E
100
AcDbEntity
  8
図面
  6
DASHDOT
100
AcDbLine
 10
148.8655209356395
 20
881.4301258041542
 30
0.0
 11
213.3709670526641
 21
881.4301258041542
 31
0.0
  0
LINE
  5
2BC
330
1E
100
AcDbEntity
  8
図面
  6
DASHDOT
100
AcDbLine
 10
148.8655209356395
 20
791.4301258041542
 30
0.0
 11
222.512192166645
 21
791.4301258041542
 31
0.0
  0
LINE
  5
2BD
330
1E
100
AcDbEntity
  8
図面
  6
CONTINUOUS
100
AcDbLine
 10
171.3709670526641
 20
807.4301258041543
 30
0.0
 11
213.3709670526641
 21
807.4301258041542
 31
0.0
  0
LINE
  5
2BE
330
1E
100
AcDbEntity
  8
図面
  6
CONTINUOUS
100
AcDbLine
 10
171.3709670526641
 20
775.4301258041542
 30
0.0
 11
213.3709670526641
 21
775.4301258041542
 31
0.0
  0
LINE
  5
2BF
330
1E
100
AcDbEntity
  8
図面
  6
CONTINUOUS
100
AcDbLine
 10
171.3709670526641
 20
865.4301258041542
 30
0.0
 11
213.3709670526641
 21
865.4301258041542
 31
0.0
  0
LINE
  5
2C0
330
1E
100
AcDbEntity
  8
図面
  6
CONTINUOUS
100
AcDbLine
 10
171.3709670526641
 20
897.4301258041544
 30
0.0
 11
213.3709670526641
 21
897.4301258041542
 31
0.0
  0
LINE
  5
2C2
330
1E
100
AcDbEntity
  8
図面
  6
DASHDOT
100
AcDbLine
 10
121.3709670526641
 20
779.4301258041543
 30
0.0
 11
121.3709670526641
 21
703.4301258041543
 31
0.0
  0
LINE
  5
2C6
330
1E
100
AcDbEntity
  8
図面
  6
CONTINUOUS
100
AcDbLine
 10
249.3709670526641
 20
721.4301258041544
 30
0.0
 11
329.3709670526641
 21
721.4301258041544
 31
0.0
  0
LINE
  5
2C7
330
1E
100
AcDbEntity
  8
図面
  6
CONTINUOUS
100
AcDbLine
 10
329.3709670526641
 20
721.4301258041544
 30
0.0
 11
329.3709670526641
 21
731.4301258041544
 31
0.0
  0
LINE
  5
2CB
330
1E
100
AcDbEntity
  8
図面
  6
CONTINUOUS
100
AcDbLine
 10
249.3709670526641
 20
721.4301258041544
 30
0.0
 11
249.3709670526641
 21
837.4301258041542
 31
0.0
  0
LINE
  5
2CC
330
1E
100
AcDbEntity
  8
図面
  6
CONTINUOUS
100
AcDbLine
 10
238.8709670526641
 20
791.4301258041543
 30
0.0
 11
239.3709670526641
 21
887.4301258041542
 31
0.0
  0
LINE
  5
2CE
330
1E
100
AcDbEntity
  8
図面
  6
CONTINUOUS
100
AcDbLine
 10
249.3709670526641
 20
837.4301258041542
 30
0.0
 11
239.3709670526641
 21
837.4301258041542
 31
0.0
  0
LINE
  5
2CF
330
1E
100
AcDbEntity
  8
図面
  6
CONTINUOUS
100
AcDbLine
 10
239.3709670526641
 20
887.4301258041542
 30
0.0
 11
289.3709670526641
 21
887.4301258041542
 31
0.0
  0
LINE
  5
2D0
330
1E
100
AcDbEntity
  8
図面
  6
CONTINUOUS
100
AcDbLine
 10
329.3709670526641
 20
731.4301258041544
 30
0.0
 11
365.3709670526641
 21
731.4301258041544
 31
0.0
  0
LINE
  5
2D1
330
1E
100
AcDbEntity
  8
図面
  6
CONTINUOUS
100
AcDbLine
 10
339.8709670526641
 20
791.4301258041543
 30
0.0
 11
339.3709670526641
 21
887.4301258041542
 31
0.0
  0
LINE
  5
2D2
330
1E
100
AcDbEntity
  8
図面
  6
CONTINUOUS
100
AcDbLine
 10
329.3709670526641
 20
721.4301258041544
 30
0.0
 11
329.3709670526641
 21
837.4301258041542
 31
0.0
  0
LINE
  5
2D3
330
1E
100
AcDbEntity
  8
図面
  6
CONTINUOUS
100
AcDbLine
 10
339.3709670526641
 20
887.4301258041542
 30
0.0
 11
289.3709670526641
 21
887.4301258041542
 31
0.0
  0
LINE
  5
2D4
330
1E
100
AcDbEntity
  8
図面
  6
CONTINUOUS
100
AcDbLine
 10
329.3709670526641
 20
837.4301258041542
 30
0.0
 11
339.3709670526641
 21
837.4301258041542
 31
0.0
  0
LINE
  5
2DA
330
1E
100
AcDbEntity
  8
図面
  6
CONTINUOUS
100
AcDbLine
 10
223.3709670526641
 20
731.4301258041544
 30
0.0
 11
223.3709670526641
 21
776.4301258041544
 31
0.0
  0
LINE
  5
2E0
330
1E
100
AcDbEntity
  8
図面
  6
CONTINUOUS
100
AcDbLine
 10
223.3709670526641
 20
776.4301258041544
 30
0.0
 11
228.3709670526641
 21
776.4301258041544
 31
0.0
  0
LINE
  5
2E1
330
1E
100
AcDbEntity
  8
図面
  6
CONTINUOUS
100
AcDbLine
 10
228.3709670526641
 20
776.4301258041544
 30
0.0
 11
228.3709670526641
 21
791.4301258041543
 31
0.0
  0
LINE
  5
2E2
330
1E
100
AcDbEntity
  8
図面
  6
CONTINUOUS
100
AcDbLine
 10
228.3709670526641
 20
791.4301258041543
 30
0.0
 11
249.3709670526641
 21
791.4301258041543
 31
0.0
  0
LINE
  5
2E3
330
1E
100
AcDbEntity
  8
図面
  6
CONTINUOUS
100
AcDbLine
 10
355.3709670526641
 20
731.4301258041544
 30
0.0
 11
355.3709670526641
 21
776.4301258041544
 31
0.0
  0
LINE
  5
2E4
330
1E
100
AcDbEntity
  8
図面
  6
CONTINUOUS
100
AcDbLine
 10
350.3709670526641
 20
791.4301258041543
 30
0.0
 11
329.3709670526641
 21
791.4301258041543
 31
0.0
  0
LINE
  5
2E5
330
1E
100
AcDbEntity
  8
図面
  6
CONTINUOUS
100
AcDbLine
 10
350.3709670526641
 20
776.4301258041544
 30
0.0
 11
350.3709670526641
 21
791.4301258041543
 31
0.0
  0
LINE
  5
2E6
330
1E
100
AcDbEntity
  8
図面
  6
CONTINUOUS
100
AcDbLine
 10
355.3709670526641
 20
776.4301258041544
 30
0.0
 11
350.3709670526641
 21
776.4301258041544
 31
0.0
  0
LINE
  5
2E9
330
1E
100
AcDbEntity
  8
図面
  6
CONTINUOUS
100
AcDbLine
 10
225.3709670526641
 20
731.4301258041544
 30
0.0
 11
225.3709670526641
 21
776.4301258041544
 31
0.0
  0
LINE
  5
2EA
330
1E
100
AcDbEntity
  8
図面
  6
CONTINUOUS
100
AcDbLine
 10
247.3709670526641
 20
731.4301258041544
 30
0.0
 11
247.3709670526641
 21
791.4301258041543
 31
0.0
  0
LINE
  5
2EB
330
1E
100
AcDbEntity
  8
図面
  6
CONTINUOUS
100
AcDbLine
 10
331.3709670526641
 20
731.4301258041544
 30
0.0
 11
331.3709670526642
 21
791.4301258041543
 31
0.0
  0
LINE
  5
2EC
330
1E
100
AcDbEntity
  8
図面
  6
CONTINUOUS
100
AcDbLine
 10
353.3709670526641
 20
731.4301258041544
 30
0.0
 11
353.3709670526641
 21
776.4301258041544
 31
0.0
  0
LINE
  5
2F0
330
1E
100
AcDbEntity
  8
図面
  6
DASHDOT
100
AcDbLine
 10
206.7172353491551
 20
907.4301258041542
 30
0.0
 11
185.3709670526641
 21
907.4301258041542
 31
0.0
  0
LINE
  5
2F1
330
1E
100
AcDbEntity
  8
図面
  6
DASHDOT
100
AcDbLine
 10
206.1289808818656
 20
831.4301258041542
 30
0.0
 11
185.3709670526641
 21
831.4301258041542
 31
0.0
  0
LINE
  5
2F2
330
1E
100
AcDbEntity
  8
図面
  6
DASHDOT
100
AcDbLine
 10
209.0702483110417
 20
755.4301258041542
 30
0.0
 11
178.7962788712793
 21
755.4301258041542
 31
0.0
  0
CIRCLE
  5
2F3
330
1E
100
AcDbEntity
  8
図面
  6
CONTINUOUS
100
AcDbCircle
 10
193.3709670526641
 20
907.4301258041542
 30
0.0
 40
8.0
  0
CIRCLE
  5
2F4
330
1E
100
AcDbEntity
  8
図面
  6
CONTINUOUS
100
AcDbCircle
 10
193.3709670526641
 20
831.4301258041542
 30
0.0
 40
8.0
  0
CIRCLE
  5
2F5
330
1E
100
AcDbEntity
  8
図面
  6
CONTINUOUS
100
AcDbCircle
 10
193.3709670526641
 20
755.4301258041542
 30
0.0
 40
8.0
  0
LINE
  5
2F6
330
1E
100
AcDbEntity
  8
図面
  6
DASHDOT
100
AcDbLine
 10
193.3709670526641
 20
924.2458649382298
 30
0.0
 11
193.3709670526641
 21
899.4301258041543
 31
0.0
  0
LINE
  5
2F7
330
1E
100
AcDbEntity
  8
図面
  6
DASHDOT
100
AcDbLine
 10
193.3709670526641
 20
845.886584002566
 30
0.0
 11
193.3709670526641
 21
816.0354298931078
 31
0.0
  0
LINE
  5
2F8
330
1E
100
AcDbEntity
  8
図面
  6
DASHDOT
100
AcDbLine
 10
193.3709670526641
 20
769.1264722368141
 30
0.0
 11
193.3709670526641
 21
737.6761489574441
 31
0.0
  0
LINE
  5
2F9
330
1E
100
AcDbEntity
  8
図面
  6
DASHDOT
100
AcDbLine
 10
372.0246987561732
 20
907.4301258041542
 30
0.0
 11
393.3709670526641
 21
907.4301258041542
 31
0.0
  0
LINE
  5
2FA
330
1E
100
AcDbEntity
  8
図面
  6
DASHDOT
100
AcDbLine
 10
385.3709670526641
 20
924.2458649382298
 30
0.0
 11
385.3709670526641
 21
899.4301258041543
 31
0.0
  0
CIRCLE
  5
2FB
330
1E
100
AcDbEntity
  8
図面
  6
CONTINUOUS
100
AcDbCircle
 10
385.3709670526641
 20
907.4301258041542
 30
0.0
 40
8.0
  0
LINE
  5
2FC
330
1E
100
AcDbEntity
  8
図面
  6
DASHDOT
100
AcDbLine
 10
385.3709670526641
 20
845.886584002566
 30
0.0
 11
385.3709670526641
 21
816.0354298931078
 31
0.0
  0
CIRCLE
  5
2FD
330
1E
100
AcDbEntity
  8
図面
  6
CONTINUOUS
100
AcDbCircle
 10
385.3709670526641
 20
831.4301258041542
 30
0.0
 40
8.0
  0
LINE
  5
2FE
330
1E
100
AcDbEntity
  8
図面
  6
DASHDOT
100
AcDbLine
 10
372.6129532234627
 20
831.4301258041542
 30
0.0
 11
393.3709670526641
 21
831.4301258041542
 31
0.0
  0
LINE
  5
2FF
330
1E
100
AcDbEntity
  8
図面
  6
DASHDOT
100
AcDbLine
 10
385.3709670526641
 20
769.1264722368141
 30
0.0
 11
385.3709670526641
 21
737.6761489574441
 31
0.0
  0
LINE
  5
300
330
1E
100
AcDbEntity
  8
図面
  6
DASHDOT
100
AcDbLine
 10
369.6716857942865
 20
755.4301258041542
 30
0.0
 11
399.9456552340489
 21
755.4301258041542
 31
0.0
  0
CIRCLE
  5
301
330
1E
100
AcDbEntity
  8
図面
  6
CONTINUOUS
100
AcDbCircle
 10
385.3709670526641
 20
755.4301258041542
 30
0.0
 40
8.0
  0
ARC
  5
307
330
1E
100
AcDbEntity
  8
図面
  6
DASHED
100
AcDbCircle
 10
121.3709670526641
 20
741.4301258041543
 30
0.0
 40
37.99999999999997
100
AcDbArc
 50
328.2431361407029
 51
45.30085553339507
  0
ARC
  5
309
330
1E
100
AcDbEntity
  8
図面
  6
DASHED
100
AcDbCircle
 10
511.3709670526641
 20
740.4301258041543
 30
0.0
 40
38.00000000000003
100
AcDbArc
 50
44.69914446660475
 51
135.300855533395
  0
CIRCLE
  5
30B
330
1E
100
AcDbEntity
  8
図面
  6
DOT
100
AcDbCircle
 10
511.3709670526641
 20
740.4301258041543
 30
0.0
 40
29.0
  0
CIRCLE
  5
30C
330
1E
100
AcDbEntity
  8
図面
  6
DOT
100
AcDbCircle
 10
121.3709670526641
 20
741.4301258041543
 30
0.0
 40
30.00000000000006
  0
DIMENSION
  5
315
330
1E
100
AcDbEntity
  8
図面
  6
CONTINUOUS
100
AcDbDimension
  2
*D1
 10
411.3709670526641
 20
1013.580594701025
 30
0.0
 11
291.3709670526641
 21
1024.080594701025
 31
0.0
 70
    32
 71
     5
 42
240.0
  3
Standard
100
AcDbAlignedDimension
 13
171.3709670526641
 23
961.4301258041543
 33
0.0
 14
411.3709670526641
 24
961.4301258041543
 34
0.0
100
AcDbRotatedDimension
1001
ACAD
1000
DSTYLE
1002
{
1070
    41
1040
12.0
1070
    42
1040
0.5
1070
    43
1040
0.5
1070
    44
1040
0.5
1070
    73
1070
     0
1070
    74
1070
     0
1070
    77
1070
     1
1070
   140
1040
20.0
1070
   147
1040
0.5
1070
   176
1070
     1
1070
   177
1070
     1
1070
   178
1070
     1
1070
   271
1070
     0
1070
   272
1070
     0
1070
   279
1070
     2
1070
   340
1005
23
1070
   341
1005
30F
1070
   342
1005
30F
1002
}
  0
DIMENSION
  5
323
330
1E
100
AcDbEntity
  8
図面
  6
CONTINUOUS
100
AcDbDimension
  2
*D2
 10
411.3709670526641
 20
1013.202132758524
 30
0.0
 11
420.7297744155312
 21
1037.452165855097
 31
0.0
 70
   160
 71
     5
 42
19.0
  3
Standard
100
AcDbAlignedDimension
 13
430.3709670526641
 23
951.4301258041543
 33
0.0
 14
411.3709670526641
 24
1013.202132758524
 34
0.0
100
AcDbRotatedDimension
1001
ACAD
1000
DSTYLE
1002
{
1070
   343
1005
34A
1070
   173
1070
     1
1070
   344
1005
34A
1070
    41
1040
12.0
1070
    42
1040
0.5
1070
    43
1040
0.5
1070
    44
1040
0.5
1070
    73
1070
     0
1070
    74
1070
     0
1070
    77
1070
     1
1070
   140
1040
20.0
1070
   147
1040
0.5
1070
   176
1070
     1
1070
   177
1070
     1
1070
   178
1070
     1
1070
   271
1070
     0
1070
   272
1070
     0
1070
   279
1070
     2
1070
   340
1005
23
1070
   341
1005
30F
1070
   342
1005
0
1002
}
  0
DIMENSION
  5
331
330
1E
100
AcDbEntity
  8
図面
  6
CONTINUOUS
100
AcDbDimension
  2
*D3
 10
511.3709670526641
 20
1013.202132758524
 30
0.0
 11
470.8709670526641
 21
1023.702132758524
 31
0.0
 70
    32
 71
     5
 42
81.0
  3
Standard
100
AcDbAlignedDimension
 13
430.3709670526641
 23
1013.202132758524
 33
0.0
 14
511.3709670526641
 24
921.4301258041542
 34
0.0
100
AcDbRotatedDimension
1001
ACAD
1000
DSTYLE
1002
{
1070
    41
1040
12.0
1070
    42
1040
0.5
1070
    43
1040
0.5
1070
    44
1040
0.5
1070
    73
1070
     0
1070
    74
1070
     0
1070
    77
1070
     1
1070
   140
1040
20.0
1070
   147
1040
0.5
1070
   176
1070
     1
1070
   177
1070
     1
1070
   178
1070
     1
1070
   271
1070
     0
1070
   272
1070
     0
1070
   279
1070
     2
1070
   340
1005
23
1070
   341
1005
30F
1070
   342
1005
30F
1002
}
  0
DIMENSION
  5
33D
330
1E
100
AcDbEntity
  8
図面
  6
CONTINUOUS
100
AcDbDimension
  2
*D4
 10
571.3709670526641
 20
1013.202132758524
 30
0.0
 11
541.3709670526641
 21
1023.702132758524
 31
0.0
 70
    32
 71
     5
 42
60.0
  3
Standard
100
AcDbAlignedDimension
 13
511.3709670526641
 23
1013.202132758524
 33
0.0
 14
571.3709670526641
 24
901.4301258041543
 34
0.0
100
AcDbRotatedDimension
1001
ACAD
1000
DSTYLE
1002
{
1070
    41
1040
12.0
1070
    42
1040
0.5
1070
    43
1040
0.5
1070
    44
1040
0.5
1070
    73
1070
     0
1070
    74
1070
     0
1070
    77
1070
     1
1070
   140
1040
20.0
1070
   147
1040
0.5
1070
   176
1070
     1
1070
   177
1070
     1
1070
   178
1070
     1
1070
   271
1070
     0
1070
   272
1070
     0
1070
   279
1070
     2
1070
   340
1005
23
1070
   341
1005
30F
1070
   342
1005
30F
1002
}
  0
DIMENSION
  5
363
330
1E
100
AcDbEntity
  8
図面
  6
CONTINUOUS
100
AcDbDimension
  2
*D6
 10
25.75558857232954
 20
881.4301258041542
 30
0.0
 11
15.2555885723294
 21
921.4301258041542
 31
0.0
 70
    32
 71
     5
 42
80.0
  3
Standard
100
AcDbAlignedDimension
 13
171.3709670526641
 23
961.4301258041543
 33
0.0
 14
148.8655209356396
 24
881.4301258041542
 34
0.0
 50
90.0
100
AcDbRotatedDimension
1001
ACAD
1000
DSTYLE
1002
{
1070
    41
1040
12.0
1070
    42
1040
0.5
1070
    43
1040
0.5
1070
    44
1040
0.5
1070
    73
1070
     0
1070
    74
1070
     0
1070
    77
1070
     1
1070
   140
1040
20.0
1070
   147
1040
0.5
1070
   176
1070
     1
1070
   177
1070
     1
1070
   178
1070
     1
1070
   271
1070
     0
1070
   272
1070
     0
1070
   279
1070
     2
1070
   340
1005
23
1070
   341
1005
30F
1070
   342
1005
30F
1002
}
  0
DIMENSION
  5
370
330
1E
100
AcDbEntity
  8
図面
  6
CONTINUOUS
100
AcDbDimension
  2
*D7
 10
25.75750240887645
 20
791.4301258041542
 30
0.0
 11
15.25750240887632
 21
836.4301258041543
 31
0.0
 70
    32
 71
     5
 42
90.0
  3
Standard
100
AcDbAlignedDimension
 13
25.25558857232954
 23
881.4301258041542
 33
0.0
 14
148.8655209356396
 24
791.4301258041542
 34
0.0
 50
90.0
100
AcDbRotatedDimension
1001
ACAD
1000
DSTYLE
1002
{
1070
    41
1040
12.0
1070
    42
1040
0.5
1070
    43
1040
0.5
1070
    44
1040
0.5
1070
    73
1070
     0
1070
    74
1070
     0
1070
    77
1070
     1
1070
   140
1040
20.0
1070
   147
1040
0.5
1070
   176
1070
     1
1070
   177
1070
     1
1070
   178
1070
     1
1070
   271
1070
     0
1070
   272
1070
     0
1070
   279
1070
     2
1070
   340
1005
23
1070
   341
1005
30F
1070
   342
1005
30F
1002
}
  0
DIMENSION
  5
37D
330
1E
100
AcDbEntity
  8
図面
  6
CONTINUOUS
100
AcDbDimension
  2
*D8
 10
24.86201338123101
 20
741.4301258041543
 30
0.0
 11
8.747087629439192
 21
729.9233341108998
 31
0.0
 70
   160
 71
     5
 42
30.0
  3
Standard
100
AcDbAlignedDimension
 13
4.124459932051649
 23
711.4301258041543
 33
0.0
 14
63.31980798172754
 24
741.4301258041543
 34
0.0
 50
90.0
100
AcDbRotatedDimension
1001
ACAD
1000
DSTYLE
1002
{
1070
    41
1040
12.0
1070
    42
1040
0.5
1070
    43
1040
0.5
1070
    44
1040
0.5
1070
    73
1070
     0
1070
    74
1070
     0
1070
    77
1070
     1
1070
   140
1040
20.0
1070
   147
1040
0.5
1070
   176
1070
     1
1070
   177
1070
     1
1070
   178
1070
     1
1070
   271
1070
     0
1070
   272
1070
     0
1070
   279
1070
     2
1070
   340
1005
23
1070
   341
1005
30F
1070
   342
1005
30F
1002
}
  0
DIMENSION
  5
38A
330
1E
100
AcDbEntity
  8
図面
  6
CONTINUOUS
100
AcDbDimension
  2
*D9
 10
23.9703520266803
 20
611.4301258041543
 30
0.0
 11
13.4703520266802
 21
661.4301258041543
 31
0.0
 70
    32
 71
     5
 42
100.0
  3
Standard
100
AcDbAlignedDimension
 13
25.362013381231
 23
711.4301258041543
 33
0.0
 14
171.3709670526641
 24
611.4301258041543
 34
0.0
 50
90.0
100
AcDbRotatedDimension
1001
ACAD
1000
DSTYLE
1002
{
1070
    41
1040
12.0
1070
    42
1040
0.5
1070
    43
1040
0.5
1070
    44
1040
0.5
1070
    73
1070
     0
1070
    74
1070
     0
1070
    77
1070
     1
1070
   140
1040
20.0
1070
   147
1040
0.5
1070
   176
1070
     1
1070
   177
1070
     1
1070
   178
1070
     1
1070
   271
1070
     0
1070
   272
1070
     0
1070
   279
1070
     2
1070
   340
1005
23
1070
   341
1005
30F
1070
   342
1005
30F
1002
}
  0
DIMENSION
  5
397
330
1E
100
AcDbEntity
  8
図面
  6
CONTINUOUS
100
AcDbDimension
  2
*D10
 10
-7.371655980901792
 20
611.4301258041543
 30
0.0
 11
-17.87165598090188
 21
786.4301258041543
 31
0.0
 70
    32
 71
     5
 42
349.9999999999999
  3
Standard
100
AcDbAlignedDimension
 13
25.25558857232955
 23
961.4301258041543
 33
0.0
 14
23.47035202668031
 24
611.4301258041543
 34
0.0
 50
90.0
100
AcDbRotatedDimension
1001
ACAD
1000
DSTYLE
1002
{
1070
    41
1040
12.0
1070
    42
1040
0.5
1070
    43
1040
0.5
1070
    44
1040
0.5
1070
    73
1070
     0
1070
    74
1070
     0
1070
    77
1070
     1
1070
   140
1040
20.0
1070
   147
1040
0.5
1070
   176
1070
     1
1070
   177
1070
     1
1070
   178
1070
     1
1070
   271
1070
     0
1070
   272
1070
     0
1070
   279
1070
     2
1070
   340
1005
23
1070
   341
1005
30F
1070
   342
1005
30F
1002
}
  0
DIMENSION
  5
3AD
330
1E
100
AcDbEntity
  8
図面
  6
CONTINUOUS
100
AcDbDimension
  2
*D11
 10
604.1998867545962
 20
801.4301258041543
 30
0.0
 11
593.699886754596
 21
861.4301258041544
 31
0.0
 70
    32
 71
     5
 42
120.0
  3
Standard
100
AcDbAlignedDimension
 13
551.3709670526641
 23
921.4301258041542
 33
0.0
 14
551.3709670526641
 24
801.4301258041543
 34
0.0
 50
90.0
100
AcDbRotatedDimension
1001
ACAD
1000
DSTYLE
1002
{
1070
    41
1040
12.0
1070
    42
1040
0.5
1070
    43
1040
0.5
1070
    44
1040
0.5
1070
    73
1070
     0
1070
    74
1070
     0
1070
    77
1070
     1
1070
   140
1040
20.0
1070
   147
1040
0.5
1070
   176
1070
     1
1070
   177
1070
     1
1070
   178
1070
     1
1070
   271
1070
     0
1070
   272
1070
     0
1070
   279
1070
     2
1070
   340
1005
23
1070
   341
1005
30F
1070
   342
1005
30F
1002
}
  0
DIMENSION
  5
3BA
330
1E
100
AcDbEntity
  8
図面
  6
CONTINUOUS
100
AcDbDimension
  2
*D12
 10
872.8104114147255
 20
1027.916066939212
 30
0.0
 11
855.8104114147255
 21
1039.916066939213
 31
0.0
 70
    32
 71
     5
 42
33.99999999999977
  3
Standard
100
AcDbAlignedDimension
 13
838.8104114147257
 23
961.4301258041543
 33
0.0
 14
872.8104114147255
 24
961.4301258041543
 34
0.0
100
AcDbRotatedDimension
1001
ACAD
1000
DSTYLE
1002
{
1070
    41
1040
12.0
1070
    42
1040
0.5
1070
    43
1040
0.5
1070
    44
1040
0.5
1070
    73
1070
     0
1070
    74
1070
     0
1070
    77
1070
     1
1070
   140
1040
20.0
1070
   147
1040
0.5
1070
   176
1070
     1
1070
   177
1070
     1
1070
   178
1070
     1
1070
   271
1070
     0
1070
   272
1070
     0
1070
   279
1070
     2
1070
   340
1005
23
1070
   341
1005
30F
1070
   342
1005
30F
1002
}
  0
DIMENSION
  5
3C7
330
1E
100
AcDbEntity
  8
図面
  6
CONTINUOUS
100
AcDbDimension
  2
*D13
 10
904.8104114147253
 20
1027.916066939212
 30
0.0
 11
888.8104114147253
 21
1059.166066939212
 31
0.0
 70
    32
 71
     5
 42
32.0
  3
Standard
100
AcDbAlignedDimension
 13
872.8104114147255
 23
1028.416066939213
 33
0.0
 14
904.8104114147253
 24
961.4301258041543
 34
0.0
100
AcDbRotatedDimension
1001
ACAD
1000
DSTYLE
1002
{
1070
    41
1040
12.0
1070
    42
1040
0.5
1070
    43
1040
0.5
1070
    44
1040
0.5
1070
    73
1070
     0
1070
    74
1070
     0
1070
    77
1070
     1
1070
   140
1040
20.0
1070
   147
1040
0.5
1070
   176
1070
     1
1070
   177
1070
     1
1070
   178
1070
     1
1070
   271
1070
     0
1070
   272
1070
     0
1070
   279
1070
     2
1070
   340
1005
23
1070
   341
1005
30F
1070
   342
1005
30F
1002
}
  0
DIMENSION
  5
3D4
330
1E
100
AcDbEntity
  8
図面
  6
CONTINUOUS
100
AcDbDimension
  2
*D14
 10
972.8104114147255
 20
1028.996970397688
 30
0.0
 11
938.8104114147253
 21
1039.496970397688
 31
0.0
 70
    32
 71
     5
 42
68.0
  3
Standard
100
AcDbAlignedDimension
 13
904.8104114147253
 23
1028.416066939213
 33
0.0
 14
972.8104114147255
 24
961.4301258041543
 34
0.0
100
AcDbRotatedDimension
1001
ACAD
1000
DSTYLE
1002
{
1070
    41
1040
12.0
1070
    42
1040
0.5
1070
    43
1040
0.5
1070
    44
1040
0.5
1070
    73
1070
     0
1070
    74
1070
     0
1070
    77
1070
     1
1070
   140
1040
20.0
1070
   147
1040
0.5
1070
   176
1070
     1
1070
   177
1070
     1
1070
   178
1070
     1
1070
   271
1070
     0
1070
   272
1070
     0
1070
   279
1070
     2
1070
   340
1005
23
1070
   341
1005
30F
1070
   342
1005
30F
1002
}
  0
DIMENSION
  5
3E1
330
1E
100
AcDbEntity
  8
図面
  6
CONTINUOUS
100
AcDbDimension
  2
*D15
 10
1004.810411414725
 20
1028.996970397688
 30
0.0
 11
988.8104114147253
 21
1060.246970397688
 31
0.0
 70
    32
 71
     5
 42
32.0
  3
Standard
100
AcDbAlignedDimension
 13
972.8104114147255
 23
1028.996970397688
 33
0.0
 14
1004.810411414725
 24
961.4301258041543
 34
0.0
100
AcDbRotatedDimension
1001
ACAD
1000
DSTYLE
1002
{
1070
    41
1040
12.0
1070
    42
1040
0.5
1070
    43
1040
0.5
1070
    44
1040
0.5
1070
    73
1070
     0
1070
    74
1070
     0
1070
    77
1070
     1
1070
   140
1040
20.0
1070
   147
1040
0.5
1070
   176
1070
     1
1070
   177
1070
     1
1070
   178
1070
     1
1070
   271
1070
     0
1070
   272
1070
     0
1070
   279
1070
     2
1070
   340
1005
23
1070
   341
1005
30F
1070
   342
1005
30F
1002
}
  0
DIMENSION
  5
3ED
330
1E
100
AcDbEntity
  8
図面
  6
CONTINUOUS
100
AcDbDimension
  2
*D16
 10
1038.810411414725
 20
1030.077871059489
 30
0.0
 11
1021.810411414725
 21
1042.077871059489
 31
0.0
 70
    32
 71
     5
 42
34.0
  3
Standard
100
AcDbAlignedDimension
 13
1004.810411414725
 23
1029.496970397688
 33
0.0
 14
1038.810411414725
 24
961.4301258041543
 34
0.0
100
AcDbRotatedDimension
1001
ACAD
1000
DSTYLE
1002
{
1070
    41
1040
12.0
1070
    42
1040
0.5
1070
    43
1040
0.5
1070
    44
1040
0.5
1070
    73
1070
     0
1070
    74
1070
     0
1070
    77
1070
     1
1070
   140
1040
20.0
1070
   147
1040
0.5
1070
   176
1070
     1
1070
   177
1070
     1
1070
   178
1070
     1
1070
   271
1070
     0
1070
   272
1070
     0
1070
   279
1070
     2
1070
   340
1005
23
1070
   341
1005
30F
1070
   342
1005
30F
1002
}
  0
DIMENSION
  5
3FA
330
1E
100
AcDbEntity
  8
図面
  6
CONTINUOUS
100
AcDbDimension
  2
*D17
 10
1038.810411414725
 20
1074.394873703541
 30
0.0
 11
938.8104114147255
 21
1084.894873703541
 31
0.0
 70
    32
 71
     5
 42
199.9999999999998
  3
Standard
100
AcDbAlignedDimension
 13
838.8104114147257
 23
1027.916066939212
 33
0.0
 14
1038.810411414725
 24
1030.077871059489
 34
0.0
100
AcDbRotatedDimension
1001
ACAD
1000
DSTYLE
1002
{
1070
    41
1040
12.0
1070
    42
1040
0.5
1070
    43
1040
0.5
1070
    44
1040
0.5
1070
    73
1070
     0
1070
    74
1070
     0
1070
    77
1070
     1
1070
   140
1040
20.0
1070
   147
1040
0.5
1070
   176
1070
     1
1070
   177
1070
     1
1070
   178
1070
     1
1070
   271
1070
     0
1070
   272
1070
     0
1070
   279
1070
     2
1070
   340
1005
23
1070
   341
1005
30F
1070
   342
1005
30F
1002
}
  0
DIMENSION
  5
407
330
1E
100
AcDbEntity
  8
図面
  6
CONTINUOUS
100
AcDbDimension
  2
*D18
 10
641.9133854146657
 20
861.4301258041543
 30
0.0
 11
631.4133854146655
 21
911.4301258041544
 31
0.0
 70
    32
 71
     5
 42
100.0
  3
Standard
100
AcDbAlignedDimension
 13
411.3709670526641
 23
961.4301258041543
 33
0.0
 14
571.3709670526641
 24
861.4301258041543
 34
0.0
 50
90.0
100
AcDbRotatedDimension
1001
ACAD
1000
DSTYLE
1002
{
1070
    41
1040
12.0
1070
    42
1040
0.5
1070
    43
1040
0.5
1070
    44
1040
0.5
1070
    73
1070
     0
1070
    74
1070
     0
1070
    77
1070
     1
1070
   140
1040
20.0
1070
   147
1040
0.5
1070
   176
1070
     1
1070
   177
1070
     1
1070
   178
1070
     1
1070
   271
1070
     0
1070
   272
1070
     0
1070
   279
1070
     2
1070
   340
1005
23
1070
   341
1005
30F
1070
   342
1005
30F
1002
}
  0
LINE
  5
414
330
1E
100
AcDbEntity
  8
図面
  6
DASHDOT
100
AcDbLine
 10
838.8104114147257
 20
861.4301258041543
 30
0.0
 11
1038.810411414725
 21
861.4301258041543
 31
0.0
  0
MTEXT
  5
416
330
1E
100
AcDbEntity
  8
図面枠
  6
CONTINUOUS
100
AcDbMText
 10
1154.884500349707
 20
168.3393577922006
 30
0.0
 40
15.0
 41
219.8367509988515
 71
     1
 72
     5
  1
レールクランプ\P(37k～50kレール)
 73
     1
 44
1.0
1001
ACAD
1000
MTEXTBEGIN
1070
    73
1070
     1
1070
    44
1040
1.0
1070
    74
1070
     0
1000
MTEXTEND
  0
DIMENSION
  5
4AF
330
1E
100
AcDbEntity
  8
図面
  6
CONTINUOUS
100
AcDbDimension
  2
*D19
 10
487.0531713745011
 20
843.8618358089636
 30
0.0
 11
503.4697080292971
 21
869.9960817239784
 31
0.0
 70
   163
 71
     5
 42
60.0
  3
Standard
100
AcDbDiametricDimension
 15
535.688762730827
 25
878.9984157993449
 35
0.0
 40
0.0
1001
ACAD
1000
DSTYLE
1002
{
1070
    41
1040
12.0
1070
    42
1040
0.5
1070
    43
1040
0.5
1070
    44
1040
0.5
1070
    73
1070
     0
1070
    74
1070
     0
1070
    77
1070
     1
1070
   140
1040
20.0
1070
   147
1040
0.5
1070
   176
1070
     1
1070
   177
1070
     1
1070
   178
1070
     1
1070
   271
1070
     0
1070
   272
1070
     0
1070
   279
1070
     2
1070
   288
1070
     1
1070
   340
1005
23
1070
   341
1005
30F
1070
   342
1005
30F
1002
}
  0
DIMENSION
  5
4B9
330
1E
100
AcDbEntity
  8
図面
  6
CONTINUOUS
100
AcDbDimension
  2
*D20
 10
329.3709670526641
 20
820.3016979189911
 30
0.0
 11
289.3709670526641
 21
830.8016979189911
 31
0.0
 70
    32
  1
φ80
 71
     5
 42
80.0
  3
Standard
100
AcDbAlignedDimension
 13
249.3709670526641
 23
837.4301258041542
 33
0.0
 14
329.3709670526641
 24
837.4301258041542
 34
0.0
100
AcDbRotatedDimension
1001
ACAD
1000
DSTYLE
1002
{
1070
    41
1040
12.0
1070
    42
1040
0.5
1070
    43
1040
0.5
1070
    44
1040
0.5
1070
    73
1070
     0
1070
    74
1070
     0
1070
    77
1070
     1
1070
   140
1040
20.0
1070
   147
1040
0.5
1070
   176
1070
     1
1070
   177
1070
     1
1070
   178
1070
     1
1070
   271
1070
     0
1070
   272
1070
     0
1070
   279
1070
     2
1070
   340
1005
23
1070
   341
1005
30F
1070
   342
1005
30F
1002
}
  0
DIMENSION
  5
4C6
330
1E
100
AcDbEntity
  8
図面
  6
CONTINUOUS
100
AcDbDimension
  2
*D21
 10
339.3709670526641
 20
894.8018982274607
 30
0.0
 11
289.3709670526641
 21
905.3018982274606
 31
0.0
 70
    32
  1
φ100
 71
     5
 42
100.0
  3
Standard
100
AcDbAlignedDimension
 13
239.3709670526641
 23
887.4301258041542
 33
0.0
 14
339.3709670526641
 24
887.4301258041542
 34
0.0
100
AcDbRotatedDimension
1001
ACAD
1000
DSTYLE
1002
{
1070
    41
1040
12.0
1070
    42
1040
0.5
1070
    43
1040
0.5
1070
    44
1040
0.5
1070
    73
1070
     0
1070
    74
1070
     0
1070
    77
1070
     1
1070
   140
1040
20.0
1070
   147
1040
0.5
1070
   176
1070
     1
1070
   177
1070
     1
1070
   178
1070
     1
1070
   271
1070
     0
1070
   272
1070
     0
1070
   279
1070
     2
1070
   340
1005
23
1070
   341
1005
30F
1070
   342
1005
30F
1002
}
  0
MTEXT
  5
4D8
330
1E
100
AcDbEntity
  8
図面
  6
CONTINUOUS
100
AcDbMText
 10
233.3552441403754
 20
1118.386552522552
 30
0.0
 40
20.0
 41
150.5502
 71
     1
 72
     5
  1
A-A断面図
 73
     1
 44
1.0
1001
ACAD
1000
MTEXTBEGIN
1070
    73
1070
     1
1070
    44
1040
1.0
1070
    74
1070
     0
1000
MTEXTEND
  0
LEADER
  5
4DA
330
1E
100
AcDbEntity
  8
図面
  6
CONTINUOUS
100
AcDbLeader
  3
Standard
 73
     0
 40
20.0
 41
13.33333333333333
 76
     2
 10
938.8104114147253
 20
471.7393176716459
 30
0.0
 10
895.8445404328713
 20
471.7393176716459
 30
0.0
340
4DB
1001
ACAD
1000
DSTYLE
1002
{
1070
    41
1040
12.0
1070
    42
1040
0.5
1070
    43
1040
0.5
1070
    44
1040
0.5
1070
    73
1070
     0
1070
    74
1070
     0
1070
    77
1070
     0
1070
   140
1040
20.0
1070
   147
1040
0.5
1070
   176
1070
     1
1070
   177
1070
     1
1070
   178
1070
     1
1070
   271
1070
     0
1070
   272
1070
     0
1070
   279
1070
     2
1070
   340
1005
23
1070
   341
1005
30F
1070
   342
1005
30F
1002
}
  0
MTEXT
  5
4DB
102
{ACAD_REACTORS
330
4DA
102
}
330
1E
100
AcDbEntity
  8
図面
  6
CONTINUOUS
 62
     1
100
AcDbMText
 10
895.3445404328713
 20
471.7393176716459
 30
0.0
 40
20.0
 41
0.0
 71
     6
 72
     1
  1
A
  7
TextStyle01
 73
     1
 44
1.0
1001
ACAD
1000
MTEXTBEGIN
1070
    73
1070
     1
1070
    44
1040
1.0
1070
    74
1070
     0
1000
MTEXTEND
  0
LEADER
  5
4DC
330
1E
100
AcDbEntity
  8
図面
  6
CONTINUOUS
100
AcDbLeader
  3
Standard
 73
     0
 40
20.0
 41
13.33333333333333
 76
     2
 10
938.8104114147253
 20
1130.026689950717
 30
0.0
 10
895.8445404328713
 20
1130.026689950717
 30
0.0
340
4DD
1001
ACAD
1000
DSTYLE
1002
{
1070
    41
1040
12.0
1070
    42
1040
0.5
1070
    43
1040
0.5
1070
    44
1040
0.5
1070
    73
1070
     0
1070
    74
1070
     0
1070
    77
1070
     0
1070
   140
1040
20.0
1070
   147
1040
0.5
1070
   176
1070
     1
1070
   177
1070
     1
1070
   178
1070
     1
1070
   271
1070
     0
1070
   272
1070
     0
1070
   279
1070
     2
1070
   340
1005
23
1070
   341
1005
30F
1070
   342
1005
30F
1002
}
  0
MTEXT
  5
4DD
102
{ACAD_REACTORS
330
4DC
102
}
330
1E
100
AcDbEntity
  8
図面
  6
CONTINUOUS
 62
     1
100
AcDbMText
 10
895.3445404328713
 20
1130.026689950717
 30
0.0
 40
20.0
 41
0.0
 71
     6
 72
     1
  1
A
  7
TextStyle01
 73
     1
 44
1.0
1001
ACAD
1000
MTEXTBEGIN
1070
    73
1070
     1
1070
    44
1040
1.0
1070
    74
1070
     0
1000
MTEXTEND
  0
LEADER
  5
4F2
330
1E
100
AcDbEntity
  8
図面
  6
CONTINUOUS
100
AcDbLeader
  3
Standard
 73
     0
 74
     0
 75
     1
 40
26.66666666666666
 41
79.33333333333333
 76
     3
 10
193.3709670526641
 20
915.4301258041542
 30
0.0
 10
194.1849801818571
 20
979.4154669323312
 30
0.0
 10
206.1849801818571
 20
979.4154669323312
 30
0.0
340
4F3
1001
ACAD
1000
DSTYLE
1002
{
1070
    41
1040
12.0
1070
    42
1040
0.5
1070
    43
1040
0.5
1070
    44
1040
0.5
1070
    73
1070
     0
1070
    74
1070
     0
1070
    77
1070
     1
1070
   140
1040
20.0
1070
   147
1040
0.5
1070
   176
1070
     1
1070
   177
1070
     1
1070
   178
1070
     1
1070
   271
1070
     0
1070
   272
1070
     0
1070
   279
1070
     2
1070
   340
1005
23
1070
   341
1005
30F
1070
   342
1005
30F
1002
}
  0
MTEXT
  5
4F3
102
{ACAD_REACTORS
330
4F2
102
}
330
1E
100
AcDbEntity
  8
図面
  6
CONTINUOUS
 62
     1
100
AcDbMText
 10
206.6849801818571
 20
979.9154669323311
 30
0.0
 40
10.0
 41
0.0
 71
     7
 72
     1
  1
6-M16タップ\P　深サ25
  7
TextStyle01
 73
     1
 44
1.0
1001
ACAD
1000
MTEXTBEGIN
1070
    73
1070
     1
1070
    44
1040
1.0
1070
    74
1070
     0
1000
MTEXTEND
  0
LEADER
  5
4F4
330
1E
100
AcDbEntity
  8
図面
  6
CONTINUOUS
100
AcDbLeader
  3
Standard
 73
     0
 75
     1
 40
10.0
 41
100.6666666666666
 76
     3
 10
171.3709670526641
 20
791.4301258041542
 30
0.0
 10
142.9334972687623
 20
831.5340345924855
 30
0.0
 10
130.9334972687623
 20
831.5340345924855
 30
0.0
340
4F5
213
-9.722755202917767
223
0.0
233
0.0
1001
ACAD
1000
DSTYLE
1002
{
1070
    41
1040
12.0
1070
    42
1040
0.5
1070
    43
1040
0.5
1070
    44
1040
0.5
1070
    73
1070
     0
1070
    74
1070
     0
1070
    77
1070
     1
1070
   140
1040
20.0
1070
   147
1040
0.5
1070
   176
1070
     1
1070
   177
1070
     1
1070
   178
1070
     1
1070
   271
1070
     0
1070
   272
1070
     0
1070
   279
1070
     2
1070
   340
1005
23
1070
   341
1005
30F
1070
   342
1005
30F
1002
}
  0
MTEXT
  5
4F5
102
{ACAD_REACTORS
330
4F4
102
}
330
1E
100
AcDbEntity
  8
図面
  6
CONTINUOUS
 62
     1
100
AcDbMText
 10
140.1562524716801
 20
832.0340345924856
 30
0.0
 40
10.0
 41
0.0
 71
     9
 72
     1
  1
ﾎﾟｰﾄ口2-PT3/8
  7
TextStyle01
 73
     1
 44
1.0
1001
ACAD
1000
MTEXTBEGIN
1070
    73
1070
     1
1070
    44
1040
1.0
1070
    74
1070
     0
1000
MTEXTEND
  0
LINE
  5
51B
330
1E
100
AcDbEntity
  8
図面
  6
DASHDOT
100
AcDbLine
 10
853.8104114147257
 20
925.1801258041542
 30
0.0
 11
853.8104114147257
 21
951.4301258041543
 31
0.0
  0
LINE
  5
51C
330
1E
100
AcDbEntity
  8
図面
  6
DASHDOT
100
AcDbLine
 10
838.8104114147257
 20
936.4301258041543
 30
0.0
 11
867.6658588662339
 21
936.4301258041543
 31
0.0
  0
LINE
  5
51D
330
1E
100
AcDbEntity
  8
図面
  6
DASHDOT
100
AcDbLine
 10
1013.810411414725
 20
936.4301258041543
 30
0.0
 11
1038.810411414725
 21
936.4301258041543
 31
0.0
  0
LINE
  5
51E
330
1E
100
AcDbEntity
  8
図面
  6
DASHDOT
100
AcDbLine
 10
1023.810411414725
 20
925.1801258041545
 30
0.0
 11
1023.810411414725
 21
951.4301258041545
 31
0.0
  0
LINE
  5
51F
330
1E
100
AcDbEntity
  8
図面
  6
DASHDOT
100
AcDbLine
 10
838.8104114147257
 20
786.4301258041543
 30
0.0
 11
867.6658588662339
 21
786.4301258041543
 31
0.0
  0
LINE
  5
520
330
1E
100
AcDbEntity
  8
図面
  6
DASHDOT
100
AcDbLine
 10
853.8104114147257
 20
797.6801258041542
 30
0.0
 11
853.8104114147257
 21
771.4301258041542
 31
0.0
  0
LINE
  5
521
330
1E
100
AcDbEntity
  8
図面
  6
DASHDOT
100
AcDbLine
 10
1013.810411414725
 20
786.4301258041543
 30
0.0
 11
1038.810411414725
 21
786.4301258041543
 31
0.0
  0
LINE
  5
522
330
1E
100
AcDbEntity
  8
図面
  6
DASHDOT
100
AcDbLine
 10
1023.810411414725
 20
797.6801258041541
 30
0.0
 11
1023.810411414725
 21
771.430125804154
 31
0.0
  0
LEADER
  5
523
330
1E
100
AcDbEntity
  8
図面
  6
CONTINUOUS
100
AcDbLeader
  3
Standard
 73
     0
 74
     0
 75
     1
 40
20.0
 41
121.3333333333334
 76
     3
 10
1023.810411414725
 20
936.4301258041543
 30
0.0
 10
1072.264487195054
 20
982.3661883746222
 30
0.0
 10
1084.264487195054
 20
982.3661883746222
 30
0.0
340
524
1001
ACAD
1000
DSTYLE
1002
{
1070
    41
1040
12.0
1070
    42
1040
0.5
1070
    43
1040
0.5
1070
    44
1040
0.5
1070
    73
1070
     0
1070
    74
1070
     0
1070
    77
1070
     1
1070
   140
1040
20.0
1070
   147
1040
0.5
1070
   176
1070
     1
1070
   177
1070
     1
1070
   178
1070
     1
1070
   271
1070
     0
1070
   272
1070
     0
1070
   279
1070
     2
1070
   340
1005
23
1070
   341
1005
30F
1070
   342
1005
30F
1002
}
  0
MTEXT
  5
524
102
{ACAD_REACTORS
330
523
102
}
330
1E
100
AcDbEntity
  8
図面
  6
CONTINUOUS
 62
     1
100
AcDbMText
 10
1084.764487195054
 20
982.8661883746221
 30
0.0
 40
20.0
 41
0.0
 71
     7
 72
     1
  1
4-16キリ
  7
TextStyle01
 73
     1
 44
1.0
1001
ACAD
1000
MTEXTBEGIN
1070
    73
1070
     1
1070
    44
1040
1.0
1070
    74
1070
     0
1000
MTEXTEND
  0
MTEXT
  5
5D2
330
1E
100
AcDbEntity
  8
図面
  6
CONTINUOUS
100
AcDbMText
 10
626.5600001479315
 20
432.8824792813693
 30
0.0
 40
30.0
 41
806.6191084647188
 71
     1
 72
     5
  1
ローラーと下部アダプターを換えることにより\P37{\fArial|b0|i0|c0|p32;K}と50{\fArial|b0|i0|c0|p32;K}に対応可能
 73
     1
 44
1.0
1001
ACAD
1000
MTEXTBEGIN
1070
    73
1070
     1
1070
    44
1040
1.0
1070
    74
1070
     0
1000
MTEXTEND
  0
LINE
  5
D42
330
1E
100
AcDbEntity
  8
図面
  6
Continuous
100
AcDbLine
 10
165.7485724879461
 20
271.9465531901101
 30
0.0
 11
285.9993720061184
 21
271.9465531901101
 31
0.0
  0
LWPOLYLINE
  5
D43
330
1E
100
AcDbEntity
  8
図面
  6
Continuous
100
AcDbPolyline
 90
        4
 70
     1
 43
0.0
 10
165.7485724879461
 20
271.9465531901101
 10
165.7485724879461
 20
472.4167626738204
 10
405.3757641259421
 20
472.4167626738204
 10
405.3757641259421
 20
271.9465531901101
  0
LWPOLYLINE
  5
D44
330
1E
100
AcDbEntity
  8
図面
  6
Continuous
100
AcDbPolyline
 90
        4
 70
     0
 43
0.0
 10
430.0728415120306
 20
405.9447953099502
 10
430.0728415120306
 20
437.6980509897044
 10
564.1359377193066
 20
437.6980509897044
 10
564.126585197815
 20
405.9447953099502
  0
LINE
  5
D45
330
1E
100
AcDbEntity
  8
図面
  6
Continuous
100
AcDbLine
 10
430.1490986565386
 20
337.8037057073818
 30
0.0
 11
565.260734455001
 21
337.8037057073818
 31
0.0
  0
LINE
  5
D46
330
1E
100
AcDbEntity
  8
図面
  6
Continuous
100
AcDbLine
 10
430.0728415120306
 20
405.9447953099502
 30
0.0
 11
564.126585197815
 21
405.9447953099502
 31
0.0
  0
LINE
  5
D47
330
1E
100
AcDbEntity
  8
図面
  6
Continuous
100
AcDbLine
 10
545.0835021937304
 20
305.5835556764746
 30
0.0
 11
545.0835021937304
 21
337.8037057073818
 31
0.0
  0
LINE
  5
D48
330
1E
100
AcDbEntity
  8
図面
  6
Continuous
100
AcDbLine
 10
545.0835021937304
 20
405.9447953099502
 30
0.0
 11
545.0835021937304
 21
437.6980509897044
 31
0.0
  0
LWPOLYLINE
  5
D49
330
1E
100
AcDbEntity
  8
図面
  6
Continuous
100
AcDbPolyline
 90
        2
 70
     0
 43
0.0
 10
565.260734455001
 20
305.5835556764746
 10
430.1736948099046
 20
305.5835556764746
  0
LINE
  5
D4A
330
1E
100
AcDbEntity
  8
図面
  6
Continuous
100
AcDbLine
 10
430.1736948099046
 20
305.5835556764746
 30
0.0
 11
430.1490986565386
 21
337.8037057073818
 31
0.0
  0
LINE
  5
D4B
330
1E
100
AcDbEntity
  8
図面
  6
Continuous
100
AcDbLine
 10
564.1359377193066
 20
337.8037057073818
 30
0.0
 11
564.1359377193066
 21
305.5835556764746
 31
0.0
  0
LINE
  5
D4C
330
1E
100
AcDbEntity
  8
図面
  6
DASHDOT
100
AcDbLine
 10
205.588213948547
 20
372.0002737677082
 30
0.0
 11
450.4488476197106
 21
372.0002737677082
 31
0.0
  0
LWPOLYLINE
  5
D4D
330
1E
100
AcDbEntity
  8
図面
  6
Continuous
100
AcDbPolyline
 90
        4
 70
     1
 43
0.0
 10
405.3757641259421
 20
271.9465531901101
 10
405.3757641259421
 20
472.4167626738204
 10
424.0794125616962
 20
472.4167626738201
 10
424.2650807168497
 20
271.9465531901101
  0
LWPOLYLINE
  5
D4E
330
1E
100
AcDbEntity
  8
図面
  6
Continuous
100
AcDbPolyline
 90
        4
 70
     0
 43
0.0
 10
424.107575275218
 20
299.3116809118133
 10
424.107575275218
 20
299.3116809118133
 10
424.107575275218
 20
343.8021477073885
 10
424.107575275218
 20
343.8021477073885
  0
LINE
  5
D4F
330
1E
100
AcDbEntity
  8
図面
  6
Continuous
100
AcDbLine
 10
430.0728415120306
 20
438.1980509897044
 30
0.0
 11
430.0728415120306
 21
422.0526004186353
 31
0.0
  0
LWPOLYLINE
  5
D50
330
1E
100
AcDbEntity
  8
図面
  6
Continuous
100
AcDbPolyline
 90
        6
 70
     0
 43
0.0
 10
424.0794125616962
 20
399.2855453443685
 10
424.0794125616962
 20
399.2855453443685
 10
424.0794125616962
 20
399.2855453443685
 10
424.0794125616962
 20
443.7760121399437
 10
424.0794125616962
 20
443.7760121399437
 10
424.0794125616962
 20
443.7760121399437
  0
LWPOLYLINE
  5
D51
330
1E
100
AcDbEntity
  8
図面
  6
Continuous
100
AcDbPolyline
 90
        2
 70
     0
 43
0.0
 10
430.1490986565386
 20
337.8037057073818
 10
430.1736948099046
 20
305.5835556764746
  0
LWPOLYLINE
  5
D52
330
1E
100
AcDbEntity
  8
図面
  6
Continuous
100
AcDbPolyline
 90
        2
 70
     0
 43
0.0
 10
430.1414237724802
 20
438.1980503455093
 10
430.1411208166748
 20
405.9447953848864
  0
SPLINE
  5
D53
330
1E
100
AcDbEntity
  8
図面
  6
Continuous
100
AcDbSpline
210
0.0
220
0.0
230
1.0
 70
     8
 71
     3
 72
     9
 73
     5
 74
     3
 42
0.0000000001
 43
0.0000000001
 44
0.0000000001
 40
0.0
 40
0.0
 40
0.0
 40
0.0
 40
4.019489321505592
 40
9.22903387672083
 40
9.22903387672083
 40
9.22903387672083
 40
9.22903387672083
 10
424.107575275218
 20
299.3116809118133
 30
0.0
 10
425.4612873934152
 20
299.7217322133414
 30
0.0
 10
428.569506870781
 20
300.6632392184101
 30
0.0
 10
429.5948920847471
 20
303.8082695612327
 30
0.0
 10
430.1736948099046
 20
305.5835556764746
 30
0.0
 11
424.107575275218
 21
299.3116809118133
 31
0.0
 11
427.7736325882483
 21
300.959806569424
 31
0.0
 11
430.1736948099046
 21
305.5835556764746
 31
0.0
  0
SPLINE
  5
D54
330
1E
100
AcDbEntity
  8
図面
  6
Continuous
100
AcDbSpline
210
0.0
220
0.0
230
1.0
 70
     8
 71
     3
 72
     9
 73
     5
 74
     3
 42
0.0000000001
 43
0.0000000001
 44
0.0000000001
 40
0.0
 40
0.0
 40
0.0
 40
0.0
 40
4.578186477423784
 40
9.094534452184985
 40
9.094534452184985
 40
9.094534452184985
 40
9.094534452184985
 10
424.107575275218
 20
343.8021477073885
 30
0.0
 10
425.688716316951
 20
343.3641463807714
 30
0.0
 10
428.8296416044452
 20
342.494059901187
 30
0.0
 10
429.7112778747494
 20
339.3600538558433
 30
0.0
 10
430.1490986565386
 20
337.8037057073818
 30
0.0
 11
424.107575275218
 21
343.8021477073885
 31
0.0
 11
428.278468987774
 21
341.9144408814677
 31
0.0
 11
430.1490986565386
 21
337.8037057073818
 31
0.0
  0
SPLINE
  5
D55
330
1E
100
AcDbEntity
  8
図面
  6
Continuous
100
AcDbSpline
210
0.0
220
0.0
230
1.0
 70
     8
 71
     3
 72
     9
 73
     5
 74
     3
 42
0.0000000001
 43
0.0000000001
 44
0.0000000001
 40
0.0
 40
0.0
 40
0.0
 40
0.0
 40
4.599904471294845
 40
9.369370232457086
 40
9.369370232457086
 40
9.369370232457086
 40
9.369370232457086
 10
424.0794125616962
 20
399.2855453443685
 30
0.0
 10
425.5611169962308
 20
399.9194897211072
 30
0.0
 10
428.5791443289419
 20
401.2107468786231
 30
0.0
 10
429.5689713507598
 20
404.3478546625667
 30
0.0
 10
430.0728415120306
 20
405.9447953099502
 30
0.0
 11
424.0794125616962
 21
399.2855453443685
 31
0.0
 11
428.0356623019838
 21
401.6322897142377
 31
0.0
 11
430.0728415120306
 21
405.9447953099502
 31
0.0
  0
SPLINE
  5
D56
330
1E
100
AcDbEntity
  8
図面
  6
Continuous
100
AcDbSpline
210
0.0
220
0.0
230
1.0
 70
     8
 71
     3
 72
     9
 73
     5
 74
     3
 42
0.0000000001
 43
0.0000000001
 44
0.0000000001
 40
0.0
 40
0.0
 40
0.0
 40
0.0
 40
4.285430077647794
 40
8.579497050724457
 40
8.579497050724457
 40
8.579497050724457
 40
8.579497050724457
 10
424.0794125616962
 20
443.7760121399437
 30
0.0
 10
425.5135322453594
 20
443.3162960010071
 30
0.0
 10
428.3846619507653
 20
442.395937206974
 30
0.0
 10
429.5097374574541
 20
439.5982851850666
 30
0.0
 10
430.0728415120306
 20
438.1980509897044
 30
0.0
 11
424.0794125616962
 21
443.7760121399437
 31
0.0
 11
427.9461364884404
 21
441.9284848668699
 31
0.0
 11
430.0728415120306
 21
438.1980509897044
 31
0.0
  0
LINE
  5
D57
330
1E
100
AcDbEntity
  8
図面
  6
DASHDOT
100
AcDbLine
 10
591.9384311107878
 20
372.0550899498467
 30
0.0
 11
399.2921645732017
 21
372.0550899498467
 31
0.0
  0
LINE
  5
D58
330
1E
100
AcDbEntity
  8
図面
  6
DOT
100
AcDbLine
 10
496.7723854812404
 20
434.2392980035818
 30
0.0
 11
496.7723854812404
 21
422.2392980035817
 31
0.0
  0
LINE
  5
D59
330
1E
100
AcDbEntity
  8
図面
  6
DOT
100
AcDbLine
 10
496.7723854812404
 20
422.2392980035817
 30
0.0
 11
496.7723854812404
 21
434.2392980035818
 31
0.0
  0
LINE
  5
D5A
330
1E
100
AcDbEntity
  8
図面
  6
Continuous
100
AcDbLine
 10
518.7723854812404
 20
418.2392980035815
 30
0.0
 11
518.7723854812404
 21
422.2392980035817
 31
0.0
  0
LINE
  5
D5B
330
1E
100
AcDbEntity
  8
図面
  6
Continuous
100
AcDbLine
 10
518.7723854812404
 20
437.2392980035818
 30
0.0
 11
518.7723854812404
 21
434.2392980035818
 31
0.0
  0
LINE
  5
D5C
330
1E
100
AcDbEntity
  8
図面
  6
DOT
100
AcDbLine
 10
518.7723854812404
 20
326.2392980035816
 30
0.0
 11
518.7723854812406
 21
409.7392980035815
 31
0.0
  0
LINE
  5
D5D
330
1E
100
AcDbEntity
  8
図面
  6
DOT
100
AcDbLine
 10
496.7723854812404
 20
326.2392980035816
 30
0.0
 11
496.7723854812406
 21
409.7392980035815
 31
0.0
  0
LINE
  5
D5E
330
1E
100
AcDbEntity
  8
図面
  6
DOT
100
AcDbLine
 10
518.7723854812404
 20
310.2392980035816
 30
0.0
 11
518.7723854812404
 21
322.2392980035816
 31
0.0
  0
LINE
  5
D5F
330
1E
100
AcDbEntity
  8
図面
  6
DOT
100
AcDbLine
 10
496.7723854812404
 20
322.2392980035816
 30
0.0
 11
496.7723854812404
 21
310.2392980035816
 31
0.0
  0
LINE
  5
D60
330
1E
100
AcDbEntity
  8
図面
  6
DOT
100
AcDbLine
 10
518.7723854812404
 20
310.2392980035816
 30
0.0
 11
518.7723854812404
 21
322.2392980035816
 31
0.0
  0
LINE
  5
D61
330
1E
100
AcDbEntity
  8
図面
  6
DOT
100
AcDbLine
 10
496.7723854812404
 20
310.2392980035816
 30
0.0
 11
496.7723854812404
 21
322.2392980035816
 31
0.0
  0
LINE
  5
D62
330
1E
100
AcDbEntity
  8
図面
  6
Continuous
100
AcDbLine
 10
476.7723854812405
 20
337.8037057073818
 30
0.0
 11
476.7723854812405
 21
405.9447953099502
 31
0.0
  0
LINE
  5
D63
330
1E
100
AcDbEntity
  8
図面
  6
Continuous
100
AcDbLine
 10
536.7723854812404
 20
337.8037057073818
 30
0.0
 11
536.7723854812404
 21
405.9447953099502
 31
0.0
  0
LINE
  5
D64
330
1E
100
AcDbEntity
  8
レール
100
AcDbLine
 10
536.7723854812407
 20
346.5577804381228
 30
0.0
 11
536.7723854812404
 21
397.9208155690405
 31
0.0
  0
LINE
  5
D65
330
1E
100
AcDbEntity
  8
図面
  6
Continuous
100
AcDbLine
 10
405.3757641259421
 20
372.0550899498467
 30
0.0
 11
455.5370574866747
 21
372.0550899498467
 31
0.0
  0
ARC
  5
D66
330
1E
100
AcDbEntity
  8
図面
  6
Continuous
100
AcDbCircle
 10
165.7825643689498
 20
321.4240837845243
 30
0.0
 40
3.0
100
AcDbArc
 50
90.0
 51
180.0
  0
LINE
  5
D67
330
1E
100
AcDbEntity
  8
図面
  6
Continuous
100
AcDbLine
 10
162.7825643689498
 20
309.4240837845241
 30
0.0
 11
162.7825643689498
 21
321.4240837845243
 31
0.0
  0
ARC
  5
D68
330
1E
100
AcDbEntity
  8
図面
  6
Continuous
100
AcDbCircle
 10
165.7825643689498
 20
309.4240837845241
 30
0.0
 40
3.0
100
AcDbArc
 50
180.0
 51
270.0
  0
ARC
  5
D69
330
1E
100
AcDbEntity
  8
図面
  6
Continuous
100
AcDbCircle
 10
164.6578653968449
 20
423.3608260907226
 30
0.0
 40
3.0
100
AcDbArc
 50
180.0
 51
270.0
  0
ARC
  5
D6A
330
1E
100
AcDbEntity
  8
図面
  6
Continuous
100
AcDbCircle
 10
164.6578653968449
 20
435.3608260907231
 30
0.0
 40
3.0
100
AcDbArc
 50
90.0
 51
180.0
  0
LINE
  5
D6B
330
1E
100
AcDbEntity
  8
図面
  6
Continuous
100
AcDbLine
 10
164.6578653968449
 20
420.3608260907226
 30
0.0
 11
165.6578653968449
 21
420.3608260907226
 31
0.0
  0
LINE
  5
D6C
330
1E
100
AcDbEntity
  8
図面
  6
Continuous
100
AcDbLine
 10
165.6578653968449
 20
438.3608260907226
 30
0.0
 11
164.6578653968449
 21
438.3608260907226
 31
0.0
  0
LINE
  5
D6D
330
1E
100
AcDbEntity
  8
図面
  6
Continuous
100
AcDbLine
 10
161.6578653968449
 20
435.3608260907226
 30
0.0
 11
161.6578653968449
 21
423.3608260907226
 31
0.0
  0
LINE
  5
D6E
330
1E
100
AcDbEntity
  8
図面
  6
Continuous
100
AcDbLine
 10
92.77761762350246
 20
322.7958102807784
 30
0.0
 11
92.84286328187135
 21
308.3332385272354
 31
0.0
  0
LINE
  5
D6F
330
1E
100
AcDbEntity
  8
図面
  6
Continuous
100
AcDbLine
 10
124.7776176235024
 20
326.7958102807784
 30
0.0
 11
124.7776176235024
 21
322.7958102807784
 31
0.0
  0
LINE
  5
D70
330
1E
100
AcDbEntity
  8
図面
  6
DOT
100
AcDbLine
 10
124.7776176235024
 20
310.7958102807784
 30
0.0
 11
124.7776176235024
 21
322.7958102807784
 31
0.0
  0
LINE
  5
D71
330
1E
100
AcDbEntity
  8
図面
  6
DOT
100
AcDbLine
 10
124.7776176235024
 20
322.7958102807784
 30
0.0
 11
124.7776176235024
 21
310.7958102807784
 31
0.0
  0
LINE
  5
D72
330
1E
100
AcDbEntity
  8
図面
  6
Continuous
100
AcDbLine
 10
124.7776176235024
 20
308.3211483739401
 30
0.0
 11
124.7776176235024
 21
305.3211483739401
 31
0.0
  0
LINE
  5
D73
330
1E
100
AcDbEntity
  8
図面
  6
Continuous
100
AcDbLine
 10
102.7776176235024
 20
326.7958102807784
 30
0.0
 11
102.7776176235024
 21
322.7958102807784
 31
0.0
  0
LINE
  5
D74
330
1E
100
AcDbEntity
  8
図面
  6
DOT
100
AcDbLine
 10
102.7776176235024
 20
310.7958102807784
 30
0.0
 11
102.7776176235024
 21
322.7958102807784
 31
0.0
  0
LINE
  5
D75
330
1E
100
AcDbEntity
  8
図面
  6
DOT
100
AcDbLine
 10
102.7776176235024
 20
310.7958102807784
 30
0.0
 11
102.7776176235024
 21
322.7958102807784
 31
0.0
  0
LINE
  5
D76
330
1E
100
AcDbEntity
  8
図面
  6
Continuous
100
AcDbLine
 10
102.7776176235024
 20
305.3211483739401
 30
0.0
 11
102.7776176235024
 21
308.3211483739401
 31
0.0
  0
LINE
  5
D77
330
1E
100
AcDbEntity
  8
図面
  6
Continuous
100
AcDbLine
 10
124.7776176235024
 20
305.3211483739401
 30
0.0
 11
102.7776176235024
 21
305.3211483739401
 31
0.0
  0
LINE
  5
D78
330
1E
100
AcDbEntity
  8
図面
  6
Continuous
100
AcDbLine
 10
92.77761762350246
 20
322.7958102807784
 30
0.0
 11
163.1045439477389
 21
322.7958102807784
 31
0.0
  0
LINE
  5
D79
330
1E
100
AcDbEntity
  8
図面
  6
Continuous
100
AcDbLine
 10
163.1045439477384
 20
308.2945002736228
 30
0.0
 11
92.84286328187135
 21
308.3332385272354
 31
0.0
  0
LINE
  5
D7A
330
1E
100
AcDbEntity
  8
図面
  6
Continuous
100
AcDbLine
 10
151.7776176235024
 20
332.7958102807784
 30
0.0
 11
75.77761762350246
 21
332.7958102807784
 31
0.0
  0
LINE
  5
D7B
330
1E
100
AcDbEntity
  8
図面
  6
Continuous
100
AcDbLine
 10
151.7776176235024
 20
412.7958102807784
 30
0.0
 11
75.77761762350246
 21
412.7958102807784
 31
0.0
  0
LINE
  5
D7C
330
1E
100
AcDbEntity
  8
図面
  6
DOT
100
AcDbLine
 10
102.7776176235024
 20
418.7958102807783
 30
0.0
 11
102.7776176235024
 21
335.2958102807784
 31
0.0
  0
LINE
  5
D7D
330
1E
100
AcDbEntity
  8
図面
  6
DOT
100
AcDbLine
 10
124.7776176235024
 20
418.7958102807783
 30
0.0
 11
124.7776176235024
 21
335.2958102807784
 31
0.0
  0
LINE
  5
D7E
330
1E
100
AcDbEntity
  8
図面
  6
DOT
100
AcDbLine
 10
102.7776176235024
 20
434.7958102807783
 30
0.0
 11
102.7776176235024
 21
422.7958102807783
 31
0.0
  0
LINE
  5
D7F
330
1E
100
AcDbEntity
  8
図面
  6
DOT
100
AcDbLine
 10
124.7776176235024
 20
422.7958102807783
 30
0.0
 11
124.7776176235024
 21
434.7958102807783
 31
0.0
  0
LINE
  5
D80
330
1E
100
AcDbEntity
  8
図面
  6
DOT
100
AcDbLine
 10
102.7776176235024
 20
434.7958102807783
 30
0.0
 11
102.7776176235024
 21
422.7958102807783
 31
0.0
  0
LINE
  5
D81
330
1E
100
AcDbEntity
  8
図面
  6
DOT
100
AcDbLine
 10
124.7776176235024
 20
434.7958102807783
 30
0.0
 11
124.7776176235024
 21
422.7958102807783
 31
0.0
  0
LINE
  5
D82
330
1E
100
AcDbEntity
  8
図面
  6
Continuous
100
AcDbLine
 10
102.7776176235024
 20
418.7958102807783
 30
0.0
 11
102.7776176235024
 21
422.7958102807783
 31
0.0
  0
LINE
  5
D83
330
1E
100
AcDbEntity
  8
図面
  6
Continuous
100
AcDbLine
 10
124.7776176235024
 20
418.7958102807783
 30
0.0
 11
124.7776176235024
 21
422.7958102807783
 31
0.0
  0
LINE
  5
D84
330
1E
100
AcDbEntity
  8
図面
  6
Continuous
100
AcDbLine
 10
151.7776176235024
 20
332.7958102807784
 30
0.0
 11
144.7776176235024
 21
335.2958102807784
 31
0.0
  0
LINE
  5
D85
330
1E
100
AcDbEntity
  8
図面
  6
Continuous
100
AcDbLine
 10
151.7776176235024
 20
332.7958102807784
 30
0.0
 11
151.7776176235024
 21
326.7958102807784
 31
0.0
  0
LINE
  5
D86
330
1E
100
AcDbEntity
  8
図面
  6
Continuous
100
AcDbLine
 10
75.77761762350246
 20
332.7958102807784
 30
0.0
 11
84.77761762350246
 21
335.2958102807784
 31
0.0
  0
LINE
  5
D87
330
1E
100
AcDbEntity
  8
図面
  6
Continuous
100
AcDbLine
 10
75.77761762350246
 20
326.7958102807784
 30
0.0
 11
75.77761762350246
 21
332.7958102807784
 31
0.0
  0
LINE
  5
D88
330
1E
100
AcDbEntity
  8
図面
  6
Continuous
100
AcDbLine
 10
151.7776176235024
 20
326.7958102807784
 30
0.0
 11
75.77761762350246
 21
326.7958102807784
 31
0.0
  0
LINE
  5
D89
330
1E
100
AcDbEntity
  8
図面
  6
Continuous
100
AcDbLine
 10
144.7776176235024
 20
335.2958102807784
 30
0.0
 11
84.77761762350246
 21
335.2958102807784
 31
0.0
  0
LINE
  5
D8A
330
1E
100
AcDbEntity
  8
図面
  6
Continuous
100
AcDbLine
 10
144.7776176235024
 20
410.2958102807783
 30
0.0
 11
144.7776176235024
 21
335.2958102807784
 31
0.0
  0
LINE
  5
D8B
330
1E
100
AcDbEntity
  8
図面
  6
Continuous
100
AcDbLine
 10
151.7776176235024
 20
412.7958102807784
 30
0.0
 11
144.7776176235024
 21
410.2958102807783
 31
0.0
  0
LINE
  5
D8C
330
1E
100
AcDbEntity
  8
図面
  6
Continuous
100
AcDbLine
 10
144.7776176235024
 20
410.2958102807783
 30
0.0
 11
84.77761762350246
 21
410.2958102807783
 31
0.0
  0
LINE
  5
D8D
330
1E
100
AcDbEntity
  8
図面
  6
Continuous
100
AcDbLine
 10
75.77761762350246
 20
412.7958102807784
 30
0.0
 11
84.77761762350246
 21
410.2958102807783
 31
0.0
  0
LINE
  5
D8E
330
1E
100
AcDbEntity
  8
図面
  6
Continuous
100
AcDbLine
 10
75.77761762350246
 20
418.7958102807783
 30
0.0
 11
75.77761762350246
 21
412.7958102807784
 31
0.0
  0
LINE
  5
D8F
330
1E
100
AcDbEntity
  8
図面
  6
Continuous
100
AcDbLine
 10
151.7776176235024
 20
412.7958102807784
 30
0.0
 11
151.7776176235024
 21
418.7958102807783
 31
0.0
  0
LINE
  5
D90
330
1E
100
AcDbEntity
  8
図面
  6
Continuous
100
AcDbLine
 10
151.7776176235024
 20
418.7958102807783
 30
0.0
 11
75.77761762350246
 21
418.7958102807783
 31
0.0
  0
LINE
  5
D91
330
1E
100
AcDbEntity
  8
図面
  6
Continuous
100
AcDbLine
 10
102.7776176235024
 20
439.0073533592481
 30
0.0
 11
102.7776176235024
 21
436.0073533592481
 31
0.0
  0
LINE
  5
D92
330
1E
100
AcDbEntity
  8
図面
  6
Continuous
100
AcDbLine
 10
124.7776176235024
 20
439.0073533592481
 30
0.0
 11
102.7776176235024
 21
439.0073533592481
 31
0.0
  0
LINE
  5
D93
330
1E
100
AcDbEntity
  8
図面
  6
Continuous
100
AcDbLine
 10
124.7776176235024
 20
436.0073533592481
 30
0.0
 11
124.7776176235024
 21
439.0073533592481
 31
0.0
  0
LINE
  5
D94
330
1E
100
AcDbEntity
  8
図面
  6
Continuous
100
AcDbLine
 10
92.77761762350246
 20
422.7958102807783
 30
0.0
 11
161.6983736466577
 21
422.7958102807786
 31
0.0
  0
LINE
  5
D95
330
1E
100
AcDbEntity
  8
図面
  6
Continuous
100
AcDbLine
 10
92.77761762350293
 20
436.0215884189415
 30
0.0
 11
92.77761762350246
 21
422.7958102807783
 31
0.0
  0
LINE
  5
D96
330
1E
100
AcDbEntity
  8
図面
  6
Continuous
100
AcDbLine
 10
161.6983736466582
 20
435.9491933816371
 30
0.0
 11
92.77761762350293
 21
436.0215884189415
 31
0.0
  0
LINE
  5
D97
330
1E
100
AcDbEntity
  8
図面
  6
Continuous
100
AcDbLine
 10
84.77761762350246
 20
410.2958102807783
 30
0.0
 11
84.77761762350246
 21
335.2958102807784
 31
0.0
  0
LINE
  5
D98
330
1E
100
AcDbEntity
  8
図面
  6
DASHDOT
100
AcDbLine
 10
226.3049680901909
 20
372.2050678853516
 30
0.0
 11
31.25052117839095
 21
372.2050678853516
 31
0.0
  0
CIRCLE
  5
D99
330
1E
100
AcDbEntity
  8
図面
  6
Continuous
100
AcDbCircle
 10
286.1191689568636
 20
372.0002737677085
 30
0.0
 40
82.5
  0
CIRCLE
  5
D9A
330
1E
100
AcDbEntity
  8
図面
  6
Continuous
100
AcDbCircle
 10
286.1191689568636
 20
372.0002737677085
 30
0.0
 40
82.0
  0
CIRCLE
  5
D9B
330
1E
100
AcDbEntity
  8
図面
100
AcDbCircle
 10
286.1191689568636
 20
372.0002737677085
 30
0.0
 40
60.0
  0
CIRCLE
  5
D9C
330
1E
100
AcDbEntity
  8
図面
  6
Continuous
100
AcDbCircle
 10
286.1191689568636
 20
312.0002737677085
 30
0.0
 40
4.0
  0
CIRCLE
  5
D9D
330
1E
100
AcDbEntity
  8
図面
  6
Continuous
100
AcDbCircle
 10
226.1191689568637
 20
372.0002737677085
 30
0.0
 40
4.0
  0
CIRCLE
  5
D9E
330
1E
100
AcDbEntity
  8
図面
  6
Continuous
100
AcDbCircle
 10
286.1191689568636
 20
432.0002737677084
 30
0.0
 40
4.0
  0
CIRCLE
  5
D9F
330
1E
100
AcDbEntity
  8
図面
  6
Continuous
100
AcDbCircle
 10
346.1191689568636
 20
372.0002737677085
 30
0.0
 40
4.0
  0
CIRCLE
  5
DA0
330
1E
100
AcDbEntity
  8
図面
  6
Continuous
100
AcDbCircle
 10
286.1191689568636
 20
454.0002737677084
 30
0.0
 40
2.5
  0
LINE
  5
DA1
330
1E
100
AcDbEntity
  8
図面
  6
Continuous
100
AcDbLine
 10
165.6578653968449
 20
438.3608260907226
 30
0.0
 11
165.7825643689498
 21
306.4240837845241
 31
0.0
  0
DIMENSION
  5
DA2
330
1E
100
AcDbEntity
  8
図面
  6
Continuous
100
AcDbDimension
  2
*D22
 10
405.3757641259421
 20
505.583398574573
 30
0.0
 11
285.5621683069442
 21
516.083398574573
 31
0.0
 70
    32
 71
     5
 42
239.627191637996
  3
Standard
100
AcDbAlignedDimension
 13
165.7485724879461
 23
472.4167626738204
 33
0.0
 14
405.3757641259421
 24
472.4167626738204
 34
0.0
100
AcDbRotatedDimension
1001
ACAD
1000
DSTYLE
1002
{
1070
    41
1040
12.0
1070
    42
1040
0.5
1070
    43
1040
0.5
1070
    44
1040
0.5
1070
    73
1070
     0
1070
    74
1070
     0
1070
    77
1070
     1
1070
   140
1040
20.0
1070
   147
1040
0.5
1070
   176
1070
     1
1070
   177
1070
     1
1070
   178
1070
     1
1070
   271
1070
     0
1070
   272
1070
     0
1070
   279
1070
     2
1070
   340
1005
23
1070
   341
1005
30F
1070
   342
1005
30F
1002
}
  0
DIMENSION
  5
DA3
330
1E
100
AcDbEntity
  8
図面
  6
Continuous
100
AcDbDimension
  2
*D23
 10
31.25052117839095
 20
326.7958102807784
 30
0.0
 11
20.7505211783909
 21
372.7958102807784
 31
0.0
 70
    32
 71
     5
 42
92.0
  3
Standard
100
AcDbAlignedDimension
 13
74.23649525296287
 23
418.7958102807783
 33
0.0
 14
74.23649525296287
 24
326.7958102807784
 34
0.0
 50
90.0
100
AcDbRotatedDimension
1001
ACAD
1000
DSTYLE
1002
{
1070
    41
1040
12.0
1070
    42
1040
0.5
1070
    43
1040
0.5
1070
    44
1040
0.5
1070
    73
1070
     0
1070
    74
1070
     0
1070
    77
1070
     1
1070
   140
1040
20.0
1070
   147
1040
0.5
1070
   176
1070
     1
1070
   177
1070
     1
1070
   178
1070
     1
1070
   271
1070
     0
1070
   272
1070
     0
1070
   279
1070
     2
1070
   340
1005
23
1070
   341
1005
30F
1070
   342
1005
30F
1002
}
  0
DIMENSION
  5
DE1
330
1E
100
AcDbEntity
  8
図面
  6
CONTINUOUS
100
AcDbDimension
  2
*D24
 10
564.1359377193066
 20
161.2950577639176
 30
0.0
 11
319.9567776714046
 21
171.7950577639176
 31
0.0
 70
    32
 71
     5
 42
488.3583200958041
  3
Standard
100
AcDbAlignedDimension
 13
75.77761762350245
 23
282.937396850918
 33
0.0
 14
564.1359377193066
 24
274.4884579967238
 34
0.0
100
AcDbRotatedDimension
1001
ACAD
1000
DSTYLE
1002
{
1070
    41
1040
12.0
1070
    42
1040
0.5
1070
    43
1040
0.5
1070
    44
1040
0.5
1070
    73
1070
     0
1070
    74
1070
     0
1070
    77
1070
     1
1070
   140
1040
20.0
1070
   147
1040
0.5
1070
   176
1070
     1
1070
   177
1070
     1
1070
   178
1070
     1
1070
   271
1070
     0
1070
   272
1070
     0
1070
   279
1070
     2
1070
   340
1005
23
1070
   341
1005
30F
1070
   342
1005
30F
1002
}
  0
ENDSEC
  0
SECTION
  2
OBJECTS
  0
DICTIONARY
  5
C
330
0
100
AcDbDictionary
281
     1
  3
ACAD_COLOR
350
536
  3
ACAD_GROUP
350
D
  3
ACAD_LAYOUT
350
19
  3
ACAD_MATERIAL
350
535
  3
ACAD_MLEADERSTYLE
350
59B
  3
ACAD_MLINESTYLE
350
16
  3
ACAD_PLOTSETTINGS
350
18
  3
ACAD_PLOTSTYLENAME
350
E
  3
ACAD_SCALELIST
350
579
  3
ACAD_TABLESTYLE
350
577
  3
ACAD_VISUALSTYLE
350
566
  3
AcadDim
350
4F1
  3
ACDB_RECOMPOSE_DATA
350
5B0
  3
ACDBHEADERROUNDTRIPXREC
350
E1B
  3
AcDbVariableDictionary
350
54A
  3
DWGPROPS
350
E1A
  0
DICTIONARY
  5
5B2
330
8
100
AcDbDictionary
280
     1
281
     1
  3
ACAD_XREC_ROUNDTRIP
360
5B3
  0
DICTIONARY
  5
5A2
330
10
100
AcDbDictionary
280
     1
281
     1
  3
ACAD_XREC_ROUNDTRIP
360
5B4
  3
ADSK_XREC_LAYER_RECONCILED
360
5A3
  0
DICTIONARY
  5
5A4
330
42
100
AcDbDictionary
280
     1
281
     1
  3
ACAD_XREC_ROUNDTRIP
360
5B9
  3
ADSK_XREC_LAYER_RECONCILED
360
5A5
  0
DICTIONARY
  5
5BA
330
4C
100
AcDbDictionary
280
     1
281
     1
  3
ACAD_XREC_ROUNDTRIP
360
5BB
  0
DICTIONARY
  5
5A6
330
16B
100
AcDbDictionary
280
     1
281
     1
  3
ACAD_XREC_ROUNDTRIP
360
5BC
  3
ADSK_XREC_LAYER_RECONCILED
360
5A7
  0
DICTIONARY
  5
5A8
330
16C
100
AcDbDictionary
280
     1
281
     1
  3
ACAD_XREC_ROUNDTRIP
360
5BD
  3
ADSK_XREC_LAYER_RECONCILED
360
5A9
  0
DICTIONARY
  5
5AA
330
1AB
100
AcDbDictionary
280
     1
281
     1
  3
ACAD_XREC_ROUNDTRIP
360
5BE
  3
ADSK_XREC_LAYER_RECONCILED
360
5AB
  0
DICTIONARY
  5
5AC
330
1CD
100
AcDbDictionary
280
     1
281
     1
  3
ACAD_XREC_ROUNDTRIP
360
5BF
  3
ADSK_XREC_LAYER_RECONCILED
360
5AD
  0
DICTIONARY
  5
5C0
330
316
100
AcDbDictionary
280
     1
281
     1
  3
ACAD_XREC_ROUNDTRIP
360
5C1
  0
DICTIONARY
  5
536
102
{ACAD_REACTORS
330
C
102
}
330
C
100
AcDbDictionary
281
     1
  0
DICTIONARY
  5
D
102
{ACAD_REACTORS
330
C
102
}
330
C
100
AcDbDictionary
281
     1
  0
DICTIONARY
  5
19
102
{ACAD_REACTORS
330
C
102
}
330
C
100
AcDbDictionary
281
     1
  3
Model
350
21
  3
ﾚｲｱｳﾄ1
350
1D
  0
DICTIONARY
  5
535
102
{ACAD_REACTORS
330
C
102
}
330
C
100
AcDbDictionary
281
     1
  3
ByBlock
350
556
  3
ByLayer
350
54E
  3
Global
350
55E
  0
DICTIONARY
  5
59B
102
{ACAD_REACTORS
330
C
102
}
330
C
100
AcDbDictionary
281
     1
  3
Standard
350
59C
  0
DICTIONARY
  5
16
102
{ACAD_REACTORS
330
C
102
}
330
C
100
AcDbDictionary
281
     1
  3
Standard
350
17
  0
DICTIONARY
  5
18
102
{ACAD_REACTORS
330
C
102
}
330
C
100
AcDbDictionary
281
     1
  0
ACDBDICTIONARYWDFLT
  5
E
102
{ACAD_REACTORS
330
C
102
}
330
C
100
AcDbDictionary
281
     1
  3
Normal
350
F
100
AcDbDictionaryWithDefault
340
F
  0
DICTIONARY
  5
579
102
{ACAD_REACTORS
330
C
102
}
330
C
100
AcDbDictionary
281
     1
  3
A0
350
57A
  3
A1
350
57B
  3
A2
350
57C
  3
A3
350
57D
  3
A4
350
57E
  3
A5
350
57F
  3
A6
350
580
  3
A7
350
581
  3
A8
350
582
  3
A9
350
583
  3
B0
350
584
  3
B1
350
585
  3
B2
350
586
  3
B3
350
587
  3
B4
350
588
  3
B5
350
589
  3
B6
350
58A
  3
B7
350
58B
  3
B8
350
58C
  3
B9
350
58D
  3
C0
350
58E
  3
C1
350
58F
  3
C2
350
590
  3
C3
350
591
  3
C4
350
592
  3
C5
350
593
  3
C6
350
594
  3
C7
350
595
  3
C8
350
596
  3
C9
350
597
  3
D0
350
598
  3
D1
350
599
  3
D2
350
59A
  0
DICTIONARY
  5
577
102
{ACAD_REACTORS
330
C
102
}
330
C
100
AcDbDictionary
281
     1
  3
Standard
350
578
  0
DICTIONARY
  5
566
102
{ACAD_REACTORS
330
C
102
}
330
C
100
AcDbDictionary
281
     1
  3
2dWireframe
350
56C
  3
3D Hidden
350
56E
  3
3dWireframe
350
56D
  3
Basic
350
56B
  3
Brighten
350
572
  3
ColorChange
350
576
  3
Conceptual
350
56F
  3
Dim
350
571
  3
Facepattern
350
575
  3
Flat
350
567
  3
FlatWithEdges
350
568
  3
Gouraud
350
569
  3
GouraudWithEdges
350
56A
  3
Linepattern
350
574
  3
Realistic
350
570
  3
Thicken
350
573
  0
XRECORD
  5
4F1
102
{ACAD_REACTORS
330
C
102
}
330
C
100
AcDbXrecord
280
     1
 90
   990106
  3

 60
     0
 61
     0
 62
     1
 63
     2
 64
     1
 65
     0
 66
     0
 67
     3
 68
     1
 69
     0
 70
     0
 71
     0
 72
     0
 40
0.0
170
     1
340
524
  0
XRECORD
  5
5B0
102
{ACAD_REACTORS
330
C
102
}
330
C
100
AcDbXrecord
280
     1
 90
        1
330
578
  0
DICTIONARY
  5
E1B
102
{ACAD_REACTORS
330
C
102
}
330
C
100
AcDbDictionary
281
     1
  3
COLORDICT
350
E1D
  3
MATERIALDICT
350
E1C
  0
DICTIONARY
  5
54A
102
{ACAD_REACTORS
330
C
102
}
330
C
100
AcDbDictionary
281
     1
  3
CANNOSCALE
350
5CA
  3
CMLEADERSTYLE
350
5C9
  3
CTABLESTYLE
350
5C8
  3
DIMASSOC
350
54B
  3
INDEXCTL
350
5CC
  3
PROJECTNAME
350
54C
  3
SORTENTS
350
5CB
  0
XRECORD
  5
E1A
102
{ACAD_REACTORS
330
C
102
}
330
C
100
AcDbXrecord
280
     1
  1
DWGPROPS COOKIE
  2

  3

  4

  6

  7

  8
KYS004
  9

300
=
301
=
302
=
303
=
304
=
305
=
306
=
307
=
308
=
309
=
 40
1.225205821759259
 41
2449944.925517361
 42
2455342.830250104
  1

 90
        0
  0
XRECORD
  5
5B3
102
{ACAD_REACTORS
330
5B2
102
}
330
5B2
100
AcDbXrecord
280
     1
102
VTR_0.000_0.000_1.000_1.000_VISUALSTYLE
340
56C
102
VTR_0.000_0.000_1.000_1.000_GRIDDISPLAY
 70
     3
102
VTR_0.000_0.000_1.000_1.000_GRIDMAJOR
 70
     5
102
VTR_0.000_0.000_1.000_1.000_DEFAULTLIGHTING
280
     1
102
VTR_0.000_0.000_1.000_1.000_DEFAULTLIGHTINGTYPE
 70
     1
102
VTR_0.000_0.000_1.000_1.000_BRIGHTNESS
141
0.0
102
VTR_0.000_0.000_1.000_1.000_CONTRAST
142
0.0
  0
XRECORD
  5
5B4
102
{ACAD_REACTORS
330
5A2
102
}
330
5A2
100
AcDbXrecord
280
     1
102
MATERIAL
340
55E
  0
XRECORD
  5
5A3
102
{ACAD_REACTORS
330
5A2
102
}
330
5A2
100
AcDbXrecord
280
     1
290
     1
  0
XRECORD
  5
5B9
102
{ACAD_REACTORS
330
5A4
102
}
330
5A4
100
AcDbXrecord
280
     1
102
MATERIAL
340
55E
  0
XRECORD
  5
5A5
102
{ACAD_REACTORS
330
5A4
102
}
330
5A4
100
AcDbXrecord
280
     1
290
     1
  0
XRECORD
  5
5BB
102
{ACAD_REACTORS
330
5BA
102
}
330
5BA
100
AcDbXrecord
280
     1
102
MATERIAL
340
55E
  0
XRECORD
  5
5BC
102
{ACAD_REACTORS
330
5A6
102
}
330
5A6
100
AcDbXrecord
280
     1
102
MATERIAL
340
55E
  0
XRECORD
  5
5A7
102
{ACAD_REACTORS
330
5A6
102
}
330
5A6
100
AcDbXrecord
280
     1
290
     1
  0
XRECORD
  5
5BD
102
{ACAD_REACTORS
330
5A8
102
}
330
5A8
100
AcDbXrecord
280
     1
102
MATERIAL
340
55E
  0
XRECORD
  5
5A9
102
{ACAD_REACTORS
330
5A8
102
}
330
5A8
100
AcDbXrecord
280
     1
290
     1
  0
XRECORD
  5
5BE
102
{ACAD_REACTORS
330
5AA
102
}
330
5AA
100
AcDbXrecord
280
     1
102
MATERIAL
340
55E
  0
XRECORD
  5
5AB
102
{ACAD_REACTORS
330
5AA
102
}
330
5AA
100
AcDbXrecord
280
     1
290
     1
  0
XRECORD
  5
5BF
102
{ACAD_REACTORS
330
5AC
102
}
330
5AC
100
AcDbXrecord
280
     1
102
MATERIAL
340
55E
  0
XRECORD
  5
5AD
102
{ACAD_REACTORS
330
5AC
102
}
330
5AC
100
AcDbXrecord
280
     1
290
     1
  0
XRECORD
  5
5C1
102
{ACAD_REACTORS
330
5C0
102
}
330
5C0
100
AcDbXrecord
280
     1
102
MATERIAL
340
55E
  0
LAYOUT
  5
21
102
{ACAD_XDICTIONARY
360
E20
102
}
102
{ACAD_REACTORS
330
19
102
}
330
19
100
AcDbPlotSettings
  1

  2
倉庫プリンタ.pc3
  4
A3
  6

 40
5.873749732971191
 41
5.873747825622558
 42
5.873748779296875
 43
5.873748779296875
 44
296.9259948730469
 45
419.9466552734374
 46
0.0
 47
2.459999999999999
 48
-210.0
 49
-148.5
140
210.0
141
148.5
142
1.0
143
1.041452997999771
 70
 11956
 72
     1
 73
     1
 74
     4
  7

 75
     0
147
0.9601969574436996
148
210.0
149
148.5
100
AcDbLayout
  1
Model
 70
     1
 71
     0
 10
0.0
 20
0.0
 11
12.0
 21
9.0
 12
0.0
 22
0.0
 32
0.0
 14
0.0
 24
0.0
 34
0.0
 15
0.0
 25
0.0
 35
0.0
146
0.0
 13
0.0
 23
0.0
 33
0.0
 16
1.0
 26
0.0
 36
0.0
 17
0.0
 27
1.0
 37
0.0
 76
     0
330
1E
  0
LAYOUT
  5
1D
102
{ACAD_XDICTIONARY
360
E1E
102
}
102
{ACAD_REACTORS
330
19
102
}
330
19
100
AcDbPlotSettings
  1

  2
なし
  4

  6

 40
0.0
 41
0.0
 42
0.0
 43
0.0
 44
0.0
 45
0.0
 46
0.0
 47
0.0
 48
0.0
 49
0.0
140
0.0
141
0.0
142
1.0
143
1.0
 70
   688
 72
     0
 73
     0
 74
     5
  7

 75
    16
147
1.0
148
0.0
149
0.0
100
AcDbLayout
  1
ﾚｲｱｳﾄ1
 70
     1
 71
     1
 10
0.0
 20
0.0
 11
12.0
 21
9.0
 12
0.0
 22
0.0
 32
0.0
 14
1.000000000000000E+20
 24
1.000000000000000E+20
 34
1.000000000000000E+20
 15
-1.000000000000000E+20
 25
-1.000000000000000E+20
 35
-1.000000000000000E+20
146
0.0
 13
0.0
 23
0.0
 33
0.0
 16
1.0
 26
0.0
 36
0.0
 17
0.0
 27
1.0
 37
0.0
 76
     0
330
1A
  0
MATERIAL
  5
556
102
{ACAD_XDICTIONARY
360
557
102
}
102
{ACAD_REACTORS
330
535
102
}
330
535
100
AcDbMaterial
  1
ByBlock
 72
     0
 73
     2
 43
0.0208333333333333
 43
0.0
 43
0.0
 43
0.0
 43
0.0
 43
0.0208333333333333
 43
0.0
 43
0.0
 43
0.0
 43
0.0
 43
1.0
 43
0.0
 43
0.0
 43
0.0
 43
0.0
 43
1.0
 77
     0
 78
     2
 47
0.0208333333333333
 47
0.0
 47
0.0
 47
0.0
 47
0.0
 47
0.0208333333333333
 47
0.0
 47
0.0
 47
0.0
 47
0.0
 47
1.0
 47
0.0
 47
0.0
 47
0.0
 47
0.0
 47
1.0
171
     0
172
     2
 49
0.0208333333333333
 49
0.0
 49
0.0
 49
0.0
 49
0.0
 49
0.0208333333333333
 49
0.0
 49
0.0
 49
0.0
 49
0.0
 49
1.0
 49
0.0
 49
0.0
 49
0.0
 49
0.0
 49
1.0
175
     0
176
     2
142
0.0208333333333333
142
0.0
142
0.0
142
0.0
142
0.0
142
0.0208333333333333
142
0.0
142
0.0
142
0.0
142
0.0
142
1.0
142
0.0
142
0.0
142
0.0
142
0.0
142
1.0
179
     0
270
     2
144
0.0208333333333333
144
0.0
144
0.0
144
0.0
144
0.0
144
0.0208333333333333
144
0.0
144
0.0
144
0.0
144
0.0
144
1.0
144
0.0
144
0.0
144
0.0
144
0.0
144
1.0
274
     2
147
0.0208333333333333
147
0.0
147
0.0
147
0.0
147
0.0
147
0.0208333333333333
147
0.0
147
0.0
147
0.0
147
0.0
147
1.0
147
0.0
147
0.0
147
0.0
147
0.0
147
1.0
  0
MATERIAL
  5
54E
102
{ACAD_XDICTIONARY
360
54F
102
}
102
{ACAD_REACTORS
330
535
102
}
330
535
100
AcDbMaterial
  1
ByLayer
 72
     0
 73
     2
 43
0.0208333333333333
 43
0.0
 43
0.0
 43
0.0
 43
0.0
 43
0.0208333333333333
 43
0.0
 43
0.0
 43
0.0
 43
0.0
 43
1.0
 43
0.0
 43
0.0
 43
0.0
 43
0.0
 43
1.0
 77
     0
 78
     2
 47
0.0208333333333333
 47
0.0
 47
0.0
 47
0.0
 47
0.0
 47
0.0208333333333333
 47
0.0
 47
0.0
 47
0.0
 47
0.0
 47
1.0
 47
0.0
 47
0.0
 47
0.0
 47
0.0
 47
1.0
171
     0
172
     2
 49
0.0208333333333333
 49
0.0
 49
0.0
 49
0.0
 49
0.0
 49
0.0208333333333333
 49
0.0
 49
0.0
 49
0.0
 49
0.0
 49
1.0
 49
0.0
 49
0.0
 49
0.0
 49
0.0
 49
1.0
175
     0
176
     2
142
0.0208333333333333
142
0.0
142
0.0
142
0.0
142
0.0
142
0.0208333333333333
142
0.0
142
0.0
142
0.0
142
0.0
142
1.0
142
0.0
142
0.0
142
0.0
142
0.0
142
1.0
179
     0
270
     2
144
0.0208333333333333
144
0.0
144
0.0
144
0.0
144
0.0
144
0.0208333333333333
144
0.0
144
0.0
144
0.0
144
0.0
144
1.0
144
0.0
144
0.0
144
0.0
144
0.0
144
1.0
274
     2
147
0.0208333333333333
147
0.0
147
0.0
147
0.0
147
0.0
147
0.0208333333333333
147
0.0
147
0.0
147
0.0
147
0.0
147
1.0
147
0.0
147
0.0
147
0.0
147
0.0
147
1.0
  0
MATERIAL
  5
55E
102
{ACAD_XDICTIONARY
360
55F
102
}
102
{ACAD_REACTORS
330
535
102
}
330
535
100
AcDbMaterial
  1
Global
 72
     0
 73
     2
 43
0.0208333333333333
 43
0.0
 43
0.0
 43
0.0
 43
0.0
 43
0.0208333333333333
 43
0.0
 43
0.0
 43
0.0
 43
0.0
 43
1.0
 43
0.0
 43
0.0
 43
0.0
 43
0.0
 43
1.0
 77
     0
 78
     2
 47
0.0208333333333333
 47
0.0
 47
0.0
 47
0.0
 47
0.0
 47
0.0208333333333333
 47
0.0
 47
0.0
 47
0.0
 47
0.0
 47
1.0
 47
0.0
 47
0.0
 47
0.0
 47
0.0
 47
1.0
171
     0
172
     2
 49
0.0208333333333333
 49
0.0
 49
0.0
 49
0.0
 49
0.0
 49
0.0208333333333333
 49
0.0
 49
0.0
 49
0.0
 49
0.0
 49
1.0
 49
0.0
 49
0.0
 49
0.0
 49
0.0
 49
1.0
175
     0
176
     2
142
0.0208333333333333
142
0.0
142
0.0
142
0.0
142
0.0
142
0.0208333333333333
142
0.0
142
0.0
142
0.0
142
0.0
142
1.0
142
0.0
142
0.0
142
0.0
142
0.0
142
1.0
179
     0
270
     2
144
0.0208333333333333
144
0.0
144
0.0
144
0.0
144
0.0
144
0.0208333333333333
144
0.0
144
0.0
144
0.0
144
0.0
144
1.0
144
0.0
144
0.0
144
0.0
144
0.0
144
1.0
274
     2
147
0.0208333333333333
147
0.0
147
0.0
147
0.0
147
0.0
147
0.0208333333333333
147
0.0
147
0.0
147
0.0
147
0.0
147
1.0
147
0.0
147
0.0
147
0.0
147
0.0
147
1.0
  0
ACAD_PROXY_OBJECT
  5
59C
102
{ACAD_REACTORS
330
59B
102
}
330
59B
100
AcDbProxyObject
 90
      499
 91
      508
 95
   983063
 70
     0
 93
      618
310
40901902A4063FBFFFFFE056BD1B81E855B9FC0AD7A3703D0AD73F4254DD185B99185C990000AD7A3703D0AC73F90141901A02B5E8DC0F42B1CFC02B5E8DC0F42B1CFE5764000000000000300FC6
340
13
340
0
340
11
340
0
 94
        0
1001
ACAD_MLEADERVER
1070
     2
1001
ACAD
1000
AcRTDxfName
1000
MLEADERSTYLE
  0
MLINESTYLE
  5
17
102
{ACAD_REACTORS
330
16
102
}
330
16
100
AcDbMlineStyle
  2
STANDARD
 70
     0
  3

 62
   256
 51
90.0
 52
90.0
 71
     2
 49
0.5
 62
   256
  6
BYLAYER
 49
-0.5
 62
   256
  6
BYLAYER
  0
ACDBPLACEHOLDER
  5
F
102
{ACAD_REACTORS
330
E
102
}
330
E
  0
ACAD_PROXY_OBJECT
  5
57A
102
{ACAD_REACTORS
330
579
102
}
330
579
100
AcDbProxyObject
 90
      499
 91
      507
 95
   983063
 70
     0
 93
       49
310
904313A3100588
 94
        0
1001
ACAD
1000
AcRTDxfName
1000
SCALE
  0
ACAD_PROXY_OBJECT
  5
57B
102
{ACAD_REACTORS
330
579
102
}
330
579
100
AcDbProxyObject
 90
      499
 91
      507
 95
   983063
 70
     0
 93
      113
310
904313A32004000000000000004013
 94
        0
1001
ACAD
1000
AcRTDxfName
1000
SCALE
  0
ACAD_PROXY_OBJECT
  5
57C
102
{ACAD_REACTORS
330
579
102
}
330
579
100
AcDbProxyObject
 90
      499
 91
      507
 95
   983063
 70
     0
 93
      113
310
904313A3400400000000000010400C
 94
        0
1001
ACAD
1000
AcRTDxfName
1000
SCALE
  0
ACAD_PROXY_OBJECT
  5
57D
102
{ACAD_REACTORS
330
579
102
}
330
579
100
AcDbProxyObject
 90
      499
 91
      507
 95
   983063
 70
     0
 93
      113
310
904313A35004000000000000144013
 94
        0
1001
ACAD
1000
AcRTDxfName
1000
SCALE
  0
ACAD_PROXY_OBJECT
  5
57E
102
{ACAD_REACTORS
330
579
102
}
330
579
100
AcDbProxyObject
 90
      499
 91
      507
 95
   983063
 70
     0
 93
      113
310
904313A3800400000000000020400C
 94
        0
1001
ACAD
1000
AcRTDxfName
1000
SCALE
  0
ACAD_PROXY_OBJECT
  5
57F
102
{ACAD_REACTORS
330
579
102
}
330
579
100
AcDbProxyObject
 90
      499
 91
      507
 95
   983063
 70
     0
 93
      121
310
905313A3130004000000000000244023
 94
        0
1001
ACAD
1000
AcRTDxfName
1000
SCALE
  0
ACAD_PROXY_OBJECT
  5
580
102
{ACAD_REACTORS
330
579
102
}
330
579
100
AcDbProxyObject
 90
      499
 91
      507
 95
   983063
 70
     0
 93
      121
310
905313A3136004000000000000304040
 94
        0
1001
ACAD
1000
AcRTDxfName
1000
SCALE
  0
ACAD_PROXY_OBJECT
  5
581
102
{ACAD_REACTORS
330
579
102
}
330
579
100
AcDbProxyObject
 90
      499
 91
      507
 95
   983063
 70
     0
 93
      121
310
905313A3230004000000000000344023
 94
        0
1001
ACAD
1000
AcRTDxfName
1000
SCALE
  0
ACAD_PROXY_OBJECT
  5
582
102
{ACAD_REACTORS
330
579
102
}
330
579
100
AcDbProxyObject
 90
      499
 91
      507
 95
   983063
 70
     0
 93
      121
310
905313A33300040000000000003E4040
 94
        0
1001
ACAD
1000
AcRTDxfName
1000
SCALE
  0
ACAD_PROXY_OBJECT
  5
583
102
{ACAD_REACTORS
330
579
102
}
330
579
100
AcDbProxyObject
 90
      499
 91
      507
 95
   983063
 70
     0
 93
      121
310
905313A3430004000000000000444023
 94
        0
1001
ACAD
1000
AcRTDxfName
1000
SCALE
  0
ACAD_PROXY_OBJECT
  5
584
102
{ACAD_REACTORS
330
579
102
}
330
579
100
AcDbProxyObject
 90
      499
 91
      507
 95
   983063
 70
     0
 93
      121
310
905313A3530004000000000000494040
 94
        0
1001
ACAD
1000
AcRTDxfName
1000
SCALE
  0
ACAD_PROXY_OBJECT
  5
585
102
{ACAD_REACTORS
330
579
102
}
330
579
100
AcDbProxyObject
 90
      499
 91
      507
 95
   983063
 70
     0
 93
      129
310
906313A313030004000000000000594010
 94
        0
1001
ACAD
1000
AcRTDxfName
1000
SCALE
  0
ACAD_PROXY_OBJECT
  5
586
102
{ACAD_REACTORS
330
579
102
}
330
579
100
AcDbProxyObject
 90
      499
 91
      507
 95
   983063
 70
     0
 93
      113
310
904323A31000000000000000010140
 94
        0
1001
ACAD
1000
AcRTDxfName
1000
SCALE
  0
ACAD_PROXY_OBJECT
  5
587
102
{ACAD_REACTORS
330
579
102
}
330
579
100
AcDbProxyObject
 90
      499
 91
      507
 95
   983063
 70
     0
 93
      113
310
904343A31000000000000000410159
 94
        0
1001
ACAD
1000
AcRTDxfName
1000
SCALE
  0
ACAD_PROXY_OBJECT
  5
588
102
{ACAD_REACTORS
330
579
102
}
330
579
100
AcDbProxyObject
 90
      499
 91
      507
 95
   983063
 70
     0
 93
      113
310
904383A31000000000000000810140
 94
        0
1001
ACAD
1000
AcRTDxfName
1000
SCALE
  0
ACAD_PROXY_OBJECT
  5
589
102
{ACAD_REACTORS
330
579
102
}
330
579
100
AcDbProxyObject
 90
      499
 91
      507
 95
   983063
 70
     0
 93
      121
310
90531303A31000000000000000910140
 94
        0
1001
ACAD
1000
AcRTDxfName
1000
SCALE
  0
ACAD_PROXY_OBJECT
  5
58A
102
{ACAD_REACTORS
330
579
102
}
330
579
100
AcDbProxyObject
 90
      499
 91
      507
 95
   983063
 70
     0
 93
      129
310
9063130303A31000000000000001650117
 94
        0
1001
ACAD
1000
AcRTDxfName
1000
SCALE
  0
ACAD_PROXY_OBJECT
  5
58B
102
{ACAD_REACTORS
330
579
102
}
330
579
100
AcDbProxyObject
 90
      499
 91
      507
 95
   983063
 70
     0
 93
      265
310
90F312F31323822203D2031272D302200000000000000200FC00000000000028406B
 94
        0
1001
ACAD
1000
AcRTDxfName
1000
SCALE
  0
ACAD_PROXY_OBJECT
  5
58C
102
{ACAD_REACTORS
330
579
102
}
330
579
100
AcDbProxyObject
 90
      499
 91
      507
 95
   983063
 70
     0
 93
      257
310
90E312F363422203D2031272D302200000000000000240FC000000000000284007
 94
        0
1001
ACAD
1000
AcRTDxfName
1000
SCALE
  0
ACAD_PROXY_OBJECT
  5
58D
102
{ACAD_REACTORS
330
579
102
}
330
579
100
AcDbProxyObject
 90
      499
 91
      507
 95
   983063
 70
     0
 93
      257
310
90E312F333222203D2031272D302200000000000000280FC000000000000284040
 94
        0
1001
ACAD
1000
AcRTDxfName
1000
SCALE
  0
ACAD_PROXY_OBJECT
  5
58E
102
{ACAD_REACTORS
330
579
102
}
330
579
100
AcDbProxyObject
 90
      499
 91
      507
 95
   983063
 70
     0
 93
      257
310
90E312F313622203D2031272D3022000000000000002C0FC000000000000284007
 94
        0
1001
ACAD
1000
AcRTDxfName
1000
SCALE
  0
ACAD_PROXY_OBJECT
  5
58F
102
{ACAD_REACTORS
330
579
102
}
330
579
100
AcDbProxyObject
 90
      499
 91
      507
 95
   983063
 70
     0
 93
      257
310
90E332F333222203D2031272D3022000000000000002E0FC000000000000284040
 94
        0
1001
ACAD
1000
AcRTDxfName
1000
SCALE
  0
ACAD_PROXY_OBJECT
  5
590
102
{ACAD_REACTORS
330
579
102
}
330
579
100
AcDbProxyObject
 90
      499
 91
      507
 95
   983063
 70
     0
 93
      249
310
90D312F3822203D2031272D302200000000000000300FC000000000000284040
 94
        0
1001
ACAD
1000
AcRTDxfName
1000
SCALE
  0
ACAD_PROXY_OBJECT
  5
591
102
{ACAD_REACTORS
330
579
102
}
330
579
100
AcDbProxyObject
 90
      499
 91
      507
 95
   983063
 70
     0
 93
      257
310
90E332F313622203D2031272D302200000000000000320FC000000000000284040
 94
        0
1001
ACAD
1000
AcRTDxfName
1000
SCALE
  0
ACAD_PROXY_OBJECT
  5
592
102
{ACAD_REACTORS
330
579
102
}
330
579
100
AcDbProxyObject
 90
      499
 91
      507
 95
   983063
 70
     0
 93
      249
310
90D312F3422203D2031272D302200000000000000340FC000000000000284040
 94
        0
1001
ACAD
1000
AcRTDxfName
1000
SCALE
  0
ACAD_PROXY_OBJECT
  5
593
102
{ACAD_REACTORS
330
579
102
}
330
579
100
AcDbProxyObject
 90
      499
 91
      507
 95
   983063
 70
     0
 93
      249
310
90D332F3822203D2031272D302200000000000000360FC000000000000284040
 94
        0
1001
ACAD
1000
AcRTDxfName
1000
SCALE
  0
ACAD_PROXY_OBJECT
  5
594
102
{ACAD_REACTORS
330
579
102
}
330
579
100
AcDbProxyObject
 90
      499
 91
      507
 95
   983063
 70
     0
 93
      249
310
90D312F3222203D2031272D302200000000000000380FC000000000000284040
 94
        0
1001
ACAD
1000
AcRTDxfName
1000
SCALE
  0
ACAD_PROXY_OBJECT
  5
595
102
{ACAD_REACTORS
330
579
102
}
330
579
100
AcDbProxyObject
 90
      499
 91
      507
 95
   983063
 70
     0
 93
      249
310
90D332F3422203D2031272D3022000000000000003A0FC000000000000284040
 94
        0
1001
ACAD
1000
AcRTDxfName
1000
SCALE
  0
ACAD_PROXY_OBJECT
  5
596
102
{ACAD_REACTORS
330
579
102
}
330
579
100
AcDbProxyObject
 90
      499
 91
      507
 95
   983063
 70
     0
 93
      169
310
90B3122203D2031272D3022004000000000000284000
 94
        0
1001
ACAD
1000
AcRTDxfName
1000
SCALE
  0
ACAD_PROXY_OBJECT
  5
597
102
{ACAD_REACTORS
330
579
102
}
330
579
100
AcDbProxyObject
 90
      499
 91
      507
 95
   983063
 70
     0
 93
      265
310
90F312D312F3222203D2031272D3022000000000000003E0FC00000000000028406B
 94
        0
1001
ACAD
1000
AcRTDxfName
1000
SCALE
  0
ACAD_PROXY_OBJECT
  5
598
102
{ACAD_REACTORS
330
579
102
}
330
579
100
AcDbProxyObject
 90
      499
 91
      507
 95
   983063
 70
     0
 93
      233
310
90B3322203D2031272D30220000000000000002100000000000000284028
 94
        0
1001
ACAD
1000
AcRTDxfName
1000
SCALE
  0
ACAD_PROXY_OBJECT
  5
599
102
{ACAD_REACTORS
330
579
102
}
330
579
100
AcDbProxyObject
 90
      499
 91
      507
 95
   983063
 70
     0
 93
      233
310
90B3622203D2031272D30220000000000000006100000000000000284000
 94
        0
1001
ACAD
1000
AcRTDxfName
1000
SCALE
  0
ACAD_PROXY_OBJECT
  5
59A
102
{ACAD_REACTORS
330
579
102
}
330
579
100
AcDbProxyObject
 90
      499
 91
      507
 95
   983063
 70
     0
 93
      257
310
90E31272D3022203D2031272D3022000000000000000A100000000000000284007
 94
        0
1001
ACAD
1000
AcRTDxfName
1000
SCALE
  0
ACAD_PROXY_OBJECT
  5
578
102
{ACAD_XDICTIONARY
360
5AE
102
}
102
{ACAD_REACTORS
330
577
102
}
330
577
100
AcDbProxyObject
 90
      499
 91
      506
 95
   983063
 70
     0
 93
     1849
310
4254DD185B99185C990028B81E85EB51B8AE3F2E07A17AD46E2B8FC02B5E8DC0F42B1CFD028000000C1008070000C3001FDFF8000000C1003FBFF000000182007F7FE00000030400FEFFC00000060801FDFF8000000C1003FBFF00000018200000000000000681FA0B0000001820100E000186003FBFF000000182007F7FE0
310
0000030400FEFFC00000060801FDFF8000000C1003FBFF000000182007F7FE000000304000AD7A3703D0AC73F4160000003040201C00030C007F7FE00000030400FEFFC00000060801FDFF8000000C1003FBFF000000182007F7FE00000030400FEFFC000000608000
340
11
340
11
340
11
 94
        0
1001
ACAD
1000
AcRTDxfName
1000
TABLESTYLE
  0
ACAD_PROXY_OBJECT
  5
56C
102
{ACAD_REACTORS
330
566
102
}
330
566
100
AcDbProxyObject
 90
      499
 91
      505
 95
   983063
 70
     0
 93
      444
310
430C9915DA5C99599C985B59401049028333333333333E3BF0000000000000FB0107901411070040501600405405064090741402480A0340
 94
        0
1001
ACAD
1000
AcDbSavedByObjectVersion
1070
     0
1000
AcRTDxfName
1000
VISUALSTYLE
  0
ACAD_PROXY_OBJECT
  5
56E
102
{ACAD_REACTORS
330
566
102
}
330
566
100
AcDbProxyObject
 90
      499
 91
      505
 95
   983063
 70
     0
 93
      508
310
428CD108121A5919195B8010640502408333333333333E3BF0000000000000FB01079024090700405020000000000001110200405405064090740C02480A0340
 94
        0
1001
ACAD
1000
AcDbSavedByObjectVersion
1070
     0
1000
AcRTDxfName
1000
VISUALSTYLE
  0
ACAD_PROXY_OBJECT
  5
56D
102
{ACAD_REACTORS
330
566
102
}
330
566
100
AcDbProxyObject
 90
      499
 91
      505
 95
   983063
 70
     0
 93
      444
310
430CD915DA5C99599C985B59401059028333333333333E3BF0000000000000FB0107901411070040501600405405064090741402480A0340
 94
        0
1001
ACAD
1000
AcDbSavedByObjectVersion
1070
     0
1000
AcRTDxfName
1000
VISUALSTYLE
  0
ACAD_PROXY_OBJECT
  5
56B
102
{ACAD_REACTORS
330
566
102
}
330
566
100
AcDbProxyObject
 90
      499
 91
      505
 95
   983063
 70
     0
 93
      396
310
4190985CDA58C0107406404333333333333E3BF0000000000000FB0107A41107004050150841D405064090741402480A0358
 94
        0
1001
ACAD
1000
AcDbSavedByObjectVersion
1070
     0
1000
AcRTDxfName
1000
VISUALSTYLE
  0
ACAD_PROXY_OBJECT
  5
572
102
{ACAD_REACTORS
330
566
102
}
330
566
100
AcDbProxyObject
 90
      499
 91
      505
 95
   983063
 70
     0
 93
      436
310
42509C9A59DA1D195B8010C409028333333333333E3BF0000000000000FB010790141107004050150841D405064090741402480A029956
 94
        0
1001
ACAD
1000
AcDbSavedByObjectVersion
1070
     0
1000
AcRTDxfName
1000
VISUALSTYLE
  0
ACAD_PROXY_OBJECT
  5
576
102
{ACAD_REACTORS
330
566
102
}
330
566
100
AcDbProxyObject
 90
      499
 91
      505
 95
   983063
 70
     0
 93
      460
310
4310DBDB1BDC90DA185B99D9401104090240C333333333333E3BF0000000000000FB0108901411070040501508421405064090741402480A0350
 94
        0
1001
ACAD
1000
AcDbSavedByObjectVersion
1070
     0
1000
AcRTDxfName
1000
VISUALSTYLE
  0
ACAD_PROXY_OBJECT
  5
56F
102
{ACAD_REACTORS
330
566
102
}
330
566
100
AcDbProxyObject
 90
      499
 91
      505
 95
   983063
 70
     0
 93
      508
310
42D0DBDB98D95C1D1D585B0010940D028333333333333E3BF0000000000000FB0107902409070040501000000000000111010841D405064090740C02480A0340
 94
        0
1001
ACAD
1000
AcDbSavedByObjectVersion
1070
     0
1000
AcRTDxfName
1000
VISUALSTYLE
  0
ACAD_PROXY_OBJECT
  5
571
102
{ACAD_REACTORS
330
566
102
}
330
566
100
AcDbProxyObject
 90
      499
 91
      505
 95
   983063
 70
     0
 93
      420
310
41111A5B4010B409028333333333333E3BF0000000000000FB010790141107004050150841D405064090741402480A02677FFFFFD4
 94
        0
1001
ACAD
1000
AcDbSavedByObjectVersion
1070
     0
1000
AcRTDxfName
1000
VISUALSTYLE
  0
ACAD_PROXY_OBJECT
  5
575
102
{ACAD_REACTORS
330
566
102
}
330
566
100
AcDbProxyObject
 90
      499
 91
      505
 95
   983063
 70
     0
 93
      452
310
43119858D95C185D1D195C9B8010F409028333333333333E3BF0000000000000FB010790141107004050150841D405064090741402480A0350
 94
        0
1001
ACAD
1000
AcDbSavedByObjectVersion
1070
     0
1000
AcRTDxfName
1000
VISUALSTYLE
  0
ACAD_PROXY_OBJECT
  5
567
102
{ACAD_REACTORS
330
566
102
}
330
566
100
AcDbProxyObject
 90
      499
 91
      505
 95
   983063
 70
     0
 93
      396
310
41519B185D00240901404333333333333E3BF0000000000000F9010740A41107004050150841D405064090741402480A1B50
 94
        0
1001
ACAD
1000
AcDbSavedByObjectVersion
1070
     0
1000
AcRTDxfName
1000
VISUALSTYLE
  0
ACAD_PROXY_OBJECT
  5
568
102
{ACAD_REACTORS
330
566
102
}
330
566
100
AcDbProxyObject
 90
      499
 91
      505
 95
   983063
 70
     0
 93
      484
310
43919B185D15DA5D1A115919D95CC010140901404333333333333E3BF0000000000000F9010740901411070040501600405405064090741402480A1B50
 94
        0
1001
ACAD
1000
AcDbSavedByObjectVersion
1070
     0
1000
AcRTDxfName
1000
VISUALSTYLE
  0
ACAD_PROXY_OBJECT
  5
569
102
{ACAD_REACTORS
330
566
102
}
330
566
100
AcDbProxyObject
 90
      499
 91
      505
 95
   983063
 70
     0
 93
      420
310
4211DBDD5C985D590010240902404333333333333E3BF0000000000000F9010740A411070040501641D405064090741402480A1B50
 94
        0
1001
ACAD
1000
AcDbSavedByObjectVersion
1070
     0
1000
AcRTDxfName
1000
VISUALSTYLE
  0
ACAD_PROXY_OBJECT
  5
56A
102
{ACAD_REACTORS
330
566
102
}
330
566
100
AcDbProxyObject
 90
      499
 91
      505
 95
   983063
 70
     0
 93
      508
310
4451DBDD5C985D5915DA5D1A115919D95CC010340902404333333333333E3BF0000000000000F9010740901411070040501600405405064090741402480A1B50
 94
        0
1001
ACAD
1000
AcDbSavedByObjectVersion
1070
     0
1000
AcRTDxfName
1000
VISUALSTYLE
  0
ACAD_PROXY_OBJECT
  5
574
102
{ACAD_REACTORS
330
566
102
}
330
566
100
AcDbProxyObject
 90
      499
 91
      505
 95
   983063
 70
     0
 93
      452
310
43131A5B995C185D1D195C9B8010E409028333333333333E3BF0000000000000FB010790141107004050750841D405064090741402483A0350
 94
        0
1001
ACAD
1000
AcDbSavedByObjectVersion
1070
     0
1000
AcRTDxfName
1000
VISUALSTYLE
  0
ACAD_PROXY_OBJECT
  5
570
102
{ACAD_REACTORS
330
566
102
}
330
566
100
AcDbProxyObject
 90
      499
 91
      505
 95
   983063
 70
     0
 93
      428
310
429499585B1A5CDD1A58C0108409028333333333333E3BF0000000000000FB01079019070040501508421405064090741402480A1B45
 94
        0
1001
ACAD
1000
AcDbSavedByObjectVersion
1070
     0
1000
AcRTDxfName
1000
VISUALSTYLE
  0
ACAD_PROXY_OBJECT
  5
573
102
{ACAD_REACTORS
330
566
102
}
330
566
100
AcDbProxyObject
 90
      499
 91
      505
 95
   983063
 70
     0
 93
      420
310
42151A1A58DAD95B8010D409028333333333333E3BF0000000000000FB010790141107004050150C41D405064090741402480A0354
 94
        0
1001
ACAD
1000
AcDbSavedByObjectVersion
1070
     0
1000
AcRTDxfName
1000
VISUALSTYLE
  0
XRECORD
  5
E1D
102
{ACAD_REACTORS
330
E1B
102
}
330
E1B
100
AcDbXrecord
280
     1
340
536
  0
XRECORD
  5
E1C
102
{ACAD_REACTORS
330
E1B
102
}
330
E1B
100
AcDbXrecord
280
     1
340
535
  0
DICTIONARYVAR
  5
5CA
102
{ACAD_REACTORS
330
54A
102
}
330
54A
100
DictionaryVariables
280
     0
  1
1:1
  0
DICTIONARYVAR
  5
5C9
102
{ACAD_REACTORS
330
54A
102
}
330
54A
100
DictionaryVariables
280
     0
  1
STANDARD
  0
DICTIONARYVAR
  5
5C8
102
{ACAD_REACTORS
330
54A
102
}
330
54A
100
DictionaryVariables
280
     0
  1
STANDARD
  0
DICTIONARYVAR
  5
54B
102
{ACAD_REACTORS
330
54A
102
}
330
54A
100
DictionaryVariables
280
     0
  1
1
  0
DICTIONARYVAR
  5
5CC
102
{ACAD_REACTORS
330
54A
102
}
330
54A
100
DictionaryVariables
280
     0
  1
0
  0
DICTIONARYVAR
  5
54C
102
{ACAD_REACTORS
330
54A
102
}
330
54A
100
DictionaryVariables
280
     0
  1

  0
DICTIONARYVAR
  5
5CB
102
{ACAD_REACTORS
330
54A
102
}
330
54A
100
DictionaryVariables
280
     0
  1
127
  0
DICTIONARY
  5
E20
330
21
100
AcDbDictionary
280
     1
281
     1
  3
ACAD_XREC_ROUNDTRIP
360
E21
  0
DICTIONARY
  5
E1E
330
1D
100
AcDbDictionary
280
     1
281
     1
  3
ACAD_XREC_ROUNDTRIP
360
E1F
  0
DICTIONARY
  5
557
330
556
100
AcDbDictionary
280
     1
281
     1
  3
ACAD_XREC_ROUNDTRIP
360
5C5
  3
BUMPTILE
360
559
  3
DIFFUSETILE
360
558
  3
OPACITYTILE
360
55C
  3
REFLECTIONTILE
360
55B
  3
REFRACTIONTILE
360
55D
  3
SPECULARTILE
360
55A
  0
DICTIONARY
  5
54F
330
54E
100
AcDbDictionary
280
     1
281
     1
  3
ACAD_XREC_ROUNDTRIP
360
5C4
  3
BUMPTILE
360
551
  3
DIFFUSETILE
360
550
  3
OPACITYTILE
360
554
  3
REFLECTIONTILE
360
553
  3
REFRACTIONTILE
360
555
  3
SPECULARTILE
360
552
  0
DICTIONARY
  5
55F
330
55E
100
AcDbDictionary
280
     1
281
     1
  3
ACAD_XREC_ROUNDTRIP
360
5C6
  3
BUMPTILE
360
561
  3
DIFFUSETILE
360
560
  3
OPACITYTILE
360
564
  3
REFLECTIONTILE
360
563
  3
REFRACTIONTILE
360
565
  3
SPECULARTILE
360
562
  0
DICTIONARY
  5
5AE
330
578
100
AcDbDictionary
280
     1
281
     1
  3
ACAD_ROUNDTRIP_2008_TABLESTYLE_CELLSTYLEMAP
360
5AF
  3
ACAD_XREC_ROUNDTRIP
360
5C7
  0
XRECORD
  5
E21
102
{ACAD_REACTORS
330
E20
102
}
330
E20
100
AcDbXrecord
280
     1
102
SHADEPLOT
 70
     0
102
SHADEPLOTRESLEVEL
 70
     2
102
SHADEPLOTCUSTOMDPI
 70
   300
  0
XRECORD
  5
E1F
102
{ACAD_REACTORS
330
E1E
102
}
330
E1E
100
AcDbXrecord
280
     1
102
SHADEPLOT
 70
     0
102
SHADEPLOTRESLEVEL
 70
     2
102
SHADEPLOTCUSTOMDPI
 70
   300
  0
XRECORD
  5
5C5
102
{ACAD_REACTORS
330
557
102
}
330
557
100
AcDbXrecord
280
     1
102
MATERIAL
148
0.0
149
0.0
149
0.0
 93
        0
 94
      127
282
     0
 72
     0
 77
     0
171
     0
175
     0
179
     0
273
     0
  0
XRECORD
  5
559
102
{ACAD_REACTORS
330
557
102
}
330
557
100
AcDbXrecord
280
     1
270
     1
271
     1
  0
XRECORD
  5
558
102
{ACAD_REACTORS
330
557
102
}
330
557
100
AcDbXrecord
280
     1
270
     1
271
     1
  0
XRECORD
  5
55C
102
{ACAD_REACTORS
330
557
102
}
330
557
100
AcDbXrecord
280
     1
270
     1
271
     1
  0
XRECORD
  5
55B
102
{ACAD_REACTORS
330
557
102
}
330
557
100
AcDbXrecord
280
     1
270
     1
271
     1
  0
XRECORD
  5
55D
102
{ACAD_REACTORS
330
557
102
}
330
557
100
AcDbXrecord
280
     1
270
     1
271
     1
  0
XRECORD
  5
55A
102
{ACAD_REACTORS
330
557
102
}
330
557
100
AcDbXrecord
280
     1
270
     1
271
     1
  0
XRECORD
  5
5C4
102
{ACAD_REACTORS
330
54F
102
}
330
54F
100
AcDbXrecord
280
     1
102
MATERIAL
148
0.0
149
0.0
149
0.0
 93
        0
 94
      127
282
     0
 72
     0
 77
     0
171
     0
175
     0
179
     0
273
     0
  0
XRECORD
  5
551
102
{ACAD_REACTORS
330
54F
102
}
330
54F
100
AcDbXrecord
280
     1
270
     1
271
     1
  0
XRECORD
  5
550
102
{ACAD_REACTORS
330
54F
102
}
330
54F
100
AcDbXrecord
280
     1
270
     1
271
     1
  0
XRECORD
  5
554
102
{ACAD_REACTORS
330
54F
102
}
330
54F
100
AcDbXrecord
280
     1
270
     1
271
     1
  0
XRECORD
  5
553
102
{ACAD_REACTORS
330
54F
102
}
330
54F
100
AcDbXrecord
280
     1
270
     1
271
     1
  0
XRECORD
  5
555
102
{ACAD_REACTORS
330
54F
102
}
330
54F
100
AcDbXrecord
280
     1
270
     1
271
     1
  0
XRECORD
  5
552
102
{ACAD_REACTORS
330
54F
102
}
330
54F
100
AcDbXrecord
280
     1
270
     1
271
     1
  0
XRECORD
  5
5C6
102
{ACAD_REACTORS
330
55F
102
}
330
55F
100
AcDbXrecord
280
     1
102
MATERIAL
148
0.0
149
0.0
149
0.0
 93
        0
 94
      127
282
     0
 72
     0
 77
     0
171
     0
175
     0
179
     0
273
     0
  0
XRECORD
  5
561
102
{ACAD_REACTORS
330
55F
102
}
330
55F
100
AcDbXrecord
280
     1
270
     1
271
     1
  0
XRECORD
  5
560
102
{ACAD_REACTORS
330
55F
102
}
330
55F
100
AcDbXrecord
280
     1
270
     1
271
     1
  0
XRECORD
  5
564
102
{ACAD_REACTORS
330
55F
102
}
330
55F
100
AcDbXrecord
280
     1
270
     1
271
     1
  0
XRECORD
  5
563
102
{ACAD_REACTORS
330
55F
102
}
330
55F
100
AcDbXrecord
280
     1
270
     1
271
     1
  0
XRECORD
  5
565
102
{ACAD_REACTORS
330
55F
102
}
330
55F
100
AcDbXrecord
280
     1
270
     1
271
     1
  0
XRECORD
  5
562
102
{ACAD_REACTORS
330
55F
102
}
330
55F
100
AcDbXrecord
280
     1
270
     1
271
     1
  0
ACAD_PROXY_OBJECT
  5
5AF
102
{ACAD_REACTORS
330
5AE
102
}
330
5AE
100
AcDbProxyObject
 90
      499
 91
      509
 95
   983063
 70
     0
 93
     1044
310
40D054060020000020000003200101A000080002A5058000000C100000000000000340FE901405075F5449544C450041501A8000000C800406800020000A9416000000304000AD7A3703D0AC73FA409014217D2115051115480105406A0000003200101A000080002A5028000000C10002B5E8DC0F42B1CFE903409065F444
310
15441000
340
11
340
11
340
11
 94
        0
1001
ACAD
1000
AcRTDxfName
1000
CELLSTYLEMAP
  0
XRECORD
  5
5C7
102
{ACAD_REACTORS
330
5AE
102
}
330
5AE
100
AcDbXrecord
280
     1
102
ACAD_ROUNDTRIP_PRE2007_TABLESTYLE
 90
      512
 91
        0
  1

 92
      512
 93
        0
  2

 94
      512
 95
        0
  3

  0
ENDSEC
  0
EOF
