  0
SECTION
  2
HEADER
  9
$ACADVER
  1
AC1018
  9
$ACADMAINTVER
 70
     0
  9
$DWGCODEPAGE
  3
ANSI_932
  9
$LASTSAVEDBY
  1
Hiroki Noike
  9
$INSBASE
 10
0.0
 20
0.0
 30
0.0
  9
$EXTMIN
 10
290.6072684326729
 20
-214.8873797076516
 30
0.0
  9
$EXTMAX
 10
825.2148992431769
 20
163.1126502790248
 30
0.0
  9
$LIMMIN
 10
0.0
 20
0.0
  9
$LIMMAX
 10
12.0
 20
9.0
  9
$ORTHOMODE
 70
     0
  9
$REGENMODE
 70
     1
  9
$FILLMODE
 70
     1
  9
$QTEXTMODE
 70
     0
  9
$MIRRTEXT
 70
     1
  9
$LTSCALE
 40
1.0
  9
$ATTMODE
 70
     1
  9
$TEXTSIZE
 40
1.0
  9
$TRACEWID
 40
0.05
  9
$TEXTSTYLE
  7
STANDARD
  9
$CLAYER
  8
寸法
  9
$CELTYPE
  6
CONTINUOUS
  9
$CECOLOR
 62
   256
  9
$CELTSCALE
 40
1.0
  9
$DISPSILH
 70
     0
  9
$DIMSCALE
 40
1.0
  9
$DIMASZ
 40
3.0
  9
$DIMEXO
 40
0.5
  9
$DIMDLI
 40
0.5
  9
$DIMRND
 40
0.0
  9
$DIMDLE
 40
0.0
  9
$DIMEXE
 40
0.5
  9
$DIMTP
 40
0.0
  9
$DIMTM
 40
0.0
  9
$DIMTXT
 40
5.0
  9
$DIMCEN
 40
0.09
  9
$DIMTSZ
 40
0.0
  9
$DIMTOL
 70
     0
  9
$DIMLIM
 70
     0
  9
$DIMTIH
 70
     0
  9
$DIMTOH
 70
     0
  9
$DIMSE1
 70
     0
  9
$DIMSE2
 70
     0
  9
$DIMTAD
 70
     1
  9
$DIMZIN
 70
     0
  9
$DIMBLK
  1
Open30
  9
$DIMASO
 70
     1
  9
$DIMSHO
 70
     1
  9
$DIMPOST
  1

  9
$DIMAPOST
  1

  9
$DIMALT
 70
     0
  9
$DIMALTD
 70
     2
  9
$DIMALTF
 40
25.4
  9
$DIMLFAC
 40
1.0
  9
$DIMTOFL
 70
     0
  9
$DIMTVP
 40
0.0
  9
$DIMTIX
 70
     0
  9
$DIMSOXD
 70
     0
  9
$DIMSAH
 70
     0
  9
$DIMBLK1
  1

  9
$DIMBLK2
  1

  9
$DIMSTYLE
  2
Standard
  9
$DIMCLRD
 70
     1
  9
$DIMCLRE
 70
     1
  9
$DIMCLRT
 70
     1
  9
$DIMTFAC
 40
1.0
  9
$DIMGAP
 40
1.0
  9
$DIMJUST
 70
     0
  9
$DIMSD1
 70
     0
  9
$DIMSD2
 70
     0
  9
$DIMTOLJ
 70
     1
  9
$DIMTZIN
 70
     0
  9
$DIMALTZ
 70
     0
  9
$DIMALTTZ
 70
     0
  9
$DIMUPT
 70
     0
  9
$DIMDEC
 70
     0
  9
$DIMTDEC
 70
     0
  9
$DIMALTU
 70
     2
  9
$DIMALTTD
 70
     2
  9
$DIMTXSTY
  7
TEXTSTYLE01
  9
$DIMAUNIT
 70
     0
  9
$DIMADEC
 70
     0
  9
$DIMALTRND
 40
0.0
  9
$DIMAZIN
 70
     0
  9
$DIMDSEP
 70
    46
  9
$DIMATFIT
 70
     3
  9
$DIMFRAC
 70
     0
  9
$DIMLDRBLK
  1
Open30
  9
$DIMLUNIT
 70
     2
  9
$DIMLWD
 70
    -2
  9
$DIMLWE
 70
    -2
  9
$DIMTMOVE
 70
     0
  9
$LUNITS
 70
     2
  9
$LUPREC
 70
     4
  9
$SKETCHINC
 40
0.1
  9
$FILLETRAD
 40
0.0
  9
$AUNITS
 70
     0
  9
$AUPREC
 70
     0
  9
$MENU
  1
.
  9
$ELEVATION
 40
0.0
  9
$PELEVATION
 40
0.0
  9
$THICKNESS
 40
0.0
  9
$LIMCHECK
 70
     0
  9
$CHAMFERA
 40
0.0
  9
$CHAMFERB
 40
0.0
  9
$CHAMFERC
 40
0.0
  9
$CHAMFERD
 40
0.0
  9
$SKPOLY
 70
     0
  9
$TDCREATE
 40
2452359.434558276
  9
$TDUCREATE
 40
2452359.059558276
  9
$TDUPDATE
 40
2459780.73546853
  9
$TDUUPDATE
 40
2459780.36046853
  9
$TDINDWG
 40
0.2951571875
  9
$TDUSRTIMER
 40
0.1243717824
  9
$USRTIMER
 70
     1
  9
$ANGBASE
 50
0.0
  9
$ANGDIR
 70
     0
  9
$PDMODE
 70
     0
  9
$PDSIZE
 40
1.5
  9
$PLINEWID
 40
0.0
  9
$SPLFRAME
 70
     0
  9
$SPLINETYPE
 70
     6
  9
$SPLINESEGS
 70
     8
  9
$HANDSEED
  5
A4B
  9
$SURFTAB1
 70
     6
  9
$SURFTAB2
 70
     6
  9
$SURFTYPE
 70
     6
  9
$SURFU
 70
     6
  9
$SURFV
 70
     6
  9
$UCSBASE
  2

  9
$UCSNAME
  2

  9
$UCSORG
 10
0.0
 20
0.0
 30
0.0
  9
$UCSXDIR
 10
1.0
 20
0.0
 30
0.0
  9
$UCSYDIR
 10
0.0
 20
1.0
 30
0.0
  9
$UCSORTHOREF
  2

  9
$UCSORTHOVIEW
 70
     0
  9
$UCSORGTOP
 10
0.0
 20
0.0
 30
0.0
  9
$UCSORGBOTTOM
 10
0.0
 20
0.0
 30
0.0
  9
$UCSORGLEFT
 10
0.0
 20
0.0
 30
0.0
  9
$UCSORGRIGHT
 10
0.0
 20
0.0
 30
0.0
  9
$UCSORGFRONT
 10
0.0
 20
0.0
 30
0.0
  9
$UCSORGBACK
 10
0.0
 20
0.0
 30
0.0
  9
$PUCSBASE
  2

  9
$PUCSNAME
  2

  9
$PUCSORG
 10
0.0
 20
0.0
 30
0.0
  9
$PUCSXDIR
 10
1.0
 20
0.0
 30
0.0
  9
$PUCSYDIR
 10
0.0
 20
1.0
 30
0.0
  9
$PUCSORTHOREF
  2

  9
$PUCSORTHOVIEW
 70
     0
  9
$PUCSORGTOP
 10
0.0
 20
0.0
 30
0.0
  9
$PUCSORGBOTTOM
 10
0.0
 20
0.0
 30
0.0
  9
$PUCSORGLEFT
 10
0.0
 20
0.0
 30
0.0
  9
$PUCSORGRIGHT
 10
0.0
 20
0.0
 30
0.0
  9
$PUCSORGFRONT
 10
0.0
 20
0.0
 30
0.0
  9
$PUCSORGBACK
 10
0.0
 20
0.0
 30
0.0
  9
$USERI1
 70
     0
  9
$USERI2
 70
     0
  9
$USERI3
 70
     0
  9
$USERI4
 70
     0
  9
$USERI5
 70
     0
  9
$USERR1
 40
0.0
  9
$USERR2
 40
0.0
  9
$USERR3
 40
0.0
  9
$USERR4
 40
0.0
  9
$USERR5
 40
0.0
  9
$WORLDVIEW
 70
     1
  9
$SHADEDGE
 70
     3
  9
$SHADEDIF
 70
    70
  9
$TILEMODE
 70
     1
  9
$MAXACTVP
 70
    64
  9
$PINSBASE
 10
0.0
 20
0.0
 30
0.0
  9
$PLIMCHECK
 70
     0
  9
$PEXTMIN
 10
1.000000000000000E+20
 20
1.000000000000000E+20
 30
1.000000000000000E+20
  9
$PEXTMAX
 10
-1.000000000000000E+20
 20
-1.000000000000000E+20
 30
-1.000000000000000E+20
  9
$PLIMMIN
 10
0.0
 20
0.0
  9
$PLIMMAX
 10
0.0
 20
0.0
  9
$UNITMODE
 70
     0
  9
$VISRETAIN
 70
     1
  9
$PLINEGEN
 70
     0
  9
$PSLTSCALE
 70
     1
  9
$TREEDEPTH
 70
  3020
  9
$CMLSTYLE
  2
Standard
  9
$CMLJUST
 70
     0
  9
$CMLSCALE
 40
1.0
  9
$PROXYGRAPHICS
 70
     1
  9
$MEASUREMENT
 70
     0
  9
$CELWEIGHT
370
    -1
  9
$ENDCAPS
280
     0
  9
$JOINSTYLE
280
     0
  9
$LWDISPLAY
290
     0
  9
$INSUNITS
 70
     0
  9
$HYPERLINKBASE
  1

  9
$STYLESHEET
  1

  9
$XEDIT
290
     1
  9
$CEPSNTYPE
380
     0
  9
$PSTYLEMODE
290
     1
  9
$FINGERPRINTGUID
  2
{60BAFE49-5DF0-4B94-BA1E-C98BCEEC6F5F}
  9
$VERSIONGUID
  2
{5362BE82-5F9B-4B36-8F83-1A8983C94CCE}
  9
$EXTNAMES
290
     1
  9
$PSVPSCALE
 40
0.0
  9
$OLESTARTUP
290
     0
  9
$SORTENTS
280
   127
  9
$INDEXCTL
280
     0
  9
$HIDETEXT
280
     0
  9
$XCLIPFRAME
290
     0
  9
$HALOGAP
280
     0
  9
$OBSCOLOR
 70
   257
  9
$OBSLTYPE
280
     0
  9
$INTERSECTIONDISPLAY
280
     0
  9
$INTERSECTIONCOLOR
 70
   257
  9
$DIMASSOC
280
     1
  9
$PROJECTNAME
  1

  0
ENDSEC
  0
SECTION
  2
CLASSES
  0
CLASS
  1
ACDBDICTIONARYWDFLT
  2
AcDbDictionaryWithDefault
  3
ObjectDBX Classes
 90
        0
 91
        3
280
     0
281
     0
  0
CLASS
  1
SCALE
  2
AcDbScale
  3
ObjectDBX Classes
 90
     1153
 91
        3
280
     0
281
     0
  0
CLASS
  1
VISUALSTYLE
  2
AcDbVisualStyle
  3
ObjectDBX Classes
 90
     4095
 91
        3
280
     0
281
     0
  0
CLASS
  1
MATERIAL
  2
AcDbMaterial
  3
ObjectDBX Classes
 90
     1153
 91
        3
280
     0
281
     0
  0
CLASS
  1
TABLESTYLE
  2
AcDbTableStyle
  3
ObjectDBX Classes
 90
     4095
 91
        3
280
     0
281
     0
  0
CLASS
  1
MLEADERSTYLE
  2
AcDbMLeaderStyle
  3
ACDB_MLEADERSTYLE_CLASS
 90
     4095
 91
        3
280
     0
281
     0
  0
CLASS
  1
SORTENTSTABLE
  2
AcDbSortentsTable
  3
ObjectDBX Classes
 90
        0
 91
        3
280
     0
281
     0
  0
CLASS
  1
DICTIONARYVAR
  2
AcDbDictionaryVar
  3
ObjectDBX Classes
 90
        0
 91
        3
280
     0
281
     0
  0
CLASS
  1
CELLSTYLEMAP
  2
AcDbCellStyleMap
  3
ObjectDBX Classes
 90
     1152
 91
        3
280
     0
281
     0
  0
ENDSEC
  0
SECTION
  2
TABLES
  0
TABLE
  2
VPORT
  5
8
330
0
100
AcDbSymbolTable
 70
     1
  0
VPORT
  5
5FE
330
8
100
AcDbSymbolTableRecord
100
AcDbViewportTableRecord
  2
*Active
 70
     0
 10
0.0
 20
0.0
 11
1.0
 21
1.0
 12
567.8493544431767
 22
-38.50251621711806
 13
0.0
 23
0.0
 14
1.0
 24
1.0
 15
0.0
 25
0.0
 16
0.0
 26
0.0
 36
1.0
 17
0.0
 27
0.0
 37
0.0
 40
519.0257931209732
 41
2.082079343365253
 42
50.0
 43
0.0
 44
0.0
 50
0.0
 51
0.0
 71
    16
 72
   100
 73
     1
 74
     1
 75
     0
 76
     0
 77
     0
 78
     0
281
     0
 65
     1
110
0.0
120
0.0
130
0.0
111
1.0
121
0.0
131
0.0
112
0.0
122
1.0
132
0.0
 79
     0
146
0.0
  0
ENDTAB
  0
TABLE
  2
LTYPE
  5
5
330
0
100
AcDbSymbolTable
 70
     9
  0
LTYPE
  5
13
330
5
100
AcDbSymbolTableRecord
100
AcDbLinetypeTableRecord
  2
ByBlock
 70
     0
  3

 72
    65
 73
     0
 40
0.0
  0
LTYPE
  5
14
330
5
100
AcDbSymbolTableRecord
100
AcDbLinetypeTableRecord
  2
ByLayer
 70
     0
  3

 72
    65
 73
     0
 40
0.0
  0
LTYPE
  5
15
330
5
100
AcDbSymbolTableRecord
100
AcDbLinetypeTableRecord
  2
CONTINUOUS
 70
     0
  3
実線
 72
    65
 73
     0
 40
0.0
  0
LTYPE
  5
22
330
5
100
AcDbSymbolTableRecord
100
AcDbLinetypeTableRecord
  2
DASHED
 70
     0
  3
破線A
 72
    65
 73
     2
 40
7.5
 49
5.0
 74
     0
 49
-2.5
 74
     0
  0
LTYPE
  5
23
330
5
100
AcDbSymbolTableRecord
100
AcDbLinetypeTableRecord
  2
DASHEDX2
 70
     0
  3
破線B
 72
    65
 73
     2
 40
15.0
 49
10.0
 74
     0
 49
-5.0
 74
     0
  0
LTYPE
  5
24
330
5
100
AcDbSymbolTableRecord
100
AcDbLinetypeTableRecord
  2
DASHDOT
 70
     0
  3
１点鎖線A
 72
    65
 73
     4
 40
10.0
 49
5.0
 74
     0
 49
-2.5
 74
     0
 49
0.0
 74
     0
 49
-2.5
 74
     0
  0
LTYPE
  5
25
330
5
100
AcDbSymbolTableRecord
100
AcDbLinetypeTableRecord
  2
DASHDOTX2
 70
     0
  3
１点鎖線B
 72
    65
 73
     4
 40
20.0
 49
10.0
 74
     0
 49
-5.0
 74
     0
 49
0.0
 74
     0
 49
-5.0
 74
     0
  0
LTYPE
  5
26
330
5
100
AcDbSymbolTableRecord
100
AcDbLinetypeTableRecord
  2
DIVIDE2
 70
     0
  3
２点鎖線A
 72
    65
 73
     6
 40
6.25
 49
2.5
 74
     0
 49
-1.25
 74
     0
 49
0.0
 74
     0
 49
-1.25
 74
     0
 49
0.0
 74
     0
 49
-1.25
 74
     0
  0
LTYPE
  5
27
330
5
100
AcDbSymbolTableRecord
100
AcDbLinetypeTableRecord
  2
DIVIDE
 70
     0
  3
２点鎖線B
 72
    65
 73
     6
 40
12.5
 49
5.0
 74
     0
 49
-2.5
 74
     0
 49
0.0
 74
     0
 49
-2.5
 74
     0
 49
0.0
 74
     0
 49
-2.5
 74
     0
  0
LTYPE
  5
28
330
5
100
AcDbSymbolTableRecord
100
AcDbLinetypeTableRecord
  2
DOT
 70
     0
  3
点線A
 72
    65
 73
     2
 40
2.5
 49
0.0
 74
     0
 49
-2.5
 74
     0
  0
LTYPE
  5
29
330
5
100
AcDbSymbolTableRecord
100
AcDbLinetypeTableRecord
  2
DOTX2
 70
     0
  3
点線B
 72
    65
 73
     2
 40
5.0
 49
0.0
 74
     0
 49
-5.0
 74
     0
  0
ENDTAB
  0
TABLE
  2
LAYER
  5
2
102
{ACAD_XDICTIONARY
360
6B0
102
}
330
0
100
AcDbSymbolTable
 70
     7
  0
LAYER
  5
10
330
2
100
AcDbSymbolTableRecord
100
AcDbLayerTableRecord
  2
0
 70
     0
 62
     7
  6
CONTINUOUS
370
    -3
390
F
  0
LAYER
  5
2A
330
2
100
AcDbSymbolTableRecord
100
AcDbLayerTableRecord
  2
ﾚｲﾔ1
 70
     0
 62
     7
  6
CONTINUOUS
370
    -3
390
F
  0
LAYER
  5
31
330
2
100
AcDbSymbolTableRecord
100
AcDbLayerTableRecord
  2
文字
 70
     0
 62
     7
  6
CONTINUOUS
370
    -3
390
F
  0
LAYER
  5
38
330
2
100
AcDbSymbolTableRecord
100
AcDbLayerTableRecord
  2
寸法
 70
     0
 62
     1
  6
CONTINUOUS
370
    -3
390
F
  0
LAYER
  5
55C
330
2
100
AcDbSymbolTableRecord
100
AcDbLayerTableRecord
  2
Defpoints
 70
     0
 62
     7
  6
CONTINUOUS
290
     0
370
    -3
390
F
  0
LAYER
  5
647
102
{ACAD_XDICTIONARY
360
648
102
}
330
2
100
AcDbSymbolTableRecord
100
AcDbLayerTableRecord
  2
図面枠
 70
     0
 62
     5
  6
CONTINUOUS
370
    -3
390
F
  0
LAYER
  5
64A
102
{ACAD_XDICTIONARY
360
64B
102
}
330
2
100
AcDbSymbolTableRecord
100
AcDbLayerTableRecord
  2
下図
 70
     0
 62
     8
  6
DASHDOT
290
     0
370
    -3
390
F
  0
ENDTAB
  0
TABLE
  2
STYLE
  5
3
330
0
100
AcDbSymbolTable
 70
    13
  0
STYLE
  5
11
330
3
100
AcDbSymbolTableRecord
100
AcDbTextStyleTableRecord
  2
STANDARD
 70
     0
 40
1.0
 41
1.0
 50
0.0
 71
     0
 42
1.0
  3
TXT
  4
BIGFONT
  0
STYLE
  5
3B
330
3
100
AcDbSymbolTableRecord
100
AcDbTextStyleTableRecord
  2
TATE
 70
     4
 40
1.0
 41
1.0
 50
0.0
 71
     0
 42
1.0
  3
TXT
  4
BIGFONT
  0
STYLE
  5
3C
330
3
100
AcDbSymbolTableRecord
100
AcDbTextStyleTableRecord
  2
TEXTSTYLE01
 70
     0
 40
0.0
 41
1.0
 50
0.0
 71
     0
 42
0.0
  3
TXT
  4
BIGFONT
  0
STYLE
  5
3D
330
3
100
AcDbSymbolTableRecord
100
AcDbTextStyleTableRecord
  2
TEXTSTYLE02
 70
     0
 40
0.0
 41
1.0
 50
0.0
 71
     0
 42
0.0
  3
TXT
  4
BIGFONT
  0
STYLE
  5
3E
330
3
100
AcDbSymbolTableRecord
100
AcDbTextStyleTableRecord
  2
TEXTSTYLE03
 70
     0
 40
0.0
 41
1.0
 50
0.0
 71
     0
 42
0.0
  3
TXT
  4
BIGFONT
  0
STYLE
  5
3F
330
3
100
AcDbSymbolTableRecord
100
AcDbTextStyleTableRecord
  2
TEXTSTYLE04
 70
     0
 40
0.0
 41
1.0
 50
0.0
 71
     0
 42
0.0
  3
TXT
  4
BIGFONT
  0
STYLE
  5
40
330
3
100
AcDbSymbolTableRecord
100
AcDbTextStyleTableRecord
  2
TEXTSTYLE05
 70
     0
 40
0.0
 41
1.0
 50
0.0
 71
     0
 42
0.0
  3
TXT
  4
BIGFONT
  0
STYLE
  5
41
330
3
100
AcDbSymbolTableRecord
100
AcDbTextStyleTableRecord
  2
TEXTSTYLE06
 70
     0
 40
0.0
 41
1.0
 50
0.0
 71
     0
 42
0.0
  3

  4

  0
STYLE
  5
42
330
3
100
AcDbSymbolTableRecord
100
AcDbTextStyleTableRecord
  2
TEXTSTYLE07
 70
     0
 40
0.0
 41
1.0
 50
0.0
 71
     0
 42
0.0
  3

  4

  0
STYLE
  5
43
330
3
100
AcDbSymbolTableRecord
100
AcDbTextStyleTableRecord
  2
TEXTSTYLE08
 70
     0
 40
0.0
 41
1.0
 50
0.0
 71
     0
 42
0.0
  3

  4

  0
STYLE
  5
44
330
3
100
AcDbSymbolTableRecord
100
AcDbTextStyleTableRecord
  2
TEXTSTYLE09
 70
     0
 40
0.0
 41
1.0
 50
0.0
 71
     0
 42
0.0
  3

  4

  0
STYLE
  5
45
330
3
100
AcDbSymbolTableRecord
100
AcDbTextStyleTableRecord
  2
TEXTSTYLE10
 70
     0
 40
0.0
 41
1.0
 50
0.0
 71
     0
 42
0.0
  3

  4

  0
STYLE
  5
8EC
330
3
100
AcDbSymbolTableRecord
100
AcDbTextStyleTableRecord
  2
DIMFONT1
 70
     0
 40
0.0
 41
1.193548387096774
 50
0.0
 71
     0
 42
1.0
  3
msgothic.ttc
  4

1001
ACAD
1000
MS PGothic
1071
    32818
  0
ENDTAB
  0
TABLE
  2
VIEW
  5
6
330
0
100
AcDbSymbolTable
 70
     0
  0
ENDTAB
  0
TABLE
  2
UCS
  5
7
330
0
100
AcDbSymbolTable
 70
     0
  0
ENDTAB
  0
TABLE
  2
APPID
  5
9
330
0
100
AcDbSymbolTable
 70
     6
  0
APPID
  5
12
330
9
100
AcDbSymbolTableRecord
100
AcDbRegAppTableRecord
  2
ACAD
 70
     0
  0
APPID
  5
650
330
9
100
AcDbSymbolTableRecord
100
AcDbRegAppTableRecord
  2
ACAD_NAV_VCDISPLAY
 70
     0
  0
APPID
  5
706
330
9
100
AcDbSymbolTableRecord
100
AcDbRegAppTableRecord
  2
FX_DIMP_FAV_VERSION
 70
     0
  0
APPID
  5
781
330
9
100
AcDbSymbolTableRecord
100
AcDbRegAppTableRecord
  2
PLOTTRANSPARENCY
 70
     0
  0
APPID
  5
789
330
9
100
AcDbSymbolTableRecord
100
AcDbRegAppTableRecord
  2
ACAD_MLEADERVER
 70
     0
  0
APPID
  5
8EA
330
9
100
AcDbSymbolTableRecord
100
AcDbRegAppTableRecord
  2
AcadAnnotative
 70
     0
  0
ENDTAB
  0
TABLE
  2
DIMSTYLE
  5
A
330
0
100
AcDbSymbolTable
 70
     3
100
AcDbDimStyleTable
  0
DIMSTYLE
105
528
102
{ACAD_REACTORS
330
56F
330
585
330
5B4
102
}
330
A
100
AcDbSymbolTableRecord
100
AcDbDimStyleTableRecord
  2
Standard
 70
     0
 41
3.0
 42
0.5
 43
0.5
 44
0.5
 73
     0
 74
     0
 77
     1
140
5.0
147
1.0
176
     1
177
     1
271
     0
178
     1
271
     0
272
     0
340
3C
341
551
342
551
  0
DIMSTYLE
105
8EB
330
A
100
AcDbSymbolTableRecord
100
AcDbDimStyleTableRecord
  2
DIM001
 70
     0
 40
10.0
 41
1.0
 42
0.0
 44
1.0
 45
1.0
 73
     0
 74
     0
 77
     3
140
1.216216216216216
147
0.2
172
     1
176
     7
177
     7
271
     0
178
     7
271
     0
273
     6
340
8EC
  0
DIMSTYLE
105
8ED
330
A
100
AcDbSymbolTableRecord
100
AcDbDimStyleTableRecord
  2
DIM002
 70
     0
 40
10.0
 41
1.0
 42
0.0
 44
0.0
 45
1.0
 73
     0
 74
     0
 77
     3
140
1.216216216216216
147
0.2
172
     1
176
     7
177
     7
271
     0
178
     7
271
     0
273
     6
340
8EC
  0
ENDTAB
  0
TABLE
  2
BLOCK_RECORD
  5
1
330
0
100
AcDbSymbolTable
 70
    10
  0
BLOCK_RECORD
  5
1E
102
{ACAD_XDICTIONARY
360
784
102
}
330
1
100
AcDbSymbolTableRecord
100
AcDbBlockTableRecord
  2
*Model_Space
340
21
  0
BLOCK_RECORD
  5
1A
330
1
100
AcDbSymbolTableRecord
100
AcDbBlockTableRecord
  2
*Paper_Space
340
1D
  0
BLOCK_RECORD
  5
49
330
1
100
AcDbSymbolTableRecord
100
AcDbBlockTableRecord
  2
*U0
340
0
102
{BLKREFS
331
522
102
}
  0
BLOCK_RECORD
  5
52
330
1
100
AcDbSymbolTableRecord
100
AcDbBlockTableRecord
  2
*D1
340
0
102
{BLKREFS
331
523
102
}
  0
BLOCK_RECORD
  5
63
330
1
100
AcDbSymbolTableRecord
100
AcDbBlockTableRecord
  2
*D2
340
0
102
{BLKREFS
331
524
102
}
  0
BLOCK_RECORD
  5
74
330
1
100
AcDbSymbolTableRecord
100
AcDbBlockTableRecord
  2
*D3
340
0
102
{BLKREFS
331
525
102
}
  0
BLOCK_RECORD
  5
7F
330
1
100
AcDbSymbolTableRecord
100
AcDbBlockTableRecord
  2
*D4
340
0
102
{BLKREFS
331
526
102
}
  0
BLOCK_RECORD
  5
551
330
1
100
AcDbSymbolTableRecord
100
AcDbBlockTableRecord
  2
_Open30
340
0
102
{BLKREFS
331
57F
331
580
331
595
331
596
102
}
  0
BLOCK_RECORD
  5
570
330
1
100
AcDbSymbolTableRecord
100
AcDbBlockTableRecord
  2
*D6
340
0
  0
BLOCK_RECORD
  5
586
330
1
100
AcDbSymbolTableRecord
100
AcDbBlockTableRecord
  2
*D7
340
0
  0
BLOCK_RECORD
  5
5B5
330
1
100
AcDbSymbolTableRecord
100
AcDbBlockTableRecord
  2
*D8
340
0
  0
BLOCK_RECORD
  5
5C1
330
1
100
AcDbSymbolTableRecord
100
AcDbBlockTableRecord
  2
_Open
340
0
102
{BLKREFS
331
5F7
331
5F8
102
}
  0
ENDTAB
  0
ENDSEC
  0
SECTION
  2
BLOCKS
  0
BLOCK
  5
1F
330
1E
100
AcDbEntity
  8
0
100
AcDbBlockBegin
  2
*Model_Space
 70
     0
 10
0.0
 20
0.0
 30
0.0
  3
*Model_Space
  1

  0
ENDBLK
  5
20
330
1E
100
AcDbEntity
  8
0
100
AcDbBlockEnd
  0
BLOCK
  5
1B
330
1A
100
AcDbEntity
 67
     1
  8
0
100
AcDbBlockBegin
  2
*Paper_Space
 70
     0
 10
0.0
 20
0.0
 30
0.0
  3
*Paper_Space
  1

  0
ENDBLK
  5
1C
330
1A
100
AcDbEntity
 67
     1
  8
0
100
AcDbBlockEnd
  0
BLOCK
  5
4A
330
49
100
AcDbEntity
  8
0
100
AcDbBlockBegin
  2
*U0
 70
     1
 10
0.0
 20
0.0
 30
0.0
  3
*U0
  1

  0
LWPOLYLINE
  5
4B
330
49
100
AcDbEntity
  8
寸法
100
AcDbPolyline
 90
        3
 70
     0
 43
0.0
 10
-86.820835
 20
87.733775
 10
-89.30830999999999
 20
86.056733
 10
-86.315572
 20
86.26535799999999
  0
LINE
  5
50
330
49
100
AcDbEntity
  8
寸法
100
AcDbLine
 10
-89.30830999999999
 20
86.056733
 30
0.0
 11
-49.736675
 21
99.67278
 31
0.0
  0
ENDBLK
  5
51
330
49
100
AcDbEntity
  8
0
100
AcDbBlockEnd
  0
BLOCK
  5
53
330
52
100
AcDbEntity
  8
0
100
AcDbBlockBegin
  2
*D1
 70
     1
 10
0.0
 20
0.0
 30
0.0
  3
*D1
  1

  0
LINE
  5
54
330
52
100
AcDbEntity
  8
寸法
  6
ByBlock
 62
     0
100
AcDbLine
 10
35.845058
 20
95.705445
 30
0.0
 11
35.845058
 21
110.3
 31
0.0
  0
LINE
  5
55
330
52
100
AcDbEntity
  8
寸法
  6
ByBlock
 62
     0
100
AcDbLine
 10
135.845058
 20
95.705445
 30
0.0
 11
135.845058
 21
110.3
 31
0.0
  0
LINE
  5
56
330
52
100
AcDbEntity
  8
寸法
  6
ByBlock
 62
     0
100
AcDbLine
 10
35.845058
 20
110.3
 30
0.0
 11
135.845058
 21
110.3
 31
0.0
  0
LWPOLYLINE
  5
57
330
52
100
AcDbEntity
  8
寸法
  6
ByBlock
 62
     0
100
AcDbPolyline
 90
        3
 70
     0
 43
0.0
 10
38.742835
 20
111.076457
 10
35.845058
 20
110.3
 10
38.742835
 20
109.523543
  0
LWPOLYLINE
  5
5C
330
52
100
AcDbEntity
  8
寸法
  6
ByBlock
 62
     0
100
AcDbPolyline
 90
        3
 70
     0
 43
0.0
 10
132.94728
 20
109.523543
 10
135.845058
 20
110.3
 10
132.94728
 20
111.076457
  0
TEXT
  5
61
330
52
100
AcDbEntity
  8
寸法
  6
Continuous
 62
     0
100
AcDbText
 10
80.13749999999999
 20
110.675
 30
0.0
 40
7.0
  1
100
 41
1.125
  7
TEXTSTYLE01
100
AcDbText
  0
ENDBLK
  5
62
330
52
100
AcDbEntity
  8
0
100
AcDbBlockEnd
  0
BLOCK
  5
64
330
63
100
AcDbEntity
  8
0
100
AcDbBlockBegin
  2
*D2
 70
     1
 10
0.0
 20
0.0
 30
0.0
  3
*D2
  1

  0
LINE
  5
65
330
63
100
AcDbEntity
  8
寸法
  6
ByBlock
 62
     0
100
AcDbLine
 10
35.845058
 20
35.653188
 30
0.0
 11
35.845058
 21
96.987535
 31
0.0
  0
LINE
  5
66
330
63
100
AcDbEntity
  8
寸法
  6
ByBlock
 62
     0
100
AcDbLine
 10
37.845058
 20
61.87075
 30
0.0
 11
37.845058
 21
96.987535
 31
0.0
  0
LINE
  5
67
330
63
100
AcDbEntity
  8
寸法
  6
ByBlock
 62
     0
100
AcDbLine
 10
25.845058
 20
96.987535
 30
0.0
 11
47.845058
 21
96.987535
 31
0.0
  0
LWPOLYLINE
  5
68
330
63
100
AcDbEntity
  8
寸法
  6
ByBlock
 62
     0
100
AcDbPolyline
 90
        3
 70
     0
 43
0.0
 10
32.94728
 20
96.211077
 10
35.845058
 20
96.987535
 10
32.94728
 20
97.763992
  0
LWPOLYLINE
  5
6D
330
63
100
AcDbEntity
  8
寸法
  6
ByBlock
 62
     0
100
AcDbPolyline
 90
        3
 70
     0
 43
0.0
 10
40.74283499999999
 20
97.763992
 10
37.845058
 20
96.987535
 10
40.74283499999999
 20
96.211077
  0
TEXT
  5
72
330
63
100
AcDbEntity
  8
寸法
  6
Continuous
 62
     0
100
AcDbText
 10
31.15
 20
97.35
 30
0.0
 40
7.0
  1
2
 41
1.125
  7
TEXTSTYLE01
100
AcDbText
  0
ENDBLK
  5
73
330
63
100
AcDbEntity
  8
0
100
AcDbBlockEnd
  0
BLOCK
  5
75
330
74
100
AcDbEntity
  8
0
100
AcDbBlockBegin
  2
*D3
 70
     1
 10
0.0
 20
0.0
 30
0.0
  3
*D3
  1

  0
LINE
  5
76
330
74
100
AcDbEntity
  8
寸法
  6
ByBlock
 62
     0
100
AcDbLine
 10
105.645058
 20
88.993225
 30
0.0
 11
105.645058
 21
96.987535
 31
0.0
  0
LINE
  5
77
330
74
100
AcDbEntity
  8
寸法
  6
ByBlock
 62
     0
100
AcDbLine
 10
37.845058
 20
96.987535
 30
0.0
 11
105.645058
 21
96.987535
 31
0.0
  0
LWPOLYLINE
  5
78
330
74
100
AcDbEntity
  8
寸法
  6
ByBlock
 62
     0
100
AcDbPolyline
 90
        3
 70
     0
 43
0.0
 10
102.74728
 20
96.211077
 10
105.645058
 20
96.987535
 10
102.74728
 20
97.763992
  0
TEXT
  5
7D
330
74
100
AcDbEntity
  8
寸法
  6
Continuous
 62
     0
100
AcDbText
 10
68.00625
 20
97.35
 30
0.0
 40
7.0
  1
68
 41
1.125
  7
TEXTSTYLE01
100
AcDbText
  0
ENDBLK
  5
7E
330
74
100
AcDbEntity
  8
0
100
AcDbBlockEnd
  0
BLOCK
  5
80
330
7F
100
AcDbEntity
  8
0
100
AcDbBlockBegin
  2
*D4
 70
     1
 10
0.0
 20
0.0
 30
0.0
  3
*D4
  1

  0
LINE
  5
81
330
7F
100
AcDbEntity
  8
寸法
  6
ByBlock
 62
     0
100
AcDbLine
 10
105.645058
 20
95.906517
 30
0.0
 11
105.645058
 21
96.987535
 31
0.0
  0
LINE
  5
82
330
7F
100
AcDbEntity
  8
寸法
  6
ByBlock
 62
     0
100
AcDbLine
 10
135.845058
 20
60.93493699999999
 30
0.0
 11
135.845058
 21
96.987535
 31
0.0
  0
LINE
  5
83
330
7F
100
AcDbEntity
  8
寸法
  6
ByBlock
 62
     0
100
AcDbLine
 10
105.645058
 20
96.987535
 30
0.0
 11
135.845058
 21
96.987535
 31
0.0
  0
LWPOLYLINE
  5
84
330
7F
100
AcDbEntity
  8
寸法
  6
ByBlock
 62
     0
100
AcDbPolyline
 90
        3
 70
     0
 43
0.0
 10
108.542835
 20
97.763992
 10
105.645058
 20
96.987535
 10
108.542835
 20
96.211077
  0
LWPOLYLINE
  5
89
330
7F
100
AcDbEntity
  8
寸法
  6
ByBlock
 62
     0
100
AcDbPolyline
 90
        3
 70
     0
 43
0.0
 10
132.94728
 20
96.211077
 10
135.845058
 20
96.987535
 10
132.94728
 20
97.763992
  0
TEXT
  5
8E
330
7F
100
AcDbEntity
  8
寸法
  6
Continuous
 62
     0
100
AcDbText
 10
117.00625
 20
97.35
 30
0.0
 40
7.0
  1
30
 41
1.125
  7
TEXTSTYLE01
100
AcDbText
  0
ENDBLK
  5
8F
330
7F
100
AcDbEntity
  8
0
100
AcDbBlockEnd
  0
BLOCK
  5
555
330
551
100
AcDbEntity
  8
0
100
AcDbBlockBegin
  2
_Open30
 70
     0
 10
0.0
 20
0.0
 30
0.0
  3
_Open30
  1

  0
LINE
  5
552
330
551
100
AcDbEntity
  8
ﾚｲﾔ1
  6
Continuous
 62
     0
370
    -2
100
AcDbLine
 10
-1.0
 20
0.26794919
 30
0.0
 11
0.0
 21
0.0
 31
0.0
  0
LINE
  5
553
330
551
100
AcDbEntity
  8
ﾚｲﾔ1
  6
Continuous
 62
     0
370
    -2
100
AcDbLine
 10
0.0
 20
0.0
 30
0.0
 11
-1.0
 21
-0.26794919
 31
0.0
  0
LINE
  5
554
330
551
100
AcDbEntity
  8
ﾚｲﾔ1
  6
Continuous
 62
     0
370
    -2
100
AcDbLine
 10
0.0
 20
0.0
 30
0.0
 11
-1.0
 21
0.0
 31
0.0
  0
ENDBLK
  5
556
330
551
100
AcDbEntity
  8
0
100
AcDbBlockEnd
  0
BLOCK
  5
57A
330
570
100
AcDbEntity
  8
0
100
AcDbBlockBegin
  2
*D6
 70
     1
 10
0.0
 20
0.0
 30
0.0
  3
*D6
  1

  0
LINE
  5
57C
330
570
100
AcDbEntity
  8
寸法
  6
Continuous
 62
     1
370
    -2
100
AcDbLine
 10
585.7418305005832
 20
8.056485428559569
 30
0.0
 11
548.312484040704
 21
8.056485428559569
 31
0.0
  0
LINE
  5
57D
330
570
100
AcDbEntity
  8
寸法
  6
Continuous
 62
     1
370
    -2
100
AcDbLine
 10
585.7418305005832
 20
-118.9435145714404
 30
0.0
 11
548.312484040704
 21
-118.9435145714404
 31
0.0
  0
LINE
  5
57E
330
570
100
AcDbEntity
  8
寸法
  6
Continuous
 62
     1
370
    -2
100
AcDbLine
 10
548.812484040704
 20
5.056485428559569
 30
0.0
 11
548.812484040704
 21
-115.9435145714404
 31
0.0
  0
INSERT
  5
57F
330
570
100
AcDbEntity
  8
寸法
 62
     1
370
    -2
100
AcDbBlockReference
  2
_Open30
 10
548.812484040704
 20
8.056485428559569
 30
0.0
 41
3.0
 42
3.0
 43
3.0
 50
90.0
  0
INSERT
  5
580
330
570
100
AcDbEntity
  8
寸法
 62
     1
370
    -2
100
AcDbBlockReference
  2
_Open30
 10
548.812484040704
 20
-118.9435145714404
 30
0.0
 41
3.0
 42
3.0
 43
3.0
 50
270.0
  0
MTEXT
  5
581
330
570
100
AcDbEntity
  8
寸法
  6
Continuous
 62
     1
100
AcDbMText
 10
545.312484040704
 20
-55.44351457144043
 30
0.0
 40
5.0
 41
0.0
 71
     5
 72
     1
  1
\A1;φ127
  7
TEXTSTYLE01
 11
0.0
 21
1.0
 31
0.0
 73
     1
 44
1.0
  0
POINT
  5
582
330
570
100
AcDbEntity
  8
Defpoints
 62
     0
100
AcDbPoint
 10
586.2418305005832
 20
8.056485428559569
 30
0.0
  0
POINT
  5
583
330
570
100
AcDbEntity
  8
Defpoints
 62
     0
100
AcDbPoint
 10
586.2418305005832
 20
-118.9435145714404
 30
0.0
  0
POINT
  5
584
330
570
100
AcDbEntity
  8
Defpoints
 62
     0
100
AcDbPoint
 10
548.812484040704
 20
-118.9435145714404
 30
0.0
  0
ENDBLK
  5
57B
330
570
100
AcDbEntity
  8
0
100
AcDbBlockEnd
  0
BLOCK
  5
590
330
586
100
AcDbEntity
  8
0
100
AcDbBlockBegin
  2
*D7
 70
     1
 10
0.0
 20
0.0
 30
0.0
  3
*D7
  1

  0
LINE
  5
592
330
586
100
AcDbEntity
  8
寸法
  6
Continuous
 62
     1
370
    -2
100
AcDbLine
 10
583.7418305005832
 20
-18.94351457144042
 30
0.0
 11
562.9725342201862
 21
-18.94351457144042
 31
0.0
  0
LINE
  5
593
330
586
100
AcDbEntity
  8
寸法
  6
Continuous
 62
     1
370
    -2
100
AcDbLine
 10
582.7418305005832
 20
-91.94351457144043
 30
0.0
 11
562.9725342201862
 21
-91.94351457144043
 31
0.0
  0
LINE
  5
594
330
586
100
AcDbEntity
  8
寸法
  6
Continuous
 62
     1
370
    -2
100
AcDbLine
 10
563.4725342201862
 20
-21.94351457144042
 30
0.0
 11
563.4725342201862
 21
-88.94351457144043
 31
0.0
  0
INSERT
  5
595
330
586
100
AcDbEntity
  8
寸法
 62
     1
370
    -2
100
AcDbBlockReference
  2
_Open30
 10
563.4725342201862
 20
-18.94351457144042
 30
0.0
 41
3.0
 42
3.0
 43
3.0
 50
90.0
  0
INSERT
  5
596
330
586
100
AcDbEntity
  8
寸法
 62
     1
370
    -2
100
AcDbBlockReference
  2
_Open30
 10
563.4725342201862
 20
-91.94351457144043
 30
0.0
 41
3.0
 42
3.0
 43
3.0
 50
270.0
  0
MTEXT
  5
597
330
586
100
AcDbEntity
  8
寸法
  6
Continuous
 62
     1
100
AcDbMText
 10
559.9725342201862
 20
-55.44351457144042
 30
0.0
 40
5.0
 41
0.0
 71
     5
 72
     1
  1
\A1;φ73
  7
TEXTSTYLE01
 11
0.0
 21
1.0
 31
0.0
 73
     1
 44
1.0
  0
POINT
  5
598
330
586
100
AcDbEntity
  8
Defpoints
 62
     0
100
AcDbPoint
 10
584.2418305005832
 20
-18.94351457144042
 30
0.0
  0
POINT
  5
599
330
586
100
AcDbEntity
  8
Defpoints
 62
     0
100
AcDbPoint
 10
583.2418305005832
 20
-91.94351457144043
 30
0.0
  0
POINT
  5
59A
330
586
100
AcDbEntity
  8
Defpoints
 62
     0
100
AcDbPoint
 10
563.4725342201862
 20
-91.94351457144043
 30
0.0
  0
ENDBLK
  5
591
330
586
100
AcDbEntity
  8
0
100
AcDbBlockEnd
  0
BLOCK
  5
5BF
330
5B5
100
AcDbEntity
  8
0
100
AcDbBlockBegin
  2
*D8
 70
     1
 10
0.0
 20
0.0
 30
0.0
  3
*D8
  1

  0
LINE
  5
5F4
330
5B5
100
AcDbEntity
  8
寸法
  6
Continuous
 62
     1
370
    -2
100
AcDbLine
 10
439.8043501232642
 20
32.05648542855958
 30
0.0
 11
374.4433445390298
 21
32.05648542855958
 31
0.0
  0
LINE
  5
5F5
330
5B5
100
AcDbEntity
  8
寸法
  6
Continuous
 62
     1
370
    -2
100
AcDbLine
 10
446.6045418490187
 20
-118.8848235380315
 30
0.0
 11
374.4433445390298
 21
-118.8848235380315
 31
0.0
  0
LINE
  5
5F6
330
5B5
100
AcDbEntity
  8
寸法
  6
Continuous
 62
     1
370
    -2
100
AcDbLine
 10
374.9433445390298
 20
29.05648542855958
 30
0.0
 11
374.9433445390298
 21
-115.8848235380315
 31
0.0
  0
INSERT
  5
5F7
330
5B5
100
AcDbEntity
  8
寸法
 62
     1
370
    -2
100
AcDbBlockReference
  2
_Open
 10
374.9433445390298
 20
32.05648542855958
 30
0.0
 41
3.0
 42
3.0
 43
3.0
 50
90.0
  0
INSERT
  5
5F8
330
5B5
100
AcDbEntity
  8
寸法
 62
     1
370
    -2
100
AcDbBlockReference
  2
_Open
 10
374.9433445390298
 20
-118.8848235380315
 30
0.0
 41
3.0
 42
3.0
 43
3.0
 50
270.0
  0
MTEXT
  5
5F9
330
5B5
100
AcDbEntity
  8
寸法
  6
Continuous
 62
     1
100
AcDbMText
 10
371.4433445390298
 20
-43.41416905473596
 30
0.0
 40
5.0
 41
0.0
 71
     5
 72
     1
  1
\A1;151
  7
TEXTSTYLE01
 11
0.0
 21
1.0
 31
0.0
 73
     1
 44
1.0
  0
POINT
  5
5FA
330
5B5
100
AcDbEntity
  8
Defpoints
 62
     0
100
AcDbPoint
 10
440.3043501232642
 20
32.05648542855958
 30
0.0
  0
POINT
  5
5FB
330
5B5
100
AcDbEntity
  8
Defpoints
 62
     0
100
AcDbPoint
 10
447.1045418490187
 20
-118.8848235380315
 30
0.0
  0
POINT
  5
5FC
330
5B5
100
AcDbEntity
  8
Defpoints
 62
     0
100
AcDbPoint
 10
374.9433445390298
 20
-118.8848235380315
 30
0.0
  0
ENDBLK
  5
5C0
330
5B5
100
AcDbEntity
  8
0
100
AcDbBlockEnd
  0
BLOCK
  5
5C5
330
5C1
100
AcDbEntity
  8
0
100
AcDbBlockBegin
  2
_Open
 70
     0
 10
0.0
 20
0.0
 30
0.0
  3
_Open
  1

  0
LINE
  5
5C2
330
5C1
100
AcDbEntity
  8
0
  6
ByBlock
 62
     0
370
    -2
100
AcDbLine
 10
-1.0
 20
0.1666666666666666
 30
0.0
 11
0.0
 21
0.0
 31
0.0
  0
LINE
  5
5C3
330
5C1
100
AcDbEntity
  8
0
  6
ByBlock
 62
     0
370
    -2
100
AcDbLine
 10
-1.0
 20
-0.1666666666666666
 30
0.0
 11
0.0
 21
0.0
 31
0.0
  0
LINE
  5
5C4
330
5C1
100
AcDbEntity
  8
0
  6
ByBlock
 62
     0
370
    -2
100
AcDbLine
 10
0.0
 20
0.0
 30
0.0
 11
-1.0
 21
0.0
 31
0.0
  0
ENDBLK
  5
5C6
330
5C1
100
AcDbEntity
  8
0
100
AcDbBlockEnd
  0
ENDSEC
  0
SECTION
  2
ENTITIES
  0
LINE
  5
107
330
1E
100
AcDbEntity
  8
ﾚｲﾔ1
  6
Continuous
100
AcDbLine
 10
443.1386775005832
 20
10.05648542855958
 30
0.0
 11
443.1386775005832
 21
30.05648542855958
 31
0.0
  0
LINE
  5
108
330
1E
100
AcDbEntity
  8
ﾚｲﾔ1
  6
Continuous
100
AcDbLine
 10
443.1386775005832
 20
30.05648542855958
 30
0.0
 11
445.1386775005832
 21
32.05648542855958
 31
0.0
  0
LINE
  5
109
330
1E
100
AcDbEntity
  8
ﾚｲﾔ1
  6
Continuous
100
AcDbLine
 10
445.1386775005832
 20
32.05648542855958
 30
0.0
 11
469.1386775005832
 21
32.05648542855958
 31
0.0
  0
LINE
  5
10A
330
1E
100
AcDbEntity
  8
ﾚｲﾔ1
  6
Continuous
100
AcDbLine
 10
469.1386775005832
 20
32.05648542855958
 30
0.0
 11
471.1386775005832
 21
30.05648542855958
 31
0.0
  0
LINE
  5
10B
330
1E
100
AcDbEntity
  8
ﾚｲﾔ1
  6
Continuous
100
AcDbLine
 10
471.1386775005832
 20
30.05648542855958
 30
0.0
 11
471.1386775005832
 21
10.05648542855958
 31
0.0
  0
LINE
  5
10C
330
1E
100
AcDbEntity
  8
ﾚｲﾔ1
  6
Continuous
100
AcDbLine
 10
443.1386775005832
 20
30.05648542855958
 30
0.0
 11
471.1386775005832
 21
30.05648542855958
 31
0.0
  0
LINE
  5
10D
330
1E
100
AcDbEntity
  8
ﾚｲﾔ1
  6
Continuous
100
AcDbLine
 10
443.1386775005832
 20
10.05648542855958
 30
0.0
 11
441.6386775005832
 21
9.056485428559569
 31
0.0
  0
LINE
  5
10E
330
1E
100
AcDbEntity
  8
ﾚｲﾔ1
  6
Continuous
100
AcDbLine
 10
441.6386775005832
 20
9.056485428559569
 30
0.0
 11
441.0386775005832
 21
8.60648542855958
 31
0.0
  0
LINE
  5
10F
330
1E
100
AcDbEntity
  8
ﾚｲﾔ1
  6
Continuous
100
AcDbLine
 10
441.0386775005832
 20
8.60648542855958
 30
0.0
 11
440.4886775005832
 21
8.15648542855957
 31
0.0
  0
LINE
  5
110
330
1E
100
AcDbEntity
  8
ﾚｲﾔ1
  6
Continuous
100
AcDbLine
 10
440.4886775005832
 20
8.15648542855957
 30
0.0
 11
439.9886775005832
 21
7.606485428559573
 31
0.0
  0
LINE
  5
111
330
1E
100
AcDbEntity
  8
ﾚｲﾔ1
  6
Continuous
100
AcDbLine
 10
439.9886775005832
 20
7.606485428559573
 30
0.0
 11
439.5386775005832
 21
7.056485428559583
 31
0.0
  0
LINE
  5
112
330
1E
100
AcDbEntity
  8
ﾚｲﾔ1
  6
Continuous
100
AcDbLine
 10
439.5386775005832
 20
7.056485428559583
 30
0.0
 11
439.1386775005832
 21
6.40648542855957
 31
0.0
  0
LINE
  5
113
330
1E
100
AcDbEntity
  8
ﾚｲﾔ1
  6
Continuous
100
AcDbLine
 10
439.1386775005832
 20
6.40648542855957
 30
0.0
 11
438.1386775005832
 21
4.806485428559569
 31
0.0
  0
LINE
  5
114
330
1E
100
AcDbEntity
  8
ﾚｲﾔ1
  6
Continuous
100
AcDbLine
 10
443.1386775005832
 20
10.05648542855958
 30
0.0
 11
450.1386775005832
 21
11.55648542855958
 31
0.0
  0
LINE
  5
115
330
1E
100
AcDbEntity
  8
ﾚｲﾔ1
  6
Continuous
100
AcDbLine
 10
450.1386775005832
 20
11.55648542855958
 30
0.0
 11
452.9386775005833
 21
12.00648542855957
 31
0.0
  0
LINE
  5
116
330
1E
100
AcDbEntity
  8
ﾚｲﾔ1
  6
Continuous
100
AcDbLine
 10
452.9386775005833
 20
12.00648542855957
 30
0.0
 11
455.7386775005832
 21
12.25648542855957
 31
0.0
  0
LINE
  5
117
330
1E
100
AcDbEntity
  8
ﾚｲﾔ1
  6
Continuous
100
AcDbLine
 10
455.7386775005832
 20
12.25648542855957
 30
0.0
 11
458.5386775005832
 21
12.25648542855957
 31
0.0
  0
LINE
  5
118
330
1E
100
AcDbEntity
  8
ﾚｲﾔ1
  6
Continuous
100
AcDbLine
 10
458.5386775005832
 20
12.25648542855957
 30
0.0
 11
461.3386775005832
 21
12.00648542855957
 31
0.0
  0
LINE
  5
119
330
1E
100
AcDbEntity
  8
ﾚｲﾔ1
  6
Continuous
100
AcDbLine
 10
461.3386775005832
 20
12.00648542855957
 30
0.0
 11
464.1386775005832
 21
11.55648542855958
 31
0.0
  0
LINE
  5
11A
330
1E
100
AcDbEntity
  8
ﾚｲﾔ1
  6
Continuous
100
AcDbLine
 10
464.1386775005832
 20
11.55648542855958
 30
0.0
 11
471.1386775005832
 21
10.05648542855958
 31
0.0
  0
LINE
  5
11B
330
1E
100
AcDbEntity
  8
ﾚｲﾔ1
  6
Continuous
100
AcDbLine
 10
471.1386775005832
 20
10.05648542855958
 30
0.0
 11
472.6386775005832
 21
9.056485428559569
 31
0.0
  0
LINE
  5
11C
330
1E
100
AcDbEntity
  8
ﾚｲﾔ1
  6
Continuous
100
AcDbLine
 10
472.6386775005832
 20
9.056485428559569
 30
0.0
 11
473.1886775005833
 21
8.60648542855958
 31
0.0
  0
LINE
  5
11D
330
1E
100
AcDbEntity
  8
ﾚｲﾔ1
  6
Continuous
100
AcDbLine
 10
473.1886775005833
 20
8.60648542855958
 30
0.0
 11
473.7386775005832
 21
8.15648542855957
 31
0.0
  0
LINE
  5
11E
330
1E
100
AcDbEntity
  8
ﾚｲﾔ1
  6
Continuous
100
AcDbLine
 10
473.7386775005832
 20
8.15648542855957
 30
0.0
 11
474.2386775005832
 21
7.606485428559573
 31
0.0
  0
LINE
  5
11F
330
1E
100
AcDbEntity
  8
ﾚｲﾔ1
  6
Continuous
100
AcDbLine
 10
474.2386775005832
 20
7.606485428559573
 30
0.0
 11
474.6886775005833
 21
7.056485428559583
 31
0.0
  0
LINE
  5
120
330
1E
100
AcDbEntity
  8
ﾚｲﾔ1
  6
Continuous
100
AcDbLine
 10
474.6886775005833
 20
7.056485428559583
 30
0.0
 11
475.1386775005833
 21
6.40648542855957
 31
0.0
  0
LINE
  5
121
330
1E
100
AcDbEntity
  8
ﾚｲﾔ1
  6
Continuous
100
AcDbLine
 10
475.1386775005833
 20
6.40648542855957
 30
0.0
 11
476.1386775005832
 21
4.806485428559569
 31
0.0
  0
LINE
  5
2A2
330
1E
100
AcDbEntity
  8
ﾚｲﾔ1
  6
Continuous
100
AcDbLine
 10
462.1386775005832
 20
-55.44351457144042
 30
0.0
 11
459.6386775005832
 21
-51.11851457144042
 31
0.0
  0
LINE
  5
2A3
330
1E
100
AcDbEntity
  8
ﾚｲﾔ1
  6
Continuous
100
AcDbLine
 10
459.6386775005832
 20
-51.11851457144042
 30
0.0
 11
454.6386775005832
 21
-51.11851457144042
 31
0.0
  0
LINE
  5
2A4
330
1E
100
AcDbEntity
  8
ﾚｲﾔ1
  6
Continuous
100
AcDbLine
 10
454.6386775005832
 20
-51.11851457144042
 30
0.0
 11
452.1386775005832
 21
-55.44351457144042
 31
0.0
  0
LINE
  5
2A5
330
1E
100
AcDbEntity
  8
ﾚｲﾔ1
  6
Continuous
100
AcDbLine
 10
452.1386775005832
 20
-55.44351457144042
 30
0.0
 11
454.6386775005832
 21
-59.76851457144042
 31
0.0
  0
LINE
  5
2A6
330
1E
100
AcDbEntity
  8
ﾚｲﾔ1
  6
Continuous
100
AcDbLine
 10
454.6386775005832
 20
-59.76851457144042
 30
0.0
 11
459.6386775005832
 21
-59.76851457144042
 31
0.0
  0
LINE
  5
2A7
330
1E
100
AcDbEntity
  8
ﾚｲﾔ1
  6
Continuous
100
AcDbLine
 10
459.6386775005832
 20
-59.76851457144042
 30
0.0
 11
462.1386775005832
 21
-55.44351457144042
 31
0.0
  0
LINE
  5
2F1
330
1E
100
AcDbEntity
  8
ﾚｲﾔ1
  6
Continuous
100
AcDbLine
 10
475.7136775005832
 20
5.281485428559577
 30
0.0
 11
474.6386775005833
 21
5.60648542855958
 31
0.0
  0
LINE
  5
2F8
330
1E
100
AcDbEntity
  8
ﾚｲﾔ1
  6
Continuous
100
AcDbLine
 10
468.1636775005832
 20
7.081485428559581
 30
0.0
 11
467.0636775005832
 21
7.281485428559577
 31
0.0
  0
LINE
  5
311
330
1E
100
AcDbEntity
  8
ﾚｲﾔ1
  6
Continuous
100
AcDbLine
 10
440.7136775005832
 20
5.881485428559579
 30
0.0
 11
439.6386775005832
 21
5.60648542855958
 31
0.0
  0
LINE
  5
410
330
1E
100
AcDbEntity
  8
ﾚｲﾔ1
  6
Continuous
100
AcDbLine
 10
680.2418305005832
 20
-55.44351457144042
 30
0.0
 11
680.2418305005832
 21
8.056485428559569
 31
0.0
  0
LINE
  5
411
330
1E
100
AcDbEntity
  8
ﾚｲﾔ1
  6
Continuous
100
AcDbLine
 10
680.2418305005832
 20
-55.44351457144042
 30
0.0
 11
680.2418305005832
 21
-118.9435145714404
 31
0.0
  0
LINE
  5
412
330
1E
100
AcDbEntity
  8
ﾚｲﾔ1
  6
Continuous
100
AcDbLine
 10
584.2418305005832
 20
-18.94351457144042
 30
0.0
 11
584.2418305005832
 21
-91.94351457144043
 31
0.0
  0
LINE
  5
413
330
1E
100
AcDbEntity
  8
ﾚｲﾔ1
  6
Continuous
100
AcDbLine
 10
583.2418305005832
 20
-91.94351457144043
 30
0.0
 11
583.2418305005832
 21
-18.94351457144042
 31
0.0
  0
LINE
  5
414
330
1E
100
AcDbEntity
  8
ﾚｲﾔ1
  6
Continuous
100
AcDbLine
 10
586.2418305005832
 20
-118.9435145714404
 30
0.0
 11
680.2418305005832
 21
-118.9435145714404
 31
0.0
  0
LINE
  5
415
330
1E
100
AcDbEntity
  8
ﾚｲﾔ1
  6
Continuous
100
AcDbLine
 10
638.0418305005832
 20
12.55648542855958
 30
0.0
 11
637.3918305005832
 21
12.30648542855958
 31
0.0
  0
LINE
  5
416
330
1E
100
AcDbEntity
  8
ﾚｲﾔ1
  6
Continuous
100
AcDbLine
 10
637.3918305005832
 20
12.30648542855958
 30
0.0
 11
637.1418305005832
 21
12.20648542855957
 31
0.0
  0
LINE
  5
417
330
1E
100
AcDbEntity
  8
ﾚｲﾔ1
  6
Continuous
100
AcDbLine
 10
637.1418305005832
 20
12.20648542855957
 30
0.0
 11
636.9418305005831
 21
12.10648542855958
 31
0.0
  0
LINE
  5
418
330
1E
100
AcDbEntity
  8
ﾚｲﾔ1
  6
Continuous
100
AcDbLine
 10
636.9418305005831
 20
12.10648542855958
 30
0.0
 11
636.7918305005832
 21
12.00648542855957
 31
0.0
  0
LINE
  5
419
330
1E
100
AcDbEntity
  8
ﾚｲﾔ1
  6
Continuous
100
AcDbLine
 10
636.7918305005832
 20
12.00648542855957
 30
0.0
 11
636.6418305005832
 21
11.95648542855957
 31
0.0
  0
LINE
  5
41A
330
1E
100
AcDbEntity
  8
ﾚｲﾔ1
  6
Continuous
100
AcDbLine
 10
636.6418305005832
 20
11.95648542855957
 30
0.0
 11
636.5418305005833
 21
11.90648542855958
 31
0.0
  0
LINE
  5
41B
330
1E
100
AcDbEntity
  8
ﾚｲﾔ1
  6
Continuous
100
AcDbLine
 10
636.5418305005833
 20
11.90648542855958
 30
0.0
 11
636.4418305005833
 21
11.80648542855958
 31
0.0
  0
LINE
  5
41C
330
1E
100
AcDbEntity
  8
ﾚｲﾔ1
  6
Continuous
100
AcDbLine
 10
636.4418305005833
 20
11.80648542855958
 30
0.0
 11
636.3418305005832
 21
11.75648542855957
 31
0.0
  0
LINE
  5
41D
330
1E
100
AcDbEntity
  8
ﾚｲﾔ1
  6
Continuous
100
AcDbLine
 10
636.3418305005832
 20
11.75648542855957
 30
0.0
 11
636.2418305005832
 21
11.70648542855957
 31
0.0
  0
LINE
  5
41E
330
1E
100
AcDbEntity
  8
ﾚｲﾔ1
  6
Continuous
100
AcDbLine
 10
636.2418305005832
 20
11.70648542855957
 30
0.0
 11
636.1418305005832
 21
11.60648542855958
 31
0.0
  0
LINE
  5
41F
330
1E
100
AcDbEntity
  8
ﾚｲﾔ1
  6
Continuous
100
AcDbLine
 10
636.1418305005832
 20
11.60648542855958
 30
0.0
 11
636.0418305005832
 21
11.55648542855958
 31
0.0
  0
LINE
  5
420
330
1E
100
AcDbEntity
  8
ﾚｲﾔ1
  6
Continuous
100
AcDbLine
 10
636.0418305005832
 20
11.55648542855958
 30
0.0
 11
635.9418305005831
 21
11.50648542855957
 31
0.0
  0
LINE
  5
421
330
1E
100
AcDbEntity
  8
ﾚｲﾔ1
  6
Continuous
100
AcDbLine
 10
635.9418305005831
 20
11.50648542855957
 30
0.0
 11
635.8418305005832
 21
11.40648542855958
 31
0.0
  0
LINE
  5
422
330
1E
100
AcDbEntity
  8
ﾚｲﾔ1
  6
Continuous
100
AcDbLine
 10
635.8418305005832
 20
11.40648542855958
 30
0.0
 11
635.7418305005832
 21
11.30648542855958
 31
0.0
  0
LINE
  5
423
330
1E
100
AcDbEntity
  8
ﾚｲﾔ1
  6
Continuous
100
AcDbLine
 10
635.7418305005832
 20
11.30648542855958
 30
0.0
 11
635.6418305005832
 21
11.20648542855957
 31
0.0
  0
LINE
  5
424
330
1E
100
AcDbEntity
  8
ﾚｲﾔ1
  6
Continuous
100
AcDbLine
 10
635.6418305005832
 20
11.20648542855957
 30
0.0
 11
635.5418305005832
 21
11.15648542855958
 31
0.0
  0
LINE
  5
425
330
1E
100
AcDbEntity
  8
ﾚｲﾔ1
  6
Continuous
100
AcDbLine
 10
635.5418305005832
 20
11.15648542855958
 30
0.0
 11
635.4418305005833
 21
11.00648542855957
 31
0.0
  0
LINE
  5
426
330
1E
100
AcDbEntity
  8
ﾚｲﾔ1
  6
Continuous
100
AcDbLine
 10
635.4418305005833
 20
11.00648542855957
 30
0.0
 11
635.3418305005832
 21
10.90648542855958
 31
0.0
  0
LINE
  5
427
330
1E
100
AcDbEntity
  8
ﾚｲﾔ1
  6
Continuous
100
AcDbLine
 10
635.3418305005832
 20
10.90648542855958
 30
0.0
 11
635.2418305005832
 21
10.80648542855958
 31
0.0
  0
LINE
  5
428
330
1E
100
AcDbEntity
  8
ﾚｲﾔ1
  6
Continuous
100
AcDbLine
 10
635.2418305005832
 20
10.80648542855958
 30
0.0
 11
635.1418305005832
 21
10.70648542855957
 31
0.0
  0
LINE
  5
429
330
1E
100
AcDbEntity
  8
ﾚｲﾔ1
  6
Continuous
100
AcDbLine
 10
635.1418305005832
 20
10.70648542855957
 30
0.0
 11
635.0418305005832
 21
10.55648542855958
 31
0.0
  0
LINE
  5
42A
330
1E
100
AcDbEntity
  8
ﾚｲﾔ1
  6
Continuous
100
AcDbLine
 10
635.0418305005832
 20
10.55648542855958
 30
0.0
 11
634.9418305005833
 21
10.40648542855958
 31
0.0
  0
LINE
  5
42B
330
1E
100
AcDbEntity
  8
ﾚｲﾔ1
  6
Continuous
100
AcDbLine
 10
634.9418305005833
 20
10.40648542855958
 30
0.0
 11
634.8418305005832
 21
10.30648542855958
 31
0.0
  0
LINE
  5
42C
330
1E
100
AcDbEntity
  8
ﾚｲﾔ1
  6
Continuous
100
AcDbLine
 10
634.8418305005832
 20
10.30648542855958
 30
0.0
 11
634.7418305005832
 21
10.15648542855958
 31
0.0
  0
LINE
  5
42D
330
1E
100
AcDbEntity
  8
ﾚｲﾔ1
  6
Continuous
100
AcDbLine
 10
634.7418305005832
 20
10.15648542855958
 30
0.0
 11
634.6418305005832
 21
10.00648542855958
 31
0.0
  0
LINE
  5
42E
330
1E
100
AcDbEntity
  8
ﾚｲﾔ1
  6
Continuous
100
AcDbLine
 10
634.6418305005832
 20
10.00648542855958
 30
0.0
 11
634.5418305005832
 21
9.906485428559577
 31
0.0
  0
LINE
  5
42F
330
1E
100
AcDbEntity
  8
ﾚｲﾔ1
  6
Continuous
100
AcDbLine
 10
634.5418305005832
 20
9.906485428559577
 30
0.0
 11
634.4418305005831
 21
9.756485428559571
 31
0.0
  0
LINE
  5
430
330
1E
100
AcDbEntity
  8
ﾚｲﾔ1
  6
Continuous
100
AcDbLine
 10
634.4418305005831
 20
9.756485428559571
 30
0.0
 11
634.3418305005832
 21
9.60648542855958
 31
0.0
  0
LINE
  5
431
330
1E
100
AcDbEntity
  8
ﾚｲﾔ1
  6
Continuous
100
AcDbLine
 10
634.3418305005832
 20
9.60648542855958
 30
0.0
 11
634.2418305005832
 21
9.456485428559581
 31
0.0
  0
LINE
  5
432
330
1E
100
AcDbEntity
  8
ﾚｲﾔ1
  6
Continuous
100
AcDbLine
 10
634.2418305005832
 20
9.456485428559581
 30
0.0
 11
634.1418305005832
 21
9.306485428559569
 31
0.0
  0
LINE
  5
433
330
1E
100
AcDbEntity
  8
ﾚｲﾔ1
  6
Continuous
100
AcDbLine
 10
634.1418305005832
 20
9.306485428559569
 30
0.0
 11
634.0918305005832
 21
9.156485428559577
 31
0.0
  0
LINE
  5
434
330
1E
100
AcDbEntity
  8
ﾚｲﾔ1
  6
Continuous
100
AcDbLine
 10
634.0918305005832
 20
9.156485428559577
 30
0.0
 11
633.9918305005832
 21
9.006485428559579
 31
0.0
  0
LINE
  5
435
330
1E
100
AcDbEntity
  8
ﾚｲﾔ1
  6
Continuous
100
AcDbLine
 10
633.9918305005832
 20
9.006485428559579
 30
0.0
 11
633.9418305005833
 21
8.856485428559573
 31
0.0
  0
LINE
  5
436
330
1E
100
AcDbEntity
  8
ﾚｲﾔ1
  6
Continuous
100
AcDbLine
 10
633.9418305005833
 20
8.856485428559573
 30
0.0
 11
633.8418305005832
 21
8.706485428559581
 31
0.0
  0
LINE
  5
437
330
1E
100
AcDbEntity
  8
ﾚｲﾔ1
  6
Continuous
100
AcDbLine
 10
633.8418305005832
 20
8.706485428559581
 30
0.0
 11
633.7918305005832
 21
8.60648542855958
 31
0.0
  0
LINE
  5
438
330
1E
100
AcDbEntity
  8
ﾚｲﾔ1
  6
Continuous
100
AcDbLine
 10
633.7918305005832
 20
8.60648542855958
 30
0.0
 11
633.7918305005832
 21
8.456485428559581
 31
0.0
  0
LINE
  5
439
330
1E
100
AcDbEntity
  8
ﾚｲﾔ1
  6
Continuous
100
AcDbLine
 10
633.7918305005832
 20
8.456485428559581
 30
0.0
 11
633.7418305005832
 21
8.306485428559583
 31
0.0
  0
LINE
  5
43A
330
1E
100
AcDbEntity
  8
ﾚｲﾔ1
  6
Continuous
100
AcDbLine
 10
633.7418305005832
 20
8.306485428559583
 30
0.0
 11
633.6918305005833
 21
8.206485428559581
 31
0.0
  0
LINE
  5
43B
330
1E
100
AcDbEntity
  8
ﾚｲﾔ1
  6
Continuous
100
AcDbLine
 10
633.6918305005833
 20
8.206485428559581
 30
0.0
 11
633.6918305005833
 21
8.10648542855958
 31
0.0
  0
LINE
  5
43C
330
1E
100
AcDbEntity
  8
ﾚｲﾔ1
  6
Continuous
100
AcDbLine
 10
633.6918305005833
 20
8.10648542855958
 30
0.0
 11
633.6918305005833
 21
8.006485428559571
 31
0.0
  0
LINE
  5
43D
330
1E
100
AcDbEntity
  8
ﾚｲﾔ1
  6
Continuous
100
AcDbLine
 10
633.6918305005833
 20
8.006485428559571
 30
0.0
 11
633.6918305005833
 21
7.906485428559577
 31
0.0
  0
LINE
  5
43E
330
1E
100
AcDbEntity
  8
ﾚｲﾔ1
  6
Continuous
100
AcDbLine
 10
633.6918305005833
 20
7.906485428559577
 30
0.0
 11
633.6918305005833
 21
7.806485428559569
 31
0.0
  0
LINE
  5
43F
330
1E
100
AcDbEntity
  8
ﾚｲﾔ1
  6
Continuous
100
AcDbLine
 10
633.6918305005833
 20
7.806485428559569
 30
0.0
 11
633.6918305005833
 21
7.706485428559581
 31
0.0
  0
LINE
  5
440
330
1E
100
AcDbEntity
  8
ﾚｲﾔ1
  6
Continuous
100
AcDbLine
 10
633.6918305005833
 20
7.706485428559581
 30
0.0
 11
633.6918305005833
 21
7.606485428559573
 31
0.0
  0
LINE
  5
441
330
1E
100
AcDbEntity
  8
ﾚｲﾔ1
  6
Continuous
100
AcDbLine
 10
633.6918305005833
 20
7.606485428559573
 30
0.0
 11
633.7418305005832
 21
7.506485428559579
 31
0.0
  0
LINE
  5
442
330
1E
100
AcDbEntity
  8
ﾚｲﾔ1
  6
Continuous
100
AcDbLine
 10
633.7418305005832
 20
7.506485428559579
 30
0.0
 11
633.7918305005832
 21
7.456485428559581
 31
0.0
  0
LINE
  5
443
330
1E
100
AcDbEntity
  8
ﾚｲﾔ1
  6
Continuous
100
AcDbLine
 10
633.7918305005832
 20
7.456485428559581
 30
0.0
 11
633.7918305005832
 21
7.406485428559577
 31
0.0
  0
LINE
  5
444
330
1E
100
AcDbEntity
  8
ﾚｲﾔ1
  6
Continuous
100
AcDbLine
 10
633.7918305005832
 20
7.406485428559577
 30
0.0
 11
633.8418305005832
 21
7.306485428559569
 31
0.0
  0
LINE
  5
445
330
1E
100
AcDbEntity
  8
ﾚｲﾔ1
  6
Continuous
100
AcDbLine
 10
633.8418305005832
 20
7.306485428559569
 30
0.0
 11
633.9418305005833
 21
7.256485428559571
 31
0.0
  0
LINE
  5
446
330
1E
100
AcDbEntity
  8
ﾚｲﾔ1
  6
Continuous
100
AcDbLine
 10
633.9418305005833
 20
7.256485428559571
 30
0.0
 11
633.9918305005832
 21
7.206485428559581
 31
0.0
  0
LINE
  5
447
330
1E
100
AcDbEntity
  8
ﾚｲﾔ1
  6
Continuous
100
AcDbLine
 10
633.9918305005832
 20
7.206485428559581
 30
0.0
 11
634.0918305005832
 21
7.156485428559577
 31
0.0
  0
LINE
  5
448
330
1E
100
AcDbEntity
  8
ﾚｲﾔ1
  6
Continuous
100
AcDbLine
 10
634.0918305005832
 20
7.156485428559577
 30
0.0
 11
634.1418305005832
 21
7.10648542855958
 31
0.0
  0
LINE
  5
449
330
1E
100
AcDbEntity
  8
ﾚｲﾔ1
  6
Continuous
100
AcDbLine
 10
634.1418305005832
 20
7.10648542855958
 30
0.0
 11
634.2418305005832
 21
7.056485428559583
 31
0.0
  0
LINE
  5
44A
330
1E
100
AcDbEntity
  8
ﾚｲﾔ1
  6
Continuous
100
AcDbLine
 10
634.2418305005832
 20
7.056485428559583
 30
0.0
 11
634.3918305005832
 21
7.006485428559579
 31
0.0
  0
LINE
  5
44B
330
1E
100
AcDbEntity
  8
ﾚｲﾔ1
  6
Continuous
100
AcDbLine
 10
634.3918305005832
 20
7.006485428559579
 30
0.0
 11
634.4918305005832
 21
6.956485428559581
 31
0.0
  0
LINE
  5
44C
330
1E
100
AcDbEntity
  8
ﾚｲﾔ1
  6
Continuous
100
AcDbLine
 10
634.4918305005832
 20
6.956485428559581
 30
0.0
 11
634.6418305005832
 21
6.90648542855957
 31
0.0
  0
LINE
  5
44D
330
1E
100
AcDbEntity
  8
ﾚｲﾔ1
  6
Continuous
100
AcDbLine
 10
634.6418305005832
 20
6.90648542855957
 30
0.0
 11
634.7918305005832
 21
6.85648542855958
 31
0.0
  0
LINE
  5
44E
330
1E
100
AcDbEntity
  8
ﾚｲﾔ1
  6
Continuous
100
AcDbLine
 10
634.7918305005832
 20
6.85648542855958
 30
0.0
 11
634.9918305005832
 21
6.806485428559569
 31
0.0
  0
LINE
  5
44F
330
1E
100
AcDbEntity
  8
ﾚｲﾔ1
  6
Continuous
100
AcDbLine
 10
634.9918305005832
 20
6.806485428559569
 30
0.0
 11
635.1918305005833
 21
6.756485428559571
 31
0.0
  0
LINE
  5
450
330
1E
100
AcDbEntity
  8
ﾚｲﾔ1
  6
Continuous
100
AcDbLine
 10
635.1918305005833
 20
6.756485428559571
 30
0.0
 11
635.4418305005833
 21
6.706485428559581
 31
0.0
  0
LINE
  5
451
330
1E
100
AcDbEntity
  8
ﾚｲﾔ1
  6
Continuous
100
AcDbLine
 10
635.4418305005833
 20
6.706485428559581
 30
0.0
 11
635.6918305005831
 21
6.656485428559577
 31
0.0
  0
LINE
  5
452
330
1E
100
AcDbEntity
  8
ﾚｲﾔ1
  6
Continuous
100
AcDbLine
 10
635.6918305005831
 20
6.656485428559577
 30
0.0
 11
635.9918305005832
 21
6.60648542855958
 31
0.0
  0
LINE
  5
453
330
1E
100
AcDbEntity
  8
ﾚｲﾔ1
  6
Continuous
100
AcDbLine
 10
635.9918305005832
 20
6.60648542855958
 30
0.0
 11
636.2918305005832
 21
6.556485428559569
 31
0.0
  0
LINE
  5
454
330
1E
100
AcDbEntity
  8
ﾚｲﾔ1
  6
Continuous
100
AcDbLine
 10
636.2918305005832
 20
6.556485428559569
 30
0.0
 11
636.5918305005832
 21
6.506485428559579
 31
0.0
  0
LINE
  5
455
330
1E
100
AcDbEntity
  8
ﾚｲﾔ1
  6
Continuous
100
AcDbLine
 10
636.5918305005832
 20
6.506485428559579
 30
0.0
 11
636.9418305005831
 21
6.456485428559581
 31
0.0
  0
LINE
  5
456
330
1E
100
AcDbEntity
  8
ﾚｲﾔ1
  6
Continuous
100
AcDbLine
 10
636.9418305005831
 20
6.456485428559581
 30
0.0
 11
637.3418305005832
 21
6.40648542855957
 31
0.0
  0
LINE
  5
457
330
1E
100
AcDbEntity
  8
ﾚｲﾔ1
  6
Continuous
100
AcDbLine
 10
637.3418305005832
 20
6.40648542855957
 30
0.0
 11
637.6918305005833
 21
6.306485428559583
 31
0.0
  0
LINE
  5
458
330
1E
100
AcDbEntity
  8
ﾚｲﾔ1
  6
Continuous
100
AcDbLine
 10
637.6918305005833
 20
6.306485428559583
 30
0.0
 11
638.1418305005832
 21
6.256485428559579
 31
0.0
  0
LINE
  5
459
330
1E
100
AcDbEntity
  8
ﾚｲﾔ1
  6
Continuous
100
AcDbLine
 10
638.1418305005832
 20
6.256485428559579
 30
0.0
 11
638.5418305005832
 21
6.206485428559581
 31
0.0
  0
LINE
  5
45A
330
1E
100
AcDbEntity
  8
ﾚｲﾔ1
  6
Continuous
100
AcDbLine
 10
638.5418305005832
 20
6.206485428559581
 30
0.0
 11
638.9918305005832
 21
6.10648542855958
 31
0.0
  0
LINE
  5
45B
330
1E
100
AcDbEntity
  8
ﾚｲﾔ1
  6
Continuous
100
AcDbLine
 10
638.9918305005832
 20
6.10648542855958
 30
0.0
 11
639.4918305005832
 21
6.056485428559569
 31
0.0
  0
LINE
  5
45C
330
1E
100
AcDbEntity
  8
ﾚｲﾔ1
  6
Continuous
100
AcDbLine
 10
639.4918305005832
 20
6.056485428559569
 30
0.0
 11
639.9918305005832
 21
6.006485428559571
 31
0.0
  0
LINE
  5
45D
330
1E
100
AcDbEntity
  8
ﾚｲﾔ1
  6
Continuous
100
AcDbLine
 10
639.9918305005832
 20
6.006485428559571
 30
0.0
 11
640.5418305005832
 21
5.906485428559577
 31
0.0
  0
LINE
  5
45E
330
1E
100
AcDbEntity
  8
ﾚｲﾔ1
  6
Continuous
100
AcDbLine
 10
640.5418305005832
 20
5.906485428559577
 30
0.0
 11
641.0918305005832
 21
5.85648542855958
 31
0.0
  0
LINE
  5
45F
330
1E
100
AcDbEntity
  8
ﾚｲﾔ1
  6
Continuous
100
AcDbLine
 10
641.0918305005832
 20
5.85648542855958
 30
0.0
 11
641.6418305005832
 21
5.756485428559579
 31
0.0
  0
LINE
  5
460
330
1E
100
AcDbEntity
  8
ﾚｲﾔ1
  6
Continuous
100
AcDbLine
 10
641.6418305005832
 20
5.756485428559579
 30
0.0
 11
642.2418305005832
 21
5.706485428559581
 31
0.0
  0
LINE
  5
461
330
1E
100
AcDbEntity
  8
ﾚｲﾔ1
  6
Continuous
100
AcDbLine
 10
642.2418305005832
 20
5.706485428559581
 30
0.0
 11
642.8418305005832
 21
5.65648542855957
 31
0.0
  0
LINE
  5
462
330
1E
100
AcDbEntity
  8
ﾚｲﾔ1
  6
Continuous
100
AcDbLine
 10
642.8418305005832
 20
5.65648542855957
 30
0.0
 11
643.4918305005832
 21
5.556485428559569
 31
0.0
  0
LINE
  5
463
330
1E
100
AcDbEntity
  8
ﾚｲﾔ1
  6
Continuous
100
AcDbLine
 10
643.4918305005832
 20
5.556485428559569
 30
0.0
 11
644.1418305005832
 21
5.506485428559571
 31
0.0
  0
LINE
  5
464
330
1E
100
AcDbEntity
  8
ﾚｲﾔ1
  6
Continuous
100
AcDbLine
 10
644.1418305005832
 20
5.506485428559571
 30
0.0
 11
644.7418305005832
 21
5.406485428559577
 31
0.0
  0
LINE
  5
465
330
1E
100
AcDbEntity
  8
ﾚｲﾔ1
  6
Continuous
100
AcDbLine
 10
644.7418305005832
 20
5.406485428559577
 30
0.0
 11
645.4418305005833
 21
5.35648542855958
 31
0.0
  0
LINE
  5
466
330
1E
100
AcDbEntity
  8
ﾚｲﾔ1
  6
Continuous
100
AcDbLine
 10
645.4418305005833
 20
5.35648542855958
 30
0.0
 11
646.0918305005832
 21
5.306485428559569
 31
0.0
  0
LINE
  5
467
330
1E
100
AcDbEntity
  8
ﾚｲﾔ1
  6
Continuous
100
AcDbLine
 10
646.0918305005832
 20
5.306485428559569
 30
0.0
 11
646.7418305005832
 21
5.256485428559579
 31
0.0
  0
LINE
  5
468
330
1E
100
AcDbEntity
  8
ﾚｲﾔ1
  6
Continuous
100
AcDbLine
 10
646.7418305005832
 20
5.256485428559579
 30
0.0
 11
647.3918305005832
 21
5.206485428559581
 31
0.0
  0
LINE
  5
469
330
1E
100
AcDbEntity
  8
ﾚｲﾔ1
  6
Continuous
100
AcDbLine
 10
647.3918305005832
 20
5.206485428559581
 30
0.0
 11
648.0418305005833
 21
5.15648542855957
 31
0.0
  0
LINE
  5
46A
330
1E
100
AcDbEntity
  8
ﾚｲﾔ1
  6
Continuous
100
AcDbLine
 10
648.0418305005833
 20
5.15648542855957
 30
0.0
 11
648.7418305005832
 21
5.106485428559573
 31
0.0
  0
LINE
  5
46B
330
1E
100
AcDbEntity
  8
ﾚｲﾔ1
  6
Continuous
100
AcDbLine
 10
648.7418305005832
 20
5.106485428559573
 30
0.0
 11
649.3918305005832
 21
5.056485428559583
 31
0.0
  0
LINE
  5
46C
330
1E
100
AcDbEntity
  8
ﾚｲﾔ1
  6
Continuous
100
AcDbLine
 10
649.3918305005832
 20
5.056485428559583
 30
0.0
 11
650.0418305005833
 21
5.056485428559583
 31
0.0
  0
LINE
  5
46D
330
1E
100
AcDbEntity
  8
ﾚｲﾔ1
  6
Continuous
100
AcDbLine
 10
650.0418305005833
 20
5.056485428559583
 30
0.0
 11
650.6918305005833
 21
5.056485428559583
 31
0.0
  0
LINE
  5
46E
330
1E
100
AcDbEntity
  8
ﾚｲﾔ1
  6
Continuous
100
AcDbLine
 10
650.6918305005833
 20
5.056485428559583
 30
0.0
 11
651.3418305005832
 21
5.056485428559583
 31
0.0
  0
LINE
  5
46F
330
1E
100
AcDbEntity
  8
ﾚｲﾔ1
  6
Continuous
100
AcDbLine
 10
651.3418305005832
 20
5.056485428559583
 30
0.0
 11
652.0418305005833
 21
5.056485428559583
 31
0.0
  0
LINE
  5
470
330
1E
100
AcDbEntity
  8
ﾚｲﾔ1
  6
Continuous
100
AcDbLine
 10
652.0418305005833
 20
5.056485428559583
 30
0.0
 11
652.6918305005833
 21
5.056485428559583
 31
0.0
  0
LINE
  5
471
330
1E
100
AcDbEntity
  8
ﾚｲﾔ1
  6
Continuous
100
AcDbLine
 10
652.6918305005833
 20
5.056485428559583
 30
0.0
 11
653.3418305005832
 21
5.056485428559583
 31
0.0
  0
LINE
  5
472
330
1E
100
AcDbEntity
  8
ﾚｲﾔ1
  6
Continuous
100
AcDbLine
 10
653.3418305005832
 20
5.056485428559583
 30
0.0
 11
653.9918305005832
 21
5.056485428559583
 31
0.0
  0
LINE
  5
473
330
1E
100
AcDbEntity
  8
ﾚｲﾔ1
  6
Continuous
100
AcDbLine
 10
653.9918305005832
 20
5.056485428559583
 30
0.0
 11
654.6418305005832
 21
5.056485428559583
 31
0.0
  0
LINE
  5
474
330
1E
100
AcDbEntity
  8
ﾚｲﾔ1
  6
Continuous
100
AcDbLine
 10
654.6418305005832
 20
5.056485428559583
 30
0.0
 11
655.3418305005832
 21
5.106485428559573
 31
0.0
  0
LINE
  5
475
330
1E
100
AcDbEntity
  8
ﾚｲﾔ1
  6
Continuous
100
AcDbLine
 10
655.3418305005832
 20
5.106485428559573
 30
0.0
 11
655.9918305005832
 21
5.15648542855957
 31
0.0
  0
LINE
  5
476
330
1E
100
AcDbEntity
  8
ﾚｲﾔ1
  6
Continuous
100
AcDbLine
 10
655.9918305005832
 20
5.15648542855957
 30
0.0
 11
656.6418305005832
 21
5.206485428559581
 31
0.0
  0
LINE
  5
477
330
1E
100
AcDbEntity
  8
ﾚｲﾔ1
  6
Continuous
100
AcDbLine
 10
656.6418305005832
 20
5.206485428559581
 30
0.0
 11
657.2918305005833
 21
5.256485428559579
 31
0.0
  0
LINE
  5
478
330
1E
100
AcDbEntity
  8
ﾚｲﾔ1
  6
Continuous
100
AcDbLine
 10
657.2918305005833
 20
5.256485428559579
 30
0.0
 11
657.9418305005833
 21
5.306485428559569
 31
0.0
  0
LINE
  5
479
330
1E
100
AcDbEntity
  8
ﾚｲﾔ1
  6
Continuous
100
AcDbLine
 10
657.9418305005833
 20
5.306485428559569
 30
0.0
 11
658.6418305005832
 21
5.35648542855958
 31
0.0
  0
LINE
  5
47A
330
1E
100
AcDbEntity
  8
ﾚｲﾔ1
  6
Continuous
100
AcDbLine
 10
658.6418305005832
 20
5.35648542855958
 30
0.0
 11
659.2918305005833
 21
5.406485428559577
 31
0.0
  0
LINE
  5
47B
330
1E
100
AcDbEntity
  8
ﾚｲﾔ1
  6
Continuous
100
AcDbLine
 10
659.2918305005833
 20
5.406485428559577
 30
0.0
 11
659.8918305005832
 21
5.506485428559571
 31
0.0
  0
LINE
  5
47C
330
1E
100
AcDbEntity
  8
ﾚｲﾔ1
  6
Continuous
100
AcDbLine
 10
659.8918305005832
 20
5.506485428559571
 30
0.0
 11
660.5418305005833
 21
5.556485428559569
 31
0.0
  0
LINE
  5
47D
330
1E
100
AcDbEntity
  8
ﾚｲﾔ1
  6
Continuous
100
AcDbLine
 10
660.5418305005833
 20
5.556485428559569
 30
0.0
 11
661.1418305005832
 21
5.65648542855957
 31
0.0
  0
LINE
  5
47E
330
1E
100
AcDbEntity
  8
ﾚｲﾔ1
  6
Continuous
100
AcDbLine
 10
661.1418305005832
 20
5.65648542855957
 30
0.0
 11
661.7918305005833
 21
5.706485428559581
 31
0.0
  0
LINE
  5
47F
330
1E
100
AcDbEntity
  8
ﾚｲﾔ1
  6
Continuous
100
AcDbLine
 10
661.7918305005833
 20
5.706485428559581
 30
0.0
 11
662.3418305005832
 21
5.756485428559579
 31
0.0
  0
LINE
  5
480
330
1E
100
AcDbEntity
  8
ﾚｲﾔ1
  6
Continuous
100
AcDbLine
 10
662.3418305005832
 20
5.756485428559579
 30
0.0
 11
662.9418305005833
 21
5.85648542855958
 31
0.0
  0
LINE
  5
481
330
1E
100
AcDbEntity
  8
ﾚｲﾔ1
  6
Continuous
100
AcDbLine
 10
662.9418305005833
 20
5.85648542855958
 30
0.0
 11
663.4918305005832
 21
5.906485428559577
 31
0.0
  0
LINE
  5
482
330
1E
100
AcDbEntity
  8
ﾚｲﾔ1
  6
Continuous
100
AcDbLine
 10
663.4918305005832
 20
5.906485428559577
 30
0.0
 11
663.9918305005832
 21
6.006485428559571
 31
0.0
  0
LINE
  5
483
330
1E
100
AcDbEntity
  8
ﾚｲﾔ1
  6
Continuous
100
AcDbLine
 10
663.9918305005832
 20
6.006485428559571
 30
0.0
 11
664.4918305005832
 21
6.056485428559569
 31
0.0
  0
LINE
  5
484
330
1E
100
AcDbEntity
  8
ﾚｲﾔ1
  6
Continuous
100
AcDbLine
 10
664.4918305005832
 20
6.056485428559569
 30
0.0
 11
664.9918305005832
 21
6.10648542855958
 31
0.0
  0
LINE
  5
485
330
1E
100
AcDbEntity
  8
ﾚｲﾔ1
  6
Continuous
100
AcDbLine
 10
664.9918305005832
 20
6.10648542855958
 30
0.0
 11
665.4418305005833
 21
6.206485428559581
 31
0.0
  0
LINE
  5
486
330
1E
100
AcDbEntity
  8
ﾚｲﾔ1
  6
Continuous
100
AcDbLine
 10
665.4418305005833
 20
6.206485428559581
 30
0.0
 11
665.8418305005832
 21
6.256485428559579
 31
0.0
  0
LINE
  5
487
330
1E
100
AcDbEntity
  8
ﾚｲﾔ1
  6
Continuous
100
AcDbLine
 10
665.8418305005832
 20
6.256485428559579
 30
0.0
 11
666.2918305005833
 21
6.306485428559583
 31
0.0
  0
LINE
  5
488
330
1E
100
AcDbEntity
  8
ﾚｲﾔ1
  6
Continuous
100
AcDbLine
 10
666.2918305005833
 20
6.306485428559583
 30
0.0
 11
666.6918305005833
 21
6.40648542855957
 31
0.0
  0
LINE
  5
489
330
1E
100
AcDbEntity
  8
ﾚｲﾔ1
  6
Continuous
100
AcDbLine
 10
666.6918305005833
 20
6.40648542855957
 30
0.0
 11
667.0418305005833
 21
6.456485428559581
 31
0.0
  0
LINE
  5
48A
330
1E
100
AcDbEntity
  8
ﾚｲﾔ1
  6
Continuous
100
AcDbLine
 10
667.0418305005833
 20
6.456485428559581
 30
0.0
 11
667.3918305005832
 21
6.506485428559579
 31
0.0
  0
LINE
  5
48B
330
1E
100
AcDbEntity
  8
ﾚｲﾔ1
  6
Continuous
100
AcDbLine
 10
667.3918305005832
 20
6.506485428559579
 30
0.0
 11
667.6918305005833
 21
6.556485428559569
 31
0.0
  0
LINE
  5
48C
330
1E
100
AcDbEntity
  8
ﾚｲﾔ1
  6
Continuous
100
AcDbLine
 10
667.6918305005833
 20
6.556485428559569
 30
0.0
 11
667.9918305005832
 21
6.60648542855958
 31
0.0
  0
LINE
  5
48D
330
1E
100
AcDbEntity
  8
ﾚｲﾔ1
  6
Continuous
100
AcDbLine
 10
667.9918305005832
 20
6.60648542855958
 30
0.0
 11
668.2918305005833
 21
6.656485428559577
 31
0.0
  0
LINE
  5
48E
330
1E
100
AcDbEntity
  8
ﾚｲﾔ1
  6
Continuous
100
AcDbLine
 10
668.2918305005833
 20
6.656485428559577
 30
0.0
 11
668.5418305005833
 21
6.706485428559581
 31
0.0
  0
LINE
  5
48F
330
1E
100
AcDbEntity
  8
ﾚｲﾔ1
  6
Continuous
100
AcDbLine
 10
668.5418305005833
 20
6.706485428559581
 30
0.0
 11
668.7918305005833
 21
6.756485428559571
 31
0.0
  0
LINE
  5
490
330
1E
100
AcDbEntity
  8
ﾚｲﾔ1
  6
Continuous
100
AcDbLine
 10
668.7918305005833
 20
6.756485428559571
 30
0.0
 11
668.9918305005832
 21
6.806485428559569
 31
0.0
  0
LINE
  5
491
330
1E
100
AcDbEntity
  8
ﾚｲﾔ1
  6
Continuous
100
AcDbLine
 10
668.9918305005832
 20
6.806485428559569
 30
0.0
 11
669.1918305005833
 21
6.85648542855958
 31
0.0
  0
LINE
  5
492
330
1E
100
AcDbEntity
  8
ﾚｲﾔ1
  6
Continuous
100
AcDbLine
 10
669.1918305005833
 20
6.85648542855958
 30
0.0
 11
669.3918305005832
 21
6.90648542855957
 31
0.0
  0
LINE
  5
493
330
1E
100
AcDbEntity
  8
ﾚｲﾔ1
  6
Continuous
100
AcDbLine
 10
669.3918305005832
 20
6.90648542855957
 30
0.0
 11
669.5418305005833
 21
6.956485428559581
 31
0.0
  0
LINE
  5
494
330
1E
100
AcDbEntity
  8
ﾚｲﾔ1
  6
Continuous
100
AcDbLine
 10
669.5418305005833
 20
6.956485428559581
 30
0.0
 11
669.6418305005832
 21
7.006485428559579
 31
0.0
  0
LINE
  5
495
330
1E
100
AcDbEntity
  8
ﾚｲﾔ1
  6
Continuous
100
AcDbLine
 10
669.6418305005832
 20
7.006485428559579
 30
0.0
 11
669.7918305005833
 21
7.056485428559583
 31
0.0
  0
LINE
  5
496
330
1E
100
AcDbEntity
  8
ﾚｲﾔ1
  6
Continuous
100
AcDbLine
 10
669.7918305005833
 20
7.056485428559583
 30
0.0
 11
669.8918305005832
 21
7.10648542855958
 31
0.0
  0
LINE
  5
497
330
1E
100
AcDbEntity
  8
ﾚｲﾔ1
  6
Continuous
100
AcDbLine
 10
669.8918305005832
 20
7.10648542855958
 30
0.0
 11
669.9918305005832
 21
7.156485428559577
 31
0.0
  0
LINE
  5
498
330
1E
100
AcDbEntity
  8
ﾚｲﾔ1
  6
Continuous
100
AcDbLine
 10
669.9918305005832
 20
7.156485428559577
 30
0.0
 11
670.0418305005833
 21
7.206485428559581
 31
0.0
  0
LINE
  5
499
330
1E
100
AcDbEntity
  8
ﾚｲﾔ1
  6
Continuous
100
AcDbLine
 10
670.0418305005833
 20
7.206485428559581
 30
0.0
 11
670.0918305005832
 21
7.256485428559571
 31
0.0
  0
LINE
  5
49A
330
1E
100
AcDbEntity
  8
ﾚｲﾔ1
  6
Continuous
100
AcDbLine
 10
670.0918305005832
 20
7.256485428559571
 30
0.0
 11
670.1918305005833
 21
7.306485428559569
 31
0.0
  0
LINE
  5
49B
330
1E
100
AcDbEntity
  8
ﾚｲﾔ1
  6
Continuous
100
AcDbLine
 10
670.1918305005833
 20
7.306485428559569
 30
0.0
 11
670.2418305005832
 21
7.406485428559577
 31
0.0
  0
LINE
  5
49C
330
1E
100
AcDbEntity
  8
ﾚｲﾔ1
  6
Continuous
100
AcDbLine
 10
670.2418305005832
 20
7.406485428559577
 30
0.0
 11
670.2918305005833
 21
7.456485428559581
 31
0.0
  0
LINE
  5
49D
330
1E
100
AcDbEntity
  8
ﾚｲﾔ1
  6
Continuous
100
AcDbLine
 10
670.2918305005833
 20
7.456485428559581
 30
0.0
 11
670.2918305005833
 21
7.506485428559579
 31
0.0
  0
LINE
  5
49E
330
1E
100
AcDbEntity
  8
ﾚｲﾔ1
  6
Continuous
100
AcDbLine
 10
670.2918305005833
 20
7.506485428559579
 30
0.0
 11
670.3418305005832
 21
7.606485428559573
 31
0.0
  0
LINE
  5
49F
330
1E
100
AcDbEntity
  8
ﾚｲﾔ1
  6
Continuous
100
AcDbLine
 10
670.3418305005832
 20
7.606485428559573
 30
0.0
 11
670.3418305005832
 21
7.706485428559581
 31
0.0
  0
LINE
  5
4A0
330
1E
100
AcDbEntity
  8
ﾚｲﾔ1
  6
Continuous
100
AcDbLine
 10
670.3418305005832
 20
7.706485428559581
 30
0.0
 11
670.3418305005832
 21
7.806485428559569
 31
0.0
  0
LINE
  5
4A1
330
1E
100
AcDbEntity
  8
ﾚｲﾔ1
  6
Continuous
100
AcDbLine
 10
670.3418305005832
 20
7.806485428559569
 30
0.0
 11
670.3918305005832
 21
7.906485428559577
 31
0.0
  0
LINE
  5
4A2
330
1E
100
AcDbEntity
  8
ﾚｲﾔ1
  6
Continuous
100
AcDbLine
 10
670.3918305005832
 20
7.906485428559577
 30
0.0
 11
670.3418305005832
 21
8.006485428559571
 31
0.0
  0
LINE
  5
4A3
330
1E
100
AcDbEntity
  8
ﾚｲﾔ1
  6
Continuous
100
AcDbLine
 10
670.3418305005832
 20
8.006485428559571
 30
0.0
 11
670.3418305005832
 21
8.10648542855958
 31
0.0
  0
LINE
  5
4A4
330
1E
100
AcDbEntity
  8
ﾚｲﾔ1
  6
Continuous
100
AcDbLine
 10
670.3418305005832
 20
8.10648542855958
 30
0.0
 11
670.3418305005832
 21
8.206485428559581
 31
0.0
  0
LINE
  5
4A5
330
1E
100
AcDbEntity
  8
ﾚｲﾔ1
  6
Continuous
100
AcDbLine
 10
670.3418305005832
 20
8.206485428559581
 30
0.0
 11
670.2918305005833
 21
8.306485428559583
 31
0.0
  0
LINE
  5
4A6
330
1E
100
AcDbEntity
  8
ﾚｲﾔ1
  6
Continuous
100
AcDbLine
 10
670.2918305005833
 20
8.306485428559583
 30
0.0
 11
670.2918305005833
 21
8.456485428559581
 31
0.0
  0
LINE
  5
4A7
330
1E
100
AcDbEntity
  8
ﾚｲﾔ1
  6
Continuous
100
AcDbLine
 10
670.2918305005833
 20
8.456485428559581
 30
0.0
 11
670.2418305005832
 21
8.60648542855958
 31
0.0
  0
LINE
  5
4A8
330
1E
100
AcDbEntity
  8
ﾚｲﾔ1
  6
Continuous
100
AcDbLine
 10
670.2418305005832
 20
8.60648542855958
 30
0.0
 11
670.1918305005833
 21
8.706485428559581
 31
0.0
  0
LINE
  5
4A9
330
1E
100
AcDbEntity
  8
ﾚｲﾔ1
  6
Continuous
100
AcDbLine
 10
670.1918305005833
 20
8.706485428559581
 30
0.0
 11
670.0918305005832
 21
8.856485428559573
 31
0.0
  0
LINE
  5
4AA
330
1E
100
AcDbEntity
  8
ﾚｲﾔ1
  6
Continuous
100
AcDbLine
 10
670.0918305005832
 20
8.856485428559573
 30
0.0
 11
670.0418305005833
 21
9.006485428559579
 31
0.0
  0
LINE
  5
4AB
330
1E
100
AcDbEntity
  8
ﾚｲﾔ1
  6
Continuous
100
AcDbLine
 10
670.0418305005833
 20
9.006485428559579
 30
0.0
 11
669.9918305005832
 21
9.156485428559577
 31
0.0
  0
LINE
  5
4AC
330
1E
100
AcDbEntity
  8
ﾚｲﾔ1
  6
Continuous
100
AcDbLine
 10
669.9918305005832
 20
9.156485428559577
 30
0.0
 11
669.8918305005832
 21
9.306485428559569
 31
0.0
  0
LINE
  5
4AD
330
1E
100
AcDbEntity
  8
ﾚｲﾔ1
  6
Continuous
100
AcDbLine
 10
669.8918305005832
 20
9.306485428559569
 30
0.0
 11
669.7918305005833
 21
9.456485428559581
 31
0.0
  0
LINE
  5
4AE
330
1E
100
AcDbEntity
  8
ﾚｲﾔ1
  6
Continuous
100
AcDbLine
 10
669.7918305005833
 20
9.456485428559581
 30
0.0
 11
669.6918305005833
 21
9.60648542855958
 31
0.0
  0
LINE
  5
4AF
330
1E
100
AcDbEntity
  8
ﾚｲﾔ1
  6
Continuous
100
AcDbLine
 10
669.6918305005833
 20
9.60648542855958
 30
0.0
 11
669.5918305005832
 21
9.756485428559571
 31
0.0
  0
LINE
  5
4B0
330
1E
100
AcDbEntity
  8
ﾚｲﾔ1
  6
Continuous
100
AcDbLine
 10
669.5918305005832
 20
9.756485428559571
 30
0.0
 11
669.5418305005833
 21
9.906485428559577
 31
0.0
  0
LINE
  5
4B1
330
1E
100
AcDbEntity
  8
ﾚｲﾔ1
  6
Continuous
100
AcDbLine
 10
669.5418305005833
 20
9.906485428559577
 30
0.0
 11
669.4418305005833
 21
10.00648542855958
 31
0.0
  0
LINE
  5
4B2
330
1E
100
AcDbEntity
  8
ﾚｲﾔ1
  6
Continuous
100
AcDbLine
 10
669.4418305005833
 20
10.00648542855958
 30
0.0
 11
669.3418305005832
 21
10.15648542855958
 31
0.0
  0
LINE
  5
4B3
330
1E
100
AcDbEntity
  8
ﾚｲﾔ1
  6
Continuous
100
AcDbLine
 10
669.3418305005832
 20
10.15648542855958
 30
0.0
 11
669.2418305005832
 21
10.30648542855958
 31
0.0
  0
LINE
  5
4B4
330
1E
100
AcDbEntity
  8
ﾚｲﾔ1
  6
Continuous
100
AcDbLine
 10
669.2418305005832
 20
10.30648542855958
 30
0.0
 11
669.1418305005832
 21
10.40648542855958
 31
0.0
  0
LINE
  5
4B5
330
1E
100
AcDbEntity
  8
ﾚｲﾔ1
  6
Continuous
100
AcDbLine
 10
669.1418305005832
 20
10.40648542855958
 30
0.0
 11
669.0418305005833
 21
10.55648542855958
 31
0.0
  0
LINE
  5
4B6
330
1E
100
AcDbEntity
  8
ﾚｲﾔ1
  6
Continuous
100
AcDbLine
 10
669.0418305005833
 20
10.55648542855958
 30
0.0
 11
668.9418305005833
 21
10.70648542855957
 31
0.0
  0
LINE
  5
4B7
330
1E
100
AcDbEntity
  8
ﾚｲﾔ1
  6
Continuous
100
AcDbLine
 10
668.9418305005833
 20
10.70648542855957
 30
0.0
 11
668.8418305005832
 21
10.80648542855958
 31
0.0
  0
LINE
  5
4B8
330
1E
100
AcDbEntity
  8
ﾚｲﾔ1
  6
Continuous
100
AcDbLine
 10
668.8418305005832
 20
10.80648542855958
 30
0.0
 11
668.7418305005832
 21
10.90648542855958
 31
0.0
  0
LINE
  5
4B9
330
1E
100
AcDbEntity
  8
ﾚｲﾔ1
  6
Continuous
100
AcDbLine
 10
668.7418305005832
 20
10.90648542855958
 30
0.0
 11
668.6418305005832
 21
11.00648542855957
 31
0.0
  0
LINE
  5
4BA
330
1E
100
AcDbEntity
  8
ﾚｲﾔ1
  6
Continuous
100
AcDbLine
 10
668.6418305005832
 20
11.00648542855957
 30
0.0
 11
668.5418305005833
 21
11.15648542855958
 31
0.0
  0
LINE
  5
4BB
330
1E
100
AcDbEntity
  8
ﾚｲﾔ1
  6
Continuous
100
AcDbLine
 10
668.5418305005833
 20
11.15648542855958
 30
0.0
 11
668.4418305005833
 21
11.20648542855957
 31
0.0
  0
LINE
  5
4BC
330
1E
100
AcDbEntity
  8
ﾚｲﾔ1
  6
Continuous
100
AcDbLine
 10
668.4418305005833
 20
11.20648542855957
 30
0.0
 11
668.3418305005832
 21
11.30648542855958
 31
0.0
  0
LINE
  5
4BD
330
1E
100
AcDbEntity
  8
ﾚｲﾔ1
  6
Continuous
100
AcDbLine
 10
668.3418305005832
 20
11.30648542855958
 30
0.0
 11
668.2418305005832
 21
11.40648542855958
 31
0.0
  0
LINE
  5
4BE
330
1E
100
AcDbEntity
  8
ﾚｲﾔ1
  6
Continuous
100
AcDbLine
 10
668.2418305005832
 20
11.40648542855958
 30
0.0
 11
668.1418305005832
 21
11.50648542855957
 31
0.0
  0
LINE
  5
4BF
330
1E
100
AcDbEntity
  8
ﾚｲﾔ1
  6
Continuous
100
AcDbLine
 10
668.1418305005832
 20
11.50648542855957
 30
0.0
 11
668.0418305005833
 21
11.55648542855958
 31
0.0
  0
LINE
  5
4C0
330
1E
100
AcDbEntity
  8
ﾚｲﾔ1
  6
Continuous
100
AcDbLine
 10
668.0418305005833
 20
11.55648542855958
 30
0.0
 11
667.9418305005833
 21
11.60648542855958
 31
0.0
  0
LINE
  5
4C1
330
1E
100
AcDbEntity
  8
ﾚｲﾔ1
  6
Continuous
100
AcDbLine
 10
667.9418305005833
 20
11.60648542855958
 30
0.0
 11
667.8418305005832
 21
11.70648542855957
 31
0.0
  0
LINE
  5
4C2
330
1E
100
AcDbEntity
  8
ﾚｲﾔ1
  6
Continuous
100
AcDbLine
 10
667.8418305005832
 20
11.70648542855957
 30
0.0
 11
667.7418305005832
 21
11.75648542855957
 31
0.0
  0
LINE
  5
4C3
330
1E
100
AcDbEntity
  8
ﾚｲﾔ1
  6
Continuous
100
AcDbLine
 10
667.7418305005832
 20
11.75648542855957
 30
0.0
 11
667.6418305005832
 21
11.80648542855958
 31
0.0
  0
LINE
  5
4C4
330
1E
100
AcDbEntity
  8
ﾚｲﾔ1
  6
Continuous
100
AcDbLine
 10
667.6418305005832
 20
11.80648542855958
 30
0.0
 11
667.5418305005833
 21
11.90648542855958
 31
0.0
  0
LINE
  5
4C5
330
1E
100
AcDbEntity
  8
ﾚｲﾔ1
  6
Continuous
100
AcDbLine
 10
667.5418305005833
 20
11.90648542855958
 30
0.0
 11
667.3918305005832
 21
11.95648542855957
 31
0.0
  0
LINE
  5
4C6
330
1E
100
AcDbEntity
  8
ﾚｲﾔ1
  6
Continuous
100
AcDbLine
 10
667.3918305005832
 20
11.95648542855957
 30
0.0
 11
667.2418305005832
 21
12.00648542855957
 31
0.0
  0
LINE
  5
4C7
330
1E
100
AcDbEntity
  8
ﾚｲﾔ1
  6
Continuous
100
AcDbLine
 10
667.2418305005832
 20
12.00648542855957
 30
0.0
 11
667.0918305005832
 21
12.10648542855958
 31
0.0
  0
LINE
  5
4C8
330
1E
100
AcDbEntity
  8
ﾚｲﾔ1
  6
Continuous
100
AcDbLine
 10
667.0918305005832
 20
12.10648542855958
 30
0.0
 11
666.8918305005832
 21
12.20648542855957
 31
0.0
  0
LINE
  5
4C9
330
1E
100
AcDbEntity
  8
ﾚｲﾔ1
  6
Continuous
100
AcDbLine
 10
666.8918305005832
 20
12.20648542855957
 30
0.0
 11
666.6418305005832
 21
12.30648542855958
 31
0.0
  0
LINE
  5
4CA
330
1E
100
AcDbEntity
  8
ﾚｲﾔ1
  6
Continuous
100
AcDbLine
 10
666.6418305005832
 20
12.30648542855958
 30
0.0
 11
666.0418305005833
 21
12.55648542855958
 31
0.0
  0
LINE
  5
4CB
330
1E
100
AcDbEntity
  8
ﾚｲﾔ1
  6
Continuous
100
AcDbLine
 10
638.0418305005832
 20
12.55648542855958
 30
0.0
 11
645.0418305005832
 21
10.05648542855958
 31
0.0
  0
LINE
  5
4CC
330
1E
100
AcDbEntity
  8
ﾚｲﾔ1
  6
Continuous
100
AcDbLine
 10
645.0418305005832
 20
10.05648542855958
 30
0.0
 11
647.8418305005832
 21
9.256485428559571
 31
0.0
  0
LINE
  5
4CD
330
1E
100
AcDbEntity
  8
ﾚｲﾔ1
  6
Continuous
100
AcDbLine
 10
647.8418305005832
 20
9.256485428559571
 30
0.0
 11
650.6418305005832
 21
8.856485428559573
 31
0.0
  0
LINE
  5
4CE
330
1E
100
AcDbEntity
  8
ﾚｲﾔ1
  6
Continuous
100
AcDbLine
 10
650.6418305005832
 20
8.856485428559573
 30
0.0
 11
653.4418305005833
 21
8.856485428559573
 31
0.0
  0
LINE
  5
4CF
330
1E
100
AcDbEntity
  8
ﾚｲﾔ1
  6
Continuous
100
AcDbLine
 10
653.4418305005833
 20
8.856485428559573
 30
0.0
 11
656.2418305005832
 21
9.256485428559571
 31
0.0
  0
LINE
  5
4D0
330
1E
100
AcDbEntity
  8
ﾚｲﾔ1
  6
Continuous
100
AcDbLine
 10
656.2418305005832
 20
9.256485428559571
 30
0.0
 11
659.0418305005833
 21
10.05648542855958
 31
0.0
  0
LINE
  5
4D1
330
1E
100
AcDbEntity
  8
ﾚｲﾔ1
  6
Continuous
100
AcDbLine
 10
659.0418305005833
 20
10.05648542855958
 30
0.0
 11
666.0418305005833
 21
12.55648542855958
 31
0.0
  0
LINE
  5
4D2
330
1E
100
AcDbEntity
  8
ﾚｲﾔ1
  6
Continuous
100
AcDbLine
 10
638.0418305005832
 20
12.55648542855958
 30
0.0
 11
638.0418305005832
 21
30.55648542855957
 31
0.0
  0
LINE
  5
4D3
330
1E
100
AcDbEntity
  8
ﾚｲﾔ1
  6
Continuous
100
AcDbLine
 10
638.0418305005832
 20
30.55648542855957
 30
0.0
 11
640.0418305005832
 21
32.55648542855958
 31
0.0
  0
LINE
  5
4D4
330
1E
100
AcDbEntity
  8
ﾚｲﾔ1
  6
Continuous
100
AcDbLine
 10
640.0418305005832
 20
32.55648542855958
 30
0.0
 11
664.0418305005833
 21
32.55648542855958
 31
0.0
  0
LINE
  5
4D5
330
1E
100
AcDbEntity
  8
ﾚｲﾔ1
  6
Continuous
100
AcDbLine
 10
664.0418305005833
 20
32.55648542855958
 30
0.0
 11
666.0418305005833
 21
30.55648542855957
 31
0.0
  0
LINE
  5
4D6
330
1E
100
AcDbEntity
  8
ﾚｲﾔ1
  6
Continuous
100
AcDbLine
 10
666.0418305005833
 20
30.55648542855957
 30
0.0
 11
666.0418305005833
 21
12.55648542855958
 31
0.0
  0
LINE
  5
4D7
330
1E
100
AcDbEntity
  8
ﾚｲﾔ1
  6
Continuous
100
AcDbLine
 10
638.0418305005832
 20
30.55648542855957
 30
0.0
 11
666.0418305005833
 21
30.55648542855957
 31
0.0
  0
LINE
  5
4D8
330
1E
100
AcDbEntity
  8
ﾚｲﾔ1
  6
Continuous
100
AcDbLine
 10
582.2418305005832
 20
-55.44351457144042
 30
0.0
 11
582.2418305005832
 21
-19.94351457144042
 31
0.0
  0
LINE
  5
4D9
330
1E
100
AcDbEntity
  8
ﾚｲﾔ1
  6
Continuous
100
AcDbLine
 10
582.2418305005832
 20
-19.94351457144042
 30
0.0
 11
583.2418305005832
 21
-18.94351457144042
 31
0.0
  0
LINE
  5
4DA
330
1E
100
AcDbEntity
  8
ﾚｲﾔ1
  6
Continuous
100
AcDbLine
 10
583.2418305005832
 20
-18.94351457144042
 30
0.0
 11
584.2418305005832
 21
-18.94351457144042
 31
0.0
  0
LINE
  5
4DB
330
1E
100
AcDbEntity
  8
ﾚｲﾔ1
  6
Continuous
100
AcDbLine
 10
584.2418305005832
 20
-91.94351457144043
 30
0.0
 11
584.2418305005832
 21
-116.9435145714404
 31
0.0
  0
LINE
  5
4DC
330
1E
100
AcDbEntity
  8
ﾚｲﾔ1
  6
Continuous
100
AcDbLine
 10
584.2418305005832
 20
-116.9435145714404
 30
0.0
 11
586.2418305005832
 21
-118.9435145714404
 31
0.0
  0
LINE
  5
4DD
330
1E
100
AcDbEntity
  8
ﾚｲﾔ1
  6
Continuous
100
AcDbLine
 10
582.2418305005832
 20
-55.44351457144042
 30
0.0
 11
582.2418305005832
 21
-90.94351457144042
 31
0.0
  0
LINE
  5
4DE
330
1E
100
AcDbEntity
  8
ﾚｲﾔ1
  6
Continuous
100
AcDbLine
 10
582.2418305005832
 20
-90.94351457144042
 30
0.0
 11
583.2418305005832
 21
-91.94351457144043
 31
0.0
  0
LINE
  5
4DF
330
1E
100
AcDbEntity
  8
ﾚｲﾔ1
  6
Continuous
100
AcDbLine
 10
583.2418305005832
 20
-91.94351457144043
 30
0.0
 11
584.2418305005832
 21
-91.94351457144043
 31
0.0
  0
LINE
  5
4E0
330
1E
100
AcDbEntity
  8
ﾚｲﾔ1
  6
Continuous
100
AcDbLine
 10
682.2418305005832
 20
-55.44351457144042
 30
0.0
 11
682.2418305005832
 21
-116.9435145714404
 31
0.0
  0
LINE
  5
4E1
330
1E
100
AcDbEntity
  8
ﾚｲﾔ1
  6
Continuous
100
AcDbLine
 10
682.2418305005832
 20
-116.9435145714404
 30
0.0
 11
680.2418305005832
 21
-118.9435145714404
 31
0.0
  0
LINE
  5
4E2
330
1E
100
AcDbEntity
  8
ﾚｲﾔ1
  6
Continuous
100
AcDbLine
 10
584.2418305005832
 20
-18.94351457144042
 30
0.0
 11
584.2418305005832
 21
6.056485428559569
 31
0.0
  0
LINE
  5
4E3
330
1E
100
AcDbEntity
  8
ﾚｲﾔ1
  6
Continuous
100
AcDbLine
 10
584.2418305005832
 20
6.056485428559569
 30
0.0
 11
586.2418305005832
 21
8.056485428559569
 31
0.0
  0
LINE
  5
4E4
330
1E
100
AcDbEntity
  8
ﾚｲﾔ1
  6
Continuous
100
AcDbLine
 10
586.2418305005832
 20
8.056485428559569
 30
0.0
 11
633.6418305005832
 21
7.906485428559577
 31
0.0
  0
LINE
  5
4E5
330
1E
100
AcDbEntity
  8
ﾚｲﾔ1
  6
Continuous
100
AcDbLine
 10
682.2418305005832
 20
-55.44351457144042
 30
0.0
 11
682.2418305005832
 21
6.056485428559569
 31
0.0
  0
LINE
  5
4E6
330
1E
100
AcDbEntity
  8
ﾚｲﾔ1
  6
Continuous
100
AcDbLine
 10
682.2418305005832
 20
6.056485428559569
 30
0.0
 11
680.2418305005832
 21
8.056485428559569
 31
0.0
  0
LINE
  5
4E7
330
1E
100
AcDbEntity
  8
ﾚｲﾔ1
  6
Continuous
100
AcDbLine
 10
680.2418305005832
 20
8.056485428559569
 30
0.0
 11
670.5418305005833
 21
7.906485428559577
 31
0.0
  0
LINE
  5
4E8
330
1E
100
AcDbEntity
  8
ﾚｲﾔ1
  6
DASHDOT
 62
   253
100
AcDbLine
 10
457.1386775005832
 20
40.00648542855959
 30
0.0
 11
457.1386775005832
 21
-134.3935145714404
 31
0.0
  0
LINE
  5
4E9
330
1E
100
AcDbEntity
  8
ﾚｲﾔ1
  6
DASHDOT
 62
   253
100
AcDbLine
 10
691.1277905005832
 20
-55.44351457144042
 30
0.0
 11
377.0472025005832
 21
-55.44351457144042
 31
0.0
  0
LINE
  5
4EA
330
1E
100
AcDbEntity
  8
ﾚｲﾔ1
  6
DASHDOT
 62
   253
100
AcDbLine
 10
652.0418305005833
 20
33.25648542855957
 30
0.0
 11
652.0418305005833
 21
-0.7435145714404285
 31
0.0
  0
LINE
  5
4EB
330
1E
100
AcDbEntity
  8
ﾚｲﾔ1
100
AcDbLine
 10
586.2418305005832
 20
8.056485428559569
 30
0.0
 11
586.2418305005832
 21
-118.9435145714404
 31
0.0
  0
TEXT
  5
4EC
330
1E
100
AcDbEntity
  8
文字
100
AcDbText
 10
499.4217725005832
 20
43.82747542855958
 30
0.0
 40
5.0
  1
PT3/8
100
AcDbText
  0
INSERT
  5
522
330
1E
100
AcDbEntity
  8
寸法
100
AcDbBlockReference
  2
*U0
 10
546.3967725005832
 20
-53.92252457144042
 30
0.0
  0
INSERT
  5
523
330
1E
100
AcDbEntity
  8
寸法
100
AcDbBlockReference
  2
*D1
 10
546.3967725005832
 20
-53.92252457144042
 30
0.0
  0
INSERT
  5
524
330
1E
100
AcDbEntity
  8
寸法
100
AcDbBlockReference
  2
*D2
 10
546.3967725005832
 20
-53.92252457144042
 30
0.0
  0
INSERT
  5
525
330
1E
100
AcDbEntity
  8
寸法
100
AcDbBlockReference
  2
*D3
 10
546.3967725005832
 20
-53.92252457144042
 30
0.0
  0
INSERT
  5
526
330
1E
100
AcDbEntity
  8
寸法
100
AcDbBlockReference
  2
*D4
 10
546.3967725005832
 20
-53.92252457144042
 30
0.0
  0
CIRCLE
  5
558
330
1E
100
AcDbEntity
  8
ﾚｲﾔ1
  6
Continuous
100
AcDbCircle
 10
457.1386775005832
 20
-55.44351457144042
 30
0.0
 40
36.49062379570949
  0
CIRCLE
  5
559
330
1E
100
AcDbEntity
  8
ﾚｲﾔ1
  6
Continuous
100
AcDbCircle
 10
457.1386775005832
 20
-55.44351457144042
 30
0.0
 40
63.50951208283685
  0
CIRCLE
  5
55A
330
1E
100
AcDbEntity
  8
ﾚｲﾔ1
  6
Continuous
100
AcDbCircle
 10
457.1386775005832
 20
-55.44351457144042
 30
0.0
 40
10.0
  0
DIMENSION
  5
56F
330
1E
100
AcDbEntity
  8
寸法
  6
Continuous
100
AcDbDimension
  2
*D6
 10
548.812484040704
 20
-118.9435145714404
 30
0.0
 11
545.312484040704
 21
-55.44351457144043
 31
0.0
 70
    32
  1
φ127
 71
     5
 42
127.0
  3
Standard
100
AcDbAlignedDimension
 13
586.2418305005832
 23
8.056485428559569
 33
0.0
 14
586.2418305005832
 24
-118.9435145714404
 34
0.0
 50
90.0
100
AcDbRotatedDimension
  0
DIMENSION
  5
585
330
1E
100
AcDbEntity
  8
寸法
  6
Continuous
100
AcDbDimension
  2
*D7
 10
563.4725342201862
 20
-91.94351457144043
 30
0.0
 11
559.9725342201862
 21
-55.44351457144042
 31
0.0
 70
    32
  1
φ73
 71
     5
 42
73.00000000000001
  3
Standard
100
AcDbAlignedDimension
 13
584.2418305005832
 23
-18.94351457144042
 33
0.0
 14
583.2418305005832
 24
-91.94351457144043
 34
0.0
 50
90.0
100
AcDbRotatedDimension
  0
DIMENSION
  5
5B4
330
1E
100
AcDbEntity
  8
寸法
  6
Continuous
100
AcDbDimension
  2
*D8
 10
374.9433445390298
 20
-118.8848235380315
 30
0.0
 11
371.4433445390298
 21
-43.41416905473596
 31
0.0
 70
    32
 71
     5
 42
150.9413089665911
  3
Standard
100
AcDbAlignedDimension
 13
440.3043501232642
 23
32.05648542855958
 33
0.0
 14
447.1045418490187
 24
-118.8848235380315
 34
0.0
 50
90.0
100
AcDbRotatedDimension
1001
ACAD
1000
DSTYLE
1002
{
1070
   343
1005
5C1
1070
   342
1005
0
1070
   173
1070
     1
1070
   344
1005
5C1
1002
}
  0
MTEXT
  5
6B5
330
1E
100
AcDbEntity
  8
図面枠
370
    30
100
AcDbMText
 10
711.0607414214809
 20
-194.0204148990732
 30
0.0
 40
5.506825201851219
 41
90.88674212557531
 71
     1
 72
     5
  1
株式会社　関東油機サービス
 73
     1
 44
1.0
  0
TEXT
  5
6B6
330
1E
100
AcDbEntity
  8
図面枠
100
AcDbText
 10
736.0878724582874
 20
-181.7239090125049
 30
0.0
 40
3.754653546716741
  1
図
100
AcDbText
  0
TEXT
  5
6B7
330
1E
100
AcDbEntity
  8
図面枠
100
AcDbText
 10
707.0656793666674
 20
-188.5882555595287
 30
0.0
 40
3.754653546716741
  1
１：3
100
AcDbText
  0
TEXT
  5
6B8
330
1E
100
AcDbEntity
  8
図面枠
100
AcDbText
 10
736.0878724582874
 20
-187.6354985508864
 30
0.0
 40
3.754653546716741
  1
番
100
AcDbText
  0
TEXT
  5
6BA
330
1E
100
AcDbEntity
  8
図面枠
100
AcDbText
 10
706.199995322964
 20
-182.4295822237987
 30
0.0
 40
5.006204728955656
  1
尺度
 41
1.125
100
AcDbText
  0
LINE
  5
6BB
330
1E
100
AcDbEntity
  8
図面枠
  6
Continuous
100
AcDbLine
 10
792.8457185728228
 20
-189.262515087798
 30
0.0
 11
318.5078205042761
 21
-189.262515087798
 31
0.0
  0
LINE
  5
6BC
330
1E
100
AcDbEntity
  8
図面枠
  6
Continuous
100
AcDbLine
 10
636.4018207929604
 20
-189.262515087798
 30
0.0
 11
648.9173326153507
 21
-189.262515087798
 31
0.0
  0
LINE
  5
6BD
330
1E
100
AcDbEntity
  8
図面枠
  6
Continuous
100
AcDbLine
 10
792.8457185728228
 20
143.6500993877546
 30
0.0
 11
792.8457185728228
 21
-189.262515087798
 31
0.0
  0
LINE
  5
6BE
330
1E
100
AcDbEntity
  8
図面枠
  6
Continuous
100
AcDbLine
 10
318.5078205042761
 20
-189.262515087798
 30
0.0
 11
318.5078205042761
 21
143.6500993877546
 31
0.0
  0
LINE
  5
6BF
330
1E
100
AcDbEntity
  8
図面枠
  6
Continuous
100
AcDbLine
 10
318.5078205042761
 20
143.6500993877546
 30
0.0
 11
792.8457185728228
 21
143.6500993877546
 31
0.0
  0
LINE
  5
6C0
330
1E
100
AcDbEntity
  8
図面枠
  6
Continuous
100
AcDbLine
 10
713.9979940917739
 20
-168.1113001079599
 30
0.0
 11
788.8407547896597
 21
-168.1113001079599
 31
0.0
  0
LINE
  5
6C1
330
1E
100
AcDbEntity
  8
図面枠
  6
Continuous
100
AcDbLine
 10
703.985584633864
 20
-183.0047591766024
 30
0.0
 11
735.2743641898343
 21
-183.0047591766024
 31
0.0
  0
LINE
  5
6C2
330
1E
100
AcDbEntity
  8
図面枠
  6
Continuous
100
AcDbLine
 10
792.8457185728228
 20
-157.9737355318248
 30
0.0
 11
703.985584633864
 21
-157.9737355318248
 31
0.0
  0
LINE
  5
6C3
330
1E
100
AcDbEntity
  8
図面枠
  6
Continuous
100
AcDbLine
 10
792.8457185728228
 20
-132.942711887046
 30
0.0
 11
792.8457185728228
 21
-157.9737355318248
 31
0.0
  0
LINE
  5
6C4
330
1E
100
AcDbEntity
  8
図面枠
  6
Continuous
100
AcDbLine
 10
792.8457185728228
 20
-176.7470032654081
 30
0.0
 11
710.2433405450552
 21
-176.7470032654081
 31
0.0
  0
LINE
  5
6C5
330
1E
100
AcDbEntity
  8
図面枠
  6
Continuous
100
AcDbLine
 10
792.8457185728228
 20
-157.9737355318248
 30
0.0
 11
792.8457185728228
 21
-176.7470032654081
 31
0.0
  0
LINE
  5
6C6
330
1E
100
AcDbEntity
  8
図面枠
  6
Continuous
100
AcDbLine
 10
710.2433405450552
 20
-157.9737355318248
 30
0.0
 11
792.8457185728228
 21
-157.9737355318248
 31
0.0
  0
LINE
  5
6C7
330
1E
100
AcDbEntity
  8
図面枠
  6
Continuous
100
AcDbLine
 10
710.2433405450552
 20
-176.7470032654081
 30
0.0
 11
710.2433405450552
 21
-157.9737355318248
 31
0.0
  0
LINE
  5
6C8
330
1E
100
AcDbEntity
  8
図面枠
  6
Continuous
100
AcDbLine
 10
710.2433405450552
 20
-157.9737355318248
 30
0.0
 11
703.985584633864
 21
-157.9737355318248
 31
0.0
  0
LINE
  5
6C9
330
1E
100
AcDbEntity
  8
図面枠
  6
Continuous
100
AcDbLine
 10
710.2433405450552
 20
-176.7470032654081
 30
0.0
 11
710.2433405450552
 21
-157.9737355318248
 31
0.0
  0
LINE
  5
6CA
330
1E
100
AcDbEntity
  8
図面枠
  6
Continuous
100
AcDbLine
 10
703.985584633864
 20
-176.7470032654081
 30
0.0
 11
710.2433405450552
 21
-176.7470032654081
 31
0.0
  0
LINE
  5
6CB
330
1E
100
AcDbEntity
  8
図面枠
  6
Continuous
100
AcDbLine
 10
703.985584633864
 20
-157.9737355318248
 30
0.0
 11
703.985584633864
 21
-176.7470032654081
 31
0.0
  0
LINE
  5
6CC
330
1E
100
AcDbEntity
  8
図面枠
  6
Continuous
100
AcDbLine
 10
703.985584633864
 20
-157.9737355318248
 30
0.0
 11
703.985584633864
 21
-164.231491443018
 31
0.0
  0
LINE
  5
6CD
330
1E
100
AcDbEntity
  8
図面枠
  6
Continuous
100
AcDbLine
 10
703.985584633864
 20
-164.231491443018
 30
0.0
 11
703.985584633864
 21
-170.489247354213
 31
0.0
  0
LINE
  5
6CE
330
1E
100
AcDbEntity
  8
図面枠
  6
Continuous
100
AcDbLine
 10
703.985584633864
 20
-170.489247354213
 30
0.0
 11
703.985584633864
 21
-176.7470032654081
 31
0.0
  0
LINE
  5
6CF
330
1E
100
AcDbEntity
  8
図面枠
  6
Continuous
100
AcDbLine
 10
792.8457185728228
 20
-176.7470032654081
 30
0.0
 11
740.2805689187906
 21
-176.7470032654081
 31
0.0
  0
LINE
  5
6D0
330
1E
100
AcDbEntity
  8
図面枠
  6
Continuous
100
AcDbLine
 10
792.8457185728228
 20
-189.262515087798
 30
0.0
 11
792.8457185728228
 21
-176.7470032654081
 31
0.0
  0
LINE
  5
6D1
330
1E
100
AcDbEntity
  8
図面枠
  6
Continuous
100
AcDbLine
 10
740.2805689187906
 20
-189.262515087798
 30
0.0
 11
792.8457185728228
 21
-189.262515087798
 31
0.0
  0
LINE
  5
6D2
330
1E
100
AcDbEntity
  8
図面枠
  6
Continuous
100
AcDbLine
 10
740.2805689187906
 20
-176.7470032654081
 30
0.0
 11
740.2805689187906
 21
-189.262515087798
 31
0.0
  0
LINE
  5
6D3
330
1E
100
AcDbEntity
  8
図面枠
  6
Continuous
100
AcDbLine
 10
740.2805689187906
 20
-176.7470032654081
 30
0.0
 11
735.2743641898343
 21
-176.7470032654081
 31
0.0
  0
LINE
  5
6D4
330
1E
100
AcDbEntity
  8
図面枠
  6
Continuous
100
AcDbLine
 10
740.2805689187906
 20
-189.262515087798
 30
0.0
 11
740.2805689187906
 21
-176.7470032654081
 31
0.0
  0
LINE
  5
6D5
330
1E
100
AcDbEntity
  8
図面枠
  6
Continuous
100
AcDbLine
 10
735.2743641898343
 20
-189.262515087798
 30
0.0
 11
740.2805689187906
 21
-189.262515087798
 31
0.0
  0
LINE
  5
6D6
330
1E
100
AcDbEntity
  8
図面枠
  6
Continuous
100
AcDbLine
 10
735.2743641898343
 20
-176.7470032654081
 30
0.0
 11
735.2743641898343
 21
-189.262515087798
 31
0.0
  0
LINE
  5
6D7
330
1E
100
AcDbEntity
  8
図面枠
  6
Continuous
100
AcDbLine
 10
735.2743641898343
 20
-176.7470032654081
 30
0.0
 11
721.5073011852057
 21
-176.7470032654081
 31
0.0
  0
LINE
  5
6D8
330
1E
100
AcDbEntity
  8
図面枠
  6
Continuous
100
AcDbLine
 10
735.2743641898343
 20
-189.262515087798
 30
0.0
 11
735.2743641898343
 21
-176.7470032654081
 31
0.0
  0
LINE
  5
6D9
330
1E
100
AcDbEntity
  8
図面枠
  6
Continuous
100
AcDbLine
 10
721.5073011852057
 20
-189.262515087798
 30
0.0
 11
735.2743641898343
 21
-189.262515087798
 31
0.0
  0
LINE
  5
6DA
330
1E
100
AcDbEntity
  8
図面枠
  6
Continuous
100
AcDbLine
 10
721.5073011852057
 20
-176.7470032654081
 30
0.0
 11
721.5073011852057
 21
-189.262515087798
 31
0.0
  0
LINE
  5
6DB
330
1E
100
AcDbEntity
  8
図面枠
  6
Continuous
100
AcDbLine
 10
721.5073011852057
 20
-176.7470032654081
 30
0.0
 11
703.985584633864
 21
-176.7470032654081
 31
0.0
  0
LINE
  5
6DC
330
1E
100
AcDbEntity
  8
図面枠
  6
Continuous
100
AcDbLine
 10
721.5073011852057
 20
-189.262515087798
 30
0.0
 11
721.5073011852057
 21
-176.7470032654081
 31
0.0
  0
LINE
  5
6DD
330
1E
100
AcDbEntity
  8
図面枠
  6
Continuous
100
AcDbLine
 10
703.985584633864
 20
-189.262515087798
 30
0.0
 11
721.5073011852057
 21
-189.262515087798
 31
0.0
  0
LINE
  5
6DE
330
1E
100
AcDbEntity
  8
図面枠
  6
Continuous
100
AcDbLine
 10
703.985584633864
 20
-176.7470032654081
 30
0.0
 11
703.985584633864
 21
-189.262515087798
 31
0.0
  0
LINE
  5
6DF
330
1E
100
AcDbEntity
  8
図面枠
  6
Continuous
100
AcDbLine
 10
703.985584633864
 20
-189.262515087798
 30
0.0
 11
703.985584633864
 21
-176.7470032654081
 31
0.0
  0
LINE
  5
6E0
330
1E
100
AcDbEntity
  8
図面枠
  6
Continuous
100
AcDbLine
 10
686.4638680825153
 20
-189.262515087798
 30
0.0
 11
703.985584633864
 21
-189.262515087798
 31
0.0
  0
LINE
  5
6E1
330
1E
100
AcDbEntity
  8
図面枠
  6
Continuous
100
AcDbLine
 10
673.9483562601255
 20
-189.262515087798
 30
0.0
 11
686.4638680825153
 21
-189.262515087798
 31
0.0
  0
LINE
  5
6E2
330
1E
100
AcDbEntity
  8
図面枠
  6
Continuous
100
AcDbLine
 10
661.4328444377378
 20
-189.262515087798
 30
0.0
 11
673.9483562601255
 21
-189.262515087798
 31
0.0
  0
LINE
  5
6E3
330
1E
100
AcDbEntity
  8
図面枠
  6
Continuous
100
AcDbLine
 10
648.9173326153507
 20
-189.262515087798
 30
0.0
 11
661.4328444377378
 21
-189.262515087798
 31
0.0
  0
LINE
  5
6E4
330
1E
100
AcDbEntity
  8
図面枠
  6
Continuous
100
AcDbLine
 10
796.6003721195398
 20
147.4047529344697
 30
0.0
 11
796.6003721195398
 21
-193.0171686345144
 31
0.0
  0
LINE
  5
6E5
330
1E
100
AcDbEntity
  8
図面枠
  6
Continuous
100
AcDbLine
 10
796.6003721195398
 20
-193.0171686345144
 30
0.0
 11
314.753166957558
 21
-193.0171686345144
 31
0.0
  0
LINE
  5
6E6
330
1E
100
AcDbEntity
  8
図面枠
  6
Continuous
100
AcDbLine
 10
314.753166957558
 20
147.4047529344697
 30
0.0
 11
314.753166957558
 21
-193.0171686345144
 31
0.0
  0
LINE
  5
6E7
330
1E
100
AcDbEntity
  8
図面枠
  6
Continuous
100
AcDbLine
 10
796.6003721195398
 20
147.4047529344697
 30
0.0
 11
314.753166957558
 21
147.4047529344697
 31
0.0
  0
LWPOLYLINE
  5
6E8
330
1E
100
AcDbEntity
  8
ﾚｲﾔ1
100
AcDbPolyline
 90
        4
 70
     1
 43
0.0
 10
290.6072684326729
 20
163.1126502790248
 10
825.2148992431769
 20
163.1126502790248
 10
825.2148992431769
 20
-214.8873797076516
 10
290.6072684326729
 20
-214.8873797076516
  0
MTEXT
  5
700
330
1E
100
AcDbEntity
  8
ﾚｲﾔ1
100
AcDbMText
 10
714.3095910558525
 20
-163.3916357590542
 30
0.0
 40
3.78
 41
70.96295203294494
 71
     1
 72
     5
  1
{500KN25st油圧ジャッキ}
 73
     1
 44
1.0
1001
ACAD
1000
ACAD_MTEXT_DEFINED_HEIGHT_BEGIN
1070
    46
1040
3.78
1000
ACAD_MTEXT_DEFINED_HEIGHT_END
  0
MTEXT
  5
701
330
1E
100
AcDbEntity
  8
ﾚｲﾔ1
100
AcDbMText
 10
714.5172512327122
 20
-172.3388953300638
 30
0.0
 40
3.78
 41
70.96295203294494
 71
     1
 72
     5
  1
{SM-502.5}
 73
     1
 44
1.0
1001
ACAD
1000
ACAD_MTEXT_DEFINED_HEIGHT_BEGIN
1070
    46
1040
3.78
1000
ACAD_MTEXT_DEFINED_HEIGHT_END
  0
MTEXT
  5
98D
330
1E
100
AcDbEntity
  8
ﾚｲﾔ1
100
AcDbMText
 10
674.1798332525021
 20
134.240565373277
 30
0.0
 40
3.239999999999997
 41
521.5612668193587
 71
     1
 72
     5
  1
仕  様
 73
     1
 44
1.0
  0
MTEXT
  5
98E
330
1E
100
AcDbEntity
  8
ﾚｲﾔ1
100
AcDbMText
 10
674.0281496402564
 20
125.2403026837788
 30
0.0
 40
3.779999999999999
 41
521.5612668193587
 71
     1
 72
     5
  1
能　　力
 73
     1
 44
1.0
  0
MTEXT
  5
98F
330
1E
100
AcDbEntity
  8
ﾚｲﾔ1
100
AcDbMText
 10
673.8360759446583
 20
116.0028693629615
 30
0.0
 40
3.779999999999999
 41
521.5612668193587
 71
     1
 72
     5
  1
機　械　高　さ
 73
     1
 44
1.0
  0
MTEXT
  5
990
330
1E
100
AcDbEntity
  8
ﾚｲﾔ1
100
AcDbMText
 10
673.9738716199682
 20
105.8207584046145
 30
0.0
 40
3.779999999999999
 41
521.5612668193584
 71
     1
 72
     5
  1
{ス　ト　ロ　-　ク}
 73
     1
 44
1.0
1001
ACAD
1000
ACAD_MTEXT_DEFINED_HEIGHT_BEGIN
1070
    46
1040
6.3
1000
ACAD_MTEXT_DEFINED_HEIGHT_END
  0
MTEXT
  5
991
330
1E
100
AcDbEntity
  8
ﾚｲﾔ1
100
AcDbMText
 10
673.9093009144405
 20
96.37361713923151
 30
0.0
 40
3.779999999999999
 41
521.5612668193587
 71
     1
 72
     5
  1
使　用　圧　力
 73
     1
 44
1.0
  0
MTEXT
  5
992
330
1E
100
AcDbEntity
  8
ﾚｲﾔ1
100
AcDbMText
 10
673.9365987009011
 20
86.82214200731015
 30
0.0
 40
3.779999999999999
 41
521.5612668193587
 71
     1
 72
     5
  1
受　圧　面　積
 73
     1
 44
1.0
  0
MTEXT
  5
993
330
1E
100
AcDbEntity
  8
ﾚｲﾔ1
100
AcDbMText
 10
674.563558119739
 20
76.67885764979532
 30
0.0
 40
3.239999999999997
 41
521.5612668193587
 71
     1
 72
     5
  1
ロ　ッ　ド　径
 73
     1
 44
1.0
  0
MTEXT
  5
994
330
1E
100
AcDbEntity
  8
ﾚｲﾔ1
100
AcDbMText
 10
673.8248728928376
 20
66.2574707167155
 30
0.0
 40
3.239999999999997
 41
521.5612668193587
 71
     1
 72
     5
  1
重　　量
 73
     1
 44
1.0
  0
LINE
  5
995
330
1E
100
AcDbEntity
  8
ﾚｲﾔ1
100
AcDbLine
 10
673.4534366915778
 20
130.6584548926406
 30
0.0
 11
687.2230885377161
 21
130.654039252053
 31
0.0
  0
LINE
  5
996
330
1E
100
AcDbEntity
  8
ﾚｲﾔ1
100
AcDbLine
 10
673.4534366915778
 20
120.937153071547
 30
0.0
 11
779.649894533574
 21
120.937153071547
 31
0.0
  0
LINE
  5
997
330
1E
100
AcDbEntity
  8
ﾚｲﾔ1
100
AcDbLine
 10
673.4534366915778
 20
111.2171530715503
 30
0.0
 11
779.649894533574
 21
111.2171530715503
 31
0.0
  0
LINE
  5
998
330
1E
100
AcDbEntity
  8
ﾚｲﾔ1
100
AcDbLine
 10
673.4534366915778
 20
101.4971530715542
 30
0.0
 11
779.649894533574
 21
101.4971530715542
 31
0.0
  0
LINE
  5
999
330
1E
100
AcDbEntity
  8
ﾚｲﾔ1
100
AcDbLine
 10
673.4534366915778
 20
91.7771530715565
 30
0.0
 11
779.649894533574
 21
91.7771530715565
 31
0.0
  0
LINE
  5
99A
330
1E
100
AcDbEntity
  8
ﾚｲﾔ1
100
AcDbLine
 10
673.4534366915778
 20
82.05715307155943
 30
0.0
 11
779.649894533574
 21
82.05715307156159
 31
0.0
  0
LINE
  5
99B
330
1E
100
AcDbEntity
  8
ﾚｲﾔ1
100
AcDbLine
 10
673.4534366915778
 20
72.33715307156335
 30
0.0
 11
779.649894533574
 21
72.33715307156335
 31
0.0
  0
LINE
  5
99C
330
1E
100
AcDbEntity
  8
ﾚｲﾔ1
100
AcDbLine
 10
673.4534366915778
 20
62.61715307156503
 30
0.0
 11
779.649894533574
 21
62.61715307156727
 31
0.0
  0
TEXT
  5
99F
330
1E
100
AcDbEntity
  8
ﾚｲﾔ1
100
AcDbText
 10
748.5222357692911
 20
112.2457431536945
 30
0.0
 40
3.6
  1
100
 50
360.0
100
AcDbText
  0
TEXT
  5
9A0
330
1E
100
AcDbEntity
  8
ﾚｲﾔ1
100
AcDbText
 10
748.5222357692911
 20
102.503503365533
 30
0.0
 40
3.6
  1
25
 50
360.0
100
AcDbText
  0
TEXT
  5
9A1
330
1E
100
AcDbEntity
  8
ﾚｲﾔ1
100
AcDbText
 10
748.5222357692911
 20
92.65638300548899
 30
0.0
 40
3.6
  1
70
 50
360.0
100
AcDbText
  0
TEXT
  5
9A2
330
1E
100
AcDbEntity
  8
ﾚｲﾔ1
100
AcDbText
 10
748.5222357692911
 20
83.15886455171916
 30
0.0
 40
3.6
  1
70.8
 50
360.0
100
AcDbText
  0
TEXT
  5
9A3
330
1E
100
AcDbEntity
  8
ﾚｲﾔ1
100
AcDbText
 10
752.0753389198977
 20
73.2208003801838
 30
0.0
 40
3.6
  1
73
 50
360.0
100
AcDbText
  0
TEXT
  5
9A4
330
1E
100
AcDbEntity
  8
ﾚｲﾔ1
100
AcDbText
 10
752.0878458429876
 20
63.20255475782473
 30
0.0
 40
3.6
  1
8.6
 50
360.0
100
AcDbText
  0
MTEXT
  5
9A5
330
1E
100
AcDbEntity
  8
ﾚｲﾔ1
100
AcDbMText
 10
748.442835967866
 20
76.47555670907086
 30
0.0
 40
3.6
 41
0.0
 71
     1
 72
     5
  1
{Φ}
 73
     1
 44
1.0
1001
ACAD
1000
ACAD_MTEXT_DEFINED_HEIGHT_BEGIN
1070
    46
1040
12.0
1000
ACAD_MTEXT_DEFINED_HEIGHT_END
  0
MTEXT
  5
9A6
330
1E
100
AcDbEntity
  8
ﾚｲﾔ1
100
AcDbMText
 10
747.4700042118412
 20
66.97598501511114
 30
0.0
 40
3.6
 41
0.0
 71
     1
 72
     5
  1
{約}
 73
     1
 44
1.0
1001
ACAD
1000
ACAD_MTEXT_DEFINED_HEIGHT_BEGIN
1070
    46
1040
6.0
1000
ACAD_MTEXT_DEFINED_HEIGHT_END
  0
TEXT
  5
9A7
330
1E
100
AcDbEntity
  8
ﾚｲﾔ1
100
AcDbText
 10
748.5222357692911
 20
122.2097858319476
 30
0.0
 40
3.6
  1
500
 50
360.0
100
AcDbText
  0
TEXT
  5
9A8
330
1E
100
AcDbEntity
  8
ﾚｲﾔ1
100
AcDbText
 10
772.3250189783063
 20
122.1014339119371
 30
0.0
 40
3.6
  1
KN
 50
360.0
100
AcDbText
  0
TEXT
  5
9A9
330
1E
100
AcDbEntity
  8
ﾚｲﾔ1
100
AcDbText
 10
772.3250189783063
 20
112.2838756908485
 30
0.0
 40
3.6
  1
mm
 50
360.0
100
AcDbText
  0
TEXT
  5
9AA
330
1E
100
AcDbEntity
  8
ﾚｲﾔ1
100
AcDbText
 10
772.3250189783063
 20
102.5057358203793
 30
0.0
 40
3.6
  1
mm
 50
360.0
100
AcDbText
  0
TEXT
  5
9AB
330
1E
100
AcDbEntity
  8
ﾚｲﾔ1
100
AcDbText
 10
769.9236897450006
 20
92.97773441171309
 30
0.0
 40
3.6
  1
Mpa
 50
360.0
100
AcDbText
  0
TEXT
  5
9AC
330
1E
100
AcDbEntity
  8
ﾚｲﾔ1
100
AcDbText
 10
772.3250189783063
 20
73.62611341225023
 30
0.0
 40
3.6
  1
mm
 50
360.0
100
AcDbText
  0
TEXT
  5
9AD
330
1E
100
AcDbEntity
  8
ﾚｲﾔ1
100
AcDbText
 10
769.9236897450006
 20
82.77936192541536
 30
0.0
 40
3.6
  1
cm2
 50
360.0
100
AcDbText
  0
TEXT
  5
9AE
330
1E
100
AcDbEntity
  8
ﾚｲﾔ1
100
AcDbText
 10
772.3250189783063
 20
63.58123498205806
 30
0.0
 40
3.6
  1
Kg
 50
360.0
100
AcDbText
  0
TEXT
  5
A27
102
{ACAD_REACTORS
330
A29
102
}
330
1E
100
AcDbEntity
  8
図面枠
100
AcDbText
 10
704.9719557790912
 20
-165.874774615825
 30
0.0
 40
5.190433062981223
  1
名
100
AcDbText
  0
TEXT
  5
A28
102
{ACAD_REACTORS
330
A29
102
}
330
1E
100
AcDbEntity
  8
図面枠
100
AcDbText
 10
704.9719557790912
 20
-174.0469559936838
 30
0.0
 40
5.190433062981223
  1
称
100
AcDbText
  0
ENDSEC
  0
SECTION
  2
OBJECTS
  0
DICTIONARY
  5
C
330
0
100
AcDbDictionary
281
     1
  3
ACAD_COLOR
350
5A4
  3
ACAD_DETAILVIEWSTYLE
350
70F
  3
ACAD_GROUP
350
D
  3
ACAD_LAYOUT
350
19
  3
ACAD_MATERIAL
350
5A3
  3
ACAD_MLEADERSTYLE
350
63F
  3
ACAD_MLINESTYLE
350
16
  3
ACAD_PLOTSETTINGS
350
18
  3
ACAD_PLOTSTYLENAME
350
E
  3
ACAD_SCALELIST
350
5FF
  3
ACAD_SECTIONVIEWSTYLE
350
710
  3
ACAD_TABLESTYLE
350
63D
  3
ACDB_RECOMPOSE_DATA
350
A4A
  3
AcDbVariableDictionary
350
709
  3
APPDATA
350
641
  3
FX_DICT_DIMENSION_PALETTE
350
705
  0
DICTIONARY
  5
6B0
330
2
100
AcDbDictionary
280
     1
281
     1
  3
ACAD_LAYERSTATES
360
6B1
  0
DICTIONARY
  5
648
330
647
100
AcDbDictionary
280
     1
281
     1
  3
ADSK_XREC_LAYER_RECONCILED
360
649
  0
DICTIONARY
  5
64B
330
64A
100
AcDbDictionary
280
     1
281
     1
  3
ADSK_XREC_LAYER_RECONCILED
360
64C
  0
DICTIONARY
  5
784
330
1E
100
AcDbDictionary
280
     1
281
     1
  3
DIM_BOUNDING_BOXES_V1
360
785
  0
DICTIONARY
  5
5A4
102
{ACAD_REACTORS
330
C
102
}
330
C
100
AcDbDictionary
281
     1
  0
DICTIONARY
  5
70F
102
{ACAD_REACTORS
330
C
102
}
330
C
100
AcDbDictionary
281
     1
  0
DICTIONARY
  5
D
102
{ACAD_REACTORS
330
C
102
}
330
C
100
AcDbDictionary
281
     1
  3
*A1
350
A29
  0
DICTIONARY
  5
19
102
{ACAD_REACTORS
330
C
102
}
330
C
100
AcDbDictionary
281
     1
  3
Model
350
21
  3
ﾚｲｱｳﾄ1
350
1D
  0
DICTIONARY
  5
5A3
102
{ACAD_REACTORS
330
C
102
}
330
C
100
AcDbDictionary
281
     1
  3
ByBlock
350
63B
  3
ByLayer
350
63A
  3
Global
350
63C
  0
DICTIONARY
  5
63F
102
{ACAD_REACTORS
330
C
102
}
330
C
100
AcDbDictionary
281
     1
  3
Standard
350
640
  0
DICTIONARY
  5
16
102
{ACAD_REACTORS
330
C
102
}
330
C
100
AcDbDictionary
281
     1
  3
Standard
350
17
  0
DICTIONARY
  5
18
102
{ACAD_REACTORS
330
C
102
}
330
C
100
AcDbDictionary
281
     1
  0
ACDBDICTIONARYWDFLT
  5
E
102
{ACAD_REACTORS
330
C
102
}
330
C
100
AcDbDictionary
281
     1
  3
Normal
350
F
100
AcDbDictionaryWithDefault
340
F
  0
DICTIONARY
  5
5FF
102
{ACAD_REACTORS
330
C
102
}
330
C
100
AcDbDictionary
281
     1
  3
A0
350
600
  3
A1
350
601
  3
A2
350
602
  3
A3
350
603
  3
A4
350
604
  3
A5
350
605
  3
A6
350
606
  3
A7
350
607
  3
A8
350
608
  3
A9
350
609
  3
B0
350
60A
  3
B1
350
60B
  3
B2
350
60C
  3
B3
350
60D
  3
B4
350
60E
  3
B5
350
60F
  3
B6
350
610
  3
B7
350
611
  3
B8
350
612
  3
B9
350
613
  3
C0
350
614
  3
C1
350
615
  3
C2
350
616
  3
C3
350
617
  3
C4
350
618
  3
C5
350
619
  3
C6
350
61A
  3
C7
350
61B
  3
C8
350
61C
  3
C9
350
61D
  3
D0
350
61E
  3
D1
350
61F
  3
D2
350
620
  0
DICTIONARY
  5
710
102
{ACAD_REACTORS
330
C
102
}
330
C
100
AcDbDictionary
281
     1
  0
DICTIONARY
  5
63D
102
{ACAD_REACTORS
330
C
102
}
330
C
100
AcDbDictionary
281
     1
  3
Standard
350
63E
  0
XRECORD
  5
A4A
102
{ACAD_REACTORS
330
C
102
}
330
C
100
AcDbXrecord
280
     1
 90
        1
330
63E
  0
DICTIONARY
  5
709
102
{ACAD_REACTORS
330
C
102
}
330
C
100
AcDbDictionary
281
     1
  3
CANNOSCALE
350
70A
  3
CMLEADERSTYLE
350
70C
  3
CTABLESTYLE
350
70B
  3
MSLTSCALE
350
70D
  3
XCLIPFRAME
350
70E
  0
DICTIONARY
  5
641
102
{ACAD_REACTORS
330
C
102
}
330
C
100
AcDbDictionary
281
     1
  0
DICTIONARY
  5
705
102
{ACAD_REACTORS
330
C
102
}
330
C
100
AcDbDictionary
281
     1
1001
FX_DIMP_FAV_VERSION
1071
        1
  0
DICTIONARY
  5
6B1
102
{ACAD_REACTORS
330
6B0
102
}
330
6B0
100
AcDbDictionary
281
     1
  0
XRECORD
  5
649
102
{ACAD_REACTORS
330
648
102
}
330
648
100
AcDbXrecord
280
     1
290
     1
  0
XRECORD
  5
64C
102
{ACAD_REACTORS
330
64B
102
}
330
64B
100
AcDbXrecord
280
     1
290
     1
  0
DICTIONARY
  5
785
102
{ACAD_REACTORS
330
784
102
}
330
784
100
AcDbDictionary
281
     1
  0
GROUP
  5
A29
102
{ACAD_REACTORS
330
D
102
}
330
D
100
AcDbGroup
300

 70
     1
 71
     1
340
A27
340
A28
  0
LAYOUT
  5
21
102
{ACAD_REACTORS
330
19
102
}
330
19
100
AcDbPlotSettings
  1

  2
\\Souko01\倉庫プリンタ
  4
A4
  6

 40
5.873749732971191
 41
5.873747825622558
 42
5.873748779296875
 43
5.873748779296875
 44
209.9733276367187
 45
296.9259948730469
 46
0.0
 47
0.0
 48
0.0
 49
0.0
140
0.0
141
0.0
142
1.0
143
1.0
 70
 11952
 72
     0
 73
     1
 74
     0
  7

 75
     0
 76
     0
 77
     2
 78
   300
147
1.0
148
3815.849768479912
149
3815.849775754008
100
AcDbLayout
  1
Model
 70
     1
 71
     0
 10
0.0
 20
0.0
 11
12.0
 21
9.0
 12
0.0
 22
0.0
 32
0.0
 14
290.6072684326729
 24
-214.8873797076516
 34
0.0
 15
825.2148992431769
 25
163.1126502790248
 35
0.0
146
0.0
 13
0.0
 23
0.0
 33
0.0
 16
1.0
 26
0.0
 36
0.0
 17
0.0
 27
1.0
 37
0.0
 76
     0
330
1E
331
5FE
  0
LAYOUT
  5
1D
102
{ACAD_REACTORS
330
19
102
}
330
19
100
AcDbPlotSettings
  1

  2
\\Souko01\倉庫プリンタ
  4

  6

 40
0.0
 41
0.0
 42
0.0
 43
0.0
 44
0.0
 45
0.0
 46
0.0
 47
0.0
 48
0.0
 49
0.0
140
0.0
141
0.0
142
1.0
143
1.0
 70
   688
 72
     0
 73
     0
 74
     5
  7

 75
    16
 76
     0
 77
     2
 78
   300
147
1.0
148
0.0
149
0.0
100
AcDbLayout
  1
ﾚｲｱｳﾄ1
 70
     1
 71
     1
 10
0.0
 20
0.0
 11
12.0
 21
9.0
 12
0.0
 22
0.0
 32
0.0
 14
1.000000000000000E+20
 24
1.000000000000000E+20
 34
1.000000000000000E+20
 15
-1.000000000000000E+20
 25
-1.000000000000000E+20
 35
-1.000000000000000E+20
146
0.0
 13
0.0
 23
0.0
 33
0.0
 16
1.0
 26
0.0
 36
0.0
 17
0.0
 27
1.0
 37
0.0
 76
     0
330
1A
  0
MATERIAL
  5
63B
102
{ACAD_REACTORS
330
5A3
102
}
330
5A3
100
AcDbMaterial
  1
ByBlock
  0
MATERIAL
  5
63A
102
{ACAD_REACTORS
330
5A3
102
}
330
5A3
100
AcDbMaterial
  1
ByLayer
  0
MATERIAL
  5
63C
102
{ACAD_REACTORS
330
5A3
102
}
330
5A3
100
AcDbMaterial
  1
Global
  0
MLEADERSTYLE
  5
640
102
{ACAD_REACTORS
330
63F
102
}
330
63F
100
AcDbMLeaderStyle
170
     2
171
     1
172
     0
 90
        2
 40
0.0
 41
0.0
173
     1
 91
-1056964608
340
13
 92
       -2
290
     1
 42
0.09
291
     1
 43
0.36
  3
Standard
341
0
 44
0.18
300

342
11
174
     1
178
     1
175
     1
176
     0
 93
-1056964608
 45
0.18
292
     0
297
     0
 46
0.18
343
0
 94
-1056964608
 47
1.0
 49
1.0
140
1.0
293
     1
141
0.0
294
     1
177
     0
142
1.0
295
     0
296
     0
143
0.125
1001
ACAD_MLEADERVER
1070
     2
  0
MLINESTYLE
  5
17
102
{ACAD_REACTORS
330
16
102
}
330
16
100
AcDbMlineStyle
  2
STANDARD
 70
     0
  3

 62
   256
 51
90.0
 52
90.0
 71
     2
 49
0.5
 62
   256
  6
BYLAYER
 49
-0.5
 62
   256
  6
BYLAYER
  0
ACDBPLACEHOLDER
  5
F
102
{ACAD_REACTORS
330
E
102
}
330
E
  0
SCALE
  5
600
102
{ACAD_REACTORS
330
5FF
102
}
330
5FF
100
AcDbScale
 70
     0
300
1:1
140
1.0
141
1.0
290
     1
  0
SCALE
  5
601
102
{ACAD_REACTORS
330
5FF
102
}
330
5FF
100
AcDbScale
 70
     0
300
1:2
140
1.0
141
2.0
290
     0
  0
SCALE
  5
602
102
{ACAD_REACTORS
330
5FF
102
}
330
5FF
100
AcDbScale
 70
     0
300
1:4
140
1.0
141
4.0
290
     0
  0
SCALE
  5
603
102
{ACAD_REACTORS
330
5FF
102
}
330
5FF
100
AcDbScale
 70
     0
300
1:5
140
1.0
141
5.0
290
     0
  0
SCALE
  5
604
102
{ACAD_REACTORS
330
5FF
102
}
330
5FF
100
AcDbScale
 70
     0
300
1:8
140
1.0
141
8.0
290
     0
  0
SCALE
  5
605
102
{ACAD_REACTORS
330
5FF
102
}
330
5FF
100
AcDbScale
 70
     0
300
1:10
140
1.0
141
10.0
290
     0
  0
SCALE
  5
606
102
{ACAD_REACTORS
330
5FF
102
}
330
5FF
100
AcDbScale
 70
     0
300
1:16
140
1.0
141
16.0
290
     0
  0
SCALE
  5
607
102
{ACAD_REACTORS
330
5FF
102
}
330
5FF
100
AcDbScale
 70
     0
300
1:20
140
1.0
141
20.0
290
     0
  0
SCALE
  5
608
102
{ACAD_REACTORS
330
5FF
102
}
330
5FF
100
AcDbScale
 70
     0
300
1:30
140
1.0
141
30.0
290
     0
  0
SCALE
  5
609
102
{ACAD_REACTORS
330
5FF
102
}
330
5FF
100
AcDbScale
 70
     0
300
1:40
140
1.0
141
40.0
290
     0
  0
SCALE
  5
60A
102
{ACAD_REACTORS
330
5FF
102
}
330
5FF
100
AcDbScale
 70
     0
300
1:50
140
1.0
141
50.0
290
     0
  0
SCALE
  5
60B
102
{ACAD_REACTORS
330
5FF
102
}
330
5FF
100
AcDbScale
 70
     0
300
1:100
140
1.0
141
100.0
290
     0
  0
SCALE
  5
60C
102
{ACAD_REACTORS
330
5FF
102
}
330
5FF
100
AcDbScale
 70
     0
300
2:1
140
2.0
141
1.0
290
     0
  0
SCALE
  5
60D
102
{ACAD_REACTORS
330
5FF
102
}
330
5FF
100
AcDbScale
 70
     0
300
4:1
140
4.0
141
1.0
290
     0
  0
SCALE
  5
60E
102
{ACAD_REACTORS
330
5FF
102
}
330
5FF
100
AcDbScale
 70
     0
300
8:1
140
8.0
141
1.0
290
     0
  0
SCALE
  5
60F
102
{ACAD_REACTORS
330
5FF
102
}
330
5FF
100
AcDbScale
 70
     0
300
10:1
140
10.0
141
1.0
290
     0
  0
SCALE
  5
610
102
{ACAD_REACTORS
330
5FF
102
}
330
5FF
100
AcDbScale
 70
     0
300
100:1
140
100.0
141
1.0
290
     0
  0
SCALE
  5
611
102
{ACAD_REACTORS
330
5FF
102
}
330
5FF
100
AcDbScale
 70
     0
300
1/128" = 1'-0"
140
0.0078125
141
12.0
290
     0
  0
SCALE
  5
612
102
{ACAD_REACTORS
330
5FF
102
}
330
5FF
100
AcDbScale
 70
     0
300
1/64" = 1'-0"
140
0.015625
141
12.0
290
     0
  0
SCALE
  5
613
102
{ACAD_REACTORS
330
5FF
102
}
330
5FF
100
AcDbScale
 70
     0
300
1/32" = 1'-0"
140
0.03125
141
12.0
290
     0
  0
SCALE
  5
614
102
{ACAD_REACTORS
330
5FF
102
}
330
5FF
100
AcDbScale
 70
     0
300
1/16" = 1'-0"
140
0.0625
141
12.0
290
     0
  0
SCALE
  5
615
102
{ACAD_REACTORS
330
5FF
102
}
330
5FF
100
AcDbScale
 70
     0
300
3/32" = 1'-0"
140
0.09375
141
12.0
290
     0
  0
SCALE
  5
616
102
{ACAD_REACTORS
330
5FF
102
}
330
5FF
100
AcDbScale
 70
     0
300
1/8" = 1'-0"
140
0.125
141
12.0
290
     0
  0
SCALE
  5
617
102
{ACAD_REACTORS
330
5FF
102
}
330
5FF
100
AcDbScale
 70
     0
300
3/16" = 1'-0"
140
0.1875
141
12.0
290
     0
  0
SCALE
  5
618
102
{ACAD_REACTORS
330
5FF
102
}
330
5FF
100
AcDbScale
 70
     0
300
1/4" = 1'-0"
140
0.25
141
12.0
290
     0
  0
SCALE
  5
619
102
{ACAD_REACTORS
330
5FF
102
}
330
5FF
100
AcDbScale
 70
     0
300
3/8" = 1'-0"
140
0.375
141
12.0
290
     0
  0
SCALE
  5
61A
102
{ACAD_REACTORS
330
5FF
102
}
330
5FF
100
AcDbScale
 70
     0
300
1/2" = 1'-0"
140
0.5
141
12.0
290
     0
  0
SCALE
  5
61B
102
{ACAD_REACTORS
330
5FF
102
}
330
5FF
100
AcDbScale
 70
     0
300
3/4" = 1'-0"
140
0.75
141
12.0
290
     0
  0
SCALE
  5
61C
102
{ACAD_REACTORS
330
5FF
102
}
330
5FF
100
AcDbScale
 70
     0
300
1" = 1'-0"
140
1.0
141
12.0
290
     0
  0
SCALE
  5
61D
102
{ACAD_REACTORS
330
5FF
102
}
330
5FF
100
AcDbScale
 70
     0
300
1-1/2" = 1'-0"
140
1.5
141
12.0
290
     0
  0
SCALE
  5
61E
102
{ACAD_REACTORS
330
5FF
102
}
330
5FF
100
AcDbScale
 70
     0
300
3" = 1'-0"
140
3.0
141
12.0
290
     0
  0
SCALE
  5
61F
102
{ACAD_REACTORS
330
5FF
102
}
330
5FF
100
AcDbScale
 70
     0
300
6" = 1'-0"
140
6.0
141
12.0
290
     0
  0
SCALE
  5
620
102
{ACAD_REACTORS
330
5FF
102
}
330
5FF
100
AcDbScale
 70
     0
300
1'-0" = 1'-0"
140
12.0
141
12.0
290
     0
  0
TABLESTYLE
  5
63E
102
{ACAD_REACTORS
330
63D
102
}
102
{ACAD_XDICTIONARY
360
A47
102
}
330
63D
100
AcDbTableStyle
  3
Standard
 70
     0
 71
     0
 40
0.06
 41
0.06
280
     0
281
     0
  7
STANDARD
140
0.18
170
     2
 62
     0
 63
   257
283
     0
274
    -2
284
     1
 64
     0
275
    -2
285
     1
 65
     0
276
    -2
286
     1
 66
     0
277
    -2
287
     1
 67
     0
278
    -2
288
     1
 68
     0
279
    -2
289
     1
 69
     0
  7
STANDARD
140
0.25
170
     5
 62
     0
 63
   257
283
     0
274
    -2
284
     1
 64
     0
275
    -2
285
     1
 65
     0
276
    -2
286
     1
 66
     0
277
    -2
287
     1
 67
     0
278
    -2
288
     1
 68
     0
279
    -2
289
     1
 69
     0
  7
STANDARD
140
0.18
170
     5
 62
     0
 63
   257
283
     0
274
    -2
284
     1
 64
     0
275
    -2
285
     1
 65
     0
276
    -2
286
     1
 66
     0
277
    -2
287
     1
 67
     0
278
    -2
288
     1
 68
     0
279
    -2
289
     1
 69
     0
  0
DICTIONARYVAR
  5
70A
102
{ACAD_REACTORS
330
709
102
}
330
709
100
DictionaryVariables
280
     0
  1
1:1
  0
DICTIONARYVAR
  5
70C
102
{ACAD_REACTORS
330
709
102
}
330
709
100
DictionaryVariables
280
     0
  1
Standard
  0
DICTIONARYVAR
  5
70B
102
{ACAD_REACTORS
330
709
102
}
330
709
100
DictionaryVariables
280
     0
  1
Standard
  0
DICTIONARYVAR
  5
70D
102
{ACAD_REACTORS
330
709
102
}
330
709
100
DictionaryVariables
280
     0
  1
0
  0
DICTIONARYVAR
  5
70E
102
{ACAD_REACTORS
330
709
102
}
330
709
100
DictionaryVariables
280
     0
  1
0
  0
DICTIONARY
  5
A47
330
63E
100
AcDbDictionary
280
     1
281
     1
  3
ACAD_ROUNDTRIP_2008_TABLESTYLE_CELLSTYLEMAP
360
A49
  3
ACAD_XREC_ROUNDTRIP
360
A48
  0
CELLSTYLEMAP
  5
A49
102
{ACAD_REACTORS
330
A47
102
}
330
A47
100
AcDbCellStyleMap
 90
        3
300
CELLSTYLE
  1
TABLEFORMAT_BEGIN
 90
        5
170
     1
 91
        0
 92
    32768
 62
   257
 93
        1
300
CONTENTFORMAT
  1
CONTENTFORMAT_BEGIN
 90
        0
 91
        0
 92
        4
 93
        0
300

 40
0.0
140
1.0
 94
        5
 62
     0
340
11
144
0.25
309
CONTENTFORMAT_END
171
     1
301
MARGIN
  1
CELLMARGIN_BEGIN
 40
0.06
 40
0.06
 40
0.06
 40
0.06
 40
0.06
 40
0.06
309
CELLMARGIN_END
 94
        6
 95
        1
302
GRIDFORMAT
  1
GRIDFORMAT_BEGIN
 90
        0
 91
        1
 62
     0
 92
       -2
340
13
 93
        0
 40
0.045
309
GRIDFORMAT_END
 95
        2
302
GRIDFORMAT
  1
GRIDFORMAT_BEGIN
 90
        0
 91
        1
 62
     0
 92
       -2
340
13
 93
        0
 40
0.045
309
GRIDFORMAT_END
 95
        4
302
GRIDFORMAT
  1
GRIDFORMAT_BEGIN
 90
        0
 91
        1
 62
     0
 92
       -2
340
13
 93
        0
 40
0.045
309
GRIDFORMAT_END
 95
        8
302
GRIDFORMAT
  1
GRIDFORMAT_BEGIN
 90
        0
 91
        1
 62
     0
 92
       -2
340
13
 93
        0
 40
0.045
309
GRIDFORMAT_END
 95
       16
302
GRIDFORMAT
  1
GRIDFORMAT_BEGIN
 90
        0
 91
        1
 62
     0
 92
       -2
340
13
 93
        0
 40
0.045
309
GRIDFORMAT_END
 95
       32
302
GRIDFORMAT
  1
GRIDFORMAT_BEGIN
 90
        0
 91
        1
 62
     0
 92
       -2
340
13
 93
        0
 40
0.045
309
GRIDFORMAT_END
309
TABLEFORMAT_END
  1
CELLSTYLE_BEGIN
 90
        1
 91
        1
300
_TITLE
309
CELLSTYLE_END
300
CELLSTYLE
  1
TABLEFORMAT_BEGIN
 90
        5
170
     1
 91
        0
 92
        0
 62
   257
 93
        1
300
CONTENTFORMAT
  1
CONTENTFORMAT_BEGIN
 90
        0
 91
        0
 92
        4
 93
        0
300

 40
0.0
140
1.0
 94
        5
 62
     0
340
11
144
0.18
309
CONTENTFORMAT_END
171
     1
301
MARGIN
  1
CELLMARGIN_BEGIN
 40
0.06
 40
0.06
 40
0.06
 40
0.06
 40
0.06
 40
0.06
309
CELLMARGIN_END
 94
        6
 95
        1
302
GRIDFORMAT
  1
GRIDFORMAT_BEGIN
 90
        0
 91
        1
 62
     0
 92
       -2
340
13
 93
        0
 40
0.045
309
GRIDFORMAT_END
 95
        2
302
GRIDFORMAT
  1
GRIDFORMAT_BEGIN
 90
        0
 91
        1
 62
     0
 92
       -2
340
13
 93
        0
 40
0.045
309
GRIDFORMAT_END
 95
        4
302
GRIDFORMAT
  1
GRIDFORMAT_BEGIN
 90
        0
 91
        1
 62
     0
 92
       -2
340
13
 93
        0
 40
0.045
309
GRIDFORMAT_END
 95
        8
302
GRIDFORMAT
  1
GRIDFORMAT_BEGIN
 90
        0
 91
        1
 62
     0
 92
       -2
340
13
 93
        0
 40
0.045
309
GRIDFORMAT_END
 95
       16
302
GRIDFORMAT
  1
GRIDFORMAT_BEGIN
 90
        0
 91
        1
 62
     0
 92
       -2
340
13
 93
        0
 40
0.045
309
GRIDFORMAT_END
 95
       32
302
GRIDFORMAT
  1
GRIDFORMAT_BEGIN
 90
        0
 91
        1
 62
     0
 92
       -2
340
13
 93
        0
 40
0.045
309
GRIDFORMAT_END
309
TABLEFORMAT_END
  1
CELLSTYLE_BEGIN
 90
        2
 91
        1
300
_HEADER
309
CELLSTYLE_END
300
CELLSTYLE
  1
TABLEFORMAT_BEGIN
 90
        5
170
     1
 91
        0
 92
        0
 62
   257
 93
        1
300
CONTENTFORMAT
  1
CONTENTFORMAT_BEGIN
 90
        0
 91
        0
 92
        4
 93
        0
300

 40
0.0
140
1.0
 94
        2
 62
     0
340
11
144
0.18
309
CONTENTFORMAT_END
171
     1
301
MARGIN
  1
CELLMARGIN_BEGIN
 40
0.06
 40
0.06
 40
0.06
 40
0.06
 40
0.06
 40
0.06
309
CELLMARGIN_END
 94
        6
 95
        1
302
GRIDFORMAT
  1
GRIDFORMAT_BEGIN
 90
        0
 91
        1
 62
     0
 92
       -2
340
13
 93
        0
 40
0.045
309
GRIDFORMAT_END
 95
        2
302
GRIDFORMAT
  1
GRIDFORMAT_BEGIN
 90
        0
 91
        1
 62
     0
 92
       -2
340
13
 93
        0
 40
0.045
309
GRIDFORMAT_END
 95
        4
302
GRIDFORMAT
  1
GRIDFORMAT_BEGIN
 90
        0
 91
        1
 62
     0
 92
       -2
340
13
 93
        0
 40
0.045
309
GRIDFORMAT_END
 95
        8
302
GRIDFORMAT
  1
GRIDFORMAT_BEGIN
 90
        0
 91
        1
 62
     0
 92
       -2
340
13
 93
        0
 40
0.045
309
GRIDFORMAT_END
 95
       16
302
GRIDFORMAT
  1
GRIDFORMAT_BEGIN
 90
        0
 91
        1
 62
     0
 92
       -2
340
13
 93
        0
 40
0.045
309
GRIDFORMAT_END
 95
       32
302
GRIDFORMAT
  1
GRIDFORMAT_BEGIN
 90
        0
 91
        1
 62
     0
 92
       -2
340
13
 93
        0
 40
0.045
309
GRIDFORMAT_END
309
TABLEFORMAT_END
  1
CELLSTYLE_BEGIN
 90
        3
 91
        2
300
_DATA
309
CELLSTYLE_END
  0
XRECORD
  5
A48
102
{ACAD_REACTORS
330
A47
102
}
330
A47
100
AcDbXrecord
280
     1
102
ACAD_ROUNDTRIP_PRE2007_TABLESTYLE
 90
        4
 91
        0
  1

 92
        4
 93
        0
  2

 94
        4
 95
        0
  3

  0
ENDSEC
  0
EOF
