  0
SECTION
  2
HEADER
  9
$ACADVER
  1
AC1015
  9
$ACADMAINTVER
 70
     6
  9
$DWGCODEPAGE
  3
ANSI_932
  9
$INSBASE
 10
0.0
 20
0.0
 30
0.0
  9
$EXTMIN
 10
1869.535183538351
 20
515.6085824289427
 30
0.0
  9
$EXTMAX
 10
2522.944510084521
 20
977.6086190793264
 30
0.0
  9
$LIMMIN
 10
-210.0
 20
-148.5
  9
$LIMMAX
 10
210.0
 20
148.5
  9
$ORTHOMODE
 70
     0
  9
$REGENMODE
 70
     1
  9
$FILLMODE
 70
     1
  9
$QTEXTMODE
 70
     0
  9
$MIRRTEXT
 70
     1
  9
$LTSCALE
 40
1.0
  9
$ATTMODE
 70
     1
  9
$TEXTSIZE
 40
1.0
  9
$TRACEWID
 40
0.05
  9
$TEXTSTYLE
  7
STANDARD
  9
$CLAYER
  8
下図
  9
$CELTYPE
  6
ByLayer
  9
$CECOLOR
 62
   256
  9
$CELTSCALE
 40
1.0
  9
$DISPSILH
 70
     0
  9
$DIMSCALE
 40
1.0
  9
$DIMASZ
 40
3.0
  9
$DIMEXO
 40
0.0625
  9
$DIMDLI
 40
0.38
  9
$DIMRND
 40
0.0
  9
$DIMDLE
 40
0.0
  9
$DIMEXE
 40
0.5
  9
$DIMTP
 40
0.0
  9
$DIMTM
 40
0.0
  9
$DIMTXT
 40
5.0
  9
$DIMCEN
 40
0.09
  9
$DIMTSZ
 40
0.0
  9
$DIMTOL
 70
     0
  9
$DIMLIM
 70
     0
  9
$DIMTIH
 70
     0
  9
$DIMTOH
 70
     0
  9
$DIMSE1
 70
     0
  9
$DIMSE2
 70
     0
  9
$DIMTAD
 70
     1
  9
$DIMZIN
 70
     0
  9
$DIMBLK
  1
Open30
  9
$DIMASO
 70
     1
  9
$DIMSHO
 70
     1
  9
$DIMPOST
  1

  9
$DIMAPOST
  1

  9
$DIMALT
 70
     0
  9
$DIMALTD
 70
     2
  9
$DIMALTF
 40
25.4
  9
$DIMLFAC
 40
1.0
  9
$DIMTOFL
 70
     0
  9
$DIMTVP
 40
0.0
  9
$DIMTIX
 70
     0
  9
$DIMSOXD
 70
     0
  9
$DIMSAH
 70
     0
  9
$DIMBLK1
  1

  9
$DIMBLK2
  1

  9
$DIMSTYLE
  2
Standard
  9
$DIMCLRD
 70
     1
  9
$DIMCLRE
 70
     1
  9
$DIMCLRT
 70
     1
  9
$DIMTFAC
 40
1.0
  9
$DIMGAP
 40
0.5
  9
$DIMJUST
 70
     0
  9
$DIMSD1
 70
     0
  9
$DIMSD2
 70
     0
  9
$DIMTOLJ
 70
     1
  9
$DIMTZIN
 70
     0
  9
$DIMALTZ
 70
     0
  9
$DIMALTTZ
 70
     0
  9
$DIMUPT
 70
     0
  9
$DIMDEC
 70
     0
  9
$DIMTDEC
 70
     0
  9
$DIMALTU
 70
     2
  9
$DIMALTTD
 70
     2
  9
$DIMTXSTY
  7
TextStyle01
  9
$DIMAUNIT
 70
     0
  9
$DIMADEC
 70
     0
  9
$DIMALTRND
 40
0.0
  9
$DIMAZIN
 70
     0
  9
$DIMDSEP
 70
    46
  9
$DIMATFIT
 70
     3
  9
$DIMFRAC
 70
     0
  9
$DIMLDRBLK
  1
Open30
  9
$DIMLUNIT
 70
     2
  9
$DIMLWD
 70
    -2
  9
$DIMLWE
 70
    -2
  9
$DIMTMOVE
 70
     2
  9
$LUNITS
 70
     2
  9
$LUPREC
 70
     4
  9
$SKETCHINC
 40
0.1
  9
$FILLETRAD
 40
1.0
  9
$AUNITS
 70
     0
  9
$AUPREC
 70
     0
  9
$MENU
  1
acad
  9
$ELEVATION
 40
0.0
  9
$PELEVATION
 40
0.0
  9
$THICKNESS
 40
0.0
  9
$LIMCHECK
 70
     0
  9
$CHAMFERA
 40
0.0
  9
$CHAMFERB
 40
0.0
  9
$CHAMFERC
 40
0.0
  9
$CHAMFERD
 40
0.0
  9
$SKPOLY
 70
     0
  9
$TDCREATE
 40
2449944.925517361
  9
$TDUCREATE
 40
2449944.550517361
  9
$TDUPDATE
 40
2459744.416400718
  9
$TDUUPDATE
 40
2459744.041400718
  9
$TDINDWG
 40
0.5507646875
  9
$TDUSRTIMER
 40
0.0008295718
  9
$USRTIMER
 70
     1
  9
$ANGBASE
 50
0.0
  9
$ANGDIR
 70
     0
  9
$PDMODE
 70
     0
  9
$PDSIZE
 40
1.5
  9
$PLINEWID
 40
0.0
  9
$SPLFRAME
 70
     0
  9
$SPLINETYPE
 70
     6
  9
$SPLINESEGS
 70
     8
  9
$HANDSEED
  5
EB5
  9
$SURFTAB1
 70
     6
  9
$SURFTAB2
 70
     6
  9
$SURFTYPE
 70
     6
  9
$SURFU
 70
     6
  9
$SURFV
 70
     6
  9
$UCSBASE
  2

  9
$UCSNAME
  2

  9
$UCSORG
 10
0.0
 20
0.0
 30
0.0
  9
$UCSXDIR
 10
1.0
 20
0.0
 30
0.0
  9
$UCSYDIR
 10
0.0
 20
1.0
 30
0.0
  9
$UCSORTHOREF
  2

  9
$UCSORTHOVIEW
 70
     0
  9
$UCSORGTOP
 10
0.0
 20
0.0
 30
0.0
  9
$UCSORGBOTTOM
 10
0.0
 20
0.0
 30
0.0
  9
$UCSORGLEFT
 10
0.0
 20
0.0
 30
0.0
  9
$UCSORGRIGHT
 10
0.0
 20
0.0
 30
0.0
  9
$UCSORGFRONT
 10
0.0
 20
0.0
 30
0.0
  9
$UCSORGBACK
 10
0.0
 20
0.0
 30
0.0
  9
$PUCSBASE
  2

  9
$PUCSNAME
  2

  9
$PUCSORG
 10
0.0
 20
0.0
 30
0.0
  9
$PUCSXDIR
 10
1.0
 20
0.0
 30
0.0
  9
$PUCSYDIR
 10
0.0
 20
1.0
 30
0.0
  9
$PUCSORTHOREF
  2

  9
$PUCSORTHOVIEW
 70
     0
  9
$PUCSORGTOP
 10
0.0
 20
0.0
 30
0.0
  9
$PUCSORGBOTTOM
 10
0.0
 20
0.0
 30
0.0
  9
$PUCSORGLEFT
 10
0.0
 20
0.0
 30
0.0
  9
$PUCSORGRIGHT
 10
0.0
 20
0.0
 30
0.0
  9
$PUCSORGFRONT
 10
0.0
 20
0.0
 30
0.0
  9
$PUCSORGBACK
 10
0.0
 20
0.0
 30
0.0
  9
$USERI1
 70
     0
  9
$USERI2
 70
     0
  9
$USERI3
 70
     0
  9
$USERI4
 70
     0
  9
$USERI5
 70
     0
  9
$USERR1
 40
0.0
  9
$USERR2
 40
0.0
  9
$USERR3
 40
0.0
  9
$USERR4
 40
0.0
  9
$USERR5
 40
0.0
  9
$WORLDVIEW
 70
     1
  9
$SHADEDGE
 70
     3
  9
$SHADEDIF
 70
    70
  9
$TILEMODE
 70
     1
  9
$MAXACTVP
 70
    16
  9
$PINSBASE
 10
0.0
 20
0.0
 30
0.0
  9
$PLIMCHECK
 70
     0
  9
$PEXTMIN
 10
1.049999952316284
 20
0.7999999523162842
 30
0.0
  9
$PEXTMAX
 10
9.449999570846556
 20
7.199999570846556
 30
0.0
  9
$PLIMMIN
 10
-0.2500002402958907
 20
-0.2499999962453767
  9
$PLIMMAX
 10
10.74999951940822
 20
8.249999763458733
  9
$UNITMODE
 70
     0
  9
$VISRETAIN
 70
     0
  9
$PLINEGEN
 70
     0
  9
$PSLTSCALE
 70
     1
  9
$TREEDEPTH
 70
  3020
  9
$CMLSTYLE
  2
Standard
  9
$CMLJUST
 70
     0
  9
$CMLSCALE
 40
1.0
  9
$PROXYGRAPHICS
 70
     1
  9
$MEASUREMENT
 70
     0
  9
$CELWEIGHT
370
    -1
  9
$ENDCAPS
280
     0
  9
$JOINSTYLE
280
     0
  9
$LWDISPLAY
290
     0
  9
$INSUNITS
 70
     0
  9
$HYPERLINKBASE
  1

  9
$STYLESHEET
  1

  9
$XEDIT
290
     1
  9
$CEPSNTYPE
380
     0
  9
$PSTYLEMODE
290
     1
  9
$FINGERPRINTGUID
  2
{3F05092E-EABE-41D4-925D-E3C07104686B}
  9
$VERSIONGUID
  2
{8EFD0E52-F5D9-47DE-A228-64FAC0DAFEA3}
  9
$EXTNAMES
290
     1
  9
$PSVPSCALE
 40
0.0
  9
$OLESTARTUP
290
     0
  0
ENDSEC
  0
SECTION
  2
CLASSES
  0
CLASS
  1
ACDBDICTIONARYWDFLT
  2
AcDbDictionaryWithDefault
  3
ObjectDBX Classes
 90
        0
280
     0
281
     0
  0
CLASS
  1
ACDBPLACEHOLDER
  2
AcDbPlaceHolder
  3
ObjectDBX Classes
 90
        0
280
     0
281
     0
  0
CLASS
  1
LAYOUT
  2
AcDbLayout
  3
ObjectDBX Classes
 90
        0
280
     0
281
     0
  0
CLASS
  1
DICTIONARYVAR
  2
AcDbDictionaryVar
  3
ObjectDBX Classes
 90
        0
280
     0
281
     0
  0
CLASS
  1
SCALE
  2
AcDbScale
  3
ObjectDBX Classes
 90
     1153
280
     0
281
     0
  0
CLASS
  1
VISUALSTYLE
  2
AcDbVisualStyle
  3
ObjectDBX Classes
 90
     4095
280
     0
281
     0
  0
CLASS
  1
MATERIAL
  2
AcDbMaterial
  3
ObjectDBX Classes
 90
     1153
280
     0
281
     0
  0
CLASS
  1
TABLESTYLE
  2
AcDbTableStyle
  3
ObjectDBX Classes
 90
     4095
280
     0
281
     0
  0
CLASS
  1
MLEADERSTYLE
  2
AcDbMLeaderStyle
  3
ACDB_MLEADERSTYLE_CLASS
 90
     4095
280
     0
281
     0
  0
CLASS
  1
SORTENTSTABLE
  2
AcDbSortentsTable
  3
ObjectDBX Classes
 90
        0
280
     0
281
     0
  0
CLASS
  1
BREAKDATA
  2
AcDbBreakData
  3
ObjectDBX Classes
 90
     1024
280
     0
281
     0
  0
ENDSEC
  0
SECTION
  2
TABLES
  0
TABLE
  2
VPORT
  5
8
330
0
100
AcDbSymbolTable
 70
     1
  0
VPORT
  5
A30
330
8
100
AcDbSymbolTableRecord
100
AcDbViewportTableRecord
  2
*Active
 70
     0
 10
0.0
 20
0.0
 11
1.0
 21
1.0
 12
2418.330480933777
 22
591.5310018852934
 13
0.0
 23
0.0
 14
1.0
 24
1.0
 15
0.0
 25
0.0
 16
0.0
 26
0.0
 36
1.0
 17
0.0
 27
0.0
 37
0.0
 40
188.9216047432775
 41
2.082079343365253
 42
50.0
 43
0.0
 44
0.0
 50
0.0
 51
0.0
 71
    16
 72
   100
 73
     1
 74
     0
 75
     0
 76
     0
 77
     0
 78
     0
281
     0
 65
     1
110
0.0
120
0.0
130
0.0
111
1.0
121
0.0
131
0.0
112
0.0
122
1.0
132
0.0
 79
     0
146
0.0
  0
ENDTAB
  0
TABLE
  2
LTYPE
  5
5
330
0
100
AcDbSymbolTable
 70
     9
  0
LTYPE
  5
13
330
5
100
AcDbSymbolTableRecord
100
AcDbLinetypeTableRecord
  2
ByBlock
 70
     0
  3

 72
    65
 73
     0
 40
0.0
  0
LTYPE
  5
14
330
5
100
AcDbSymbolTableRecord
100
AcDbLinetypeTableRecord
  2
ByLayer
 70
     0
  3

 72
    65
 73
     0
 40
0.0
  0
LTYPE
  5
15
330
5
100
AcDbSymbolTableRecord
100
AcDbLinetypeTableRecord
  2
CONTINUOUS
 70
     0
  3
実線
 72
    65
 73
     0
 40
0.0
  0
LTYPE
  5
2D
330
5
100
AcDbSymbolTableRecord
100
AcDbLinetypeTableRecord
  2
DASHED
 70
     0
  3
破線A
 72
    65
 73
     2
 40
7.5
 49
5.0
 74
     0
 49
-2.5
 74
     0
  0
LTYPE
  5
2E
330
5
100
AcDbSymbolTableRecord
100
AcDbLinetypeTableRecord
  2
DASHEDX2
 70
     0
  3
破線B
 72
    65
 73
     2
 40
15.0
 49
10.0
 74
     0
 49
-5.0
 74
     0
  0
LTYPE
  5
2F
330
5
100
AcDbSymbolTableRecord
100
AcDbLinetypeTableRecord
  2
DASHDOT
 70
     0
  3
１点鎖線A
 72
    65
 73
     4
 40
10.0
 49
5.0
 74
     0
 49
-2.5
 74
     0
 49
0.0
 74
     0
 49
-2.5
 74
     0
  0
LTYPE
  5
30
330
5
100
AcDbSymbolTableRecord
100
AcDbLinetypeTableRecord
  2
DASHDOTX2
 70
     0
  3
１点鎖線B
 72
    65
 73
     4
 40
20.0
 49
10.0
 74
     0
 49
-5.0
 74
     0
 49
0.0
 74
     0
 49
-5.0
 74
     0
  0
LTYPE
  5
31
330
5
100
AcDbSymbolTableRecord
100
AcDbLinetypeTableRecord
  2
DIVIDE2
 70
     0
  3
２点鎖線A
 72
    65
 73
     6
 40
6.25
 49
2.5
 74
     0
 49
-1.25
 74
     0
 49
0.0
 74
     0
 49
-1.25
 74
     0
 49
0.0
 74
     0
 49
-1.25
 74
     0
  0
LTYPE
  5
32
330
5
100
AcDbSymbolTableRecord
100
AcDbLinetypeTableRecord
  2
DIVIDE
 70
     0
  3
２点鎖線B
 72
    65
 73
     6
 40
12.5
 49
5.0
 74
     0
 49
-2.5
 74
     0
 49
0.0
 74
     0
 49
-2.5
 74
     0
 49
0.0
 74
     0
 49
-2.5
 74
     0
  0
LTYPE
  5
33
330
5
100
AcDbSymbolTableRecord
100
AcDbLinetypeTableRecord
  2
DOT
 70
     0
  3
点線A
 72
    65
 73
     2
 40
2.5
 49
0.0
 74
     0
 49
-2.5
 74
     0
  0
LTYPE
  5
34
330
5
100
AcDbSymbolTableRecord
100
AcDbLinetypeTableRecord
  2
DOTX2
 70
     0
  3
点線B
 72
    65
 73
     2
 40
5.0
 49
0.0
 74
     0
 49
-5.0
 74
     0
  0
ENDTAB
  0
TABLE
  2
LAYER
  5
2
102
{ACAD_XDICTIONARY
360
AF4
102
}
330
0
100
AcDbSymbolTable
 70
     9
  0
LAYER
  5
10
330
2
100
AcDbSymbolTableRecord
100
AcDbLayerTableRecord
  2
ﾚｲﾔ1
 70
     0
 62
     7
  6
CONTINUOUS
370
    -3
390
F
  0
LAYER
  5
4C
330
2
100
AcDbSymbolTableRecord
100
AcDbLayerTableRecord
  2
0
 70
     0
 62
     7
  6
CONTINUOUS
370
    -3
390
F
  0
LAYER
  5
16B
330
2
100
AcDbSymbolTableRecord
100
AcDbLayerTableRecord
  2
図面
 70
     0
 62
     7
  6
CONTINUOUS
370
    40
390
F
  0
LAYER
  5
16C
330
2
100
AcDbSymbolTableRecord
100
AcDbLayerTableRecord
  2
図面枠
 70
     0
 62
     5
  6
CONTINUOUS
370
    -3
390
F
  0
LAYER
  5
1AB
330
2
100
AcDbSymbolTableRecord
100
AcDbLayerTableRecord
  2
下図
 70
     0
 62
     8
  6
DASHDOT
290
     0
370
    -3
390
F
  0
LAYER
  5
1EA
330
2
100
AcDbSymbolTableRecord
100
AcDbLayerTableRecord
  2
隠れ線
 70
     0
 62
     1
  6
DASHED
370
    -3
390
F
  0
LAYER
  5
1EB
330
2
100
AcDbSymbolTableRecord
100
AcDbLayerTableRecord
  2
文字
 70
     0
 62
     7
  6
CONTINUOUS
370
    -3
390
F
  0
LAYER
  5
43F
330
2
100
AcDbSymbolTableRecord
100
AcDbLayerTableRecord
  2
Defpoints
 70
     0
 62
     7
  6
CONTINUOUS
290
     0
370
    -3
390
F
  0
LAYER
  5
E91
330
2
100
AcDbSymbolTableRecord
100
AcDbLayerTableRecord
  2
寸法
 70
     0
 62
     1
  6
CONTINUOUS
370
    -3
390
F
  0
ENDTAB
  0
TABLE
  2
STYLE
  5
3
330
0
100
AcDbSymbolTable
 70
    14
  0
STYLE
  5
11
330
3
100
AcDbSymbolTableRecord
100
AcDbTextStyleTableRecord
  2
STANDARD
 70
     0
 40
1.0
 41
1.0
 50
0.0
 71
     0
 42
1.0
  3
TXT
  4
BIGFONT
  0
STYLE
  5
22
330
3
100
AcDbSymbolTableRecord
100
AcDbTextStyleTableRecord
  2
TATE
 70
     4
 40
1.0
 41
1.0
 50
0.0
 71
     0
 42
1.0
  3
TXT
  4
BIGFONT
  0
STYLE
  5
23
330
3
100
AcDbSymbolTableRecord
100
AcDbTextStyleTableRecord
  2
TextStyle01
 70
     0
 40
0.0
 41
1.0
 50
0.0
 71
     0
 42
0.0
  3
TXT
  4
BIGFONT
  0
STYLE
  5
24
330
3
100
AcDbSymbolTableRecord
100
AcDbTextStyleTableRecord
  2
TextStyle02
 70
     0
 40
0.0
 41
1.0
 50
0.0
 71
     0
 42
0.0
  3
TXT
  4
BIGFONT
  0
STYLE
  5
25
330
3
100
AcDbSymbolTableRecord
100
AcDbTextStyleTableRecord
  2
TextStyle03
 70
     0
 40
0.0
 41
1.0
 50
0.0
 71
     0
 42
0.0
  3
TXT
  4
BIGFONT
  0
STYLE
  5
26
330
3
100
AcDbSymbolTableRecord
100
AcDbTextStyleTableRecord
  2
TextStyle04
 70
     0
 40
0.0
 41
1.0
 50
0.0
 71
     0
 42
0.0
  3
TXT
  4
BIGFONT
  0
STYLE
  5
27
330
3
100
AcDbSymbolTableRecord
100
AcDbTextStyleTableRecord
  2
TextStyle05
 70
     0
 40
0.0
 41
1.0
 50
0.0
 71
     0
 42
0.0
  3
TXT
  4
BIGFONT
  0
STYLE
  5
28
330
3
100
AcDbSymbolTableRecord
100
AcDbTextStyleTableRecord
  2
TextStyle06
 70
     0
 40
0.0
 41
1.0
 50
0.0
 71
     0
 42
0.0
  3

  4

  0
STYLE
  5
29
330
3
100
AcDbSymbolTableRecord
100
AcDbTextStyleTableRecord
  2
TextStyle07
 70
     0
 40
0.0
 41
1.0
 50
0.0
 71
     0
 42
0.0
  3

  4

  0
STYLE
  5
2A
330
3
100
AcDbSymbolTableRecord
100
AcDbTextStyleTableRecord
  2
TextStyle08
 70
     0
 40
0.0
 41
1.0
 50
0.0
 71
     0
 42
0.0
  3

  4

  0
STYLE
  5
2B
330
3
100
AcDbSymbolTableRecord
100
AcDbTextStyleTableRecord
  2
TextStyle09
 70
     0
 40
0.0
 41
1.0
 50
0.0
 71
     0
 42
0.0
  3

  4

  0
STYLE
  5
2C
330
3
100
AcDbSymbolTableRecord
100
AcDbTextStyleTableRecord
  2
TextStyle10
 70
     0
 40
0.0
 41
1.0
 50
0.0
 71
     0
 42
0.0
  3

  4

  0
STYLE
  5
205
330
3
100
AcDbSymbolTableRecord
100
AcDbTextStyleTableRecord
  2
WMF-ＭＳ Ｐ明朝0
 70
     0
 40
0.0
 41
1.0
 50
0.0
 71
     0
 42
1.0
  3
MS PMincho.ttf
  4

1001
ACAD
1000
MS PMincho
1071
    32768
  0
STYLE
  5
A90
330
3
100
AcDbSymbolTableRecord
100
AcDbTextStyleTableRecord
  2
DIMFONT1
 70
     0
 40
0.0
 41
1.193548387096774
 50
0.0
 71
     0
 42
1.0
  3
msgothic.ttc
  4

1001
ACAD
1000
MS PGothic
1071
    32818
  0
ENDTAB
  0
TABLE
  2
VIEW
  5
6
330
0
100
AcDbSymbolTable
 70
     0
  0
ENDTAB
  0
TABLE
  2
UCS
  5
7
330
0
100
AcDbSymbolTable
 70
     0
  0
ENDTAB
  0
TABLE
  2
APPID
  5
9
330
0
100
AcDbSymbolTable
 70
     5
  0
APPID
  5
12
330
9
100
AcDbSymbolTableRecord
100
AcDbRegAppTableRecord
  2
ACAD
 70
     0
  0
APPID
  5
A92
330
9
100
AcDbSymbolTableRecord
100
AcDbRegAppTableRecord
  2
ACAD_NAV_VCDISPLAY
 70
     0
  0
APPID
  5
E46
330
9
100
AcDbSymbolTableRecord
100
AcDbRegAppTableRecord
  2
PLOTTRANSPARENCY
 70
     0
  0
APPID
  5
E7A
330
9
100
AcDbSymbolTableRecord
100
AcDbRegAppTableRecord
  2
ENABLE_CUSTOM_SPLIT
 70
     0
  0
APPID
  5
E8D
330
9
100
AcDbSymbolTableRecord
100
AcDbRegAppTableRecord
  2
FX_DIMP_FAV_VERSION
 70
     0
  0
ENDTAB
  0
TABLE
  2
DIMSTYLE
  5
A
330
0
100
AcDbSymbolTable
 70
     3
100
AcDbDimStyleTable
  0
DIMSTYLE
105
142
102
{ACAD_REACTORS
330
D2F
330
D33
330
D34
330
D3D
330
D46
330
E7B
102
}
330
A
100
AcDbSymbolTableRecord
100
AcDbDimStyleTableRecord
  2
Standard
 70
     0
178
     0
340
11
  0
DIMSTYLE
105
A8F
330
A
100
AcDbSymbolTableRecord
100
AcDbDimStyleTableRecord
  2
DIM001
 70
     0
 40
10.0
 41
1.0
 42
0.0
 44
1.0
 45
1.0
 73
     0
 74
     0
 77
     3
140
1.216216216216216
147
0.2
172
     1
176
     7
177
     7
271
     0
178
     7
271
     0
273
     6
340
A90
  0
DIMSTYLE
105
A91
330
A
100
AcDbSymbolTableRecord
100
AcDbDimStyleTableRecord
  2
DIM002
 70
     0
 40
10.0
 41
1.0
 42
0.0
 44
0.0
 45
1.0
 73
     0
 74
     0
 77
     3
140
1.216216216216216
147
0.2
172
     1
176
     7
177
     7
271
     0
178
     7
271
     0
273
     6
340
A90
  0
ENDTAB
  0
TABLE
  2
BLOCK_RECORD
  5
1
330
0
100
AcDbSymbolTable
 70
    19
  0
BLOCK_RECORD
  5
1E
102
{ACAD_XDICTIONARY
360
E47
102
}
330
1
100
AcDbSymbolTableRecord
100
AcDbBlockTableRecord
  2
*Model_Space
340
21
  0
BLOCK_RECORD
  5
1A
330
1
100
AcDbSymbolTableRecord
100
AcDbBlockTableRecord
  2
*Paper_Space
340
1D
  0
BLOCK_RECORD
  5
1C1
330
1
100
AcDbSymbolTableRecord
100
AcDbBlockTableRecord
  2
_Open30
340
0
102
{BLKREFS
331
E73
331
E72
102
}
  0
BLOCK_RECORD
  5
816
330
1
100
AcDbSymbolTableRecord
100
AcDbBlockTableRecord
  2
*D1
340
0
  0
BLOCK_RECORD
  5
822
330
1
100
AcDbSymbolTableRecord
100
AcDbBlockTableRecord
  2
*D2
340
0
  0
BLOCK_RECORD
  5
82E
330
1
100
AcDbSymbolTableRecord
100
AcDbBlockTableRecord
  2
*D3
340
0
  0
BLOCK_RECORD
  5
83A
330
1
100
AcDbSymbolTableRecord
100
AcDbBlockTableRecord
  2
*D4
340
0
  0
BLOCK_RECORD
  5
846
330
1
100
AcDbSymbolTableRecord
100
AcDbBlockTableRecord
  2
*D5
340
0
  0
BLOCK_RECORD
  5
969
330
1
100
AcDbSymbolTableRecord
100
AcDbBlockTableRecord
  2
_Open
340
0
102
{BLKREFS
331
9F0
331
9F1
331
9DE
331
9DF
331
9E7
331
9E8
331
A1D
331
A1E
331
9F9
331
9FA
331
C9E
331
CA5
331
CBA
331
CBB
331
CC7
331
CC8
331
CDC
331
CDD
331
CF1
331
CF2
331
D81
331
D82
331
D8D
331
D8E
331
D99
331
D9A
331
DA5
331
DA6
331
DB1
331
DB2
331
0
331
E83
102
}
  0
BLOCK_RECORD
  5
C99
330
1
100
AcDbSymbolTableRecord
100
AcDbBlockTableRecord
  2
*D7
340
0
  0
BLOCK_RECORD
  5
CB5
330
1
100
AcDbSymbolTableRecord
100
AcDbBlockTableRecord
  2
*D8
340
0
  0
BLOCK_RECORD
  5
CC2
330
1
100
AcDbSymbolTableRecord
100
AcDbBlockTableRecord
  2
*D9
340
0
  0
BLOCK_RECORD
  5
CD7
330
1
100
AcDbSymbolTableRecord
100
AcDbBlockTableRecord
  2
*D10
340
0
  0
BLOCK_RECORD
  5
CEC
330
1
100
AcDbSymbolTableRecord
100
AcDbBlockTableRecord
  2
*D11
340
0
  0
BLOCK_RECORD
  5
D7B
330
1
100
AcDbSymbolTableRecord
100
AcDbBlockTableRecord
  2
*D12
340
0
  0
BLOCK_RECORD
  5
D87
330
1
100
AcDbSymbolTableRecord
100
AcDbBlockTableRecord
  2
*D13
340
0
  0
BLOCK_RECORD
  5
D93
330
1
100
AcDbSymbolTableRecord
100
AcDbBlockTableRecord
  2
*D14
340
0
  0
BLOCK_RECORD
  5
D9F
330
1
100
AcDbSymbolTableRecord
100
AcDbBlockTableRecord
  2
*D15
340
0
  0
BLOCK_RECORD
  5
DAB
330
1
100
AcDbSymbolTableRecord
100
AcDbBlockTableRecord
  2
*D16
340
0
  0
BLOCK_RECORD
  5
E6C
330
1
100
AcDbSymbolTableRecord
100
AcDbBlockTableRecord
  2
*D17
340
0
  0
BLOCK_RECORD
  5
E7C
330
1
100
AcDbSymbolTableRecord
100
AcDbBlockTableRecord
  2
*D18
340
0
  0
ENDTAB
  0
ENDSEC
  0
SECTION
  2
BLOCKS
  0
BLOCK
  5
4F
330
1E
100
AcDbEntity
  8
0
100
AcDbBlockBegin
  2
*Model_Space
 70
     0
 10
0.0
 20
0.0
 30
0.0
  3
*Model_Space
  1

  0
ENDBLK
  5
50
330
1E
100
AcDbEntity
  8
0
100
AcDbBlockEnd
  0
BLOCK
  5
4D
330
1A
100
AcDbEntity
 67
     1
  8
0
100
AcDbBlockBegin
  2
*Paper_Space
 70
     0
 10
0.0
 20
0.0
 30
0.0
  3
*Paper_Space
  1

  0
ENDBLK
  5
4E
330
1A
100
AcDbEntity
 67
     1
  8
0
100
AcDbBlockEnd
  0
BLOCK
  5
1C5
330
1C1
100
AcDbEntity
  8
0
100
AcDbBlockBegin
  2
_Open30
 70
     0
 10
0.0
 20
0.0
 30
0.0
  3
_Open30
  1

  0
LINE
  5
1C2
330
1C1
100
AcDbEntity
  8
下図
 62
     0
370
    -2
100
AcDbLine
 10
-1.0
 20
0.26794919
 30
0.0
 11
0.0
 21
0.0
 31
0.0
  0
LINE
  5
1C3
330
1C1
100
AcDbEntity
  8
下図
 62
     0
370
    -2
100
AcDbLine
 10
0.0
 20
0.0
 30
0.0
 11
-1.0
 21
-0.26794919
 31
0.0
  0
LINE
  5
1C4
330
1C1
100
AcDbEntity
  8
下図
 62
     0
370
    -2
100
AcDbLine
 10
0.0
 20
0.0
 30
0.0
 11
-1.0
 21
0.0
 31
0.0
  0
ENDBLK
  5
1C6
330
1C1
100
AcDbEntity
  8
0
100
AcDbBlockEnd
  0
BLOCK
  5
820
330
816
100
AcDbEntity
  8
0
100
AcDbBlockBegin
  2
*D1
 70
     1
 10
0.0
 20
0.0
 30
0.0
  3
*D1
  1

  0
LINE
  5
9ED
330
816
100
AcDbEntity
  8
図面
 62
     1
370
    -2
100
AcDbLine
 10
1078.196602026786
 20
643.2472606504202
 30
0.0
 11
1030.339719890908
 21
643.2472606504202
 31
0.0
  0
LINE
  5
9EE
330
816
100
AcDbEntity
  8
図面
 62
     1
370
    -2
100
AcDbLine
 10
1030.777219890908
 20
729.2472606504202
 30
0.0
 11
1030.339719890908
 21
729.2472606504202
 31
0.0
  0
LINE
  5
9EF
330
816
100
AcDbEntity
  8
図面
 62
     1
370
    -2
100
AcDbLine
 10
1030.839719890908
 20
653.2472606504202
 30
0.0
 11
1030.839719890908
 21
719.2472606504202
 31
0.0
  0
INSERT
  5
9F0
330
816
100
AcDbEntity
  8
図面
 62
     1
370
    -2
100
AcDbBlockReference
  2
_Open
 10
1030.839719890908
 20
643.2472606504202
 30
0.0
 41
10.0
 42
10.0
 43
10.0
 50
270.0
  0
INSERT
  5
9F1
330
816
100
AcDbEntity
  8
図面
 62
     1
370
    -2
100
AcDbBlockReference
  2
_Open
 10
1030.839719890908
 20
729.2472606504202
 30
0.0
 41
10.0
 42
10.0
 43
10.0
 50
90.0
  0
MTEXT
  5
9F2
330
816
100
AcDbEntity
  8
図面
 62
     1
100
AcDbMText
 10
1025.339719890907
 20
686.2472606504203
 30
0.0
 40
10.0
 41
0.0
 71
     5
 72
     1
  1
\A1;φ86
  7
TextStyle01
 11
1.000000000000000E-16
 21
1.0
 31
0.0
 73
     1
 44
1.0
  0
POINT
  5
9F3
330
816
100
AcDbEntity
  8
Defpoints
 62
     0
100
AcDbPoint
 10
1078.259102026786
 20
643.2472606504202
 30
0.0
  0
POINT
  5
9F4
330
816
100
AcDbEntity
  8
Defpoints
 62
     0
100
AcDbPoint
 10
1030.839719890908
 20
729.2472606504202
 30
0.0
  0
POINT
  5
9F5
330
816
100
AcDbEntity
  8
Defpoints
 62
     0
100
AcDbPoint
 10
1030.839719890908
 20
729.2472606504202
 30
0.0
  0
ENDBLK
  5
821
330
816
100
AcDbEntity
  8
0
100
AcDbBlockEnd
  0
BLOCK
  5
82C
330
822
100
AcDbEntity
  8
0
100
AcDbBlockBegin
  2
*D2
 70
     1
 10
0.0
 20
0.0
 30
0.0
  3
*D2
  1

  0
LINE
  5
9DB
330
822
100
AcDbEntity
  8
図面
 62
     1
370
    -2
100
AcDbLine
 10
933.4219401954001
 20
643.2472606504202
 30
0.0
 11
862.1822343304957
 21
643.2472606504202
 31
0.0
  0
LINE
  5
9DC
330
822
100
AcDbEntity
  8
図面
 62
     1
370
    -2
100
AcDbLine
 10
933.4219401954001
 20
729.2472606504202
 30
0.0
 11
862.1822343304957
 21
729.2472606504202
 31
0.0
  0
LINE
  5
9DD
330
822
100
AcDbEntity
  8
図面
 62
     1
370
    -2
100
AcDbLine
 10
862.6822343304956
 20
653.2472606504202
 30
0.0
 11
862.6822343304956
 21
719.2472606504202
 31
0.0
  0
INSERT
  5
9DE
330
822
100
AcDbEntity
  8
図面
 62
     1
370
    -2
100
AcDbBlockReference
  2
_Open
 10
862.6822343304956
 20
643.2472606504202
 30
0.0
 41
10.0
 42
10.0
 43
10.0
 50
270.0
  0
INSERT
  5
9DF
330
822
100
AcDbEntity
  8
図面
 62
     1
370
    -2
100
AcDbBlockReference
  2
_Open
 10
862.6822343304956
 20
729.2472606504202
 30
0.0
 41
10.0
 42
10.0
 43
10.0
 50
90.0
  0
MTEXT
  5
9E0
330
822
100
AcDbEntity
  8
図面
 62
     1
100
AcDbMText
 10
857.1822343304956
 20
686.2472606504203
 30
0.0
 40
10.0
 41
0.0
 71
     5
 72
     1
  1
\A1;φ86
  7
TextStyle01
 11
1.000000000000000E-16
 21
1.0
 31
0.0
 73
     1
 44
1.0
  0
POINT
  5
9E1
330
822
100
AcDbEntity
  8
Defpoints
 62
     0
100
AcDbPoint
 10
933.4844401954001
 20
643.2472606504202
 30
0.0
  0
POINT
  5
9E2
330
822
100
AcDbEntity
  8
Defpoints
 62
     0
100
AcDbPoint
 10
933.4844401954001
 20
729.2472606504202
 30
0.0
  0
POINT
  5
9E3
330
822
100
AcDbEntity
  8
Defpoints
 62
     0
100
AcDbPoint
 10
862.6822343304956
 20
729.2472606504202
 30
0.0
  0
ENDBLK
  5
82D
330
822
100
AcDbEntity
  8
0
100
AcDbBlockEnd
  0
BLOCK
  5
838
330
82E
100
AcDbEntity
  8
0
100
AcDbBlockBegin
  2
*D3
 70
     1
 10
0.0
 20
0.0
 30
0.0
  3
*D3
  1

  0
LINE
  5
9E4
330
82E
100
AcDbEntity
  8
図面
 62
     1
370
    -2
100
AcDbLine
 10
933.4219401954001
 20
665.2472606504202
 30
0.0
 11
877.7299777692679
 21
665.2472606504202
 31
0.0
  0
LINE
  5
9E5
330
82E
100
AcDbEntity
  8
図面
 62
     1
370
    -2
100
AcDbLine
 10
933.4219401954001
 20
707.2472606504202
 30
0.0
 11
877.7299777692679
 21
707.2472606504202
 31
0.0
  0
LINE
  5
9E6
330
82E
100
AcDbEntity
  8
図面
 62
     1
370
    -2
100
AcDbLine
 10
878.2299777692677
 20
675.2472606504202
 30
0.0
 11
878.2299777692677
 21
697.2472606504202
 31
0.0
  0
INSERT
  5
9E7
330
82E
100
AcDbEntity
  8
図面
 62
     1
370
    -2
100
AcDbBlockReference
  2
_Open
 10
878.2299777692677
 20
665.2472606504202
 30
0.0
 41
10.0
 42
10.0
 43
10.0
 50
270.0
  0
INSERT
  5
9E8
330
82E
100
AcDbEntity
  8
図面
 62
     1
370
    -2
100
AcDbBlockReference
  2
_Open
 10
878.2299777692677
 20
707.2472606504202
 30
0.0
 41
10.0
 42
10.0
 43
10.0
 50
90.0
  0
MTEXT
  5
9E9
330
82E
100
AcDbEntity
  8
図面
 62
     1
100
AcDbMText
 10
872.7299777692676
 20
686.2472606504203
 30
0.0
 40
10.0
 41
0.0
 71
     5
 72
     1
  1
\A1;φ42
  7
TextStyle01
 11
1.000000000000000E-16
 21
1.0
 31
0.0
 73
     1
 44
1.0
  0
POINT
  5
9EA
330
82E
100
AcDbEntity
  8
Defpoints
 62
     0
100
AcDbPoint
 10
933.4844401954001
 20
665.2472606504202
 30
0.0
  0
POINT
  5
9EB
330
82E
100
AcDbEntity
  8
Defpoints
 62
     0
100
AcDbPoint
 10
933.4844401954001
 20
707.2472606504202
 30
0.0
  0
POINT
  5
9EC
330
82E
100
AcDbEntity
  8
Defpoints
 62
     0
100
AcDbPoint
 10
878.2299777692677
 20
707.2472606504202
 30
0.0
  0
ENDBLK
  5
839
330
82E
100
AcDbEntity
  8
0
100
AcDbBlockEnd
  0
BLOCK
  5
844
330
83A
100
AcDbEntity
  8
0
100
AcDbBlockBegin
  2
*D4
 70
     1
 10
0.0
 20
0.0
 30
0.0
  3
*D4
  1

  0
LINE
  5
A1A
330
83A
100
AcDbEntity
  8
図面
 62
     1
370
    -2
100
AcDbLine
 10
1213.321602026786
 20
646.2472606504202
 30
0.0
 11
1246.119231187025
 21
646.2472606504202
 31
0.0
  0
LINE
  5
A1B
330
83A
100
AcDbEntity
  8
図面
 62
     1
370
    -2
100
AcDbLine
 10
1213.321602026786
 20
825.6934152529659
 30
0.0
 11
1246.119231187025
 21
825.6934152529659
 31
0.0
  0
LINE
  5
A1C
330
83A
100
AcDbEntity
  8
図面
 62
     1
370
    -2
100
AcDbLine
 10
1245.619231187025
 20
656.2472606504202
 30
0.0
 11
1245.619231187025
 21
815.6934152529659
 31
0.0
  0
INSERT
  5
A1D
330
83A
100
AcDbEntity
  8
図面
 62
     1
370
    -2
100
AcDbBlockReference
  2
_Open
 10
1245.619231187025
 20
646.2472606504202
 30
0.0
 41
10.0
 42
10.0
 43
10.0
 50
270.0
  0
INSERT
  5
A1E
330
83A
100
AcDbEntity
  8
図面
 62
     1
370
    -2
100
AcDbBlockReference
  2
_Open
 10
1245.619231187025
 20
825.6934152529659
 30
0.0
 41
10.0
 42
10.0
 43
10.0
 50
90.0
  0
MTEXT
  5
A1F
330
83A
100
AcDbEntity
  8
図面
 62
     1
100
AcDbMText
 10
1240.119231187025
 20
735.9703379516932
 30
0.0
 40
10.0
 41
0.0
 71
     5
 72
     1
  1
\A1;180
  7
TextStyle01
 11
1.000000000000000E-16
 21
1.0
 31
0.0
 73
     1
 44
1.0
  0
POINT
  5
A20
330
83A
100
AcDbEntity
  8
Defpoints
 62
     0
100
AcDbPoint
 10
1213.259102026786
 20
646.2472606504202
 30
0.0
  0
POINT
  5
A21
330
83A
100
AcDbEntity
  8
Defpoints
 62
     0
100
AcDbPoint
 10
1213.259102026786
 20
825.6934152529659
 30
0.0
  0
POINT
  5
A22
330
83A
100
AcDbEntity
  8
Defpoints
 62
     0
100
AcDbPoint
 10
1245.619231187025
 20
825.6934152529659
 30
0.0
  0
ENDBLK
  5
845
330
83A
100
AcDbEntity
  8
0
100
AcDbBlockEnd
  0
BLOCK
  5
850
330
846
100
AcDbEntity
  8
0
100
AcDbBlockBegin
  2
*D5
 70
     1
 10
0.0
 20
0.0
 30
0.0
  3
*D5
  1

  0
LINE
  5
9F6
330
846
100
AcDbEntity
  8
図面
 62
     1
370
    -2
100
AcDbLine
 10
1058.259102026786
 20
666.1847606504202
 30
0.0
 11
1058.259102026786
 21
612.4259548027184
 31
0.0
  0
LINE
  5
9F7
330
846
100
AcDbEntity
  8
図面
 62
     1
370
    -2
100
AcDbLine
 10
1213.259102026786
 20
647.2379974129434
 30
0.0
 11
1213.259102026786
 21
612.4259548027184
 31
0.0
  0
LINE
  5
9F8
330
846
100
AcDbEntity
  8
図面
 62
     1
370
    -2
100
AcDbLine
 10
1068.259102026786
 20
612.9259548027184
 30
0.0
 11
1203.259102026786
 21
612.9259548027184
 31
0.0
  0
INSERT
  5
9F9
330
846
100
AcDbEntity
  8
図面
 62
     1
370
    -2
100
AcDbBlockReference
  2
_Open
 10
1058.259102026786
 20
612.9259548027184
 30
0.0
 41
10.0
 42
10.0
 43
10.0
 50
180.0
  0
INSERT
  5
9FA
330
846
100
AcDbEntity
  8
図面
 62
     1
370
    -2
100
AcDbBlockReference
  2
_Open
 10
1213.259102026786
 20
612.9259548027184
 30
0.0
 41
10.0
 42
10.0
 43
10.0
  0
MTEXT
  5
9FB
330
846
100
AcDbEntity
  8
図面
 62
     1
100
AcDbMText
 10
1135.759102026786
 20
618.4259548027185
 30
0.0
 40
10.0
 41
0.0
 71
     5
 72
     1
  1
\A1;155
  7
TextStyle01
 73
     1
 44
1.0
  0
POINT
  5
9FC
330
846
100
AcDbEntity
  8
Defpoints
 62
     0
100
AcDbPoint
 10
1058.259102026786
 20
666.2472606504202
 30
0.0
  0
POINT
  5
9FD
330
846
100
AcDbEntity
  8
Defpoints
 62
     0
100
AcDbPoint
 10
1213.259102026786
 20
647.3004974129435
 30
0.0
  0
POINT
  5
9FE
330
846
100
AcDbEntity
  8
Defpoints
 62
     0
100
AcDbPoint
 10
1213.259102026786
 20
612.9259548027184
 30
0.0
  0
ENDBLK
  5
851
330
846
100
AcDbEntity
  8
0
100
AcDbBlockEnd
  0
BLOCK
  5
96D
330
969
100
AcDbEntity
  8
0
100
AcDbBlockBegin
  2
_Open
 70
     0
 10
0.0
 20
0.0
 30
0.0
  3
_Open
  1

  0
LINE
  5
96A
330
969
100
AcDbEntity
  8
0
  6
ByBlock
 62
     0
370
    -2
100
AcDbLine
 10
-1.0
 20
0.1666666666666666
 30
0.0
 11
0.0
 21
0.0
 31
0.0
  0
LINE
  5
96B
330
969
100
AcDbEntity
  8
0
  6
ByBlock
 62
     0
370
    -2
100
AcDbLine
 10
-1.0
 20
-0.1666666666666666
 30
0.0
 11
0.0
 21
0.0
 31
0.0
  0
LINE
  5
96C
330
969
100
AcDbEntity
  8
0
  6
ByBlock
 62
     0
370
    -2
100
AcDbLine
 10
0.0
 20
0.0
 30
0.0
 11
-1.0
 21
0.0
 31
0.0
  0
ENDBLK
  5
96E
330
969
100
AcDbEntity
  8
0
100
AcDbBlockEnd
  0
BLOCK
  5
C9A
330
C99
100
AcDbEntity
  8
0
100
AcDbBlockBegin
  2
*D7
 70
     1
 10
0.0
 20
0.0
 30
0.0
  3
*D7
  1

  0
LINE
  5
C9B
330
C99
100
AcDbEntity
  8
図面
 62
     1
370
    -2
100
AcDbLine
 10
226.0143676962903
 20
31.98797251436815
 30
0.0
 11
178.1574855604124
 21
31.98797251436815
 31
0.0
  0
LINE
  5
C9C
330
C99
100
AcDbEntity
  8
図面
 62
     1
370
    -2
100
AcDbLine
 10
178.5949855604124
 20
117.9879725143682
 30
0.0
 11
178.1574855604124
 21
117.9879725143682
 31
0.0
  0
LINE
  5
C9D
330
C99
100
AcDbEntity
  8
図面
 62
     1
370
    -2
100
AcDbLine
 10
178.6574855604124
 20
41.98797251436815
 30
0.0
 11
178.6574855604124
 21
107.9879725143682
 31
0.0
  0
INSERT
  5
C9E
330
C99
100
AcDbEntity
  8
図面
 62
     1
370
    -2
100
AcDbBlockReference
  2
_Open
 10
178.6574855604124
 20
31.98797251436815
 30
0.0
 41
10.0
 42
10.0
 43
10.0
 50
270.0
  0
INSERT
  5
CA5
330
C99
100
AcDbEntity
  8
図面
 62
     1
370
    -2
100
AcDbBlockReference
  2
_Open
 10
178.6574855604124
 20
117.9879725143682
 30
0.0
 41
10.0
 42
10.0
 43
10.0
 50
90.0
  0
MTEXT
  5
CA6
330
C99
100
AcDbEntity
  8
図面
 62
     1
100
AcDbMText
 10
173.1574855604124
 20
74.98797251436815
 30
0.0
 40
10.0
 41
0.0
 71
     5
 72
     1
  1
\A1;φ86
  7
TextStyle01
 11
0.0
 21
1.0
 31
0.0
 73
     1
 44
1.0
  0
POINT
  5
CA7
330
C99
100
AcDbEntity
  8
Defpoints
 62
     0
100
AcDbPoint
 10
226.0768676962903
 20
31.98797251436815
 30
0.0
  0
POINT
  5
CA8
330
C99
100
AcDbEntity
  8
Defpoints
 62
     0
100
AcDbPoint
 10
178.6574855604124
 20
117.9879725143682
 30
0.0
  0
POINT
  5
CA9
330
C99
100
AcDbEntity
  8
Defpoints
 62
     0
100
AcDbPoint
 10
178.6574855604124
 20
117.9879725143682
 30
0.0
  0
ENDBLK
  5
CAA
330
C99
100
AcDbEntity
  8
0
100
AcDbBlockEnd
  0
BLOCK
  5
CB6
330
CB5
100
AcDbEntity
  8
0
100
AcDbBlockBegin
  2
*D8
 70
     1
 10
0.0
 20
0.0
 30
0.0
  3
*D8
  1

  0
LINE
  5
CB7
330
CB5
100
AcDbEntity
  8
図面
 62
     1
370
    -2
100
AcDbLine
 10
81.23970586490441
 20
31.98797251436815
 30
0.0
 11
9.999999999999881
 21
31.98797251436815
 31
0.0
  0
LINE
  5
CB8
330
CB5
100
AcDbEntity
  8
図面
 62
     1
370
    -2
100
AcDbLine
 10
81.23970586490441
 20
117.9879725143682
 30
0.0
 11
9.999999999999886
 21
117.9879725143682
 31
0.0
  0
LINE
  5
CB9
330
CB5
100
AcDbEntity
  8
図面
 62
     1
370
    -2
100
AcDbLine
 10
10.49999999999988
 20
41.98797251436815
 30
0.0
 11
10.49999999999989
 21
107.9879725143682
 31
0.0
  0
INSERT
  5
CBA
330
CB5
100
AcDbEntity
  8
図面
 62
     1
370
    -2
100
AcDbBlockReference
  2
_Open
 10
10.49999999999988
 20
31.98797251436815
 30
0.0
 41
10.0
 42
10.0
 43
10.0
 50
270.0
  0
INSERT
  5
CBB
330
CB5
100
AcDbEntity
  8
図面
 62
     1
370
    -2
100
AcDbBlockReference
  2
_Open
 10
10.49999999999989
 20
117.9879725143682
 30
0.0
 41
10.0
 42
10.0
 43
10.0
 50
90.0
  0
MTEXT
  5
CBC
330
CB5
100
AcDbEntity
  8
図面
 62
     1
100
AcDbMText
 10
4.999999999999883
 20
74.98797251436815
 30
0.0
 40
10.0
 41
0.0
 71
     5
 72
     1
  1
\A1;φ86
  7
TextStyle01
 11
6.196593625814827E-17
 21
1.0
 31
0.0
 73
     1
 44
1.0
  0
POINT
  5
CBD
330
CB5
100
AcDbEntity
  8
Defpoints
 62
     0
100
AcDbPoint
 10
81.30220586490441
 20
31.98797251436815
 30
0.0
  0
POINT
  5
CBE
330
CB5
100
AcDbEntity
  8
Defpoints
 62
     0
100
AcDbPoint
 10
81.30220586490441
 20
117.9879725143682
 30
0.0
  0
POINT
  5
CBF
330
CB5
100
AcDbEntity
  8
Defpoints
 62
     0
100
AcDbPoint
 10
10.49999999999989
 20
117.9879725143682
 30
0.0
  0
ENDBLK
  5
CC0
330
CB5
100
AcDbEntity
  8
0
100
AcDbBlockEnd
  0
BLOCK
  5
CC3
330
CC2
100
AcDbEntity
  8
0
100
AcDbBlockBegin
  2
*D9
 70
     1
 10
0.0
 20
0.0
 30
0.0
  3
*D9
  1

  0
LINE
  5
CC4
330
CC2
100
AcDbEntity
  8
図面
 62
     1
370
    -2
100
AcDbLine
 10
81.23970586490441
 20
53.98797251436815
 30
0.0
 11
25.54774343877204
 21
53.98797251436815
 31
0.0
  0
LINE
  5
CC5
330
CC2
100
AcDbEntity
  8
図面
 62
     1
370
    -2
100
AcDbLine
 10
81.23970586490441
 20
95.98797251436815
 30
0.0
 11
25.54774343877205
 21
95.98797251436815
 31
0.0
  0
LINE
  5
CC6
330
CC2
100
AcDbEntity
  8
図面
 62
     1
370
    -2
100
AcDbLine
 10
26.04774343877204
 20
63.98797251436815
 30
0.0
 11
26.04774343877205
 21
85.98797251436815
 31
0.0
  0
INSERT
  5
CC7
330
CC2
100
AcDbEntity
  8
図面
 62
     1
370
    -2
100
AcDbBlockReference
  2
_Open
 10
26.04774343877204
 20
53.98797251436815
 30
0.0
 41
10.0
 42
10.0
 43
10.0
 50
270.0
  0
INSERT
  5
CC8
330
CC2
100
AcDbEntity
  8
図面
 62
     1
370
    -2
100
AcDbBlockReference
  2
_Open
 10
26.04774343877205
 20
95.98797251436815
 30
0.0
 41
10.0
 42
10.0
 43
10.0
 50
90.0
  0
MTEXT
  5
CC9
330
CC2
100
AcDbEntity
  8
図面
 62
     1
100
AcDbMText
 10
20.54774343877205
 20
74.98797251436815
 30
0.0
 40
10.0
 41
0.0
 71
     5
 72
     1
  1
\A1;φ42
  7
TextStyle01
 11
8.458842092382145E-17
 21
1.0
 31
0.0
 73
     1
 44
1.0
  0
POINT
  5
CCA
330
CC2
100
AcDbEntity
  8
Defpoints
 62
     0
100
AcDbPoint
 10
81.30220586490441
 20
53.98797251436815
 30
0.0
  0
POINT
  5
CCB
330
CC2
100
AcDbEntity
  8
Defpoints
 62
     0
100
AcDbPoint
 10
81.30220586490441
 20
95.98797251436815
 30
0.0
  0
POINT
  5
CCC
330
CC2
100
AcDbEntity
  8
Defpoints
 62
     0
100
AcDbPoint
 10
26.04774343877205
 20
95.98797251436815
 30
0.0
  0
ENDBLK
  5
CCD
330
CC2
100
AcDbEntity
  8
0
100
AcDbBlockEnd
  0
BLOCK
  5
CD8
330
CD7
100
AcDbEntity
  8
0
100
AcDbBlockBegin
  2
*D10
 70
     1
 10
0.0
 20
0.0
 30
0.0
  3
*D10
  1

  0
LINE
  5
CD9
330
CD7
100
AcDbEntity
  8
図面
 62
     1
370
    -2
100
AcDbLine
 10
361.1393676962903
 20
34.98797251436815
 30
0.0
 11
393.9369968565293
 21
34.98797251436815
 31
0.0
  0
LINE
  5
CDA
330
CD7
100
AcDbEntity
  8
図面
 62
     1
370
    -2
100
AcDbLine
 10
361.1393676962903
 20
214.4341271169138
 30
0.0
 11
393.9369968565293
 21
214.4341271169138
 31
0.0
  0
LINE
  5
CDB
330
CD7
100
AcDbEntity
  8
図面
 62
     1
370
    -2
100
AcDbLine
 10
393.4369968565293
 20
44.98797251436815
 30
0.0
 11
393.4369968565293
 21
204.4341271169138
 31
0.0
  0
INSERT
  5
CDC
330
CD7
100
AcDbEntity
  8
図面
 62
     1
370
    -2
100
AcDbBlockReference
  2
_Open
 10
393.4369968565293
 20
34.98797251436815
 30
0.0
 41
10.0
 42
10.0
 43
10.0
 50
270.0
  0
INSERT
  5
CDD
330
CD7
100
AcDbEntity
  8
図面
 62
     1
370
    -2
100
AcDbBlockReference
  2
_Open
 10
393.4369968565293
 20
214.4341271169138
 30
0.0
 41
10.0
 42
10.0
 43
10.0
 50
90.0
  0
MTEXT
  5
CDE
330
CD7
100
AcDbEntity
  8
図面
 62
     1
100
AcDbMText
 10
387.9369968565293
 20
124.711049815641
 30
0.0
 40
10.0
 41
0.0
 71
     5
 72
     1
  1
\A1;180
  7
TextStyle01
 11
0.0
 21
1.0
 31
0.0
 73
     1
 44
1.0
  0
POINT
  5
CDF
330
CD7
100
AcDbEntity
  8
Defpoints
 62
     0
100
AcDbPoint
 10
361.0768676962903
 20
34.98797251436815
 30
0.0
  0
POINT
  5
CE0
330
CD7
100
AcDbEntity
  8
Defpoints
 62
     0
100
AcDbPoint
 10
361.0768676962903
 20
214.4341271169138
 30
0.0
  0
POINT
  5
CE1
330
CD7
100
AcDbEntity
  8
Defpoints
 62
     0
100
AcDbPoint
 10
393.4369968565293
 20
214.4341271169138
 30
0.0
  0
ENDBLK
  5
CE2
330
CD7
100
AcDbEntity
  8
0
100
AcDbBlockEnd
  0
BLOCK
  5
CED
330
CEC
100
AcDbEntity
  8
0
100
AcDbBlockBegin
  2
*D11
 70
     1
 10
0.0
 20
0.0
 30
0.0
  3
*D11
  1

  0
LINE
  5
CEE
330
CEC
100
AcDbEntity
  8
図面
 62
     1
370
    -2
100
AcDbLine
 10
206.0768676962903
 20
54.92547251436815
 30
0.0
 11
206.0768676962903
 21
1.166666666666307
 31
0.0
  0
LINE
  5
CEF
330
CEC
100
AcDbEntity
  8
図面
 62
     1
370
    -2
100
AcDbLine
 10
361.0768676962903
 20
35.97870927689144
 30
0.0
 11
361.0768676962903
 21
1.166666666666288
 31
0.0
  0
LINE
  5
CF0
330
CEC
100
AcDbEntity
  8
図面
 62
     1
370
    -2
100
AcDbLine
 10
216.0768676962903
 20
1.666666666666305
 30
0.0
 11
351.0768676962903
 21
1.666666666666289
 31
0.0
  0
INSERT
  5
CF1
330
CEC
100
AcDbEntity
  8
図面
 62
     1
370
    -2
100
AcDbBlockReference
  2
_Open
 10
206.0768676962903
 20
1.666666666666307
 30
0.0
 41
10.0
 42
10.0
 43
10.0
 50
180.0
  0
INSERT
  5
CF2
330
CEC
100
AcDbEntity
  8
図面
 62
     1
370
    -2
100
AcDbBlockReference
  2
_Open
 10
361.0768676962903
 20
1.666666666666288
 30
0.0
 41
10.0
 42
10.0
 43
10.0
 50
360.0
  0
MTEXT
  5
CF3
330
CEC
100
AcDbEntity
  8
図面
 62
     1
100
AcDbMText
 10
283.5768676962903
 20
7.166666666666297
 30
0.0
 40
10.0
 41
0.0
 71
     5
 72
     1
  1
\A1;155
  7
TextStyle01
 73
     1
 44
1.0
  0
POINT
  5
CF4
330
CEC
100
AcDbEntity
  8
Defpoints
 62
     0
100
AcDbPoint
 10
206.0768676962903
 20
54.98797251436815
 30
0.0
  0
POINT
  5
CF5
330
CEC
100
AcDbEntity
  8
Defpoints
 62
     0
100
AcDbPoint
 10
361.0768676962903
 20
36.04120927689144
 30
0.0
  0
POINT
  5
CF6
330
CEC
100
AcDbEntity
  8
Defpoints
 62
     0
100
AcDbPoint
 10
361.0768676962903
 20
1.666666666666288
 30
0.0
  0
ENDBLK
  5
CF7
330
CEC
100
AcDbEntity
  8
0
100
AcDbBlockEnd
  0
BLOCK
  5
D7C
330
D7B
100
AcDbEntity
  8
0
100
AcDbBlockBegin
  2
*D12
 70
     1
 10
0.0
 20
0.0
 30
0.0
  3
*D12
  1

  0
LINE
  5
D7E
330
D7B
100
AcDbEntity
  8
図面
 62
     1
370
    -2
100
AcDbLine
 10
2198.521956204073
 20
647.4864087586608
 30
0.0
 11
2150.665074068195
 21
647.4864087586608
 31
0.0
  0
LINE
  5
D7F
330
D7B
100
AcDbEntity
  8
図面
 62
     1
370
    -2
100
AcDbLine
 10
2151.102574068195
 20
733.4864087586608
 30
0.0
 11
2150.665074068195
 21
733.4864087586608
 31
0.0
  0
LINE
  5
D80
330
D7B
100
AcDbEntity
  8
図面
 62
     1
370
    -2
100
AcDbLine
 10
2151.165074068195
 20
657.4864087586608
 30
0.0
 11
2151.165074068195
 21
723.4864087586608
 31
0.0
  0
INSERT
  5
D81
330
D7B
100
AcDbEntity
  8
図面
 62
     1
370
    -2
100
AcDbBlockReference
  2
_Open
 10
2151.165074068195
 20
647.4864087586608
 30
0.0
 41
10.0
 42
10.0
 43
10.0
 50
270.0
  0
INSERT
  5
D82
330
D7B
100
AcDbEntity
  8
図面
 62
     1
370
    -2
100
AcDbBlockReference
  2
_Open
 10
2151.165074068195
 20
733.4864087586608
 30
0.0
 41
10.0
 42
10.0
 43
10.0
 50
90.0
  0
MTEXT
  5
D83
330
D7B
100
AcDbEntity
  8
図面
 62
     1
100
AcDbMText
 10
2145.665074068195
 20
690.4864087586608
 30
0.0
 40
10.0
 41
0.0
 71
     5
 72
     1
  1
\A1;φ86
  7
TextStyle01
 11
0.0
 21
1.0
 31
0.0
 73
     1
 44
1.0
  0
POINT
  5
D84
330
D7B
100
AcDbEntity
  8
Defpoints
 62
     0
100
AcDbPoint
 10
2198.584456204073
 20
647.4864087586608
 30
0.0
  0
POINT
  5
D85
330
D7B
100
AcDbEntity
  8
Defpoints
 62
     0
100
AcDbPoint
 10
2151.165074068195
 20
733.4864087586608
 30
0.0
  0
POINT
  5
D86
330
D7B
100
AcDbEntity
  8
Defpoints
 62
     0
100
AcDbPoint
 10
2151.165074068195
 20
733.4864087586608
 30
0.0
  0
ENDBLK
  5
D7D
330
D7B
100
AcDbEntity
  8
0
100
AcDbBlockEnd
  0
BLOCK
  5
D88
330
D87
100
AcDbEntity
  8
0
100
AcDbBlockBegin
  2
*D13
 70
     1
 10
0.0
 20
0.0
 30
0.0
  3
*D13
  1

  0
LINE
  5
D8A
330
D87
100
AcDbEntity
  8
図面
 62
     1
370
    -2
100
AcDbLine
 10
2053.747294372687
 20
647.4864087586608
 30
0.0
 11
1982.507588507783
 21
647.4864087586608
 31
0.0
  0
LINE
  5
D8B
330
D87
100
AcDbEntity
  8
図面
 62
     1
370
    -2
100
AcDbLine
 10
2053.747294372687
 20
733.4864087586608
 30
0.0
 11
1982.507588507783
 21
733.4864087586608
 31
0.0
  0
LINE
  5
D8C
330
D87
100
AcDbEntity
  8
図面
 62
     1
370
    -2
100
AcDbLine
 10
1983.007588507783
 20
657.4864087586608
 30
0.0
 11
1983.007588507783
 21
723.4864087586608
 31
0.0
  0
INSERT
  5
D8D
330
D87
100
AcDbEntity
  8
図面
 62
     1
370
    -2
100
AcDbBlockReference
  2
_Open
 10
1983.007588507783
 20
647.4864087586608
 30
0.0
 41
10.0
 42
10.0
 43
10.0
 50
270.0
  0
INSERT
  5
D8E
330
D87
100
AcDbEntity
  8
図面
 62
     1
370
    -2
100
AcDbBlockReference
  2
_Open
 10
1983.007588507783
 20
733.4864087586608
 30
0.0
 41
10.0
 42
10.0
 43
10.0
 50
90.0
  0
MTEXT
  5
D8F
330
D87
100
AcDbEntity
  8
図面
 62
     1
100
AcDbMText
 10
1977.507588507783
 20
690.4864087586608
 30
0.0
 40
10.0
 41
0.0
 71
     5
 72
     1
  1
\A1;φ86
  7
TextStyle01
 11
0.0
 21
1.0
 31
0.0
 73
     1
 44
1.0
  0
POINT
  5
D90
330
D87
100
AcDbEntity
  8
Defpoints
 62
     0
100
AcDbPoint
 10
2053.809794372687
 20
647.4864087586608
 30
0.0
  0
POINT
  5
D91
330
D87
100
AcDbEntity
  8
Defpoints
 62
     0
100
AcDbPoint
 10
2053.809794372687
 20
733.4864087586608
 30
0.0
  0
POINT
  5
D92
330
D87
100
AcDbEntity
  8
Defpoints
 62
     0
100
AcDbPoint
 10
1983.007588507783
 20
733.4864087586608
 30
0.0
  0
ENDBLK
  5
D89
330
D87
100
AcDbEntity
  8
0
100
AcDbBlockEnd
  0
BLOCK
  5
D94
330
D93
100
AcDbEntity
  8
0
100
AcDbBlockBegin
  2
*D14
 70
     1
 10
0.0
 20
0.0
 30
0.0
  3
*D14
  1

  0
LINE
  5
D96
330
D93
100
AcDbEntity
  8
図面
 62
     1
370
    -2
100
AcDbLine
 10
2053.747294372687
 20
669.4864087586608
 30
0.0
 11
1998.055331946555
 21
669.4864087586608
 31
0.0
  0
LINE
  5
D97
330
D93
100
AcDbEntity
  8
図面
 62
     1
370
    -2
100
AcDbLine
 10
2053.747294372687
 20
711.4864087586608
 30
0.0
 11
1998.055331946555
 21
711.4864087586608
 31
0.0
  0
LINE
  5
D98
330
D93
100
AcDbEntity
  8
図面
 62
     1
370
    -2
100
AcDbLine
 10
1998.555331946555
 20
679.4864087586608
 30
0.0
 11
1998.555331946555
 21
701.4864087586608
 31
0.0
  0
INSERT
  5
D99
330
D93
100
AcDbEntity
  8
図面
 62
     1
370
    -2
100
AcDbBlockReference
  2
_Open
 10
1998.555331946555
 20
669.4864087586608
 30
0.0
 41
10.0
 42
10.0
 43
10.0
 50
270.0
  0
INSERT
  5
D9A
330
D93
100
AcDbEntity
  8
図面
 62
     1
370
    -2
100
AcDbBlockReference
  2
_Open
 10
1998.555331946555
 20
711.4864087586608
 30
0.0
 41
10.0
 42
10.0
 43
10.0
 50
90.0
  0
MTEXT
  5
D9B
330
D93
100
AcDbEntity
  8
図面
 62
     1
100
AcDbMText
 10
1993.055331946555
 20
690.4864087586608
 30
0.0
 40
10.0
 41
0.0
 71
     5
 72
     1
  1
\A1;φ42
  7
TextStyle01
 11
0.0
 21
1.0
 31
0.0
 73
     1
 44
1.0
  0
POINT
  5
D9C
330
D93
100
AcDbEntity
  8
Defpoints
 62
     0
100
AcDbPoint
 10
2053.809794372687
 20
669.4864087586608
 30
0.0
  0
POINT
  5
D9D
330
D93
100
AcDbEntity
  8
Defpoints
 62
     0
100
AcDbPoint
 10
2053.809794372687
 20
711.4864087586608
 30
0.0
  0
POINT
  5
D9E
330
D93
100
AcDbEntity
  8
Defpoints
 62
     0
100
AcDbPoint
 10
1998.555331946555
 20
711.4864087586608
 30
0.0
  0
ENDBLK
  5
D95
330
D93
100
AcDbEntity
  8
0
100
AcDbBlockEnd
  0
BLOCK
  5
DA0
330
D9F
100
AcDbEntity
  8
0
100
AcDbBlockBegin
  2
*D15
 70
     1
 10
0.0
 20
0.0
 30
0.0
  3
*D15
  1

  0
LINE
  5
DA2
330
D9F
100
AcDbEntity
  8
図面
 62
     1
370
    -2
100
AcDbLine
 10
2333.646956204073
 20
650.4864087586608
 30
0.0
 11
2366.444585364312
 21
650.4864087586608
 31
0.0
  0
LINE
  5
DA3
330
D9F
100
AcDbEntity
  8
図面
 62
     1
370
    -2
100
AcDbLine
 10
2333.646956204073
 20
829.9325633612065
 30
0.0
 11
2366.444585364312
 21
829.9325633612065
 31
0.0
  0
LINE
  5
DA4
330
D9F
100
AcDbEntity
  8
図面
 62
     1
370
    -2
100
AcDbLine
 10
2365.944585364312
 20
660.4864087586608
 30
0.0
 11
2365.944585364312
 21
819.9325633612065
 31
0.0
  0
INSERT
  5
DA5
330
D9F
100
AcDbEntity
  8
図面
 62
     1
370
    -2
100
AcDbBlockReference
  2
_Open
 10
2365.944585364312
 20
650.4864087586608
 30
0.0
 41
10.0
 42
10.0
 43
10.0
 50
270.0
  0
INSERT
  5
DA6
330
D9F
100
AcDbEntity
  8
図面
 62
     1
370
    -2
100
AcDbBlockReference
  2
_Open
 10
2365.944585364312
 20
829.9325633612065
 30
0.0
 41
10.0
 42
10.0
 43
10.0
 50
90.0
  0
MTEXT
  5
DA7
330
D9F
100
AcDbEntity
  8
図面
 62
     1
100
AcDbMText
 10
2360.444585364312
 20
740.2094860599336
 30
0.0
 40
10.0
 41
0.0
 71
     5
 72
     1
  1
\A1;180
  7
TextStyle01
 11
0.0
 21
1.0
 31
0.0
 73
     1
 44
1.0
  0
POINT
  5
DA8
330
D9F
100
AcDbEntity
  8
Defpoints
 62
     0
100
AcDbPoint
 10
2333.584456204073
 20
650.4864087586608
 30
0.0
  0
POINT
  5
DA9
330
D9F
100
AcDbEntity
  8
Defpoints
 62
     0
100
AcDbPoint
 10
2333.584456204073
 20
829.9325633612065
 30
0.0
  0
POINT
  5
DAA
330
D9F
100
AcDbEntity
  8
Defpoints
 62
     0
100
AcDbPoint
 10
2365.944585364312
 20
829.9325633612065
 30
0.0
  0
ENDBLK
  5
DA1
330
D9F
100
AcDbEntity
  8
0
100
AcDbBlockEnd
  0
BLOCK
  5
DAC
330
DAB
100
AcDbEntity
  8
0
100
AcDbBlockBegin
  2
*D16
 70
     1
 10
0.0
 20
0.0
 30
0.0
  3
*D16
  1

  0
LINE
  5
DAE
330
DAB
100
AcDbEntity
  8
図面
 62
     1
370
    -2
100
AcDbLine
 10
2178.584456204073
 20
670.4239087586608
 30
0.0
 11
2178.584456204073
 21
616.6651029109589
 31
0.0
  0
LINE
  5
DAF
330
DAB
100
AcDbEntity
  8
図面
 62
     1
370
    -2
100
AcDbLine
 10
2333.584456204073
 20
651.4771455211841
 30
0.0
 11
2333.584456204073
 21
616.6651029109589
 31
0.0
  0
LINE
  5
DB0
330
DAB
100
AcDbEntity
  8
図面
 62
     1
370
    -2
100
AcDbLine
 10
2188.584456204073
 20
617.1651029109589
 30
0.0
 11
2323.584456204073
 21
617.1651029109589
 31
0.0
  0
INSERT
  5
DB1
330
DAB
100
AcDbEntity
  8
図面
 62
     1
370
    -2
100
AcDbBlockReference
  2
_Open
 10
2178.584456204073
 20
617.1651029109589
 30
0.0
 41
10.0
 42
10.0
 43
10.0
 50
180.0
  0
INSERT
  5
DB2
330
DAB
100
AcDbEntity
  8
図面
 62
     1
370
    -2
100
AcDbBlockReference
  2
_Open
 10
2333.584456204073
 20
617.1651029109589
 30
0.0
 41
10.0
 42
10.0
 43
10.0
  0
MTEXT
  5
DB3
330
DAB
100
AcDbEntity
  8
図面
 62
     1
100
AcDbMText
 10
2256.084456204073
 20
622.6651029109589
 30
0.0
 40
10.0
 41
0.0
 71
     5
 72
     1
  1
\A1;155
  7
TextStyle01
 73
     1
 44
1.0
  0
POINT
  5
DB4
330
DAB
100
AcDbEntity
  8
Defpoints
 62
     0
100
AcDbPoint
 10
2178.584456204073
 20
670.4864087586608
 30
0.0
  0
POINT
  5
DB5
330
DAB
100
AcDbEntity
  8
Defpoints
 62
     0
100
AcDbPoint
 10
2333.584456204073
 20
651.5396455211841
 30
0.0
  0
POINT
  5
DB6
330
DAB
100
AcDbEntity
  8
Defpoints
 62
     0
100
AcDbPoint
 10
2333.584456204073
 20
617.1651029109589
 30
0.0
  0
ENDBLK
  5
DAD
330
DAB
100
AcDbEntity
  8
0
100
AcDbBlockEnd
  0
BLOCK
  5
E6D
330
E6C
100
AcDbEntity
  8
0
100
AcDbBlockBegin
  2
*D17
 70
     1
 10
0.0
 20
0.0
 30
0.0
  3
*D17
  1

  0
LINE
  5
E6F
330
E6C
100
AcDbEntity
  8
隠れ線
  6
Continuous
 62
     1
370
    -2
100
AcDbLine
 10
2178.584456204073
 20
671.4239087586608
 30
0.0
 11
2178.584456204073
 21
620.5864087586608
 31
0.0
  0
LINE
  5
E70
330
E6C
100
AcDbEntity
  8
隠れ線
  6
Continuous
 62
     1
370
    -2
100
AcDbLine
 10
2198.584456204073
 20
647.4239087586608
 30
0.0
 11
2198.584456204073
 21
620.5864087586608
 31
0.0
  0
LINE
  5
E71
330
E6C
100
AcDbEntity
  8
隠れ線
  6
Continuous
 62
     1
370
    -2
100
AcDbLine
 10
2181.584456204073
 20
621.0864087586608
 30
0.0
 11
2195.584456204073
 21
621.0864087586608
 31
0.0
  0
INSERT
  5
E72
330
E6C
100
AcDbEntity
  8
隠れ線
 62
     1
370
    -2
100
AcDbBlockReference
  2
_Open30
 10
2178.584456204073
 20
621.0864087586608
 30
0.0
 41
3.0
 42
3.0
 43
3.0
 50
180.0
  0
INSERT
  5
E73
330
E6C
100
AcDbEntity
  8
隠れ線
 62
     1
370
    -2
100
AcDbBlockReference
  2
_Open30
 10
2198.584456204073
 20
621.0864087586608
 30
0.0
 41
3.0
 42
3.0
 43
3.0
  0
MTEXT
  5
E74
330
E6C
100
AcDbEntity
  8
隠れ線
 62
     1
100
AcDbMText
 10
2188.584456204073
 20
624.0864087586608
 30
0.0
 40
5.0
 41
0.0
 71
     5
 72
     1
  1
\A1;20
  7
TextStyle01
 73
     1
 44
1.0
  0
POINT
  5
E75
330
E6C
100
AcDbEntity
  8
Defpoints
 62
     0
100
AcDbPoint
 10
2178.584456204073
 20
709.4864087586608
 30
0.0
  0
POINT
  5
E76
330
E6C
100
AcDbEntity
  8
Defpoints
 62
     0
100
AcDbPoint
 10
2198.584456204073
 20
710.4864087586608
 30
0.0
  0
POINT
  5
E77
330
E6C
100
AcDbEntity
  8
Defpoints
 62
     0
100
AcDbPoint
 10
2198.584456204073
 20
621.0864087586608
 30
0.0
  0
ENDBLK
  5
E6E
330
E6C
100
AcDbEntity
  8
0
100
AcDbBlockEnd
  0
BLOCK
  5
E7D
330
E7C
100
AcDbEntity
  8
0
100
AcDbBlockBegin
  2
*D18
 70
     1
 10
0.0
 20
0.0
 30
0.0
  3
*D18
  1

  0
LINE
  5
E7F
330
E7C
100
AcDbEntity
  8
図面
 62
     1
370
    -2
100
AcDbLine
 10
2178.584456204073
 20
671.4239087586608
 30
0.0
 11
2178.584456204073
 21
622.6196224366568
 31
0.0
  0
LINE
  5
E80
330
E7C
100
AcDbEntity
  8
図面
 62
     1
370
    -2
100
AcDbLine
 10
2198.584456204073
 20
647.4239087586608
 30
0.0
 11
2198.584456204073
 21
622.6196224366568
 31
0.0
  0
LINE
  5
E81
330
E7C
100
AcDbEntity
  8
図面
 62
     1
370
    -2
100
AcDbLine
 10
2168.584456204073
 20
623.1196224366568
 30
0.0
 11
2158.584456204073
 21
623.1196224366568
 31
0.0
  0
LINE
  5
E82
330
E7C
100
AcDbEntity
  8
図面
 62
     1
370
    -2
100
AcDbLine
 10
2208.584456204073
 20
623.1196224366568
 30
0.0
 11
2218.584456204073
 21
623.1196224366568
 31
0.0
  0
INSERT
  5
E83
330
E7C
100
AcDbEntity
  8
図面
 62
     1
370
    -2
100
AcDbBlockReference
  2
_Open
 10
2178.584456204073
 20
623.1196224366568
 30
0.0
 41
10.0
 42
10.0
 43
10.0
  0
INSERT
  5
E84
330
E7C
100
AcDbEntity
  8
図面
 62
     1
370
    -2
100
AcDbBlockReference
  2
_Open
 10
2198.584456204073
 20
623.1196224366568
 30
0.0
 41
10.0
 42
10.0
 43
10.0
 50
180.0
  0
MTEXT
  5
E85
330
E7C
100
AcDbEntity
  8
図面
 62
     1
100
AcDbMText
 10
2188.584456204073
 20
628.6196224366568
 30
0.0
 40
10.0
 41
0.0
 71
     5
 72
     1
  1
\A1;20
  7
TextStyle01
 73
     1
 44
1.0
  0
POINT
  5
E86
330
E7C
100
AcDbEntity
  8
Defpoints
 62
     0
100
AcDbPoint
 10
2178.584456204073
 20
671.4864087586608
 30
0.0
  0
POINT
  5
E87
330
E7C
100
AcDbEntity
  8
Defpoints
 62
     0
100
AcDbPoint
 10
2198.584456204073
 20
670.4864087586608
 30
0.0
  0
POINT
  5
E8A
330
E7C
100
AcDbEntity
  8
Defpoints
 62
     0
100
AcDbPoint
 10
2198.584456204073
 20
623.1196224366568
 30
0.0
  0
ENDBLK
  5
E7E
330
E7C
100
AcDbEntity
  8
0
100
AcDbBlockEnd
  0
ENDSEC
  0
SECTION
  2
ENTITIES
  0
LWPOLYLINE
  5
AF9
330
1E
100
AcDbEntity
  8
ﾚｲﾔ1
100
AcDbPolyline
 90
        4
 70
     1
 43
0.0
 10
1869.535183538351
 20
977.6086190793264
 10
2522.944510084521
 20
977.6086190793264
 10
2522.944510084521
 20
515.6085824289427
 10
1869.535183538351
 20
515.6085824289427
  0
LINE
  5
AFA
330
1E
100
AcDbEntity
  8
図面枠
  6
Continuous
100
AcDbLine
 10
2487.971199155625
 20
958.4100778804229
 30
0.0
 11
1899.046837290941
 21
958.4100778804229
 31
0.0
  0
LINE
  5
AFB
330
1E
100
AcDbEntity
  8
図面枠
  6
Continuous
100
AcDbLine
 10
1903.635858292496
 20
953.8210568788686
 30
0.0
 11
2483.382178154071
 21
953.8210568788686
 31
0.0
  0
LINE
  5
AFC
330
1E
100
AcDbEntity
  8
図面枠
  6
Continuous
100
AcDbLine
 10
1899.046837290941
 20
958.4100778804229
 30
0.0
 11
1899.046837290941
 21
542.3388404072097
 31
0.0
  0
LINE
  5
AFD
330
1E
100
AcDbEntity
  8
図面枠
  6
Continuous
100
AcDbLine
 10
1903.635858292496
 20
546.9278614087642
 30
0.0
 11
1903.635858292496
 21
953.8210568788686
 31
0.0
  0
LINE
  5
AFE
330
1E
100
AcDbEntity
  8
図面枠
  6
Continuous
100
AcDbLine
 10
2483.382178154071
 20
546.9278614087642
 30
0.0
 11
1903.635858292496
 21
546.9278614087642
 31
0.0
  0
LINE
  5
AFF
330
1E
100
AcDbEntity
  8
図面枠
  6
Continuous
100
AcDbLine
 10
2487.971199155625
 20
542.3388404072097
 30
0.0
 11
1899.046837290941
 21
542.3388404072097
 31
0.0
  0
LINE
  5
B00
330
1E
100
AcDbEntity
  8
図面枠
  6
Continuous
100
AcDbLine
 10
2483.382178154071
 20
562.2245980805552
 30
0.0
 11
2419.135884132522
 21
562.2245980805552
 31
0.0
  0
LINE
  5
B01
330
1E
100
AcDbEntity
  8
図面枠
  6
Continuous
100
AcDbLine
 10
2387.012737121684
 20
572.7793463841303
 30
0.0
 11
2478.487222419107
 21
572.7793463841303
 31
0.0
  0
LINE
  5
B02
330
1E
100
AcDbEntity
  8
図面枠
  6
Continuous
100
AcDbLine
 10
2419.135884132522
 20
546.9278614087642
 30
0.0
 11
2483.382178154071
 21
546.9278614087642
 31
0.0
  0
LINE
  5
B03
330
1E
100
AcDbEntity
  8
図面枠
  6
Continuous
100
AcDbLine
 10
2382.423716120129
 20
585.1697030883273
 30
0.0
 11
2483.382178154071
 21
585.1697030883273
 31
0.0
  0
LINE
  5
B04
330
1E
100
AcDbEntity
  8
図面枠
  6
Continuous
100
AcDbLine
 10
2483.382178154071
 20
585.1697030883273
 30
0.0
 11
2374.775347784234
 21
585.1697030883273
 31
0.0
  0
LINE
  5
B05
330
1E
100
AcDbEntity
  8
図面枠
  6
Continuous
100
AcDbLine
 10
2483.382178154071
 20
562.2245980805552
 30
0.0
 11
2382.423716120129
 21
562.2245980805552
 31
0.0
  0
MTEXT
  5
B06
330
1E
100
AcDbEntity
  8
図面枠
370
    30
100
AcDbMText
 10
2383.422761635783
 20
541.1126505283087
 30
0.0
 40
6.730564135595934
 41
111.0837959312587
 71
     1
 72
     5
  1
株式会社　関東油機サービス
 73
     1
 44
1.0
  0
LINE
  5
B07
330
1E
100
AcDbEntity
  8
図面枠
  6
Continuous
100
AcDbLine
 10
2396.19077912475
 20
562.2245980805552
 30
0.0
 11
2374.775347784234
 21
562.2245980805552
 31
0.0
  0
LINE
  5
B08
330
1E
100
AcDbEntity
  8
図面枠
  6
Continuous
100
AcDbLine
 10
2374.775347784234
 20
554.5762297446597
 30
0.0
 11
2413.017189463754
 21
554.5762297446597
 31
0.0
  0
LINE
  5
B09
330
1E
100
AcDbEntity
  8
図面枠
  6
Continuous
100
AcDbLine
 10
2374.775347784234
 20
546.9278614087642
 30
0.0
 11
2396.19077912475
 21
546.9278614087642
 31
0.0
  0
MTEXT
  5
B0A
330
1E
100
AcDbEntity
  8
ﾚｲﾔ1
100
AcDbMText
 10
2387.647384738373
 20
567.6122855571322
 30
0.0
 40
4.619999999999999
 41
86.73249692915488
 71
     1
 72
     5
  1
{SM-205②}
 73
     1
 44
1.0
1001
ACAD
1000
ACAD_MTEXT_DEFINED_HEIGHT_BEGIN
1070
    46
1040
4.619999999999999
1000
ACAD_MTEXT_DEFINED_HEIGHT_END
  0
MTEXT
  5
B0B
330
1E
100
AcDbEntity
  8
ﾚｲﾔ1
100
AcDbMText
 10
2387.393577855572
 20
578.547825032751
 30
0.0
 40
4.619999999999999
 41
86.73249692915488
 71
     1
 72
     5
  1
{200KN50st 単動ジャッキ}
 73
     1
 44
1.0
1001
ACAD
1000
ACAD_MTEXT_DEFINED_HEIGHT_BEGIN
1070
    46
1040
4.619999999999999
1000
ACAD_MTEXT_DEFINED_HEIGHT_END
  0
LINE
  5
B0C
330
1E
100
AcDbEntity
  8
図面枠
  6
Continuous
100
AcDbLine
 10
2374.775347784234
 20
577.5213347523463
 30
0.0
 11
2374.775347784234
 21
569.8729664164508
 31
0.0
  0
LINE
  5
B0D
330
1E
100
AcDbEntity
  8
図面枠
  6
Continuous
100
AcDbLine
 10
2374.775347784234
 20
569.8729664164508
 30
0.0
 11
2374.775347784234
 21
562.2245980805552
 31
0.0
  0
LINE
  5
B0E
330
1E
100
AcDbEntity
  8
図面枠
  6
Continuous
100
AcDbLine
 10
2374.775347784234
 20
562.2245980805552
 30
0.0
 11
2374.775347784234
 21
546.9278614087642
 31
0.0
  0
LINE
  5
B0F
330
1E
100
AcDbEntity
  8
図面枠
  6
Continuous
100
AcDbLine
 10
2374.775347784234
 20
562.2245980805552
 30
0.0
 11
2382.423716120129
 21
562.2245980805552
 31
0.0
  0
LINE
  5
B10
330
1E
100
AcDbEntity
  8
図面枠
  6
Continuous
100
AcDbLine
 10
2374.775347784234
 20
585.1697030883273
 30
0.0
 11
2374.775347784234
 21
562.2245980805552
 31
0.0
  0
LINE
  5
B11
330
1E
100
AcDbEntity
  8
図面枠
  6
Continuous
100
AcDbLine
 10
2382.423716120129
 20
562.2245980805552
 30
0.0
 11
2382.423716120129
 21
585.1697030883273
 31
0.0
  0
LINE
  5
B12
330
1E
100
AcDbEntity
  8
図面枠
  6
Continuous
100
AcDbLine
 10
2374.775347784234
 20
546.9278614087642
 30
0.0
 11
2374.775347784234
 21
562.2245980805552
 31
0.0
  0
LINE
  5
B13
330
1E
100
AcDbEntity
  8
図面枠
  6
Continuous
100
AcDbLine
 10
2374.775347784234
 20
585.1697030883273
 30
0.0
 11
2374.775347784234
 21
577.5213347523463
 31
0.0
  0
LINE
  5
B14
330
1E
100
AcDbEntity
  8
図面枠
  6
Continuous
100
AcDbLine
 10
2382.423716120129
 20
585.1697030883273
 30
0.0
 11
2374.775347784234
 21
585.1697030883273
 31
0.0
  0
LINE
  5
B15
330
1E
100
AcDbEntity
  8
図面枠
  6
Continuous
100
AcDbLine
 10
2382.423716120129
 20
562.2245980805552
 30
0.0
 11
2382.423716120129
 21
585.1697030883273
 31
0.0
  0
TEXT
  5
B17
330
1E
100
AcDbEntity
  8
図面枠
100
AcDbText
 10
2378.539908013181
 20
547.7519563877789
 30
0.0
 40
4.589021001542684
  1
１：1
100
AcDbText
  0
TEXT
  5
B18
330
1E
100
AcDbEntity
  8
図面枠
100
AcDbText
 10
2377.481849737565
 20
555.2792237981135
 30
0.0
 40
6.118694668723578
  1
尺度
 41
1.125
100
AcDbText
  0
LINE
  5
B19
330
1E
100
AcDbEntity
  8
図面枠
  6
Continuous
100
AcDbLine
 10
2419.135884132522
 20
546.9278614087642
 30
0.0
 11
2419.135884132522
 21
562.2245980805552
 31
0.0
  0
LINE
  5
B1A
330
1E
100
AcDbEntity
  8
図面枠
  6
Continuous
100
AcDbLine
 10
2419.135884132522
 20
562.2245980805552
 30
0.0
 11
2413.017189463754
 21
562.2245980805552
 31
0.0
  0
LINE
  5
B1B
330
1E
100
AcDbEntity
  8
図面枠
  6
Continuous
100
AcDbLine
 10
2413.017189463754
 20
546.9278614087642
 30
0.0
 11
2419.135884132522
 21
546.9278614087642
 31
0.0
  0
LINE
  5
B1C
330
1E
100
AcDbEntity
  8
図面枠
  6
Continuous
100
AcDbLine
 10
2413.017189463754
 20
562.2245980805552
 30
0.0
 11
2396.19077912475
 21
562.2245980805552
 31
0.0
  0
LINE
  5
B1D
330
1E
100
AcDbEntity
  8
図面枠
  6
Continuous
100
AcDbLine
 10
2413.017189463754
 20
562.2245980805552
 30
0.0
 11
2413.017189463754
 21
546.9278614087642
 31
0.0
  0
LINE
  5
B1E
330
1E
100
AcDbEntity
  8
図面枠
  6
Continuous
100
AcDbLine
 10
2396.19077912475
 20
562.2245980805552
 30
0.0
 11
2396.19077912475
 21
546.9278614087642
 31
0.0
  0
LINE
  5
B1F
330
1E
100
AcDbEntity
  8
図面枠
  6
Continuous
100
AcDbLine
 10
2413.017189463754
 20
546.9278614087642
 30
0.0
 11
2413.017189463754
 21
562.2245980805552
 31
0.0
  0
LINE
  5
B20
330
1E
100
AcDbEntity
  8
図面枠
  6
Continuous
100
AcDbLine
 10
2396.19077912475
 20
546.9278614087642
 30
0.0
 11
2413.017189463754
 21
546.9278614087642
 31
0.0
  0
LINE
  5
B21
330
1E
100
AcDbEntity
  8
図面枠
  6
Continuous
100
AcDbLine
 10
2419.135884132522
 20
562.2245980805552
 30
0.0
 11
2419.135884132522
 21
546.9278614087642
 31
0.0
  0
LINE
  5
B22
330
1E
100
AcDbEntity
  8
図面枠
  6
Continuous
100
AcDbLine
 10
2396.19077912475
 20
546.9278614087642
 30
0.0
 11
2396.19077912475
 21
562.2245980805552
 31
0.0
  0
TEXT
  5
B23
330
1E
100
AcDbEntity
  8
図面枠
100
AcDbText
 10
2414.011477347438
 20
548.9164371761328
 30
0.0
 40
4.589021001542684
  1
番
100
AcDbText
  0
TEXT
  5
B24
330
1E
100
AcDbEntity
  8
図面枠
100
AcDbText
 10
2414.011477347438
 20
556.1417132785923
 30
0.0
 40
4.589021001542684
  1
図
100
AcDbText
  0
LINE
  5
B25
330
1E
100
AcDbEntity
  8
図面枠
  6
Continuous
100
AcDbLine
 10
2483.382178154071
 20
585.1697030883273
 30
0.0
 11
2483.382178154071
 21
562.2245980805552
 31
0.0
  0
LINE
  5
B26
330
1E
100
AcDbEntity
  8
図面枠
  6
Continuous
100
AcDbLine
 10
2483.382178154071
 20
546.9278614087642
 30
0.0
 11
2483.382178154071
 21
562.2245980805552
 31
0.0
  0
LINE
  5
B27
330
1E
100
AcDbEntity
  8
ﾚｲﾔ1
100
AcDbLine
 10
2337.458278076982
 20
866.6607891590635
 30
0.0
 11
2467.253948772779
 21
866.6607891590635
 31
0.0
  0
LINE
  5
B28
330
1E
100
AcDbEntity
  8
ﾚｲﾔ1
100
AcDbLine
 10
2337.458278076982
 20
890.4207891590806
 30
0.0
 11
2467.253948772779
 21
890.4207891590806
 31
0.0
  0
LINE
  5
B29
330
1E
100
AcDbEntity
  8
ﾚｲﾔ1
100
AcDbLine
 10
2337.458278076982
 20
914.1807891590977
 30
0.0
 11
2467.253948772779
 21
914.1807891590977
 31
0.0
  0
LINE
  5
B2A
330
1E
100
AcDbEntity
  8
ﾚｲﾔ1
100
AcDbLine
 10
2337.458278076982
 20
902.3007891590465
 30
0.0
 11
2467.253948772779
 21
902.3007891590465
 31
0.0
  0
LINE
  5
B2B
330
1E
100
AcDbEntity
  8
ﾚｲﾔ1
100
AcDbLine
 10
2337.458278076982
 20
926.0607891590636
 30
0.0
 11
2467.253948772779
 21
926.0607891590636
 31
0.0
  0
LINE
  5
B2C
330
1E
100
AcDbEntity
  8
ﾚｲﾔ1
100
AcDbLine
 10
2337.458278076982
 20
878.5407891591148
 30
0.0
 11
2467.253948772779
 21
878.5407891591148
 31
0.0
  0
LINE
  5
B2D
330
1E
100
AcDbEntity
  8
ﾚｲﾔ1
100
AcDbLine
 10
2337.458278076982
 20
854.7807891590977
 30
0.0
 11
2467.253948772779
 21
854.7807891590977
 31
0.0
  0
MTEXT
  5
B2E
330
1E
100
AcDbEntity
  8
ﾚｲﾔ1
100
AcDbMText
 10
2337.91225565631
 20
859.2300662809275
 30
0.0
 40
3.959999999999996
 41
637.4637705569941
 71
     1
 72
     5
  1
重　　量
 73
     1
 44
1.0
  0
MTEXT
  5
B2F
330
1E
100
AcDbEntity
  8
ﾚｲﾔ1
100
AcDbMText
 10
2338.160705014267
 20
931.3201942407284
 30
0.0
 40
4.619999999999999
 41
637.4637705569941
 71
     1
 72
     5
  1
能　　力
 73
     1
 44
1.0
  0
MTEXT
  5
B30
330
1E
100
AcDbEntity
  8
ﾚｲﾔ1
100
AcDbMText
 10
2338.815093155848
 20
871.9673169769027
 30
0.0
 40
3.959999999999996
 41
637.4637705569941
 71
     1
 72
     5
  1
ロ　ッ　ド　径
 73
     1
 44
1.0
  0
MTEXT
  5
B31
330
1E
100
AcDbEntity
  8
ﾚｲﾔ1
100
AcDbMText
 10
2338.015445460463
 20
896.0386896862096
 30
0.0
 40
4.619999999999999
 41
637.4637705569941
 71
     1
 72
     5
  1
使　用　圧　力
 73
     1
 44
1.0
  0
MTEXT
  5
B32
330
1E
100
AcDbEntity
  8
ﾚｲﾔ1
100
AcDbMText
 10
2338.094365211714
 20
907.5851956772299
 30
0.0
 40
4.619999999999999
 41
637.4637705569936
 71
     1
 72
     5
  1
{ス　ト　ロ　-　ク}
 73
     1
 44
1.0
1001
ACAD
1000
ACAD_MTEXT_DEFINED_HEIGHT_BEGIN
1070
    46
1040
6.3
1000
ACAD_MTEXT_DEFINED_HEIGHT_END
  0
MTEXT
  5
B33
330
1E
100
AcDbEntity
  8
ﾚｲﾔ1
100
AcDbMText
 10
2338.048809421721
 20
884.3646645250178
 30
0.0
 40
4.619999999999999
 41
637.4637705569941
 71
     1
 72
     5
  1
受　圧　面　積
 73
     1
 44
1.0
  0
MTEXT
  5
B34
330
1E
100
AcDbEntity
  8
ﾚｲﾔ1
100
AcDbMText
 10
2337.925948275178
 20
920.0299979596699
 30
0.0
 40
4.619999999999999
 41
637.4637705569941
 71
     1
 72
     5
  1
機　械　高　さ
 73
     1
 44
1.0
  0
TEXT
  5
B35
330
1E
100
AcDbEntity
  8
ﾚｲﾔ1
100
AcDbText
 10
2458.301323094074
 20
927.4837990750859
 30
0.0
 40
4.4
  1
KN
 50
360.0
100
AcDbText
  0
TEXT
  5
B36
330
1E
100
AcDbEntity
  8
ﾚｲﾔ1
100
AcDbText
 10
2429.209032505334
 20
927.6162291995706
 30
0.0
 40
4.4
  1
200
 50
360.0
100
AcDbText
  0
TEXT
  5
B37
330
1E
100
AcDbEntity
  8
ﾚｲﾔ1
100
AcDbText
 10
2458.301323094074
 20
915.4845612493257
 30
0.0
 40
4.4
  1
mm
 50
360.0
100
AcDbText
  0
MTEXT
  5
B38
330
1E
100
AcDbEntity
  8
ﾚｲﾔ1
100
AcDbMText
 10
2427.922971712928
 20
860.1082504234345
 30
0.0
 40
4.4
 41
0.0
 71
     1
 72
     5
  1
{約}
 73
     1
 44
1.0
1001
ACAD
1000
ACAD_MTEXT_DEFINED_HEIGHT_BEGIN
1070
    46
1040
6.0
1000
ACAD_MTEXT_DEFINED_HEIGHT_END
  0
MTEXT
  5
B39
330
1E
100
AcDbEntity
  8
ﾚｲﾔ1
100
AcDbMText
 10
2429.111988303572
 20
871.7188380494239
 30
0.0
 40
4.4
 41
0.0
 71
     1
 72
     5
  1
{Φ}
 73
     1
 44
1.0
1001
ACAD
1000
ACAD_MTEXT_DEFINED_HEIGHT_BEGIN
1070
    46
1040
12.0
1000
ACAD_MTEXT_DEFINED_HEIGHT_END
  0
TEXT
  5
B3A
330
1E
100
AcDbEntity
  8
ﾚｲﾔ1
100
AcDbText
 10
2455.36636514232
 20
879.4234888693851
 30
0.0
 40
4.4
  1
cm2
 50
360.0
100
AcDbText
  0
TEXT
  5
B3B
330
1E
100
AcDbEntity
  8
ﾚｲﾔ1
100
AcDbText
 10
2458.301323094074
 20
903.5335014076352
 30
0.0
 40
4.4
  1
mm
 50
360.0
100
AcDbText
  0
TEXT
  5
B3C
330
1E
100
AcDbEntity
  8
ﾚｲﾔ1
100
AcDbText
 10
2458.301323094074
 20
855.9591114941354
 30
0.0
 40
4.4
  1
Kg
 50
360.0
100
AcDbText
  0
TEXT
  5
B3D
330
1E
100
AcDbEntity
  8
ﾚｲﾔ1
100
AcDbText
 10
2455.36636514232
 20
891.8881663526166
 30
0.0
 40
4.4
  1
Mpa
 50
360.0
100
AcDbText
  0
TEXT
  5
B3E
330
1E
100
AcDbEntity
  8
ﾚｲﾔ1
100
AcDbText
 10
2458.301323094074
 20
868.2361851310736
 30
0.0
 40
4.4
  1
mm
 50
360.0
100
AcDbText
  0
TEXT
  5
B3F
330
1E
100
AcDbEntity
  8
ﾚｲﾔ1
100
AcDbText
 10
2429.209032505334
 20
915.437954814995
 30
0.0
 40
4.4
  1
155
 50
360.0
100
AcDbText
  0
TEXT
  5
B40
330
1E
100
AcDbEntity
  8
ﾚｲﾔ1
100
AcDbText
 10
2429.209032505334
 20
903.5307728517558
 30
0.0
 40
4.4
  1
50
 50
360.0
100
AcDbText
  0
TEXT
  5
B41
330
1E
100
AcDbEntity
  8
ﾚｲﾔ1
100
AcDbText
 10
2429.209032505334
 20
891.4954035228031
 30
0.0
 40
4.4
  1
60.1
 50
360.0
100
AcDbText
  0
TEXT
  5
B42
330
1E
100
AcDbEntity
  8
ﾚｲﾔ1
100
AcDbText
 10
2429.209032505334
 20
879.8873254126394
 30
0.0
 40
4.4
  1
33.2
 50
360.0
100
AcDbText
  0
TEXT
  5
B43
330
1E
100
AcDbEntity
  8
ﾚｲﾔ1
100
AcDbText
 10
2433.551714133819
 20
867.7408025362597
 30
0.0
 40
4.4
  1
65
 50
360.0
100
AcDbText
  0
TEXT
  5
B44
330
1E
100
AcDbEntity
  8
ﾚｲﾔ1
100
AcDbText
 10
2434.700055594116
 20
855.6473541384244
 30
0.0
 40
4.4
  1
8
 50
360.0
100
AcDbText
  0
LINE
  5
B45
330
1E
100
AcDbEntity
  8
ﾚｲﾔ1
100
AcDbLine
 10
2337.458278076982
 20
937.9423802737215
 30
0.0
 11
2354.28785255559
 21
937.9369833796741
 31
0.0
  0
MTEXT
  5
B46
330
1E
100
AcDbEntity
  8
ﾚｲﾔ1
100
AcDbMText
 10
2338.346096095876
 20
942.320515305641
 30
0.0
 40
3.959999999999996
 41
637.4637705569941
 71
     1
 72
     5
  1
仕  様
 73
     1
 44
1.0
  0
LINE
  5
B47
330
1E
100
AcDbEntity
  8
図面枠
  6
Continuous
100
AcDbLine
 10
2483.382178154071
 20
953.8210568788686
 30
0.0
 11
2483.382178154071
 21
546.9278614087642
 31
0.0
  0
LINE
  5
B48
330
1E
100
AcDbEntity
  8
図面枠
  6
Continuous
100
AcDbLine
 10
2487.971199155625
 20
958.4100778804229
 30
0.0
 11
2487.971199155625
 21
542.3388404072097
 31
0.0
  0
DIMENSION
  5
D2F
330
1E
100
AcDbEntity
  8
図面
100
AcDbDimension
  2
*D12
 10
2151.165074068195
 20
733.4864087586608
 30
0.0
 11
2145.665074068195
 21
690.4864087586608
 31
0.0
 70
    32
  1
φ86
 71
     5
 42
86.0
  3
Standard
100
AcDbAlignedDimension
 13
2198.584456204073
 23
647.4864087586608
 33
0.0
 14
2151.165074068195
 24
733.4864087586608
 34
0.0
 50
90.0
100
AcDbRotatedDimension
1001
ACAD
1000
DSTYLE
1002
{
1070
   343
1005
969
1070
   173
1070
     1
1070
   344
1005
969
1070
    41
1040
10.0
1070
    44
1040
0.5
1070
    73
1070
     0
1070
    74
1070
     0
1070
    77
1070
     1
1070
   140
1040
10.0
1070
   147
1040
0.5
1070
   176
1070
     1
1070
   177
1070
     1
1070
   178
1070
     1
1070
   271
1070
     0
1070
   272
1070
     0
1070
   279
1070
     2
1070
   340
1005
23
1070
   341
1005
1C1
1070
   342
1005
0
1002
}
  0
LINE
  5
D30
102
{ACAD_REACTORS
330
E79
102
}
330
1E
100
AcDbEntity
  8
下図
100
AcDbLine
 10
2178.584456204073
 20
690.4864087586608
 30
0.0
 11
2158.584456204073
 21
690.4864087586608
 31
0.0
  0
LINE
  5
D31
330
1E
100
AcDbEntity
  8
ﾚｲﾔ1
 62
     1
100
AcDbLine
 10
2150.665074068195
 20
733.4864087586608
 30
0.0
 11
2198.584456204073
 21
733.4864087586608
 31
0.0
  0
CIRCLE
  5
D32
330
1E
100
AcDbEntity
  8
図面
  6
ByBlock
100
AcDbCircle
 10
2053.809794372687
 20
690.4864087586608
 30
0.0
 40
40.0
  0
DIMENSION
  5
D33
330
1E
100
AcDbEntity
  8
図面
100
AcDbDimension
  2
*D13
 10
1983.007588507783
 20
733.4864087586608
 30
0.0
 11
1977.507588507783
 21
690.4864087586608
 31
0.0
 70
    32
  1
φ86
 71
     5
 42
86.0
  3
Standard
100
AcDbAlignedDimension
 13
2053.809794372687
 23
647.4864087586608
 33
0.0
 14
2053.809794372687
 24
733.4864087586608
 34
0.0
 50
90.0
100
AcDbRotatedDimension
1001
ACAD
1000
DSTYLE
1002
{
1070
   343
1005
969
1070
   173
1070
     1
1070
   344
1005
969
1070
    41
1040
10.0
1070
    44
1040
0.5
1070
    73
1070
     0
1070
    74
1070
     0
1070
    77
1070
     1
1070
   140
1040
10.0
1070
   147
1040
0.5
1070
   176
1070
     1
1070
   177
1070
     1
1070
   178
1070
     1
1070
   271
1070
     0
1070
   272
1070
     0
1070
   279
1070
     2
1070
   340
1005
23
1070
   341
1005
1C1
1070
   342
1005
0
1002
}
  0
DIMENSION
  5
D34
330
1E
100
AcDbEntity
  8
図面
100
AcDbDimension
  2
*D14
 10
1998.555331946555
 20
711.4864087586608
 30
0.0
 11
1993.055331946555
 21
690.4864087586608
 31
0.0
 70
    32
  1
φ42
 71
     5
 42
42.0
  3
Standard
100
AcDbAlignedDimension
 13
2053.809794372687
 23
669.4864087586608
 33
0.0
 14
2053.809794372687
 24
711.4864087586608
 34
0.0
 50
90.0
100
AcDbRotatedDimension
1001
ACAD
1000
DSTYLE
1002
{
1070
   343
1005
969
1070
   173
1070
     1
1070
   344
1005
969
1070
    41
1040
10.0
1070
    44
1040
0.5
1070
    73
1070
     0
1070
    74
1070
     0
1070
    77
1070
     1
1070
   140
1040
10.0
1070
   147
1040
0.5
1070
   176
1070
     1
1070
   177
1070
     1
1070
   178
1070
     1
1070
   271
1070
     0
1070
   272
1070
     0
1070
   279
1070
     2
1070
   340
1005
23
1070
   341
1005
1C1
1070
   342
1005
0
1002
}
  0
CIRCLE
  5
D35
330
1E
100
AcDbEntity
  8
図面
100
AcDbCircle
 10
2053.809794372687
 20
690.4864087586608
 30
0.0
 40
43.0
  0
CIRCLE
  5
D36
330
1E
100
AcDbEntity
  8
図面
  6
ByBlock
100
AcDbCircle
 10
2053.809794372687
 20
690.4864087586608
 30
0.0
 40
21.0
  0
CIRCLE
  5
D37
330
1E
100
AcDbEntity
  8
図面
  6
ByBlock
100
AcDbCircle
 10
2053.809794372687
 20
690.4864087586608
 30
0.0
 40
40.0
  0
LINE
  5
D38
330
1E
100
AcDbEntity
  8
下図
100
AcDbLine
 10
2053.809794372687
 20
690.4864087586608
 30
0.0
 11
2003.809794372687
 21
690.4864087586608
 31
0.0
  0
LINE
  5
D39
330
1E
100
AcDbEntity
  8
下図
100
AcDbLine
 10
2053.809794372687
 20
690.4864087586608
 30
0.0
 11
2053.809794372687
 21
690.4864087586608
 31
0.0
  0
LINE
  5
D3A
330
1E
100
AcDbEntity
  8
下図
100
AcDbLine
 10
2053.809794372687
 20
690.4864087586608
 30
0.0
 11
2103.809794372687
 21
690.4864087586608
 31
0.0
  0
LINE
  5
D3B
330
1E
100
AcDbEntity
  8
下図
100
AcDbLine
 10
2053.809794372687
 20
690.4864087586608
 30
0.0
 11
2053.809794372687
 21
640.4864087586608
 31
0.0
  0
LINE
  5
D3C
330
1E
100
AcDbEntity
  8
下図
100
AcDbLine
 10
2053.809794372687
 20
690.4864087586608
 30
0.0
 11
2053.809794372687
 21
740.4864087586608
 31
0.0
  0
DIMENSION
  5
D3D
330
1E
100
AcDbEntity
  8
図面
100
AcDbDimension
  2
*D15
 10
2365.944585364312
 20
829.9325633612065
 30
0.0
 11
2360.444585364312
 21
740.2094860599336
 31
0.0
 70
    32
  1
180
 71
     5
 42
179.4461546025457
  3
Standard
100
AcDbAlignedDimension
 13
2333.584456204073
 23
650.4864087586608
 33
0.0
 14
2333.584456204073
 24
829.9325633612065
 34
0.0
 50
90.0
100
AcDbRotatedDimension
1001
ACAD
1000
DSTYLE
1002
{
1070
   343
1005
969
1070
   173
1070
     1
1070
   344
1005
969
1070
    41
1040
10.0
1070
    44
1040
0.5
1070
    73
1070
     0
1070
    74
1070
     0
1070
    77
1070
     1
1070
   140
1040
10.0
1070
   147
1040
0.5
1070
   176
1070
     1
1070
   177
1070
     1
1070
   178
1070
     1
1070
   271
1070
     0
1070
   272
1070
     0
1070
   279
1070
     2
1070
   340
1005
23
1070
   341
1005
1C1
1070
   342
1005
0
1002
}
  0
LINE
  5
D3E
102
{ACAD_REACTORS
330
E79
102
}
330
1E
100
AcDbEntity
  8
下図
100
AcDbLine
 10
2178.584456204073
 20
690.4864087586608
 30
0.0
 11
2343.584456204073
 21
690.4864087586608
 31
0.0
  0
LINE
  5
D3F
330
1E
100
AcDbEntity
  8
図面
100
AcDbLine
 10
2333.584456204073
 20
652.4864087586608
 30
0.0
 11
2333.584456204073
 21
728.4864087586608
 31
0.0
  0
LINE
  5
D40
102
{ACAD_REACTORS
330
E79
102
}
330
1E
100
AcDbEntity
  8
図面
100
AcDbLine
 10
2198.584456204073
 20
690.4864087586608
 30
0.0
 11
2198.584456204073
 21
710.4864087586608
 31
0.0
  0
LINE
  5
D41
330
1E
100
AcDbEntity
  8
図面
100
AcDbLine
 10
2253.584456204073
 20
690.4864087586608
 30
0.0
 11
2253.584456204073
 21
733.4864087586608
 31
0.0
  0
LINE
  5
D42
102
{ACAD_REACTORS
330
E79
102
}
330
1E
100
AcDbEntity
  8
図面
100
AcDbLine
 10
2178.584456204073
 20
709.4864087586608
 30
0.0
 11
2178.584456204073
 21
671.4864087586608
 31
0.0
  0
LINE
  5
D43
102
{ACAD_REACTORS
330
E79
102
}
330
1E
100
AcDbEntity
  8
図面
100
AcDbLine
 10
2198.584456204073
 20
690.4864087586608
 30
0.0
 11
2198.584456204073
 21
733.4864087586608
 31
0.0
  0
ARC
  5
D44
102
{ACAD_REACTORS
330
E79
102
}
330
1E
100
AcDbEntity
  8
図面
100
AcDbCircle
 10
2179.584456204073
 20
671.4864087586608
 30
0.0
 40
1.0
100
AcDbArc
 50
180.0
 51
270.0
  0
ARC
  5
D45
330
1E
100
AcDbEntity
  8
図面
100
AcDbCircle
 10
2331.584456204073
 20
652.4864087586608
 30
0.0
 40
2.0
100
AcDbArc
 50
270.0
 51
0.0
  0
DIMENSION
  5
D46
330
1E
100
AcDbEntity
  8
図面
100
AcDbDimension
  2
*D16
 10
2333.584456204073
 20
617.1651029109589
 30
0.0
 11
2256.084456204073
 21
622.6651029109589
 31
0.0
 70
    32
 71
     5
 42
155.0
 52
-270.0
  3
Standard
100
AcDbAlignedDimension
 13
2178.584456204073
 23
670.4864087586608
 33
0.0
 14
2333.584456204073
 24
651.5396455211841
 34
0.0
 50
180.0
100
AcDbRotatedDimension
1001
ACAD
1000
DSTYLE
1002
{
1070
   343
1005
969
1070
   173
1070
     1
1070
   344
1005
969
1070
    41
1040
10.0
1070
    44
1040
0.5
1070
    73
1070
     0
1070
    74
1070
     0
1070
    77
1070
     1
1070
   140
1040
10.0
1070
   147
1040
0.5
1070
   176
1070
     1
1070
   177
1070
     1
1070
   178
1070
     1
1070
   271
1070
     0
1070
   272
1070
     0
1070
   279
1070
     2
1070
   340
1005
23
1070
   341
1005
1C1
1070
   342
1005
0
1002
}
  0
LINE
  5
D47
102
{ACAD_REACTORS
330
E89
102
}
330
1E
100
AcDbEntity
  8
図面
100
AcDbLine
 10
2253.584456204073
 20
650.4864087586608
 30
0.0
 11
2331.584456204073
 21
650.4864087586608
 31
0.0
  0
LINE
  5
D48
330
1E
100
AcDbEntity
  8
図面
100
AcDbLine
 10
2253.584456204073
 20
690.4864087586608
 30
0.0
 11
2253.584456204073
 21
647.4864087586608
 31
0.0
  0
LINE
  5
D49
330
1E
100
AcDbEntity
  8
図面
100
AcDbLine
 10
2178.584456204073
 20
670.4864087586608
 30
0.0
 11
2178.584456204073
 21
670.4864087586608
 31
0.0
  0
LINE
  5
D4A
330
1E
100
AcDbEntity
  8
図面
100
AcDbLine
 10
2333.584456204073
 20
650.4864087586608
 30
0.0
 11
2333.584456204073
 21
650.4864087586608
 31
0.0
  0
LINE
  5
D4B
102
{ACAD_REACTORS
330
E79
330
E8B
102
}
330
1E
100
AcDbEntity
  8
図面
100
AcDbLine
 10
2198.584456204073
 20
647.4864087586608
 30
0.0
 11
2253.584456204073
 21
647.4864087586608
 31
0.0
  0
LINE
  5
D4C
102
{ACAD_REACTORS
330
E79
102
}
330
1E
100
AcDbEntity
  8
図面
100
AcDbLine
 10
2179.584456204073
 20
670.4864087586608
 30
0.0
 11
2198.584456204073
 21
670.4864087586608
 31
0.0
  0
LINE
  5
D4D
102
{ACAD_REACTORS
330
E79
330
E8B
102
}
330
1E
100
AcDbEntity
  8
図面
100
AcDbLine
 10
2198.584456204073
 20
690.4864087586608
 30
0.0
 11
2198.584456204073
 21
647.4864087586608
 31
0.0
  0
LINE
  5
D4E
330
1E
100
AcDbEntity
  8
図面
100
AcDbLine
 10
2331.584456204073
 20
730.4864087586608
 30
0.0
 11
2253.584456204073
 21
730.4864087586608
 31
0.0
  0
ARC
  5
D4F
330
1E
100
AcDbEntity
  8
図面
100
AcDbCircle
 10
2179.584456204073
 20
709.4864087586608
 30
0.0
 40
1.0
100
AcDbArc
 50
90.0
 51
180.0
  0
LINE
  5
D50
330
1E
100
AcDbEntity
  8
図面
100
AcDbLine
 10
2198.584456204073
 20
710.4864087586608
 30
0.0
 11
2179.584456204073
 21
710.4864087586608
 31
0.0
  0
LINE
  5
D51
330
1E
100
AcDbEntity
  8
図面
100
AcDbLine
 10
2178.584456204073
 20
710.4864087586608
 30
0.0
 11
2178.584456204073
 21
710.4864087586608
 31
0.0
  0
LINE
  5
D52
330
1E
100
AcDbEntity
  8
図面
100
AcDbLine
 10
2198.584456204073
 20
710.4864087586608
 30
0.0
 11
2198.584456204073
 21
710.4864087586608
 31
0.0
  0
LINE
  5
D53
330
1E
100
AcDbEntity
  8
図面
100
AcDbLine
 10
2198.584456204073
 20
733.4864087586608
 30
0.0
 11
2253.584456204073
 21
733.4864087586608
 31
0.0
  0
LINE
  5
D54
330
1E
100
AcDbEntity
  8
下図
100
AcDbLine
 10
2306.68593943288
 20
785.9325633612067
 30
0.0
 11
2306.68593943288
 21
815.9325633612068
 31
0.0
  0
LWPOLYLINE
  5
D55
330
1E
100
AcDbEntity
  8
ﾚｲﾔ1
100
AcDbPolyline
 90
        4
 70
     1
 43
0.0
 10
2320.68593943288
 20
785.9325633612063
 10
2320.68593943288
 20
799.9325633612065
 10
2292.68593943288
 20
799.9325633612067
 10
2292.68593943288
 20
785.9325633612067
  0
ARC
  5
D56
330
1E
100
AcDbEntity
  8
ﾚｲﾔ1
100
AcDbCircle
 10
2297.685939957558
 20
765.4325638368383
 30
0.0
 40
5.000000011203287
100
AcDbArc
 50
233.130102354133
 51
306.8698976458061
  0
ARC
  5
D57
330
1E
100
AcDbEntity
  8
ﾚｲﾔ1
100
AcDbCircle
 10
2297.685939957558
 20
764.4325638345983
 30
0.0
 40
5.000000011203287
100
AcDbArc
 50
53.13010235419402
 51
126.869897645867
  0
LINE
  5
D58
330
1E
100
AcDbEntity
  8
図面
370
    40
100
AcDbLine
 10
2292.685939957555
 20
757.4325638256389
 30
0.0
 11
2320.685939957555
 21
757.4325638256389
 31
0.0
  0
LWPOLYLINE
  5
D59
330
1E
100
AcDbEntity
  8
ﾚｲﾔ1
100
AcDbPolyline
 90
        4
 70
     1
 43
0.0
 10
2318.18593943288
 20
774.9325633612067
 10
2318.18593943288
 20
785.9325633612067
 10
2295.18593943288
 20
785.9325633612067
 10
2295.18593943288
 20
774.9325633612067
  0
LINE
  5
D5A
330
1E
100
AcDbEntity
  8
ﾚｲﾔ1
100
AcDbLine
 10
2294.68593943288
 20
761.4325633612067
 30
0.0
 11
2294.68593943288
 21
764.9325633612067
 31
0.0
  0
LINE
  5
D5B
330
1E
100
AcDbEntity
  8
ﾚｲﾔ1
100
AcDbLine
 10
2294.68593943288
 20
768.4325633612067
 30
0.0
 11
2294.68593943288
 21
764.9325633612067
 31
0.0
  0
LINE
  5
D5C
330
1E
100
AcDbEntity
  8
図面
100
AcDbLine
 10
2292.685939957555
 20
746.432563825639
 30
0.0
 11
2292.685939957555
 21
757.4325638256389
 31
0.0
  0
LINE
  5
D5D
330
1E
100
AcDbEntity
  8
図面
100
AcDbLine
 10
2292.685939957555
 20
757.4325638256389
 30
0.0
 11
2292.685939957555
 21
730.4864087586608
 31
0.0
  0
ARC
  5
D5E
330
1E
100
AcDbEntity
  8
ﾚｲﾔ1
100
AcDbCircle
 10
2315.68593995755
 20
765.4325638368383
 30
0.0
 40
5.000000011203287
100
AcDbArc
 50
233.1301023541982
 51
306.8698976458711
  0
ARC
  5
D5F
330
1E
100
AcDbEntity
  8
ﾚｲﾔ1
100
AcDbCircle
 10
2306.685939957555
 20
750.9325638043143
 30
0.0
 40
18.50000004148328
100
AcDbArc
 50
71.07535558398706
 51
108.9246444160129
  0
ARC
  5
D60
330
1E
100
AcDbEntity
  8
図面
100
AcDbCircle
 10
2331.584456204073
 20
728.4864087586608
 30
0.0
 40
2.0
100
AcDbArc
 50
0.0
 51
90.0
  0
ARC
  5
D61
330
1E
100
AcDbEntity
  8
ﾚｲﾔ1
100
AcDbCircle
 10
2315.68593995755
 20
764.4325638345983
 30
0.0
 40
5.000000011203287
100
AcDbArc
 50
53.13010235412889
 51
126.8698976458018
  0
ARC
  5
D62
330
1E
100
AcDbEntity
  8
ﾚｲﾔ1
100
AcDbCircle
 10
2306.685939957555
 20
778.9325638671222
 30
0.0
 40
18.50000004148328
100
AcDbArc
 50
251.075355583987
 51
288.9246444160129
  0
LINE
  5
D63
330
1E
100
AcDbEntity
  8
ﾚｲﾔ1
100
AcDbLine
 10
2318.68593943288
 20
768.4325633612067
 30
0.0
 11
2318.68593943288
 21
764.9325633612067
 31
0.0
  0
LINE
  5
D64
330
1E
100
AcDbEntity
  8
ﾚｲﾔ1
100
AcDbLine
 10
2298.68593693288
 20
760.5335833612064
 30
0.0
 11
2298.839984417763
 21
757.4325638256389
 31
0.0
  0
LINE
  5
D65
330
1E
100
AcDbEntity
  8
ﾚｲﾔ1
100
AcDbLine
 10
2314.68594193288
 20
760.5335833612064
 30
0.0
 11
2314.531894447996
 21
757.4325638256389
 31
0.0
  0
LINE
  5
D66
330
1E
100
AcDbEntity
  8
ﾚｲﾔ1
100
AcDbLine
 10
2315.68593943288
 20
760.4325633612067
 30
0.0
 11
2297.68593943288
 21
760.4325633612067
 31
0.0
  0
LINE
  5
D67
330
1E
100
AcDbEntity
  8
ﾚｲﾔ1
100
AcDbLine
 10
2300.68593943288
 20
768.4325633612067
 30
0.0
 11
2300.68593943288
 21
764.9325633612067
 31
0.0
  0
LINE
  5
D68
330
1E
100
AcDbEntity
  8
ﾚｲﾔ1
100
AcDbLine
 10
2312.68593943288
 20
768.4325633612067
 30
0.0
 11
2312.68593943288
 21
764.9325633612067
 31
0.0
  0
LINE
  5
D69
330
1E
100
AcDbEntity
  8
ﾚｲﾔ1
100
AcDbLine
 10
2318.68593943288
 20
761.4325633612067
 30
0.0
 11
2318.68593943288
 21
764.9325633612067
 31
0.0
  0
LINE
  5
D6A
330
1E
100
AcDbEntity
  8
ﾚｲﾔ1
100
AcDbLine
 10
2300.68593943288
 20
761.4325633612067
 30
0.0
 11
2300.68593943288
 21
764.9325633612067
 31
0.0
  0
LINE
  5
D6B
330
1E
100
AcDbEntity
  8
ﾚｲﾔ1
100
AcDbLine
 10
2312.68593943288
 20
761.4325633612067
 30
0.0
 11
2312.68593943288
 21
764.9325633612067
 31
0.0
  0
LINE
  5
D6C
330
1E
100
AcDbEntity
  8
ﾚｲﾔ1
100
AcDbLine
 10
2314.68594193288
 20
769.3315433612067
 30
0.0
 11
2314.40770318288
 21
774.9325633612067
 31
0.0
  0
LINE
  5
D6D
330
1E
100
AcDbEntity
  8
ﾚｲﾔ1
100
AcDbLine
 10
2315.68593943288
 20
769.4325633612067
 30
0.0
 11
2297.68593943288
 21
769.4325633612067
 31
0.0
  0
LINE
  5
D6E
330
1E
100
AcDbEntity
  8
ﾚｲﾔ1
100
AcDbLine
 10
2298.68593693288
 20
769.3315433612067
 30
0.0
 11
2298.964175682879
 21
774.9325633612067
 31
0.0
  0
LINE
  5
D6F
330
1E
100
AcDbEntity
  8
下図
100
AcDbLine
 10
2306.68593943288
 20
784.9325633612067
 30
0.0
 11
2306.68593943288
 21
730.4864087586608
 31
0.0
  0
LINE
  5
D70
330
1E
100
AcDbEntity
  8
図面
100
AcDbLine
 10
2320.685939957555
 20
757.4325638256389
 30
0.0
 11
2320.685939957555
 21
730.4864087586608
 31
0.0
  0
ARC
  5
D71
330
1E
100
AcDbEntity
  8
ﾚｲﾔ1
100
AcDbCircle
 10
2309.935939957554
 20
820.9325639611673
 30
0.0
 40
3.000000006720466
100
AcDbArc
 50
0.0
 51
90.0
  0
LINE
  5
D72
330
1E
100
AcDbEntity
  8
ﾚｲﾔ1
100
AcDbLine
 10
2309.93593943288
 20
823.9325633612066
 30
0.0
 11
2303.43593943288
 21
823.9325633612066
 31
0.0
  0
ARC
  5
D73
330
1E
100
AcDbEntity
  8
ﾚｲﾔ1
100
AcDbCircle
 10
2303.435939957554
 20
820.9325639611673
 30
0.0
 40
3.000000006720466
100
AcDbArc
 50
90.0
 51
180.0
  0
LINE
  5
D74
330
1E
100
AcDbEntity
  8
下図
100
AcDbLine
 10
2306.68593943288
 20
815.9325633612068
 30
0.0
 11
2306.68593943288
 21
814.9325633612066
 31
0.0
  0
LWPOLYLINE
  5
D75
330
1E
100
AcDbEntity
  8
図面
  6
DASHED
 62
    10
100
AcDbPolyline
 90
        4
 70
     1
 43
0.0
 10
2321.68593943288
 20
814.9325633612063
 10
2321.68593943288
 20
829.9325633612065
 10
2291.68593943288
 20
829.9325633612067
 10
2291.68593943288
 20
814.9325633612066
  0
LWPOLYLINE
  5
D76
330
1E
100
AcDbEntity
  8
ﾚｲﾔ1
100
AcDbPolyline
 90
        4
 70
     1
 43
0.0
 10
2316.68593943288
 20
799.9325633612067
 10
2316.68593943288
 20
803.9325633612067
 10
2296.68593943288
 20
803.9325633612067
 10
2296.68593943288
 20
799.9325633612067
  0
LWPOLYLINE
  5
D77
330
1E
100
AcDbEntity
  8
ﾚｲﾔ1
100
AcDbPolyline
 90
        4
 70
     1
 43
0.0
 10
2318.68593943288
 20
803.9325633612067
 10
2318.68593943288
 20
810.9325633612067
 10
2294.68593943288
 20
810.9325633612067
 10
2294.68593943288
 20
803.9325633612067
  0
LWPOLYLINE
  5
D78
330
1E
100
AcDbEntity
  8
ﾚｲﾔ1
100
AcDbPolyline
 90
        4
 70
     0
 43
0.0
 10
2300.43593943288
 20
820.9325633612067
 10
2300.43593943288
 20
810.9325633612067
 10
2312.93593943288
 20
810.9325633612067
 10
2312.93593943288
 20
820.9325633612067
  0
LWPOLYLINE
  5
D79
330
1E
100
AcDbEntity
  8
図面
  6
DASHED
 62
    10
100
AcDbPolyline
 90
        4
 70
     1
 43
0.0
 10
2321.68593943288
 20
799.9325633612065
 10
2321.68593943288
 20
814.9325633612063
 10
2291.68593943288
 20
814.9325633612066
 10
2291.68593943288
 20
799.9325633612067
  0
LINE
  5
D7A
330
1E
100
AcDbEntity
  8
下図
100
AcDbLine
 10
2306.68593943288
 20
814.9325633612066
 30
0.0
 11
2306.68593943288
 21
844.9325633612067
 31
0.0
  0
DIMENSION
  5
E7B
102
{ACAD_XDICTIONARY
360
E88
102
}
330
1E
100
AcDbEntity
  8
図面
100
AcDbDimension
  2
*D18
 10
2198.584456204073
 20
623.1196224366568
 30
0.0
 11
2188.584456204073
 21
628.6196224366568
 31
0.0
 70
    32
 71
     5
 42
20.0
 52
-270.0
  3
Standard
100
AcDbAlignedDimension
 13
2178.584456204073
 23
671.4864087586608
 33
0.0
 14
2198.584456204073
 24
670.4864087586608
 34
0.0
 50
180.0
100
AcDbRotatedDimension
1001
ACAD
1000
DSTYLE
1002
{
1070
   343
1005
969
1070
   173
1070
     1
1070
   344
1005
969
1070
    41
1040
10.0
1070
    44
1040
0.5
1070
    73
1070
     0
1070
    74
1070
     0
1070
    77
1070
     1
1070
   140
1040
10.0
1070
   147
1040
0.5
1070
   176
1070
     1
1070
   177
1070
     1
1070
   178
1070
     1
1070
   271
1070
     0
1070
   272
1070
     0
1070
   279
1070
     2
1070
   340
1005
23
1070
   341
1005
1C1
1070
   342
1005
0
1002
}
1001
ENABLE_CUSTOM_SPLIT
1070
     1
  0
TEXT
  5
EAD
102
{ACAD_REACTORS
330
EB3
102
}
330
1E
100
AcDbEntity
  8
図面枠
100
AcDbText
 10
2376.093224798806
 20
565.4213828636363
 30
0.0
 40
5.767147847756914
  1
称
100
AcDbText
  0
TEXT
  5
EAE
102
{ACAD_REACTORS
330
EB3
102
}
330
1E
100
AcDbEntity
  8
図面枠
100
AcDbText
 10
2376.093224798806
 20
574.5015843945904
 30
0.0
 40
5.767147847756914
  1
名
100
AcDbText
  0
VIEWPORT
  5
513
330
1A
100
AcDbEntity
 67
     1
  8
ﾚｲﾔ1
100
AcDbViewport
 10
5.249999639556163
 20
3.999999883606677
 30
0.0
 40
13.76339808806464
 41
8.992999745766946
 68
     1
 69
     1
 12
5.249999639556163
 22
3.999999883606677
 13
0.0
 23
0.0
 14
10.0
 24
10.0
 15
10.0
 25
10.0
 16
0.0
 26
0.0
 36
1.0
 17
0.0
 27
0.0
 37
0.0
 42
50.0
 43
0.0
 44
0.0
 45
8.992999745766946
 50
0.0
 51
0.0
 72
   100
 90
    32800
  1

281
     0
 71
     1
 74
     0
110
0.0
120
0.0
130
0.0
111
1.0
121
0.0
131
0.0
112
0.0
122
1.0
132
0.0
 79
     0
146
0.0
  0
VIEWPORT
  5
515
330
1A
100
AcDbEntity
 67
     1
  8
図面
100
AcDbViewport
 10
5.24999976158142
 20
3.99999976158142
 30
0.0
 40
8.399999618530272
 41
6.399999618530272
 68
     2
 69
     2
 12
-32792.55299055143
 22
-22887.9249939011
 13
0.0
 23
0.0
 14
1.0
 24
1.0
 15
0.0
 25
0.0
 16
0.0
 26
0.0
 36
1.0
 17
0.0
 27
0.0
 37
0.0
 42
50.0
 43
0.0
 44
0.0
 45
52615.36822911845
 50
0.0
 51
0.0
 72
   100
 90
    32768
  1

281
     0
 71
     1
 74
     0
110
0.0
120
0.0
130
0.0
111
1.0
121
0.0
131
0.0
112
0.0
122
1.0
132
0.0
 79
     0
146
0.0
  0
ENDSEC
  0
SECTION
  2
OBJECTS
  0
DICTIONARY
  5
C
330
0
100
AcDbDictionary
281
     1
  3
ACAD_DETAILVIEWSTYLE
350
B4F
  3
ACAD_GROUP
350
D
  3
ACAD_LAYOUT
350
19
  3
ACAD_MLINESTYLE
350
16
  3
ACAD_PLOTSETTINGS
350
18
  3
ACAD_PLOTSTYLENAME
350
E
  3
ACAD_SCALELIST
350
A3C
  3
ACAD_SECTIONVIEWSTYLE
350
B50
  3
AcDbVariableDictionary
350
A2D
  3
APPDATA
350
A7E
  3
DWGPROPS
350
EB4
  3
FX_DICT_DIMENSION_PALETTE
350
E8C
  0
DICTIONARY
  5
AF4
330
2
100
AcDbDictionary
280
     1
281
     1
  3
ACAD_LAYERSTATES
360
AF5
  0
DICTIONARY
  5
E47
330
1E
100
AcDbDictionary
280
     1
281
     1
  3
DIM_BOUNDING_BOXES_V1
360
E48
  0
DICTIONARY
  5
E88
330
E7B
100
AcDbDictionary
280
     1
281
     1
  3
ACAD_CUSTOM_BREAKDATA
360
E8B
  0
DICTIONARY
  5
B4F
102
{ACAD_REACTORS
330
C
102
}
330
C
100
AcDbDictionary
281
     1
  0
DICTIONARY
  5
D
102
{ACAD_REACTORS
330
C
102
}
330
C
100
AcDbDictionary
281
     1
  3
*A1
350
EB3
  0
DICTIONARY
  5
19
102
{ACAD_REACTORS
330
C
102
}
330
C
100
AcDbDictionary
281
     1
  3
Model
350
21
  3
ﾚｲｱｳﾄ1
350
1D
  0
DICTIONARY
  5
16
102
{ACAD_REACTORS
330
C
102
}
330
C
100
AcDbDictionary
281
     1
  3
Standard
350
17
  0
DICTIONARY
  5
18
102
{ACAD_REACTORS
330
C
102
}
330
C
100
AcDbDictionary
281
     1
  0
ACDBDICTIONARYWDFLT
  5
E
102
{ACAD_REACTORS
330
C
102
}
330
C
100
AcDbDictionary
281
     1
  3
Normal
350
F
100
AcDbDictionaryWithDefault
340
F
  0
DICTIONARY
  5
A3C
102
{ACAD_REACTORS
330
C
102
}
330
C
100
AcDbDictionary
281
     1
  3
A0
350
A3D
  3
A1
350
A3E
  3
A2
350
A3F
  3
A3
350
A40
  3
A4
350
A41
  3
A5
350
A42
  3
A6
350
A43
  3
A7
350
A44
  3
A8
350
A45
  3
A9
350
A46
  3
B0
350
A47
  3
B1
350
A48
  3
B2
350
A49
  3
B3
350
A4A
  3
B4
350
A4B
  3
B5
350
A4C
  3
B6
350
A4D
  3
B7
350
A4E
  3
B8
350
A4F
  3
B9
350
A50
  3
C0
350
A51
  3
C1
350
A52
  3
C2
350
A53
  3
C3
350
A54
  3
C4
350
A55
  3
C5
350
A56
  3
C6
350
A57
  3
C7
350
A58
  3
C8
350
A59
  3
C9
350
A5A
  3
D0
350
A5B
  3
D1
350
A5C
  3
D2
350
A5D
  0
DICTIONARY
  5
B50
102
{ACAD_REACTORS
330
C
102
}
330
C
100
AcDbDictionary
281
     1
  0
DICTIONARY
  5
A2D
102
{ACAD_REACTORS
330
C
102
}
330
C
100
AcDbDictionary
281
     1
  3
DIMASSOC
350
A2E
  3
PROJECTNAME
350
A2F
  0
DICTIONARY
  5
A7E
102
{ACAD_REACTORS
330
C
102
}
330
C
100
AcDbDictionary
281
     1
  0
XRECORD
  5
EB4
102
{ACAD_REACTORS
330
C
102
}
330
C
100
AcDbXrecord
280
     1
  1
DWGPROPS COOKIE
  2

  3

  4

  6

  7

  8
Hiroki Noike
  9

300
=
301
=
302
=
303
=
304
=
305
=
306
=
307
=
308
=
309
=
 40
0.0
 41
2449944.550517361
 42
2459744.041400718
  1

 90
        0
  0
DICTIONARY
  5
E8C
102
{ACAD_REACTORS
330
C
102
}
330
C
100
AcDbDictionary
281
     1
1001
FX_DIMP_FAV_VERSION
1071
        1
  0
DICTIONARY
  5
AF5
102
{ACAD_REACTORS
330
AF4
102
}
330
AF4
100
AcDbDictionary
281
     1
  0
DICTIONARY
  5
E48
102
{ACAD_REACTORS
330
E47
102
}
330
E47
100
AcDbDictionary
281
     1
  0
BREAKDATA
  5
E8B
102
{ACAD_REACTORS
330
E88
102
}
330
E88
100
AcDbBreakData
 70
     0
330
E7B
 90
        2
100
AcDbBreakPointRef
 71
     0
 72
     0
 91
       -1
 10
0.0
 20
0.0
 30
0.0
 11
0.0
 21
0.0
 31
0.0
331
D4B
 73
     2
 92
        0
100
AcDbBreakPointRef
 71
     0
 72
     0
 91
       -1
 10
0.0
 20
0.0
 30
0.0
 11
0.0
 21
0.0
 31
0.0
331
D4D
 73
     2
 92
        0
  0
GROUP
  5
EB3
102
{ACAD_REACTORS
330
D
102
}
330
D
100
AcDbGroup
300

 70
     1
 71
     1
340
EAE
340
EAD
  0
LAYOUT
  5
21
102
{ACAD_REACTORS
330
19
102
}
330
19
100
AcDbPlotSettings
  1

  2
倉庫プリンタ.pc3
  4
A3
  6

 40
5.873749732971191
 41
5.873747825622558
 42
5.873748779296875
 43
5.873748779296875
 44
296.9259948730469
 45
419.9466552734374
 46
0.0
 47
1.05
 48
-210.0
 49
-148.5
140
210.0
141
148.5
142
1.0
143
168.672175714778
 70
 11956
 72
     1
 73
     1
 74
     1
  7

 75
     0
147
0.005928660111025
148
67041.80316521769
149
46938.76371802184
100
AcDbLayout
  1
Model
 70
     1
 71
     0
 10
0.0
 20
0.0
 11
12.0
 21
9.0
 12
0.0
 22
0.0
 32
0.0
 14
1869.535183538351
 24
515.6085824289427
 34
0.0
 15
2522.944510084521
 25
977.6086190793264
 35
0.0
146
0.0
 13
0.0
 23
0.0
 33
0.0
 16
1.0
 26
0.0
 36
0.0
 17
0.0
 27
1.0
 37
0.0
 76
     0
330
1E
331
A30
  0
LAYOUT
  5
1D
102
{ACAD_REACTORS
330
19
102
}
330
19
100
AcDbPlotSettings
  1

  2
none_device
  4
Letter_(8.50_x_11.00_Inches)
  6

 40
6.349999904632568
 41
6.349999904632568
 42
6.350006103515625
 43
6.350006103515625
 44
215.8999938964844
 45
279.3999938964844
 46
0.0
 47
0.0
 48
0.0
 49
0.0
140
0.0
141
0.0
142
1.0
143
1.0
 70
   688
 72
     0
 73
     1
 74
     5
  7

 75
    16
147
1.0
148
0.0
149
0.0
100
AcDbLayout
  1
ﾚｲｱｳﾄ1
 70
     1
 71
     1
 10
-0.2500002402958907
 20
-0.2499999962453767
 11
10.74999951940821
 21
8.249999763458732
 12
0.0
 22
0.0
 32
0.0
 14
1.049999952316284
 24
0.7999999523162842
 34
0.0
 15
9.449999570846556
 25
7.199999570846556
 35
0.0
146
0.0
 13
0.0
 23
0.0
 33
0.0
 16
1.0
 26
0.0
 36
0.0
 17
0.0
 27
1.0
 37
0.0
 76
     0
330
1A
331
513
  0
MLINESTYLE
  5
17
102
{ACAD_REACTORS
330
16
102
}
330
16
100
AcDbMlineStyle
  2
STANDARD
 70
     0
  3

 62
   256
 51
90.0
 52
90.0
 71
     2
 49
0.5
 62
   256
  6
BYLAYER
 49
-0.5
 62
   256
  6
BYLAYER
  0
ACDBPLACEHOLDER
  5
F
102
{ACAD_REACTORS
330
E
102
}
330
E
  0
SCALE
  5
A3D
102
{ACAD_REACTORS
330
A3C
102
}
330
A3C
100
AcDbScale
 70
     0
300
1:1
140
1.0
141
1.0
290
     1
  0
SCALE
  5
A3E
102
{ACAD_REACTORS
330
A3C
102
}
330
A3C
100
AcDbScale
 70
     0
300
1:2
140
1.0
141
2.0
290
     0
  0
SCALE
  5
A3F
102
{ACAD_REACTORS
330
A3C
102
}
330
A3C
100
AcDbScale
 70
     0
300
1:4
140
1.0
141
4.0
290
     0
  0
SCALE
  5
A40
102
{ACAD_REACTORS
330
A3C
102
}
330
A3C
100
AcDbScale
 70
     0
300
1:5
140
1.0
141
5.0
290
     0
  0
SCALE
  5
A41
102
{ACAD_REACTORS
330
A3C
102
}
330
A3C
100
AcDbScale
 70
     0
300
1:8
140
1.0
141
8.0
290
     0
  0
SCALE
  5
A42
102
{ACAD_REACTORS
330
A3C
102
}
330
A3C
100
AcDbScale
 70
     0
300
1:10
140
1.0
141
10.0
290
     0
  0
SCALE
  5
A43
102
{ACAD_REACTORS
330
A3C
102
}
330
A3C
100
AcDbScale
 70
     0
300
1:16
140
1.0
141
16.0
290
     0
  0
SCALE
  5
A44
102
{ACAD_REACTORS
330
A3C
102
}
330
A3C
100
AcDbScale
 70
     0
300
1:20
140
1.0
141
20.0
290
     0
  0
SCALE
  5
A45
102
{ACAD_REACTORS
330
A3C
102
}
330
A3C
100
AcDbScale
 70
     0
300
1:30
140
1.0
141
30.0
290
     0
  0
SCALE
  5
A46
102
{ACAD_REACTORS
330
A3C
102
}
330
A3C
100
AcDbScale
 70
     0
300
1:40
140
1.0
141
40.0
290
     0
  0
SCALE
  5
A47
102
{ACAD_REACTORS
330
A3C
102
}
330
A3C
100
AcDbScale
 70
     0
300
1:50
140
1.0
141
50.0
290
     0
  0
SCALE
  5
A48
102
{ACAD_REACTORS
330
A3C
102
}
330
A3C
100
AcDbScale
 70
     0
300
1:100
140
1.0
141
100.0
290
     0
  0
SCALE
  5
A49
102
{ACAD_REACTORS
330
A3C
102
}
330
A3C
100
AcDbScale
 70
     0
300
2:1
140
2.0
141
1.0
290
     0
  0
SCALE
  5
A4A
102
{ACAD_REACTORS
330
A3C
102
}
330
A3C
100
AcDbScale
 70
     0
300
4:1
140
4.0
141
1.0
290
     0
  0
SCALE
  5
A4B
102
{ACAD_REACTORS
330
A3C
102
}
330
A3C
100
AcDbScale
 70
     0
300
8:1
140
8.0
141
1.0
290
     0
  0
SCALE
  5
A4C
102
{ACAD_REACTORS
330
A3C
102
}
330
A3C
100
AcDbScale
 70
     0
300
10:1
140
10.0
141
1.0
290
     0
  0
SCALE
  5
A4D
102
{ACAD_REACTORS
330
A3C
102
}
330
A3C
100
AcDbScale
 70
     0
300
100:1
140
100.0
141
1.0
290
     0
  0
SCALE
  5
A4E
102
{ACAD_REACTORS
330
A3C
102
}
330
A3C
100
AcDbScale
 70
     0
300
1/128" = 1'-0"
140
0.0078125
141
12.0
290
     0
  0
SCALE
  5
A4F
102
{ACAD_REACTORS
330
A3C
102
}
330
A3C
100
AcDbScale
 70
     0
300
1/64" = 1'-0"
140
0.015625
141
12.0
290
     0
  0
SCALE
  5
A50
102
{ACAD_REACTORS
330
A3C
102
}
330
A3C
100
AcDbScale
 70
     0
300
1/32" = 1'-0"
140
0.03125
141
12.0
290
     0
  0
SCALE
  5
A51
102
{ACAD_REACTORS
330
A3C
102
}
330
A3C
100
AcDbScale
 70
     0
300
1/16" = 1'-0"
140
0.0625
141
12.0
290
     0
  0
SCALE
  5
A52
102
{ACAD_REACTORS
330
A3C
102
}
330
A3C
100
AcDbScale
 70
     0
300
3/32" = 1'-0"
140
0.09375
141
12.0
290
     0
  0
SCALE
  5
A53
102
{ACAD_REACTORS
330
A3C
102
}
330
A3C
100
AcDbScale
 70
     0
300
1/8" = 1'-0"
140
0.125
141
12.0
290
     0
  0
SCALE
  5
A54
102
{ACAD_REACTORS
330
A3C
102
}
330
A3C
100
AcDbScale
 70
     0
300
3/16" = 1'-0"
140
0.1875
141
12.0
290
     0
  0
SCALE
  5
A55
102
{ACAD_REACTORS
330
A3C
102
}
330
A3C
100
AcDbScale
 70
     0
300
1/4" = 1'-0"
140
0.25
141
12.0
290
     0
  0
SCALE
  5
A56
102
{ACAD_REACTORS
330
A3C
102
}
330
A3C
100
AcDbScale
 70
     0
300
3/8" = 1'-0"
140
0.375
141
12.0
290
     0
  0
SCALE
  5
A57
102
{ACAD_REACTORS
330
A3C
102
}
330
A3C
100
AcDbScale
 70
     0
300
1/2" = 1'-0"
140
0.5
141
12.0
290
     0
  0
SCALE
  5
A58
102
{ACAD_REACTORS
330
A3C
102
}
330
A3C
100
AcDbScale
 70
     0
300
3/4" = 1'-0"
140
0.75
141
12.0
290
     0
  0
SCALE
  5
A59
102
{ACAD_REACTORS
330
A3C
102
}
330
A3C
100
AcDbScale
 70
     0
300
1" = 1'-0"
140
1.0
141
12.0
290
     0
  0
SCALE
  5
A5A
102
{ACAD_REACTORS
330
A3C
102
}
330
A3C
100
AcDbScale
 70
     0
300
1-1/2" = 1'-0"
140
1.5
141
12.0
290
     0
  0
SCALE
  5
A5B
102
{ACAD_REACTORS
330
A3C
102
}
330
A3C
100
AcDbScale
 70
     0
300
3" = 1'-0"
140
3.0
141
12.0
290
     0
  0
SCALE
  5
A5C
102
{ACAD_REACTORS
330
A3C
102
}
330
A3C
100
AcDbScale
 70
     0
300
6" = 1'-0"
140
6.0
141
12.0
290
     0
  0
SCALE
  5
A5D
102
{ACAD_REACTORS
330
A3C
102
}
330
A3C
100
AcDbScale
 70
     0
300
1'-0" = 1'-0"
140
12.0
141
12.0
290
     0
  0
DICTIONARYVAR
  5
A2E
102
{ACAD_REACTORS
330
A2D
102
}
330
A2D
100
DictionaryVariables
280
     0
  1
1
  0
DICTIONARYVAR
  5
A2F
102
{ACAD_REACTORS
330
A2D
102
}
330
A2D
100
DictionaryVariables
280
     0
  1

  0
ENDSEC
  0
EOF
