  0
SECTION
  2
HEADER
  9
$ACADVER
  1
AC1015
  9
$ACADMAINTVER
 70
     6
  9
$DWGCODEPAGE
  3
ANSI_932
  9
$INSBASE
 10
0.0
 20
0.0
 30
0.0
  9
$EXTMIN
 10
860.0234179714198
 20
-31.74223234471401
 30
0.0
  9
$EXTMAX
 10
1305.529776980172
 20
283.2577926441841
 30
0.0
  9
$LIMMIN
 10
0.0
 20
0.0
  9
$LIMMAX
 10
12.0
 20
9.0
  9
$ORTHOMODE
 70
     0
  9
$REGENMODE
 70
     1
  9
$FILLMODE
 70
     1
  9
$QTEXTMODE
 70
     0
  9
$MIRRTEXT
 70
     1
  9
$LTSCALE
 40
1.0
  9
$ATTMODE
 70
     1
  9
$TEXTSIZE
 40
1.0
  9
$TRACEWID
 40
0.05
  9
$TEXTSTYLE
  7
STANDARD
  9
$CLAYER
  8
寸法
  9
$CELTYPE
  6
CONTINUOUS
  9
$CECOLOR
 62
   256
  9
$CELTSCALE
 40
1.0
  9
$DISPSILH
 70
     0
  9
$DIMSCALE
 40
1.0
  9
$DIMASZ
 40
3.0
  9
$DIMEXO
 40
0.5
  9
$DIMDLI
 40
0.38
  9
$DIMRND
 40
0.0
  9
$DIMDLE
 40
0.0
  9
$DIMEXE
 40
0.5
  9
$DIMTP
 40
0.0
  9
$DIMTM
 40
0.0
  9
$DIMTXT
 40
5.0
  9
$DIMCEN
 40
0.09
  9
$DIMTSZ
 40
0.0
  9
$DIMTOL
 70
     0
  9
$DIMLIM
 70
     0
  9
$DIMTIH
 70
     0
  9
$DIMTOH
 70
     0
  9
$DIMSE1
 70
     0
  9
$DIMSE2
 70
     0
  9
$DIMTAD
 70
     1
  9
$DIMZIN
 70
     0
  9
$DIMBLK
  1
Open30
  9
$DIMASO
 70
     1
  9
$DIMSHO
 70
     1
  9
$DIMPOST
  1

  9
$DIMAPOST
  1

  9
$DIMALT
 70
     0
  9
$DIMALTD
 70
     2
  9
$DIMALTF
 40
25.4
  9
$DIMLFAC
 40
1.0
  9
$DIMTOFL
 70
     0
  9
$DIMTVP
 40
0.0
  9
$DIMTIX
 70
     0
  9
$DIMSOXD
 70
     0
  9
$DIMSAH
 70
     0
  9
$DIMBLK1
  1

  9
$DIMBLK2
  1

  9
$DIMSTYLE
  2
Standard
  9
$DIMCLRD
 70
     1
  9
$DIMCLRE
 70
     1
  9
$DIMCLRT
 70
     1
  9
$DIMTFAC
 40
1.0
  9
$DIMGAP
 40
1.0
  9
$DIMJUST
 70
     0
  9
$DIMSD1
 70
     0
  9
$DIMSD2
 70
     0
  9
$DIMTOLJ
 70
     1
  9
$DIMTZIN
 70
     0
  9
$DIMALTZ
 70
     0
  9
$DIMALTTZ
 70
     0
  9
$DIMUPT
 70
     0
  9
$DIMDEC
 70
     0
  9
$DIMTDEC
 70
     0
  9
$DIMALTU
 70
     2
  9
$DIMALTTD
 70
     2
  9
$DIMTXSTY
  7
TEXTSTYLE01
  9
$DIMAUNIT
 70
     0
  9
$DIMADEC
 70
     0
  9
$DIMALTRND
 40
0.0
  9
$DIMAZIN
 70
     0
  9
$DIMDSEP
 70
    46
  9
$DIMATFIT
 70
     3
  9
$DIMFRAC
 70
     0
  9
$DIMLDRBLK
  1
Open30
  9
$DIMLUNIT
 70
     2
  9
$DIMLWD
 70
    -2
  9
$DIMLWE
 70
    -2
  9
$DIMTMOVE
 70
     0
  9
$LUNITS
 70
     2
  9
$LUPREC
 70
     4
  9
$SKETCHINC
 40
0.1
  9
$FILLETRAD
 40
0.0
  9
$AUNITS
 70
     0
  9
$AUPREC
 70
     0
  9
$MENU
  1
.
  9
$ELEVATION
 40
0.0
  9
$PELEVATION
 40
0.0
  9
$THICKNESS
 40
0.0
  9
$LIMCHECK
 70
     0
  9
$CHAMFERA
 40
0.0
  9
$CHAMFERB
 40
0.0
  9
$CHAMFERC
 40
0.0
  9
$CHAMFERD
 40
0.0
  9
$SKPOLY
 70
     0
  9
$TDCREATE
 40
2452359.43441441
  9
$TDUCREATE
 40
2452359.05941441
  9
$TDUPDATE
 40
2459744.390445822
  9
$TDUUPDATE
 40
2459744.015445822
  9
$TDINDWG
 40
0.1566051852
  9
$TDUSRTIMER
 40
0.0000472338
  9
$USRTIMER
 70
     1
  9
$ANGBASE
 50
0.0
  9
$ANGDIR
 70
     0
  9
$PDMODE
 70
     0
  9
$PDSIZE
 40
1.5
  9
$PLINEWID
 40
0.0
  9
$SPLFRAME
 70
     0
  9
$SPLINETYPE
 70
     6
  9
$SPLINESEGS
 70
     8
  9
$HANDSEED
  5
DCE
  9
$SURFTAB1
 70
     6
  9
$SURFTAB2
 70
     6
  9
$SURFTYPE
 70
     6
  9
$SURFU
 70
     6
  9
$SURFV
 70
     6
  9
$UCSBASE
  2

  9
$UCSNAME
  2

  9
$UCSORG
 10
0.0
 20
0.0
 30
0.0
  9
$UCSXDIR
 10
1.0
 20
0.0
 30
0.0
  9
$UCSYDIR
 10
0.0
 20
1.0
 30
0.0
  9
$UCSORTHOREF
  2

  9
$UCSORTHOVIEW
 70
     0
  9
$UCSORGTOP
 10
0.0
 20
0.0
 30
0.0
  9
$UCSORGBOTTOM
 10
0.0
 20
0.0
 30
0.0
  9
$UCSORGLEFT
 10
0.0
 20
0.0
 30
0.0
  9
$UCSORGRIGHT
 10
0.0
 20
0.0
 30
0.0
  9
$UCSORGFRONT
 10
0.0
 20
0.0
 30
0.0
  9
$UCSORGBACK
 10
0.0
 20
0.0
 30
0.0
  9
$PUCSBASE
  2

  9
$PUCSNAME
  2

  9
$PUCSORG
 10
0.0
 20
0.0
 30
0.0
  9
$PUCSXDIR
 10
1.0
 20
0.0
 30
0.0
  9
$PUCSYDIR
 10
0.0
 20
1.0
 30
0.0
  9
$PUCSORTHOREF
  2

  9
$PUCSORTHOVIEW
 70
     0
  9
$PUCSORGTOP
 10
0.0
 20
0.0
 30
0.0
  9
$PUCSORGBOTTOM
 10
0.0
 20
0.0
 30
0.0
  9
$PUCSORGLEFT
 10
0.0
 20
0.0
 30
0.0
  9
$PUCSORGRIGHT
 10
0.0
 20
0.0
 30
0.0
  9
$PUCSORGFRONT
 10
0.0
 20
0.0
 30
0.0
  9
$PUCSORGBACK
 10
0.0
 20
0.0
 30
0.0
  9
$USERI1
 70
     0
  9
$USERI2
 70
     0
  9
$USERI3
 70
     0
  9
$USERI4
 70
     0
  9
$USERI5
 70
     0
  9
$USERR1
 40
0.0
  9
$USERR2
 40
0.0
  9
$USERR3
 40
0.0
  9
$USERR4
 40
0.0
  9
$USERR5
 40
0.0
  9
$WORLDVIEW
 70
     1
  9
$SHADEDGE
 70
     3
  9
$SHADEDIF
 70
    70
  9
$TILEMODE
 70
     1
  9
$MAXACTVP
 70
    64
  9
$PINSBASE
 10
0.0
 20
0.0
 30
0.0
  9
$PLIMCHECK
 70
     0
  9
$PEXTMIN
 10
1.000000000000000E+20
 20
1.000000000000000E+20
 30
1.000000000000000E+20
  9
$PEXTMAX
 10
-1.000000000000000E+20
 20
-1.000000000000000E+20
 30
-1.000000000000000E+20
  9
$PLIMMIN
 10
0.0
 20
0.0
  9
$PLIMMAX
 10
0.0
 20
0.0
  9
$UNITMODE
 70
     0
  9
$VISRETAIN
 70
     1
  9
$PLINEGEN
 70
     0
  9
$PSLTSCALE
 70
     1
  9
$TREEDEPTH
 70
  3020
  9
$CMLSTYLE
  2
Standard
  9
$CMLJUST
 70
     0
  9
$CMLSCALE
 40
1.0
  9
$PROXYGRAPHICS
 70
     1
  9
$MEASUREMENT
 70
     0
  9
$CELWEIGHT
370
    -1
  9
$ENDCAPS
280
     0
  9
$JOINSTYLE
280
     0
  9
$LWDISPLAY
290
     0
  9
$INSUNITS
 70
     0
  9
$HYPERLINKBASE
  1

  9
$STYLESHEET
  1

  9
$XEDIT
290
     1
  9
$CEPSNTYPE
380
     0
  9
$PSTYLEMODE
290
     1
  9
$FINGERPRINTGUID
  2
{448BB041-D1F2-4A92-89D1-A69EA8E55173}
  9
$VERSIONGUID
  2
{269226EB-9F2F-433B-8083-8C218E019792}
  9
$EXTNAMES
290
     1
  9
$PSVPSCALE
 40
0.0
  9
$OLESTARTUP
290
     0
  0
ENDSEC
  0
SECTION
  2
CLASSES
  0
CLASS
  1
ACDBDICTIONARYWDFLT
  2
AcDbDictionaryWithDefault
  3
ObjectDBX Classes
 90
        0
280
     0
281
     0
  0
CLASS
  1
ACDBPLACEHOLDER
  2
AcDbPlaceHolder
  3
ObjectDBX Classes
 90
        0
280
     0
281
     0
  0
CLASS
  1
LAYOUT
  2
AcDbLayout
  3
ObjectDBX Classes
 90
        0
280
     0
281
     0
  0
CLASS
  1
MATERIAL
  2
AcDbMaterial
  3
ObjectDBX Classes
 90
     1153
280
     0
281
     0
  0
CLASS
  1
VISUALSTYLE
  2
AcDbVisualStyle
  3
ObjectDBX Classes
 90
     4095
280
     0
281
     0
  0
CLASS
  1
TABLESTYLE
  2
AcDbTableStyle
  3
ObjectDBX Classes
 90
     4095
280
     0
281
     0
  0
CLASS
  1
SCALE
  2
AcDbScale
  3
ObjectDBX Classes
 90
     1153
280
     0
281
     0
  0
CLASS
  1
MLEADERSTYLE
  2
AcDbMLeaderStyle
  3
ACDB_MLEADERSTYLE_CLASS
 90
     4095
280
     0
281
     0
  0
CLASS
  1
CELLSTYLEMAP
  2
AcDbCellStyleMap
  3
ObjectDBX Classes
 90
     1152
280
     0
281
     0
  0
CLASS
  1
DICTIONARYVAR
  2
AcDbDictionaryVar
  3
ObjectDBX Classes
 90
        0
280
     0
281
     0
  0
CLASS
  1
SORTENTSTABLE
  2
AcDbSortentsTable
  3
ObjectDBX Classes
 90
        0
280
     0
281
     0
  0
ENDSEC
  0
SECTION
  2
TABLES
  0
TABLE
  2
VPORT
  5
8
330
0
100
AcDbSymbolTable
 70
     1
  0
VPORT
  5
B69
330
8
100
AcDbSymbolTableRecord
100
AcDbViewportTableRecord
  2
*Active
 70
     0
 10
0.0
 20
0.0
 11
1.0
 21
1.0
 12
1258.002269323288
 22
151.5008215751212
 13
0.0
 23
0.0
 14
1.0
 24
1.0
 15
0.0
 25
0.0
 16
0.0
 26
0.0
 36
1.0
 17
0.0
 27
0.0
 37
0.0
 40
226.5989318139111
 41
2.082079343365253
 42
50.0
 43
0.0
 44
0.0
 50
0.0
 51
0.0
 71
    16
 72
   100
 73
     1
 74
     1
 75
     0
 76
     0
 77
     0
 78
     0
281
     0
 65
     1
110
0.0
120
0.0
130
0.0
111
1.0
121
0.0
131
0.0
112
0.0
122
1.0
132
0.0
 79
     0
146
0.0
  0
ENDTAB
  0
TABLE
  2
LTYPE
  5
5
330
0
100
AcDbSymbolTable
 70
     9
  0
LTYPE
  5
13
330
5
100
AcDbSymbolTableRecord
100
AcDbLinetypeTableRecord
  2
ByBlock
 70
     0
  3

 72
    65
 73
     0
 40
0.0
  0
LTYPE
  5
14
330
5
100
AcDbSymbolTableRecord
100
AcDbLinetypeTableRecord
  2
ByLayer
 70
     0
  3

 72
    65
 73
     0
 40
0.0
  0
LTYPE
  5
15
330
5
100
AcDbSymbolTableRecord
100
AcDbLinetypeTableRecord
  2
CONTINUOUS
 70
     0
  3
実線
 72
    65
 73
     0
 40
0.0
  0
LTYPE
  5
22
330
5
100
AcDbSymbolTableRecord
100
AcDbLinetypeTableRecord
  2
DASHED
 70
     0
  3
破線A
 72
    65
 73
     2
 40
7.5
 49
5.0
 74
     0
 49
-2.5
 74
     0
  0
LTYPE
  5
23
330
5
100
AcDbSymbolTableRecord
100
AcDbLinetypeTableRecord
  2
DASHEDX2
 70
     0
  3
破線B
 72
    65
 73
     2
 40
15.0
 49
10.0
 74
     0
 49
-5.0
 74
     0
  0
LTYPE
  5
24
330
5
100
AcDbSymbolTableRecord
100
AcDbLinetypeTableRecord
  2
DASHDOT
 70
     0
  3
１点鎖線A
 72
    65
 73
     4
 40
10.0
 49
5.0
 74
     0
 49
-2.5
 74
     0
 49
0.0
 74
     0
 49
-2.5
 74
     0
  0
LTYPE
  5
25
330
5
100
AcDbSymbolTableRecord
100
AcDbLinetypeTableRecord
  2
DASHDOTX2
 70
     0
  3
１点鎖線B
 72
    65
 73
     4
 40
20.0
 49
10.0
 74
     0
 49
-5.0
 74
     0
 49
0.0
 74
     0
 49
-5.0
 74
     0
  0
LTYPE
  5
26
330
5
100
AcDbSymbolTableRecord
100
AcDbLinetypeTableRecord
  2
DIVIDE2
 70
     0
  3
２点鎖線A
 72
    65
 73
     6
 40
6.25
 49
2.5
 74
     0
 49
-1.25
 74
     0
 49
0.0
 74
     0
 49
-1.25
 74
     0
 49
0.0
 74
     0
 49
-1.25
 74
     0
  0
LTYPE
  5
27
330
5
100
AcDbSymbolTableRecord
100
AcDbLinetypeTableRecord
  2
DIVIDE
 70
     0
  3
２点鎖線B
 72
    65
 73
     6
 40
12.5
 49
5.0
 74
     0
 49
-2.5
 74
     0
 49
0.0
 74
     0
 49
-2.5
 74
     0
 49
0.0
 74
     0
 49
-2.5
 74
     0
  0
LTYPE
  5
28
330
5
100
AcDbSymbolTableRecord
100
AcDbLinetypeTableRecord
  2
DOT
 70
     0
  3
点線A
 72
    65
 73
     2
 40
2.5
 49
0.0
 74
     0
 49
-2.5
 74
     0
  0
LTYPE
  5
29
330
5
100
AcDbSymbolTableRecord
100
AcDbLinetypeTableRecord
  2
DOTX2
 70
     0
  3
点線B
 72
    65
 73
     2
 40
5.0
 49
0.0
 74
     0
 49
-5.0
 74
     0
  0
ENDTAB
  0
TABLE
  2
LAYER
  5
2
102
{ACAD_XDICTIONARY
360
BF2
102
}
330
0
100
AcDbSymbolTable
 70
     7
  0
LAYER
  5
10
102
{ACAD_XDICTIONARY
360
B3B
102
}
330
2
100
AcDbSymbolTableRecord
100
AcDbLayerTableRecord
  2
0
 70
     0
 62
     7
  6
CONTINUOUS
370
    -3
390
F
  0
LAYER
  5
2A
102
{ACAD_XDICTIONARY
360
B3D
102
}
330
2
100
AcDbSymbolTableRecord
100
AcDbLayerTableRecord
  2
ﾚｲﾔ1
 70
     0
 62
     7
  6
CONTINUOUS
370
    -3
390
F
  0
LAYER
  5
31
102
{ACAD_XDICTIONARY
360
B3F
102
}
330
2
100
AcDbSymbolTableRecord
100
AcDbLayerTableRecord
  2
文字
 70
     0
 62
     7
  6
CONTINUOUS
370
    -3
390
F
  0
LAYER
  5
38
102
{ACAD_XDICTIONARY
360
B41
102
}
330
2
100
AcDbSymbolTableRecord
100
AcDbLayerTableRecord
  2
寸法
 70
     0
 62
     1
  6
CONTINUOUS
370
    -3
390
F
  0
LAYER
  5
A6A
330
2
100
AcDbSymbolTableRecord
100
AcDbLayerTableRecord
  2
Defpoints
 70
     0
 62
     7
  6
CONTINUOUS
290
     0
370
    -3
390
F
  0
LAYER
  5
B84
102
{ACAD_XDICTIONARY
360
B85
102
}
330
2
100
AcDbSymbolTableRecord
100
AcDbLayerTableRecord
  2
図面枠
 70
     0
 62
     5
  6
CONTINUOUS
370
    -3
390
F
  0
LAYER
  5
B87
102
{ACAD_XDICTIONARY
360
B88
102
}
330
2
100
AcDbSymbolTableRecord
100
AcDbLayerTableRecord
  2
下図
 70
     0
 62
     8
  6
DASHDOT
290
     0
370
    -3
390
F
  0
ENDTAB
  0
TABLE
  2
STYLE
  5
3
330
0
100
AcDbSymbolTable
 70
    13
  0
STYLE
  5
11
330
3
100
AcDbSymbolTableRecord
100
AcDbTextStyleTableRecord
  2
STANDARD
 70
     0
 40
1.0
 41
1.0
 50
0.0
 71
     0
 42
1.0
  3
TXT
  4
BIGFONT
  0
STYLE
  5
3B
330
3
100
AcDbSymbolTableRecord
100
AcDbTextStyleTableRecord
  2
TATE
 70
     4
 40
1.0
 41
1.0
 50
0.0
 71
     0
 42
1.0
  3
TXT
  4
BIGFONT
  0
STYLE
  5
3C
330
3
100
AcDbSymbolTableRecord
100
AcDbTextStyleTableRecord
  2
TEXTSTYLE01
 70
     0
 40
0.0
 41
1.0
 50
0.0
 71
     0
 42
0.0
  3
TXT
  4
BIGFONT
  0
STYLE
  5
3D
330
3
100
AcDbSymbolTableRecord
100
AcDbTextStyleTableRecord
  2
TEXTSTYLE02
 70
     0
 40
0.0
 41
1.0
 50
0.0
 71
     0
 42
0.0
  3
TXT
  4
BIGFONT
  0
STYLE
  5
3E
330
3
100
AcDbSymbolTableRecord
100
AcDbTextStyleTableRecord
  2
TEXTSTYLE03
 70
     0
 40
0.0
 41
1.0
 50
0.0
 71
     0
 42
0.0
  3
TXT
  4
BIGFONT
  0
STYLE
  5
3F
330
3
100
AcDbSymbolTableRecord
100
AcDbTextStyleTableRecord
  2
TEXTSTYLE04
 70
     0
 40
0.0
 41
1.0
 50
0.0
 71
     0
 42
0.0
  3
TXT
  4
BIGFONT
  0
STYLE
  5
40
330
3
100
AcDbSymbolTableRecord
100
AcDbTextStyleTableRecord
  2
TEXTSTYLE05
 70
     0
 40
0.0
 41
1.0
 50
0.0
 71
     0
 42
0.0
  3
TXT
  4
BIGFONT
  0
STYLE
  5
41
330
3
100
AcDbSymbolTableRecord
100
AcDbTextStyleTableRecord
  2
TEXTSTYLE06
 70
     0
 40
0.0
 41
1.0
 50
0.0
 71
     0
 42
0.0
  3

  4

  0
STYLE
  5
42
330
3
100
AcDbSymbolTableRecord
100
AcDbTextStyleTableRecord
  2
TEXTSTYLE07
 70
     0
 40
0.0
 41
1.0
 50
0.0
 71
     0
 42
0.0
  3

  4

  0
STYLE
  5
43
330
3
100
AcDbSymbolTableRecord
100
AcDbTextStyleTableRecord
  2
TEXTSTYLE08
 70
     0
 40
0.0
 41
1.0
 50
0.0
 71
     0
 42
0.0
  3

  4

  0
STYLE
  5
44
330
3
100
AcDbSymbolTableRecord
100
AcDbTextStyleTableRecord
  2
TEXTSTYLE09
 70
     0
 40
0.0
 41
1.0
 50
0.0
 71
     0
 42
0.0
  3

  4

  0
STYLE
  5
45
330
3
100
AcDbSymbolTableRecord
100
AcDbTextStyleTableRecord
  2
TEXTSTYLE10
 70
     0
 40
0.0
 41
1.0
 50
0.0
 71
     0
 42
0.0
  3

  4

  0
STYLE
  5
B8E
330
3
100
AcDbSymbolTableRecord
100
AcDbTextStyleTableRecord
  2
DIMFONT1
 70
     0
 40
0.0
 41
1.193548387096774
 50
0.0
 71
     0
 42
1.0
  3
msgothic.ttc
  4

1001
ACAD
1000
MS PGothic
1071
    32818
  0
ENDTAB
  0
TABLE
  2
VIEW
  5
6
330
0
100
AcDbSymbolTable
 70
     0
  0
ENDTAB
  0
TABLE
  2
UCS
  5
7
330
0
100
AcDbSymbolTable
 70
     0
  0
ENDTAB
  0
TABLE
  2
APPID
  5
9
330
0
100
AcDbSymbolTable
 70
     4
  0
APPID
  5
12
330
9
100
AcDbSymbolTableRecord
100
AcDbRegAppTableRecord
  2
ACAD
 70
     0
  0
APPID
  5
B37
330
9
100
AcDbSymbolTableRecord
100
AcDbRegAppTableRecord
  2
ACAD_MLEADERVER
 70
     0
  0
APPID
  5
B90
330
9
100
AcDbSymbolTableRecord
100
AcDbRegAppTableRecord
  2
ACAD_NAV_VCDISPLAY
 70
     0
  0
APPID
  5
D86
330
9
100
AcDbSymbolTableRecord
100
AcDbRegAppTableRecord
  2
PLOTTRANSPARENCY
 70
     0
  0
ENDTAB
  0
TABLE
  2
DIMSTYLE
  5
A
330
0
100
AcDbSymbolTable
 70
     3
100
AcDbDimStyleTable
  0
DIMSTYLE
105
9F2
102
{ACAD_REACTORS
330
A69
330
A80
330
AA3
330
AB0
330
ABD
330
AC9
102
}
330
A
100
AcDbSymbolTableRecord
100
AcDbDimStyleTableRecord
  2
Standard
 70
     0
 41
3.0
 42
0.5
 44
0.5
 73
     0
 74
     0
 77
     1
140
5.0
147
1.0
176
     1
177
     1
271
     0
178
     1
271
     0
272
     0
340
3C
341
A62
342
A62
  0
DIMSTYLE
105
B8D
330
A
100
AcDbSymbolTableRecord
100
AcDbDimStyleTableRecord
  2
DIM001
 70
     0
 40
10.0
 41
1.0
 42
0.0
 44
1.0
 45
1.0
 73
     0
 74
     0
 77
     3
140
1.216216216216216
147
0.2
172
     1
176
     7
177
     7
271
     0
178
     7
271
     0
273
     6
340
B8E
  0
DIMSTYLE
105
B8F
330
A
100
AcDbSymbolTableRecord
100
AcDbDimStyleTableRecord
  2
DIM002
 70
     0
 40
10.0
 41
1.0
 42
0.0
 44
0.0
 45
1.0
 73
     0
 74
     0
 77
     3
140
1.216216216216216
147
0.2
172
     1
176
     7
177
     7
271
     0
178
     7
271
     0
273
     6
340
B8E
  0
ENDTAB
  0
TABLE
  2
BLOCK_RECORD
  5
1
330
0
100
AcDbSymbolTable
 70
     8
  0
BLOCK_RECORD
  5
1E
102
{ACAD_XDICTIONARY
360
D87
102
}
330
1
100
AcDbSymbolTableRecord
100
AcDbBlockTableRecord
  2
*Model_Space
340
21
  0
BLOCK_RECORD
  5
1A
330
1
100
AcDbSymbolTableRecord
100
AcDbBlockTableRecord
  2
*Paper_Space
340
1D
  0
BLOCK_RECORD
  5
49
330
1
100
AcDbSymbolTableRecord
100
AcDbBlockTableRecord
  2
*U0
340
0
102
{BLKREFS
331
9EB
102
}
  0
BLOCK_RECORD
  5
A62
330
1
100
AcDbSymbolTableRecord
100
AcDbBlockTableRecord
  2
_Open30
340
0
102
{BLKREFS
331
A7A
331
A7B
331
A9D
331
A9E
331
AA8
331
AA9
331
AB5
331
AB6
331
AC2
331
AC3
331
ACE
331
ACF
102
}
  0
BLOCK_RECORD
  5
A6B
330
1
100
AcDbSymbolTableRecord
100
AcDbBlockTableRecord
  2
*D2
340
0
  0
BLOCK_RECORD
  5
A81
330
1
100
AcDbSymbolTableRecord
100
AcDbBlockTableRecord
  2
*D3
340
0
  0
BLOCK_RECORD
  5
AA4
330
1
100
AcDbSymbolTableRecord
100
AcDbBlockTableRecord
  2
*D4
340
0
  0
BLOCK_RECORD
  5
AB1
330
1
100
AcDbSymbolTableRecord
100
AcDbBlockTableRecord
  2
*D5
340
0
  0
BLOCK_RECORD
  5
ABE
330
1
100
AcDbSymbolTableRecord
100
AcDbBlockTableRecord
  2
*D6
340
0
  0
BLOCK_RECORD
  5
ACA
330
1
100
AcDbSymbolTableRecord
100
AcDbBlockTableRecord
  2
*D7
340
0
  0
ENDTAB
  0
ENDSEC
  0
SECTION
  2
BLOCKS
  0
BLOCK
  5
1F
330
1E
100
AcDbEntity
  8
0
100
AcDbBlockBegin
  2
*Model_Space
 70
     0
 10
0.0
 20
0.0
 30
0.0
  3
*Model_Space
  1

  0
ENDBLK
  5
20
330
1E
100
AcDbEntity
  8
0
100
AcDbBlockEnd
  0
BLOCK
  5
1B
330
1A
100
AcDbEntity
 67
     1
  8
0
100
AcDbBlockBegin
  2
*Paper_Space
 70
     0
 10
0.0
 20
0.0
 30
0.0
  3
*Paper_Space
  1

  0
ENDBLK
  5
1C
330
1A
100
AcDbEntity
 67
     1
  8
0
100
AcDbBlockEnd
  0
BLOCK
  5
4A
330
49
100
AcDbEntity
  8
0
100
AcDbBlockBegin
  2
*U0
 70
     1
 10
0.0
 20
0.0
 30
0.0
  3
*U0
  1

  0
LWPOLYLINE
  5
4B
330
49
100
AcDbEntity
  8
寸法
100
AcDbPolyline
 90
        3
 70
     0
 43
0.0
 10
138.483073
 20
33.092742
 10
141.479623
 20
32.948925
 10
138.956443
 20
34.57175
  0
LINE
  5
50
330
49
100
AcDbEntity
  8
寸法
100
AcDbLine
 10
141.479623
 20
32.948925
 30
0.0
 11
111.481378
 21
42.550143
 31
0.0
  0
ENDBLK
  5
51
330
49
100
AcDbEntity
  8
0
100
AcDbBlockEnd
  0
BLOCK
  5
A66
330
A62
100
AcDbEntity
  8
0
100
AcDbBlockBegin
  2
_Open30
 70
     0
 10
0.0
 20
0.0
 30
0.0
  3
_Open30
  1

  0
LINE
  5
A63
330
A62
100
AcDbEntity
  8
寸法
  6
Continuous
 62
     0
370
    -2
100
AcDbLine
 10
-1.0
 20
0.26794919
 30
0.0
 11
0.0
 21
0.0
 31
0.0
  0
LINE
  5
A64
330
A62
100
AcDbEntity
  8
寸法
  6
Continuous
 62
     0
370
    -2
100
AcDbLine
 10
0.0
 20
0.0
 30
0.0
 11
-1.0
 21
-0.26794919
 31
0.0
  0
LINE
  5
A65
330
A62
100
AcDbEntity
  8
寸法
  6
Continuous
 62
     0
370
    -2
100
AcDbLine
 10
0.0
 20
0.0
 30
0.0
 11
-1.0
 21
0.0
 31
0.0
  0
ENDBLK
  5
A67
330
A62
100
AcDbEntity
  8
0
100
AcDbBlockEnd
  0
BLOCK
  5
A75
330
A6B
100
AcDbEntity
  8
0
100
AcDbBlockBegin
  2
*D2
 70
     1
 10
0.0
 20
0.0
 30
0.0
  3
*D2
  1

  0
LINE
  5
A77
330
A6B
100
AcDbEntity
  8
寸法
  6
Continuous
 62
     1
370
    -2
100
AcDbLine
 10
1018.262512313618
 20
110.8504616843936
 30
0.0
 11
1006.587606551285
 21
110.8504616843936
 31
0.0
  0
LINE
  5
A78
330
A6B
100
AcDbEntity
  8
寸法
  6
Continuous
 62
     1
370
    -2
100
AcDbLine
 10
1018.262512313618
 20
53.85046168439361
 30
0.0
 11
1006.587606551285
 21
53.85046168439361
 31
0.0
  0
LINE
  5
A79
330
A6B
100
AcDbEntity
  8
寸法
  6
Continuous
 62
     1
370
    -2
100
AcDbLine
 10
1007.087606551285
 20
107.8504616843936
 30
0.0
 11
1007.087606551285
 21
56.85046168439361
 31
0.0
  0
INSERT
  5
A7A
330
A6B
100
AcDbEntity
  8
寸法
 62
     1
370
    -2
100
AcDbBlockReference
  2
_Open30
 10
1007.087606551285
 20
110.8504616843936
 30
0.0
 41
3.0
 42
3.0
 43
3.0
 50
90.0
  0
INSERT
  5
A7B
330
A6B
100
AcDbEntity
  8
寸法
 62
     1
370
    -2
100
AcDbBlockReference
  2
_Open30
 10
1007.087606551285
 20
53.85046168439361
 30
0.0
 41
3.0
 42
3.0
 43
3.0
 50
270.0
  0
MTEXT
  5
A7C
330
A6B
100
AcDbEntity
  8
寸法
  6
Continuous
 62
     1
100
AcDbMText
 10
1003.587606551285
 20
82.35046168439361
 30
0.0
 40
5.0
 41
0.0
 71
     5
 72
     1
  1
\A1;φ57
  7
TEXTSTYLE01
 11
0.0
 21
1.0
 31
0.0
 73
     1
 44
1.0
  0
POINT
  5
A7D
330
A6B
100
AcDbEntity
  8
Defpoints
 62
     0
100
AcDbPoint
 10
1018.762512313618
 20
110.8504616843936
 30
0.0
  0
POINT
  5
A7E
330
A6B
100
AcDbEntity
  8
Defpoints
 62
     0
100
AcDbPoint
 10
1018.762512313618
 20
53.85046168439361
 30
0.0
  0
POINT
  5
A7F
330
A6B
100
AcDbEntity
  8
Defpoints
 62
     0
100
AcDbPoint
 10
1007.087606551285
 20
53.85046168439361
 30
0.0
  0
ENDBLK
  5
A76
330
A6B
100
AcDbEntity
  8
0
100
AcDbBlockEnd
  0
BLOCK
  5
A8B
330
A81
100
AcDbEntity
  8
0
100
AcDbBlockBegin
  2
*D3
 70
     1
 10
0.0
 20
0.0
 30
0.0
  3
*D3
  1

  0
LINE
  5
A9C
330
A81
100
AcDbEntity
  8
寸法
  6
Continuous
 62
     1
370
    -2
100
AcDbLine
 10
1150.761992747782
 20
107.5504616843936
 30
0.0
 11
1150.761992747782
 21
57.15046168439361
 31
0.0
  0
INSERT
  5
A9D
330
A81
100
AcDbEntity
  8
寸法
 62
     1
370
    -2
100
AcDbBlockReference
  2
_Open30
 10
1150.761992747782
 20
110.5504616843936
 30
0.0
 41
3.0
 42
3.0
 43
3.0
 50
90.0
  0
INSERT
  5
A9E
330
A81
100
AcDbEntity
  8
寸法
 62
     1
370
    -2
100
AcDbBlockReference
  2
_Open30
 10
1150.761992747782
 20
54.15046168439361
 30
0.0
 41
3.0
 42
3.0
 43
3.0
 50
270.0
  0
MTEXT
  5
A9F
330
A81
100
AcDbEntity
  8
寸法
  6
Continuous
 62
     1
100
AcDbMText
 10
1147.261992747782
 20
82.35046168439361
 30
0.0
 40
5.0
 41
0.0
 71
     5
 72
     1
  1
\A1;φ56
  7
TEXTSTYLE01
 11
0.0
 21
1.0
 31
0.0
 73
     1
 44
1.0
  0
POINT
  5
AA0
330
A81
100
AcDbEntity
  8
Defpoints
 62
     0
100
AcDbPoint
 10
1142.845149313618
 20
110.5504616843936
 30
0.0
  0
POINT
  5
AA1
330
A81
100
AcDbEntity
  8
Defpoints
 62
     0
100
AcDbPoint
 10
1142.845149313618
 20
54.15046168439361
 30
0.0
  0
POINT
  5
AA2
330
A81
100
AcDbEntity
  8
Defpoints
 62
     0
100
AcDbPoint
 10
1150.761992747782
 20
54.15046168439361
 30
0.0
  0
ENDBLK
  5
A8C
330
A81
100
AcDbEntity
  8
0
100
AcDbBlockEnd
  0
BLOCK
  5
AAE
330
AA4
100
AcDbEntity
  8
0
100
AcDbBlockBegin
  2
*D4
 70
     1
 10
0.0
 20
0.0
 30
0.0
  3
*D4
  1

  0
LINE
  5
AA5
330
AA4
100
AcDbEntity
  8
寸法
  6
Continuous
 62
     1
370
    -2
100
AcDbLine
 10
1017.060384313618
 20
109.0704616843936
 30
0.0
 11
1017.060384313618
 21
137.5335166843936
 31
0.0
  0
LINE
  5
AA6
330
AA4
100
AcDbEntity
  8
寸法
  6
Continuous
 62
     1
370
    -2
100
AcDbLine
 10
1057.060384313618
 20
109.0504616843936
 30
0.0
 11
1057.060384313618
 21
137.5335166843936
 31
0.0
  0
LINE
  5
AA7
330
AA4
100
AcDbEntity
  8
寸法
  6
Continuous
 62
     1
370
    -2
100
AcDbLine
 10
1020.060384313618
 20
137.0335166843936
 30
0.0
 11
1054.060384313618
 21
137.0335166843936
 31
0.0
  0
INSERT
  5
AA8
330
AA4
100
AcDbEntity
  8
寸法
 62
     1
370
    -2
100
AcDbBlockReference
  2
_Open30
 10
1017.060384313618
 20
137.0335166843936
 30
0.0
 41
3.0
 42
3.0
 43
3.0
 50
180.0
  0
INSERT
  5
AA9
330
AA4
100
AcDbEntity
  8
寸法
 62
     1
370
    -2
100
AcDbBlockReference
  2
_Open30
 10
1057.060384313618
 20
137.0335166843936
 30
0.0
 41
3.0
 42
3.0
 43
3.0
  0
MTEXT
  5
AAA
330
AA4
100
AcDbEntity
  8
寸法
  6
Continuous
 62
     1
100
AcDbMText
 10
1037.060384313618
 20
140.5335166843936
 30
0.0
 40
5.0
 41
0.0
 71
     5
 72
     1
  1
\A1;40
  7
TEXTSTYLE01
 73
     1
 44
1.0
  0
POINT
  5
AAB
330
AA4
100
AcDbEntity
  8
Defpoints
 62
     0
100
AcDbPoint
 10
1017.060384313618
 20
108.5704616843936
 30
0.0
  0
POINT
  5
AAC
330
AA4
100
AcDbEntity
  8
Defpoints
 62
     0
100
AcDbPoint
 10
1057.060384313618
 20
108.5504616843936
 30
0.0
  0
POINT
  5
AAD
330
AA4
100
AcDbEntity
  8
Defpoints
 62
     0
100
AcDbPoint
 10
1057.060384313618
 20
137.0335166843936
 30
0.0
  0
ENDBLK
  5
AAF
330
AA4
100
AcDbEntity
  8
0
100
AcDbBlockEnd
  0
BLOCK
  5
ABB
330
AB1
100
AcDbEntity
  8
0
100
AcDbBlockBegin
  2
*D5
 70
     1
 10
0.0
 20
0.0
 30
0.0
  3
*D5
  1

  0
LINE
  5
AB2
330
AB1
100
AcDbEntity
  8
寸法
  6
Continuous
 62
     1
370
    -2
100
AcDbLine
 10
1057.060384313618
 20
109.0504616843936
 30
0.0
 11
1057.060384313618
 21
137.5335166843936
 31
0.0
  0
LINE
  5
AB3
330
AB1
100
AcDbEntity
  8
寸法
  6
Continuous
 62
     1
370
    -2
100
AcDbLine
 10
1226.060384313618
 20
115.2203886843936
 30
0.0
 11
1226.060384313618
 21
137.5335166843936
 31
0.0
  0
LINE
  5
AB4
330
AB1
100
AcDbEntity
  8
寸法
  6
Continuous
 62
     1
370
    -2
100
AcDbLine
 10
1060.060384313618
 20
137.0335166843936
 30
0.0
 11
1223.060384313618
 21
137.0335166843936
 31
0.0
  0
INSERT
  5
AB5
330
AB1
100
AcDbEntity
  8
寸法
 62
     1
370
    -2
100
AcDbBlockReference
  2
_Open30
 10
1057.060384313618
 20
137.0335166843936
 30
0.0
 41
3.0
 42
3.0
 43
3.0
 50
180.0
  0
INSERT
  5
AB6
330
AB1
100
AcDbEntity
  8
寸法
 62
     1
370
    -2
100
AcDbBlockReference
  2
_Open30
 10
1226.060384313618
 20
137.0335166843936
 30
0.0
 41
3.0
 42
3.0
 43
3.0
  0
MTEXT
  5
AB7
330
AB1
100
AcDbEntity
  8
寸法
  6
Continuous
 62
     1
100
AcDbMText
 10
1141.560384313618
 20
140.5335166843936
 30
0.0
 40
5.0
 41
0.0
 71
     5
 72
     1
  1
\A1;169
  7
TEXTSTYLE01
 73
     1
 44
1.0
  0
POINT
  5
AB8
330
AB1
100
AcDbEntity
  8
Defpoints
 62
     0
100
AcDbPoint
 10
1057.060384313618
 20
108.5504616843936
 30
0.0
  0
POINT
  5
AB9
330
AB1
100
AcDbEntity
  8
Defpoints
 62
     0
100
AcDbPoint
 10
1226.060384313618
 20
114.7203886843936
 30
0.0
  0
POINT
  5
ABA
330
AB1
100
AcDbEntity
  8
Defpoints
 62
     0
100
AcDbPoint
 10
1226.060384313618
 20
137.0335166843936
 30
0.0
  0
ENDBLK
  5
ABC
330
AB1
100
AcDbEntity
  8
0
100
AcDbBlockEnd
  0
BLOCK
  5
AC7
330
ABE
100
AcDbEntity
  8
0
100
AcDbBlockBegin
  2
*D6
 70
     1
 10
0.0
 20
0.0
 30
0.0
  3
*D6
  1

  0
LINE
  5
ABF
330
ABE
100
AcDbEntity
  8
寸法
  6
Continuous
 62
     1
370
    -2
100
AcDbLine
 10
1226.060384313618
 20
137.5335166843936
 30
0.0
 11
1226.060384313618
 21
137.5335166843936
 31
0.0
  0
LINE
  5
AC0
330
ABE
100
AcDbEntity
  8
寸法
  6
Continuous
 62
     1
370
    -2
100
AcDbLine
 10
1251.060384313618
 20
109.0504616843936
 30
0.0
 11
1251.060384313618
 21
137.5335166843936
 31
0.0
  0
LINE
  5
AC1
330
ABE
100
AcDbEntity
  8
寸法
  6
Continuous
 62
     1
370
    -2
100
AcDbLine
 10
1229.060384313618
 20
137.0335166843936
 30
0.0
 11
1248.060384313618
 21
137.0335166843936
 31
0.0
  0
INSERT
  5
AC2
330
ABE
100
AcDbEntity
  8
寸法
 62
     1
370
    -2
100
AcDbBlockReference
  2
_Open30
 10
1226.060384313618
 20
137.0335166843936
 30
0.0
 41
3.0
 42
3.0
 43
3.0
 50
180.0
  0
INSERT
  5
AC3
330
ABE
100
AcDbEntity
  8
寸法
 62
     1
370
    -2
100
AcDbBlockReference
  2
_Open30
 10
1251.060384313618
 20
137.0335166843936
 30
0.0
 41
3.0
 42
3.0
 43
3.0
  0
MTEXT
  5
AC4
330
ABE
100
AcDbEntity
  8
寸法
  6
Continuous
 62
     1
100
AcDbMText
 10
1238.560384313618
 20
140.5335166843936
 30
0.0
 40
5.0
 41
0.0
 71
     5
 72
     1
  1
\A1;25
  7
TEXTSTYLE01
 73
     1
 44
1.0
  0
POINT
  5
AC5
330
ABE
100
AcDbEntity
  8
Defpoints
 62
     0
100
AcDbPoint
 10
1226.060384313618
 20
137.0335166843936
 30
0.0
  0
POINT
  5
AC6
330
ABE
100
AcDbEntity
  8
Defpoints
 62
     0
100
AcDbPoint
 10
1251.060384313618
 20
108.5504616843936
 30
0.0
  0
POINT
  5
C4D
330
ABE
100
AcDbEntity
  8
Defpoints
 62
     0
100
AcDbPoint
 10
1251.060384313618
 20
137.0335166843936
 30
0.0
  0
ENDBLK
  5
AC8
330
ABE
100
AcDbEntity
  8
0
100
AcDbBlockEnd
  0
BLOCK
  5
AD4
330
ACA
100
AcDbEntity
  8
0
100
AcDbBlockBegin
  2
*D7
 70
     1
 10
0.0
 20
0.0
 30
0.0
  3
*D7
  1

  0
LINE
  5
ACB
330
ACA
100
AcDbEntity
  8
寸法
  6
Continuous
 62
     1
370
    -2
100
AcDbLine
 10
1017.060384313618
 20
137.4914136843936
 30
0.0
 11
1017.060384313618
 21
148.0085841014995
 31
0.0
  0
LINE
  5
ACC
330
ACA
100
AcDbEntity
  8
寸法
  6
Continuous
 62
     1
370
    -2
100
AcDbLine
 10
1251.060384313618
 20
137.4914136843936
 30
0.0
 11
1251.060384313618
 21
148.0085841014995
 31
0.0
  0
LINE
  5
ACD
330
ACA
100
AcDbEntity
  8
寸法
  6
Continuous
 62
     1
370
    -2
100
AcDbLine
 10
1020.060384313618
 20
147.5085841014995
 30
0.0
 11
1248.060384313618
 21
147.5085841014995
 31
0.0
  0
INSERT
  5
ACE
330
ACA
100
AcDbEntity
  8
寸法
 62
     1
370
    -2
100
AcDbBlockReference
  2
_Open30
 10
1017.060384313618
 20
147.5085841014995
 30
0.0
 41
3.0
 42
3.0
 43
3.0
 50
180.0
  0
INSERT
  5
ACF
330
ACA
100
AcDbEntity
  8
寸法
 62
     1
370
    -2
100
AcDbBlockReference
  2
_Open30
 10
1251.060384313618
 20
147.5085841014995
 30
0.0
 41
3.0
 42
3.0
 43
3.0
  0
MTEXT
  5
AD0
330
ACA
100
AcDbEntity
  8
寸法
  6
Continuous
 62
     1
100
AcDbMText
 10
1134.060384313618
 20
151.0085841014995
 30
0.0
 40
5.0
 41
0.0
 71
     5
 72
     1
  1
\A1;234
  7
TEXTSTYLE01
 73
     1
 44
1.0
  0
POINT
  5
AD1
330
ACA
100
AcDbEntity
  8
Defpoints
 62
     0
100
AcDbPoint
 10
1017.060384313618
 20
136.9914136843936
 30
0.0
  0
POINT
  5
AD2
330
ACA
100
AcDbEntity
  8
Defpoints
 62
     0
100
AcDbPoint
 10
1251.060384313618
 20
136.9914136843936
 30
0.0
  0
POINT
  5
AD3
330
ACA
100
AcDbEntity
  8
Defpoints
 62
     0
100
AcDbPoint
 10
1251.060384313618
 20
147.5085841014995
 30
0.0
  0
ENDBLK
  5
AD5
330
ACA
100
AcDbEntity
  8
0
100
AcDbBlockEnd
  0
ENDSEC
  0
SECTION
  2
ENTITIES
  0
LINE
  5
118
330
1E
100
AcDbEntity
  8
ﾚｲﾔ1
  6
Continuous
100
AcDbLine
 10
1066.060384313618
 20
108.5504616843936
 30
0.0
 11
1066.060384313618
 21
82.35046168439361
 31
0.0
  0
LINE
  5
119
330
1E
100
AcDbEntity
  8
ﾚｲﾔ1
  6
Continuous
100
AcDbLine
 10
1064.060384313618
 20
110.5504616843936
 30
0.0
 11
1064.060384313618
 21
82.35046168439361
 31
0.0
  0
LINE
  5
11A
330
1E
100
AcDbEntity
  8
ﾚｲﾔ1
  6
Continuous
100
AcDbLine
 10
1059.060384313618
 20
110.5504616843936
 30
0.0
 11
1059.060384313618
 21
82.35046168439361
 31
0.0
  0
LINE
  5
11B
330
1E
100
AcDbEntity
  8
ﾚｲﾔ1
  6
Continuous
100
AcDbLine
 10
1057.060384313618
 20
97.35046168439361
 30
0.0
 11
1057.060384313618
 21
82.35046168439361
 31
0.0
  0
LINE
  5
11C
330
1E
100
AcDbEntity
  8
ﾚｲﾔ1
  6
Continuous
100
AcDbLine
 10
1089.060384313618
 20
110.5504616843936
 30
0.0
 11
1089.060384313618
 21
82.35046168439361
 31
0.0
  0
LINE
  5
11D
330
1E
100
AcDbEntity
  8
ﾚｲﾔ1
  6
Continuous
100
AcDbLine
 10
1066.060384313618
 20
108.5504616843936
 30
0.0
 11
1091.060384313618
 21
108.5504616843936
 31
0.0
  0
LINE
  5
11E
330
1E
100
AcDbEntity
  8
ﾚｲﾔ1
  6
Continuous
100
AcDbLine
 10
1249.060384313618
 20
110.5504616843936
 30
0.0
 11
1249.060384313618
 21
82.35046168439361
 31
0.0
  0
LINE
  5
11F
330
1E
100
AcDbEntity
  8
ﾚｲﾔ1
  6
Continuous
100
AcDbLine
 10
1249.060384313618
 20
54.15046168439361
 30
0.0
 11
1249.060384313618
 21
82.35046168439361
 31
0.0
  0
LINE
  5
120
330
1E
100
AcDbEntity
  8
ﾚｲﾔ1
  6
Continuous
100
AcDbLine
 10
1089.060384313618
 20
54.15046168439361
 30
0.0
 11
1089.060384313618
 21
82.35046168439361
 31
0.0
  0
LINE
  5
121
330
1E
100
AcDbEntity
  8
ﾚｲﾔ1
  6
Continuous
100
AcDbLine
 10
1091.060384313618
 20
56.15046168439361
 30
0.0
 11
1093.060384313618
 21
54.15046168439361
 31
0.0
  0
LINE
  5
122
330
1E
100
AcDbEntity
  8
ﾚｲﾔ1
  6
Continuous
100
AcDbLine
 10
1064.060384313618
 20
54.15046168439361
 30
0.0
 11
1064.060384313618
 21
82.35046168439361
 31
0.0
  0
LINE
  5
123
330
1E
100
AcDbEntity
  8
ﾚｲﾔ1
  6
Continuous
100
AcDbLine
 10
1059.060384313618
 20
54.15046168439361
 30
0.0
 11
1059.060384313618
 21
82.35046168439361
 31
0.0
  0
LINE
  5
124
330
1E
100
AcDbEntity
  8
ﾚｲﾔ1
  6
Continuous
100
AcDbLine
 10
1057.060384313618
 20
67.35046168439361
 30
0.0
 11
1057.060384313618
 21
82.35046168439361
 31
0.0
  0
LINE
  5
125
330
1E
100
AcDbEntity
  8
ﾚｲﾔ1
  6
Continuous
100
AcDbLine
 10
1066.060384313618
 20
56.15046168439361
 30
0.0
 11
1091.060384313618
 21
56.15046168439361
 31
0.0
  0
LINE
  5
126
330
1E
100
AcDbEntity
  8
ﾚｲﾔ1
  6
Continuous
100
AcDbLine
 10
1093.060384313618
 20
54.15046168439361
 30
0.0
 11
1249.060384313618
 21
54.15046168439361
 31
0.0
  0
LINE
  5
127
330
1E
100
AcDbEntity
  8
ﾚｲﾔ1
  6
Continuous
100
AcDbLine
 10
1066.060384313618
 20
82.35046168439361
 30
0.0
 11
1066.060384313618
 21
56.15046168439361
 31
0.0
  0
LINE
  5
128
330
1E
100
AcDbEntity
  8
ﾚｲﾔ1
  6
Continuous
100
AcDbLine
 10
1057.060384313618
 20
97.35046168439361
 30
0.0
 11
1057.060384313618
 21
108.5504616843936
 31
0.0
  0
LINE
  5
129
330
1E
100
AcDbEntity
  8
ﾚｲﾔ1
  6
Continuous
100
AcDbLine
 10
1057.060384313618
 20
108.5504616843936
 30
0.0
 11
1059.060384313618
 21
110.5504616843936
 31
0.0
  0
LINE
  5
12A
330
1E
100
AcDbEntity
  8
ﾚｲﾔ1
  6
Continuous
100
AcDbLine
 10
1059.060384313618
 20
110.5504616843936
 30
0.0
 11
1064.060384313618
 21
110.5504616843936
 31
0.0
  0
LINE
  5
12B
330
1E
100
AcDbEntity
  8
ﾚｲﾔ1
  6
Continuous
100
AcDbLine
 10
1064.060384313618
 20
110.5504616843936
 30
0.0
 11
1066.060384313618
 21
108.5504616843936
 31
0.0
  0
LINE
  5
12C
330
1E
100
AcDbEntity
  8
ﾚｲﾔ1
  6
Continuous
100
AcDbLine
 10
1066.060384313618
 20
108.5504616843936
 30
0.0
 11
1068.060384313618
 21
110.5504616843936
 31
0.0
  0
LINE
  5
12D
330
1E
100
AcDbEntity
  8
ﾚｲﾔ1
  6
Continuous
100
AcDbLine
 10
1068.060384313618
 20
110.5504616843936
 30
0.0
 11
1068.060384313618
 21
82.35046168439361
 31
0.0
  0
LINE
  5
12E
330
1E
100
AcDbEntity
  8
ﾚｲﾔ1
  6
Continuous
100
AcDbLine
 10
1068.060384313618
 20
110.5504616843936
 30
0.0
 11
1089.060384313618
 21
110.5504616843936
 31
0.0
  0
LINE
  5
12F
330
1E
100
AcDbEntity
  8
ﾚｲﾔ1
  6
Continuous
100
AcDbLine
 10
1089.060384313618
 20
110.5504616843936
 30
0.0
 11
1091.060384313618
 21
108.5504616843936
 31
0.0
  0
LINE
  5
130
330
1E
100
AcDbEntity
  8
ﾚｲﾔ1
  6
Continuous
100
AcDbLine
 10
1091.060384313618
 20
108.5504616843936
 30
0.0
 11
1091.060384313618
 21
82.35046168439361
 31
0.0
  0
LINE
  5
131
330
1E
100
AcDbEntity
  8
ﾚｲﾔ1
  6
Continuous
100
AcDbLine
 10
1091.060384313618
 20
108.5504616843936
 30
0.0
 11
1093.060384313618
 21
110.5504616843936
 31
0.0
  0
LINE
  5
132
330
1E
100
AcDbEntity
  8
ﾚｲﾔ1
  6
Continuous
100
AcDbLine
 10
1249.060384313618
 20
110.5504616843936
 30
0.0
 11
1251.060384313618
 21
108.5504616843936
 31
0.0
  0
LINE
  5
133
330
1E
100
AcDbEntity
  8
ﾚｲﾔ1
  6
Continuous
100
AcDbLine
 10
1251.060384313618
 20
108.5504616843936
 30
0.0
 11
1251.060384313618
 21
82.35046168439361
 31
0.0
  0
LINE
  5
134
330
1E
100
AcDbEntity
  8
ﾚｲﾔ1
  6
Continuous
100
AcDbLine
 10
1249.060384313618
 20
54.15046168439361
 30
0.0
 11
1251.060384313618
 21
56.15046168439361
 31
0.0
  0
LINE
  5
135
330
1E
100
AcDbEntity
  8
ﾚｲﾔ1
  6
Continuous
100
AcDbLine
 10
1251.060384313618
 20
56.15046168439361
 30
0.0
 11
1251.060384313618
 21
82.35046168439361
 31
0.0
  0
LINE
  5
136
330
1E
100
AcDbEntity
  8
ﾚｲﾔ1
  6
Continuous
100
AcDbLine
 10
1068.060384313618
 20
54.15046168439361
 30
0.0
 11
1089.060384313618
 21
54.15046168439361
 31
0.0
  0
LINE
  5
137
330
1E
100
AcDbEntity
  8
ﾚｲﾔ1
  6
Continuous
100
AcDbLine
 10
1089.060384313618
 20
54.15046168439361
 30
0.0
 11
1091.060384313618
 21
56.15046168439361
 31
0.0
  0
LINE
  5
138
330
1E
100
AcDbEntity
  8
ﾚｲﾔ1
  6
Continuous
100
AcDbLine
 10
1091.060384313618
 20
56.15046168439361
 30
0.0
 11
1091.060384313618
 21
82.35046168439361
 31
0.0
  0
LINE
  5
139
330
1E
100
AcDbEntity
  8
ﾚｲﾔ1
  6
Continuous
100
AcDbLine
 10
1057.060384313618
 20
67.35046168439361
 30
0.0
 11
1057.060384313618
 21
56.15046168439361
 31
0.0
  0
LINE
  5
13A
330
1E
100
AcDbEntity
  8
ﾚｲﾔ1
  6
Continuous
100
AcDbLine
 10
1057.060384313618
 20
56.15046168439361
 30
0.0
 11
1059.060384313618
 21
54.15046168439361
 31
0.0
  0
LINE
  5
13B
330
1E
100
AcDbEntity
  8
ﾚｲﾔ1
  6
Continuous
100
AcDbLine
 10
1059.060384313618
 20
54.15046168439361
 30
0.0
 11
1064.060384313618
 21
54.15046168439361
 31
0.0
  0
LINE
  5
13C
330
1E
100
AcDbEntity
  8
ﾚｲﾔ1
  6
Continuous
100
AcDbLine
 10
1064.060384313618
 20
54.15046168439361
 30
0.0
 11
1066.060384313618
 21
56.15046168439361
 31
0.0
  0
LINE
  5
13D
330
1E
100
AcDbEntity
  8
ﾚｲﾔ1
  6
Continuous
100
AcDbLine
 10
1066.060384313618
 20
56.15046168439361
 30
0.0
 11
1068.060384313618
 21
54.15046168439361
 31
0.0
  0
LINE
  5
13E
330
1E
100
AcDbEntity
  8
ﾚｲﾔ1
  6
Continuous
100
AcDbLine
 10
1068.060384313618
 20
54.15046168439361
 30
0.0
 11
1068.060384313618
 21
82.35046168439361
 31
0.0
  0
LINE
  5
8A3
330
1E
100
AcDbEntity
  8
ﾚｲﾔ1
  6
DASHDOT
100
AcDbLine
 10
911.5353843136176
 20
82.35046168439361
 30
0.0
 11
1265.110384313617
 21
82.35046168439361
 31
0.0
  0
LINE
  5
991
330
1E
100
AcDbEntity
  8
ﾚｲﾔ1
  6
DASHDOT
100
AcDbLine
 10
951.5353843136176
 20
44.91119368439361
 30
0.0
 11
951.5353843136176
 21
134.8321946843936
 31
0.0
  0
LINE
  5
992
330
1E
100
AcDbEntity
  8
ﾚｲﾔ1
  6
Continuous
100
AcDbLine
 10
1132.435384313618
 20
110.5504616843936
 30
0.0
 11
1249.060384313618
 21
110.5504616843936
 31
0.0
  0
LINE
  5
993
330
1E
100
AcDbEntity
  8
ﾚｲﾔ1
  6
DASHED
100
AcDbLine
 10
1219.010384313618
 20
95.75046168439361
 30
0.0
 11
1226.060384313618
 21
92.75046168439361
 31
0.0
  0
LINE
  5
994
330
1E
100
AcDbEntity
  8
ﾚｲﾔ1
  6
DASHED
100
AcDbLine
 10
1226.060384313618
 20
92.75046168439361
 30
0.0
 11
1233.035384313618
 21
95.75046168439361
 31
0.0
  0
LINE
  5
995
330
1E
100
AcDbEntity
  8
ﾚｲﾔ1
  6
DASHED
100
AcDbLine
 10
1217.960384313618
 20
97.70046168439362
 30
0.0
 11
1234.010384313618
 21
97.70046168439362
 31
0.0
  0
LINE
  5
996
330
1E
100
AcDbEntity
  8
ﾚｲﾔ1
  6
Continuous
100
AcDbLine
 10
1052.805064313618
 20
99.45046168439362
 30
0.0
 11
1052.805064313618
 21
82.35046168439361
 31
0.0
  0
LINE
  5
997
330
1E
100
AcDbEntity
  8
ﾚｲﾔ1
  6
Continuous
100
AcDbLine
 10
1047.698681313617
 20
105.1504616843936
 30
0.0
 11
1047.698681313617
 21
82.35046168439361
 31
0.0
  0
LINE
  5
998
330
1E
100
AcDbEntity
  8
ﾚｲﾔ1
  6
Continuous
100
AcDbLine
 10
1045.996554313617
 20
110.8504616843936
 30
0.0
 11
1045.996554313617
 21
82.35046168439361
 31
0.0
  0
LINE
  5
999
330
1E
100
AcDbEntity
  8
ﾚｲﾔ1
  6
Continuous
100
AcDbLine
 10
1018.762512313618
 20
110.8504616843936
 30
0.0
 11
1018.762512313618
 21
82.35046168439361
 31
0.0
  0
LINE
  5
99A
330
1E
100
AcDbEntity
  8
ﾚｲﾔ1
  6
Continuous
100
AcDbLine
 10
1052.805064313618
 20
105.1504616843936
 30
0.0
 11
1052.805064313618
 21
99.45046168439362
 31
0.0
  0
LINE
  5
99B
330
1E
100
AcDbEntity
  8
ﾚｲﾔ1
  6
Continuous
100
AcDbLine
 10
1052.805064313618
 20
99.45046168439362
 30
0.0
 11
1057.060384313618
 21
99.45046168439362
 31
0.0
  0
LINE
  5
99C
330
1E
100
AcDbEntity
  8
ﾚｲﾔ1
  6
Continuous
100
AcDbLine
 10
1017.060384313618
 20
82.35046168439361
 30
0.0
 11
1017.060384313618
 21
108.5704616843936
 31
0.0
  0
LINE
  5
99D
330
1E
100
AcDbEntity
  8
ﾚｲﾔ1
  6
Continuous
100
AcDbLine
 10
1017.060384313618
 20
108.5704616843936
 30
0.0
 11
1018.762512313618
 21
110.8504616843936
 31
0.0
  0
LINE
  5
99E
330
1E
100
AcDbEntity
  8
ﾚｲﾔ1
  6
Continuous
100
AcDbLine
 10
1018.762512313618
 20
110.8504616843936
 30
0.0
 11
1045.996554313617
 21
110.8504616843936
 31
0.0
  0
LINE
  5
99F
330
1E
100
AcDbEntity
  8
ﾚｲﾔ1
  6
Continuous
100
AcDbLine
 10
1045.996554313617
 20
110.8504616843936
 30
0.0
 11
1047.698681313617
 21
108.5704616843936
 31
0.0
  0
LINE
  5
9A0
330
1E
100
AcDbEntity
  8
ﾚｲﾔ1
  6
Continuous
100
AcDbLine
 10
1047.698681313617
 20
108.5704616843936
 30
0.0
 11
1047.698681313617
 21
105.1504616843936
 31
0.0
  0
LINE
  5
9A1
330
1E
100
AcDbEntity
  8
ﾚｲﾔ1
  6
Continuous
100
AcDbLine
 10
1047.698681313617
 20
105.1504616843936
 30
0.0
 11
1052.805064313618
 21
105.1504616843936
 31
0.0
  0
LINE
  5
9A2
330
1E
100
AcDbEntity
  8
ﾚｲﾔ1
  6
Continuous
100
AcDbLine
 10
1052.805064313618
 20
65.25046168439361
 30
0.0
 11
1052.805064313618
 21
82.35046168439361
 31
0.0
  0
LINE
  5
9A3
330
1E
100
AcDbEntity
  8
ﾚｲﾔ1
  6
Continuous
100
AcDbLine
 10
1047.698681313617
 20
59.55046168439361
 30
0.0
 11
1047.698681313617
 21
82.35046168439361
 31
0.0
  0
LINE
  5
9A4
330
1E
100
AcDbEntity
  8
ﾚｲﾔ1
  6
Continuous
100
AcDbLine
 10
1045.996554313617
 20
53.85046168439361
 30
0.0
 11
1045.996554313617
 21
82.35046168439361
 31
0.0
  0
LINE
  5
9A5
330
1E
100
AcDbEntity
  8
ﾚｲﾔ1
  6
Continuous
100
AcDbLine
 10
1018.762512313618
 20
53.85046168439361
 30
0.0
 11
1018.762512313618
 21
82.35046168439361
 31
0.0
  0
LINE
  5
9A6
330
1E
100
AcDbEntity
  8
ﾚｲﾔ1
  6
Continuous
100
AcDbLine
 10
1052.805064313618
 20
59.55046168439361
 30
0.0
 11
1052.805064313618
 21
65.25046168439361
 31
0.0
  0
LINE
  5
9A7
330
1E
100
AcDbEntity
  8
ﾚｲﾔ1
  6
Continuous
100
AcDbLine
 10
1052.805064313618
 20
65.25046168439361
 30
0.0
 11
1057.060384313618
 21
65.25046168439361
 31
0.0
  0
LINE
  5
9A8
330
1E
100
AcDbEntity
  8
ﾚｲﾔ1
  6
Continuous
100
AcDbLine
 10
1017.060384313618
 20
82.35046168439361
 30
0.0
 11
1017.060384313618
 21
56.13046168439361
 31
0.0
  0
LINE
  5
9A9
330
1E
100
AcDbEntity
  8
ﾚｲﾔ1
  6
Continuous
100
AcDbLine
 10
1017.060384313618
 20
56.13046168439361
 30
0.0
 11
1018.762512313618
 21
53.85046168439361
 31
0.0
  0
LINE
  5
9AA
330
1E
100
AcDbEntity
  8
ﾚｲﾔ1
  6
Continuous
100
AcDbLine
 10
1018.762512313618
 20
53.85046168439361
 30
0.0
 11
1045.996554313617
 21
53.85046168439361
 31
0.0
  0
LINE
  5
9AB
330
1E
100
AcDbEntity
  8
ﾚｲﾔ1
  6
Continuous
100
AcDbLine
 10
1045.996554313617
 20
53.85046168439361
 30
0.0
 11
1047.698681313617
 21
56.13046168439361
 31
0.0
  0
LINE
  5
9AC
330
1E
100
AcDbEntity
  8
ﾚｲﾔ1
  6
Continuous
100
AcDbLine
 10
1047.698681313617
 20
56.13046168439361
 30
0.0
 11
1047.698681313617
 21
59.55046168439361
 31
0.0
  0
LINE
  5
9AD
330
1E
100
AcDbEntity
  8
ﾚｲﾔ1
  6
Continuous
100
AcDbLine
 10
1047.698681313617
 20
59.55046168439361
 30
0.0
 11
1052.805064313618
 21
59.55046168439361
 31
0.0
  0
LINE
  5
9AE
330
1E
100
AcDbEntity
  8
ﾚｲﾔ1
100
AcDbLine
 10
1132.435384313618
 20
110.5504616843936
 30
0.0
 11
1093.187177313617
 21
110.5504616843936
 31
0.0
  0
LINE
  5
9AF
330
1E
100
AcDbEntity
  8
ﾚｲﾔ1
100
AcDbLine
 10
1093.187177313617
 20
110.5504616843936
 30
0.0
 11
1093.057506313618
 21
110.5504616843936
 31
0.0
  0
LINE
  5
9B0
330
1E
100
AcDbEntity
  8
ﾚｲﾔ1
  6
DASHED
100
AcDbLine
 10
1219.010384313618
 20
110.5504616843936
 30
0.0
 11
1219.010384313618
 21
95.55046168439361
 31
0.0
  0
LINE
  5
9B1
330
1E
100
AcDbEntity
  8
ﾚｲﾔ1
  6
DASHED
100
AcDbLine
 10
1233.035384313618
 20
95.55046168439361
 30
0.0
 11
1233.035384313618
 21
110.5504616843936
 31
0.0
  0
LINE
  5
9B2
330
1E
100
AcDbEntity
  8
ﾚｲﾔ1
  6
DASHED
100
AcDbLine
 10
1217.960384313618
 20
110.5504616843936
 30
0.0
 11
1217.960384313618
 21
97.50046168439361
 31
0.0
  0
LINE
  5
9B3
330
1E
100
AcDbEntity
  8
ﾚｲﾔ1
  6
DASHED
100
AcDbLine
 10
1234.010384313618
 20
97.50046168439361
 30
0.0
 11
1234.010384313618
 21
110.5504616843936
 31
0.0
  0
LINE
  5
9B4
330
1E
100
AcDbEntity
  8
ﾚｲﾔ1
  6
DASHDOT
100
AcDbLine
 10
1226.060384313618
 20
114.1421486843936
 30
0.0
 11
1226.060384313618
 21
89.16714868439361
 31
0.0
  0
TEXT
  5
9B5
330
1E
100
AcDbEntity
  8
文字
100
AcDbText
 10
1169.398814313618
 20
120.3515366843936
 30
0.0
 40
5.0
  1
PT3/8
100
AcDbText
  0
INSERT
  5
9EB
330
1E
100
AcDbEntity
  8
寸法
100
AcDbBlockReference
  2
*U0
 10
1084.898814313618
 20
77.80153668439361
 30
0.0
  0
CIRCLE
  5
A08
330
1E
100
AcDbEntity
  8
0
  6
Continuous
100
AcDbCircle
 10
951.5353843136176
 20
82.35046168439361
 30
0.0
 40
1.000000000000002
  0
CIRCLE
  5
A09
330
1E
100
AcDbEntity
  8
0
  6
Continuous
100
AcDbCircle
 10
951.5353843136176
 20
82.35046168439361
 30
0.0
 40
4.999999999999997
  0
CIRCLE
  5
A0A
330
1E
100
AcDbEntity
  8
0
  6
Continuous
100
AcDbCircle
 10
951.5353843136176
 20
82.35046168439361
 30
0.0
 40
13.0
  0
CIRCLE
  5
A0B
330
1E
100
AcDbEntity
  8
0
  6
Continuous
100
AcDbCircle
 10
951.5353843136176
 20
82.35046168439361
 30
0.0
 40
15.0
  0
CIRCLE
  5
A0C
330
1E
100
AcDbEntity
  8
0
  6
Continuous
100
AcDbCircle
 10
951.5353843136176
 20
82.35046168439361
 30
0.0
 40
23.0
  0
CIRCLE
  5
A0D
330
1E
100
AcDbEntity
  8
0
  6
Continuous
100
AcDbCircle
 10
951.5353843136176
 20
82.35046168439361
 30
0.0
 40
25.0
  0
CIRCLE
  5
A0E
330
1E
100
AcDbEntity
  8
0
  6
Continuous
100
AcDbCircle
 10
951.5353843136176
 20
82.35046168439361
 30
0.0
 40
29.05000000000001
  0
DIMENSION
  5
A69
330
1E
100
AcDbEntity
  8
寸法
  6
Continuous
100
AcDbDimension
  2
*D2
 10
1007.087606551285
 20
53.85046168439361
 30
0.0
 11
1003.587606551285
 21
82.35046168439361
 31
0.0
 70
    32
  1
φ57
 71
     5
 42
57.0
  3
Standard
100
AcDbAlignedDimension
 13
1018.762512313618
 23
110.8504616843936
 33
0.0
 14
1018.762512313618
 24
53.85046168439361
 34
0.0
 50
90.0
100
AcDbRotatedDimension
  0
DIMENSION
  5
A80
330
1E
100
AcDbEntity
  8
寸法
  6
Continuous
100
AcDbDimension
  2
*D3
 10
1150.761992747782
 20
54.15046168439361
 30
0.0
 11
1147.261992747782
 21
82.35046168439361
 31
0.0
 70
    32
  1
φ56
 71
     5
 42
56.4
  3
Standard
100
AcDbAlignedDimension
 13
1142.845149313618
 23
110.5504616843936
 33
0.0
 14
1142.845149313618
 24
54.15046168439361
 34
0.0
 50
90.0
100
AcDbRotatedDimension
1001
ACAD
1000
DSTYLE
1002
{
1070
    76
1070
     1
1070
    75
1070
     1
1002
}
  0
DIMENSION
  5
AA3
330
1E
100
AcDbEntity
  8
寸法
  6
Continuous
100
AcDbDimension
  2
*D4
 10
1057.060384313618
 20
137.0335166843936
 30
0.0
 11
1037.060384313618
 21
140.5335166843936
 31
0.0
 70
    32
 71
     5
 42
40.0
  3
Standard
100
AcDbAlignedDimension
 13
1017.060384313618
 23
108.5704616843936
 33
0.0
 14
1057.060384313618
 24
108.5504616843936
 34
0.0
100
AcDbRotatedDimension
  0
DIMENSION
  5
AB0
330
1E
100
AcDbEntity
  8
寸法
  6
Continuous
100
AcDbDimension
  2
*D5
 10
1226.060384313618
 20
137.0335166843936
 30
0.0
 11
1141.560384313618
 21
140.5335166843936
 31
0.0
 70
    32
 71
     5
 42
169.0
  3
Standard
100
AcDbAlignedDimension
 13
1057.060384313618
 23
108.5504616843936
 33
0.0
 14
1226.060384313618
 24
114.7203886843936
 34
0.0
100
AcDbRotatedDimension
  0
DIMENSION
  5
ABD
330
1E
100
AcDbEntity
  8
寸法
  6
Continuous
100
AcDbDimension
  2
*D6
 10
1251.060384313618
 20
137.0335166843936
 30
0.0
 11
1238.560384313618
 21
140.5335166843936
 31
0.0
 70
    32
 71
     5
 42
25.0
  3
Standard
100
AcDbAlignedDimension
 13
1226.060384313618
 23
137.0335166843936
 33
0.0
 14
1251.060384313618
 24
108.5504616843936
 34
0.0
100
AcDbRotatedDimension
  0
DIMENSION
  5
AC9
330
1E
100
AcDbEntity
  8
寸法
  6
Continuous
100
AcDbDimension
  2
*D7
 10
1251.060384313618
 20
147.5085841014995
 30
0.0
 11
1134.060384313618
 21
151.0085841014995
 31
0.0
 70
    32
 71
     5
 42
234.0
  3
Standard
100
AcDbAlignedDimension
 13
1017.060384313618
 23
136.9914136843936
 33
0.0
 14
1251.060384313618
 24
136.9914136843936
 34
0.0
100
AcDbRotatedDimension
  0
LWPOLYLINE
  5
BF7
330
1E
100
AcDbEntity
  8
ﾚｲﾔ1
100
AcDbPolyline
 90
        4
 70
     1
 43
0.0
 10
860.0234179714198
 20
283.2577926441841
 10
1305.529776980172
 20
283.2577926441841
 10
1305.529776980172
 20
-31.74223234471401
 10
860.0234179714198
 20
-31.74223234471401
  0
LINE
  5
BF8
330
1E
100
AcDbEntity
  8
図面枠
  6
Continuous
100
AcDbLine
 10
1281.68433771047
 20
270.1678781903861
 30
0.0
 11
880.1450000754585
 21
270.1678781903861
 31
0.0
  0
LINE
  5
BF9
330
1E
100
AcDbEntity
  8
図面枠
  6
Continuous
100
AcDbLine
 10
883.2738780310638
 20
267.0390002347808
 30
0.0
 11
1278.555459754806
 21
267.0390002347808
 31
0.0
  0
LINE
  5
BFA
330
1E
100
AcDbEntity
  8
図面枠
  6
Continuous
100
AcDbLine
 10
880.1450000754585
 20
270.1678781903861
 30
0.0
 11
880.1450000754585
 21
-13.51705645044103
 31
0.0
  0
LINE
  5
BFB
330
1E
100
AcDbEntity
  8
図面枠
  6
Continuous
100
AcDbLine
 10
883.2738780310638
 20
-10.38817849483576
 30
0.0
 11
883.2738780310638
 21
267.0390002347808
 31
0.0
  0
LINE
  5
BFC
330
1E
100
AcDbEntity
  8
図面枠
  6
Continuous
100
AcDbLine
 10
1278.555459754806
 20
-10.38817849483576
 30
0.0
 11
883.2738780310638
 21
-10.38817849483576
 31
0.0
  0
LINE
  5
BFD
330
1E
100
AcDbEntity
  8
図面枠
  6
Continuous
100
AcDbLine
 10
1281.68433771047
 20
-13.51705645044103
 30
0.0
 11
880.1450000754585
 21
-13.51705645044103
 31
0.0
  0
LINE
  5
BFE
330
1E
100
AcDbEntity
  8
図面枠
  6
Continuous
100
AcDbLine
 10
1278.555459754806
 20
0.0414146904763584
 30
0.0
 11
1234.751168376449
 21
0.0414146904763584
 31
0.0
  0
LINE
  5
BFF
330
1E
100
AcDbEntity
  8
図面枠
  6
Continuous
100
AcDbLine
 10
1212.849022687299
 20
7.237833988368493
 30
0.0
 11
1275.217989935571
 21
7.237833988368493
 31
0.0
  0
LINE
  5
C00
330
1E
100
AcDbEntity
  8
図面枠
  6
Continuous
100
AcDbLine
 10
1234.751168376449
 20
-10.38817849483576
 30
0.0
 11
1278.555459754806
 21
-10.38817849483576
 31
0.0
  0
LINE
  5
C01
330
1E
100
AcDbEntity
  8
図面枠
  6
Continuous
100
AcDbLine
 10
1209.720144731723
 20
15.68580446844453
 30
0.0
 11
1278.555459754806
 21
15.68580446844453
 31
0.0
  0
LINE
  5
C02
330
1E
100
AcDbEntity
  8
図面枠
  6
Continuous
100
AcDbLine
 10
1278.555459754806
 20
15.68580446844453
 30
0.0
 11
1204.505348139067
 21
15.68580446844453
 31
0.0
  0
LINE
  5
C03
330
1E
100
AcDbEntity
  8
図面枠
  6
Continuous
100
AcDbLine
 10
1278.555459754806
 20
0.0414146904763584
 30
0.0
 11
1209.720144731723
 21
0.0414146904763584
 31
0.0
  0
MTEXT
  5
C04
330
1E
100
AcDbEntity
  8
図面枠
370
    30
100
AcDbMText
 10
1210.401312128702
 20
-14.35309500423728
 30
0.0
 40
4.589021001542682
 41
75.73895177131276
 71
     1
 72
     5
  1
株式会社　関東油機サービス
 73
     1
 44
1.0
  0
LINE
  5
C05
330
1E
100
AcDbEntity
  8
図面枠
  6
Continuous
100
AcDbLine
 10
1219.10677859851
 20
0.0414146904763584
 30
0.0
 11
1204.505348139067
 21
0.0414146904763584
 31
0.0
  0
LINE
  5
C06
330
1E
100
AcDbEntity
  8
図面枠
  6
Continuous
100
AcDbLine
 10
1204.505348139067
 20
-5.173381902179699
 30
0.0
 11
1230.579331102376
 21
-5.173381902179699
 31
0.0
  0
LINE
  5
C07
330
1E
100
AcDbEntity
  8
図面枠
  6
Continuous
100
AcDbLine
 10
1204.505348139067
 20
-10.38817849483576
 30
0.0
 11
1219.10677859851
 21
-10.38817849483576
 31
0.0
  0
MTEXT
  5
C08
330
1E
100
AcDbEntity
  8
ﾚｲﾔ1
100
AcDbMText
 10
1213.281736971406
 20
3.714837969902419
 30
0.0
 40
3.15
 41
59.13579336078737
 71
     1
 72
     5
  1
{SM-1010}
 73
     1
 44
1.0
1001
ACAD
1000
ACAD_MTEXT_DEFINED_HEIGHT_BEGIN
1070
    46
1040
3.15
1000
ACAD_MTEXT_DEFINED_HEIGHT_END
  0
MTEXT
  5
C09
330
1E
100
AcDbEntity
  8
ﾚｲﾔ1
100
AcDbMText
 10
1213.10868682407
 20
11.17088761242803
 30
0.0
 40
3.15
 41
59.13579336078737
 71
     1
 72
     5
  1
{100KN100st 単動ジャッキ}
 73
     1
 44
1.0
1001
ACAD
1000
ACAD_MTEXT_DEFINED_HEIGHT_BEGIN
1070
    46
1040
3.15
1000
ACAD_MTEXT_DEFINED_HEIGHT_END
  0
LINE
  5
C0A
330
1E
100
AcDbEntity
  8
図面枠
  6
Continuous
100
AcDbLine
 10
1204.505348139067
 20
10.47100787578847
 30
0.0
 11
1204.505348139067
 21
5.256211283132416
 31
0.0
  0
LINE
  5
C0B
330
1E
100
AcDbEntity
  8
図面枠
  6
Continuous
100
AcDbLine
 10
1204.505348139067
 20
5.256211283132416
 30
0.0
 11
1204.505348139067
 21
0.0414146904763584
 31
0.0
  0
LINE
  5
C0C
330
1E
100
AcDbEntity
  8
図面枠
  6
Continuous
100
AcDbLine
 10
1204.505348139067
 20
0.0414146904763584
 30
0.0
 11
1204.505348139067
 21
-10.38817849483576
 31
0.0
  0
LINE
  5
C0D
330
1E
100
AcDbEntity
  8
図面枠
  6
Continuous
100
AcDbLine
 10
1204.505348139067
 20
0.0414146904763584
 30
0.0
 11
1209.720144731723
 21
0.0414146904763584
 31
0.0
  0
LINE
  5
C0E
330
1E
100
AcDbEntity
  8
図面枠
  6
Continuous
100
AcDbLine
 10
1204.505348139067
 20
15.68580446844453
 30
0.0
 11
1204.505348139067
 21
0.0414146904763584
 31
0.0
  0
LINE
  5
C0F
330
1E
100
AcDbEntity
  8
図面枠
  6
Continuous
100
AcDbLine
 10
1209.720144731723
 20
0.0414146904763584
 30
0.0
 11
1209.720144731723
 21
15.68580446844453
 31
0.0
  0
LINE
  5
C10
330
1E
100
AcDbEntity
  8
図面枠
  6
Continuous
100
AcDbLine
 10
1204.505348139067
 20
-10.38817849483576
 30
0.0
 11
1204.505348139067
 21
0.0414146904763584
 31
0.0
  0
LINE
  5
C11
330
1E
100
AcDbEntity
  8
図面枠
  6
Continuous
100
AcDbLine
 10
1204.505348139067
 20
15.68580446844453
 30
0.0
 11
1204.505348139067
 21
10.47100787578847
 31
0.0
  0
LINE
  5
C12
330
1E
100
AcDbEntity
  8
図面枠
  6
Continuous
100
AcDbLine
 10
1209.720144731723
 20
15.68580446844453
 30
0.0
 11
1204.505348139067
 21
15.68580446844453
 31
0.0
  0
LINE
  5
C13
330
1E
100
AcDbEntity
  8
図面枠
  6
Continuous
100
AcDbLine
 10
1209.720144731723
 20
0.0414146904763584
 30
0.0
 11
1209.720144731723
 21
15.68580446844453
 31
0.0
  0
TEXT
  5
C15
330
1E
100
AcDbEntity
  8
図面枠
100
AcDbText
 10
1207.072093749713
 20
-9.826295554656554
 30
0.0
 40
3.128877955597285
  1
１：1
100
AcDbText
  0
TEXT
  5
C16
330
1E
100
AcDbEntity
  8
図面枠
100
AcDbText
 10
1206.350690379974
 20
-4.694067774883024
 30
0.0
 40
4.171837274129713
  1
尺度
 41
1.125
100
AcDbText
  0
LINE
  5
C17
330
1E
100
AcDbEntity
  8
図面枠
  6
Continuous
100
AcDbLine
 10
1234.751168376449
 20
-10.38817849483576
 30
0.0
 11
1234.751168376449
 21
0.0414146904763584
 31
0.0
  0
LINE
  5
C18
330
1E
100
AcDbEntity
  8
図面枠
  6
Continuous
100
AcDbLine
 10
1234.751168376449
 20
0.0414146904763584
 30
0.0
 11
1230.579331102376
 21
0.0414146904763584
 31
0.0
  0
LINE
  5
C19
330
1E
100
AcDbEntity
  8
図面枠
  6
Continuous
100
AcDbLine
 10
1230.579331102376
 20
-10.38817849483576
 30
0.0
 11
1234.751168376449
 21
-10.38817849483576
 31
0.0
  0
LINE
  5
C1A
330
1E
100
AcDbEntity
  8
図面枠
  6
Continuous
100
AcDbLine
 10
1230.579331102376
 20
0.0414146904763584
 30
0.0
 11
1219.10677859851
 21
0.0414146904763584
 31
0.0
  0
LINE
  5
C1B
330
1E
100
AcDbEntity
  8
図面枠
  6
Continuous
100
AcDbLine
 10
1230.579331102376
 20
0.0414146904763584
 30
0.0
 11
1230.579331102376
 21
-10.38817849483576
 31
0.0
  0
LINE
  5
C1C
330
1E
100
AcDbEntity
  8
図面枠
  6
Continuous
100
AcDbLine
 10
1219.10677859851
 20
0.0414146904763584
 30
0.0
 11
1219.10677859851
 21
-10.38817849483576
 31
0.0
  0
LINE
  5
C1D
330
1E
100
AcDbEntity
  8
図面枠
  6
Continuous
100
AcDbLine
 10
1230.579331102376
 20
-10.38817849483576
 30
0.0
 11
1230.579331102376
 21
0.0414146904763584
 31
0.0
  0
LINE
  5
C1E
330
1E
100
AcDbEntity
  8
図面枠
  6
Continuous
100
AcDbLine
 10
1219.10677859851
 20
-10.38817849483576
 30
0.0
 11
1230.579331102376
 21
-10.38817849483576
 31
0.0
  0
LINE
  5
C1F
330
1E
100
AcDbEntity
  8
図面枠
  6
Continuous
100
AcDbLine
 10
1234.751168376449
 20
0.0414146904763584
 30
0.0
 11
1234.751168376449
 21
-10.38817849483576
 31
0.0
  0
LINE
  5
C20
330
1E
100
AcDbEntity
  8
図面枠
  6
Continuous
100
AcDbLine
 10
1219.10677859851
 20
-10.38817849483576
 30
0.0
 11
1219.10677859851
 21
0.0414146904763584
 31
0.0
  0
TEXT
  5
C21
330
1E
100
AcDbEntity
  8
図面枠
100
AcDbText
 10
1231.257254659405
 20
-9.032331380778942
 30
0.0
 40
3.128877955597285
  1
番
100
AcDbText
  0
TEXT
  5
C22
330
1E
100
AcDbEntity
  8
図面枠
100
AcDbText
 10
1231.257254659405
 20
-4.106006765465736
 30
0.0
 40
3.128877955597285
  1
図
100
AcDbText
  0
LINE
  5
C23
330
1E
100
AcDbEntity
  8
図面枠
  6
Continuous
100
AcDbLine
 10
1278.555459754806
 20
15.68580446844453
 30
0.0
 11
1278.555459754806
 21
0.0414146904763584
 31
0.0
  0
LINE
  5
C24
330
1E
100
AcDbEntity
  8
図面枠
  6
Continuous
100
AcDbLine
 10
1278.555459754806
 20
-10.38817849483576
 30
0.0
 11
1278.555459754806
 21
0.0414146904763584
 31
0.0
  0
LINE
  5
C25
330
1E
100
AcDbEntity
  8
ﾚｲﾔ1
100
AcDbLine
 10
1179.061891520457
 20
207.6115449712775
 30
0.0
 11
1267.558939722107
 21
207.6115449712775
 31
0.0
  0
LINE
  5
C26
330
1E
100
AcDbEntity
  8
ﾚｲﾔ1
100
AcDbLine
 10
1179.061891520457
 20
223.8115449712891
 30
0.0
 11
1267.558939722107
 21
223.8115449712891
 31
0.0
  0
LINE
  5
C27
330
1E
100
AcDbEntity
  8
ﾚｲﾔ1
100
AcDbLine
 10
1179.061891520457
 20
240.0115449712425
 30
0.0
 11
1267.558939722107
 21
240.0115449712425
 31
0.0
  0
LINE
  5
C28
330
1E
100
AcDbEntity
  8
ﾚｲﾔ1
100
AcDbLine
 10
1179.061891520457
 20
231.9115449712658
 30
0.0
 11
1267.558939722107
 21
231.9115449712658
 31
0.0
  0
LINE
  5
C29
330
1E
100
AcDbEntity
  8
ﾚｲﾔ1
100
AcDbLine
 10
1179.061891520457
 20
248.1115449712775
 30
0.0
 11
1267.558939722107
 21
248.1115449712775
 31
0.0
  0
LINE
  5
C2A
330
1E
100
AcDbEntity
  8
ﾚｲﾔ1
100
AcDbLine
 10
1179.061891520457
 20
215.7115449712542
 30
0.0
 11
1267.558939722107
 21
215.7115449712542
 31
0.0
  0
LINE
  5
C2B
330
1E
100
AcDbEntity
  8
ﾚｲﾔ1
100
AcDbLine
 10
1179.061891520457
 20
199.5115449713007
 30
0.0
 11
1267.558939722107
 21
199.5115449713007
 31
0.0
  0
MTEXT
  5
C2C
330
1E
100
AcDbEntity
  8
ﾚｲﾔ1
100
AcDbMText
 10
1179.371421688152
 20
202.545143008912
 30
0.0
 40
2.699999999999998
 41
434.6343890161323
 71
     1
 72
     5
  1
重　　量
 73
     1
 44
1.0
  0
MTEXT
  5
C2D
330
1E
100
AcDbEntity
  8
ﾚｲﾔ1
100
AcDbMText
 10
1179.540818977725
 20
251.6975029814453
 30
0.0
 40
3.15
 41
434.6343890161323
 71
     1
 72
     5
  1
能　　力
 73
     1
 44
1.0
  0
MTEXT
  5
C2E
330
1E
100
AcDbEntity
  8
ﾚｲﾔ1
100
AcDbMText
 10
1179.986992710622
 20
211.2296321198041
 30
0.0
 40
2.699999999999998
 41
434.6343890161323
 71
     1
 72
     5
  1
ロ　ッ　ド　径
 73
     1
 44
1.0
  0
MTEXT
  5
C2F
330
1E
100
AcDbEntity
  8
ﾚｲﾔ1
100
AcDbMText
 10
1179.44177837286
 20
227.6419316943316
 30
0.0
 40
3.15
 41
434.6343890161323
 71
     1
 72
     5
  1
使　用　圧　力
 73
     1
 44
1.0
  0
MTEXT
  5
C30
330
1E
100
AcDbEntity
  8
ﾚｲﾔ1
100
AcDbMText
 10
1179.495587294167
 20
235.5145494154817
 30
0.0
 40
3.15
 41
434.634389016132
 71
     1
 72
     5
  1
{ス　ト　ロ　-　ク}
 73
     1
 44
1.0
1001
ACAD
1000
ACAD_MTEXT_DEFINED_HEIGHT_BEGIN
1070
    46
1040
6.3
1000
ACAD_MTEXT_DEFINED_HEIGHT_END
  0
MTEXT
  5
C31
330
1E
100
AcDbEntity
  8
ﾚｲﾔ1
100
AcDbMText
 10
1179.464526528204
 20
219.682369084428
 30
0.0
 40
3.15
 41
434.6343890161323
 71
     1
 72
     5
  1
受　圧　面　積
 73
     1
 44
1.0
  0
MTEXT
  5
C32
330
1E
100
AcDbEntity
  8
ﾚｲﾔ1
100
AcDbMText
 10
1179.380757564711
 20
243.9996418807818
 30
0.0
 40
3.15
 41
434.6343890161323
 71
     1
 72
     5
  1
機　械　高　さ
 73
     1
 44
1.0
  0
TEXT
  5
C33
330
1E
100
AcDbEntity
  8
ﾚｲﾔ1
100
AcDbText
 10
1261.454876759412
 20
249.0817790049291
 30
0.0
 40
3.0
  1
KN
 50
360.0
100
AcDbText
  0
TEXT
  5
C34
330
1E
100
AcDbEntity
  8
ﾚｲﾔ1
100
AcDbText
 10
1241.619224085272
 20
249.1720722716232
 30
0.0
 40
3.0
  1
100
 50
360.0
100
AcDbText
  0
TEXT
  5
C35
330
1E
100
AcDbEntity
  8
ﾚｲﾔ1
100
AcDbText
 10
1261.454876759412
 20
240.9004804873653
 30
0.0
 40
3.0
  1
mm
 50
360.0
100
AcDbText
  0
MTEXT
  5
C36
330
1E
100
AcDbEntity
  8
ﾚｲﾔ1
100
AcDbMText
 10
1240.742364453999
 20
203.1439049242576
 30
0.0
 40
3.0
 41
0.0
 71
     1
 72
     5
  1
{約}
 73
     1
 44
1.0
1001
ACAD
1000
ACAD_MTEXT_DEFINED_HEIGHT_BEGIN
1070
    46
1040
6.0
1000
ACAD_MTEXT_DEFINED_HEIGHT_END
  0
MTEXT
  5
C37
330
1E
100
AcDbEntity
  8
ﾚｲﾔ1
100
AcDbMText
 10
1241.55305758407
 20
211.0602146691922
 30
0.0
 40
3.0
 41
0.0
 71
     1
 72
     5
  1
{Φ}
 73
     1
 44
1.0
1001
ACAD
1000
ACAD_MTEXT_DEFINED_HEIGHT_BEGIN
1070
    46
1040
12.0
1000
ACAD_MTEXT_DEFINED_HEIGHT_END
  0
TEXT
  5
C38
330
1E
100
AcDbEntity
  8
ﾚｲﾔ1
100
AcDbText
 10
1259.453769065006
 20
216.3133856828022
 30
0.0
 40
3.0
  1
cm2
 50
360.0
100
AcDbText
  0
TEXT
  5
C39
330
1E
100
AcDbEntity
  8
ﾚｲﾔ1
100
AcDbText
 10
1261.454876759412
 20
232.7520305953035
 30
0.0
 40
3.0
  1
mm
 50
360.0
100
AcDbText
  0
TEXT
  5
C3A
330
1E
100
AcDbEntity
  8
ﾚｲﾔ1
100
AcDbText
 10
1261.454876759412
 20
200.3149465633719
 30
0.0
 40
3.0
  1
Kg
 50
360.0
100
AcDbText
  0
TEXT
  5
C3B
330
1E
100
AcDbEntity
  8
ﾚｲﾔ1
100
AcDbText
 10
1259.453769065006
 20
224.8120294214273
 30
0.0
 40
3.0
  1
Mpa
 50
360.0
100
AcDbText
  0
TEXT
  5
C3C
330
1E
100
AcDbEntity
  8
ﾚｲﾔ1
100
AcDbText
 10
1261.454876759412
 20
208.6856785884988
 30
0.0
 40
3.0
  1
mm
 50
360.0
100
AcDbText
  0
TEXT
  5
C3D
330
1E
100
AcDbEntity
  8
ﾚｲﾔ1
100
AcDbText
 10
1241.619224085272
 20
240.8687033730489
 30
0.0
 40
3.0
  1
235
 50
360.0
100
AcDbText
  0
TEXT
  5
C3E
330
1E
100
AcDbEntity
  8
ﾚｲﾔ1
100
AcDbText
 10
1241.619224085272
 20
232.7501702162367
 30
0.0
 40
3.0
  1
100
 50
360.0
100
AcDbText
  0
TEXT
  5
C3F
330
1E
100
AcDbEntity
  8
ﾚｲﾔ1
100
AcDbText
 10
1241.619224085272
 20
224.5442365828599
 30
0.0
 40
3.0
  1
69.1
 50
360.0
100
AcDbText
  0
TEXT
  5
C40
330
1E
100
AcDbEntity
  8
ﾚｲﾔ1
100
AcDbText
 10
1241.619224085272
 20
216.6296378713846
 30
0.0
 40
3.0
  1
14.44
 50
360.0
100
AcDbText
  0
TEXT
  5
C41
330
1E
100
AcDbEntity
  8
ﾚｲﾔ1
100
AcDbText
 10
1244.58014337742
 20
208.3479177284567
 30
0.0
 40
3.0
  1
28
 50
360.0
100
AcDbText
  0
TEXT
  5
C42
330
1E
100
AcDbEntity
  8
ﾚｲﾔ1
100
AcDbText
 10
1245.363103463957
 20
200.1023847299325
 30
0.0
 40
3.0
  1
4.2
 50
360.0
100
AcDbText
  0
LINE
  5
C43
330
1E
100
AcDbEntity
  8
ﾚｲﾔ1
100
AcDbLine
 10
1179.061891520457
 20
256.2126298221806
 30
0.0
 11
1190.536601392264
 21
256.2089501216938
 31
0.0
  0
MTEXT
  5
C44
330
1E
100
AcDbEntity
  8
ﾚｲﾔ1
100
AcDbMText
 10
1179.667221987914
 20
259.1977218893985
 30
0.0
 40
2.699999999999998
 41
434.6343890161323
 71
     1
 72
     5
  1
仕  様
 73
     1
 44
1.0
  0
LINE
  5
C45
330
1E
100
AcDbEntity
  8
図面枠
  6
Continuous
100
AcDbLine
 10
1278.555459754806
 20
267.0390002347808
 30
0.0
 11
1278.555459754806
 21
-10.38817849483576
 31
0.0
  0
LINE
  5
C46
330
1E
100
AcDbEntity
  8
図面枠
  6
Continuous
100
AcDbLine
 10
1281.68433771047
 20
270.1678781903861
 30
0.0
 11
1281.68433771047
 21
-13.51705645044103
 31
0.0
  0
TEXT
  5
DCA
102
{ACAD_REACTORS
330
DCC
102
}
330
1E
100
AcDbEntity
  8
図面枠
100
AcDbText
 10
1205.058422193873
 20
8.846197787025169
 30
0.0
 40
4.325360885817686
  1
名
100
AcDbText
  0
TEXT
  5
DCB
102
{ACAD_REACTORS
330
DCC
102
}
330
1E
100
AcDbEntity
  8
図面枠
100
AcDbText
 10
1205.058422193873
 20
2.036046638809545
 30
0.0
 40
4.325360885817686
  1
称
100
AcDbText
  0
ENDSEC
  0
SECTION
  2
OBJECTS
  0
DICTIONARY
  5
C
330
0
100
AcDbDictionary
281
     1
  3
ACAD_DETAILVIEWSTYLE
350
C4B
  3
ACAD_GROUP
350
D
  3
ACAD_LAYOUT
350
19
  3
ACAD_MLINESTYLE
350
16
  3
ACAD_PLOTSETTINGS
350
18
  3
ACAD_PLOTSTYLENAME
350
E
  3
ACAD_SCALELIST
350
B13
  3
ACAD_SECTIONVIEWSTYLE
350
C4C
  3
AcDbVariableDictionary
350
B57
  3
APPDATA
350
B7C
  3
DWGPROPS
350
DCD
  0
DICTIONARY
  5
BF2
330
2
100
AcDbDictionary
280
     1
281
     1
  3
ACAD_LAYERSTATES
360
BF3
  0
DICTIONARY
  5
B3B
330
10
100
AcDbDictionary
280
     1
281
     1
  3
ADSK_XREC_LAYER_RECONCILED
360
B3C
  0
DICTIONARY
  5
B3D
330
2A
100
AcDbDictionary
280
     1
281
     1
  3
ADSK_XREC_LAYER_RECONCILED
360
B3E
  0
DICTIONARY
  5
B3F
330
31
100
AcDbDictionary
280
     1
281
     1
  3
ADSK_XREC_LAYER_RECONCILED
360
B40
  0
DICTIONARY
  5
B41
330
38
100
AcDbDictionary
280
     1
281
     1
  3
ADSK_XREC_LAYER_RECONCILED
360
B42
  0
DICTIONARY
  5
B85
330
B84
100
AcDbDictionary
280
     1
281
     1
  3
ADSK_XREC_LAYER_RECONCILED
360
B86
  0
DICTIONARY
  5
B88
330
B87
100
AcDbDictionary
280
     1
281
     1
  3
ADSK_XREC_LAYER_RECONCILED
360
B89
  0
DICTIONARY
  5
D87
330
1E
100
AcDbDictionary
280
     1
281
     1
  3
DIM_BOUNDING_BOXES_V1
360
D88
  0
DICTIONARY
  5
C4B
102
{ACAD_REACTORS
330
C
102
}
330
C
100
AcDbDictionary
281
     1
  0
DICTIONARY
  5
D
102
{ACAD_REACTORS
330
C
102
}
330
C
100
AcDbDictionary
281
     1
  3
*A1
350
DCC
  0
DICTIONARY
  5
19
102
{ACAD_REACTORS
330
C
102
}
330
C
100
AcDbDictionary
281
     1
  3
Model
350
21
  3
ﾚｲｱｳﾄ1
350
1D
  0
DICTIONARY
  5
16
102
{ACAD_REACTORS
330
C
102
}
330
C
100
AcDbDictionary
281
     1
  3
Standard
350
17
  0
DICTIONARY
  5
18
102
{ACAD_REACTORS
330
C
102
}
330
C
100
AcDbDictionary
281
     1
  0
ACDBDICTIONARYWDFLT
  5
E
102
{ACAD_REACTORS
330
C
102
}
330
C
100
AcDbDictionary
281
     1
  3
Normal
350
F
100
AcDbDictionaryWithDefault
340
F
  0
DICTIONARY
  5
B13
102
{ACAD_REACTORS
330
C
102
}
330
C
100
AcDbDictionary
281
     1
  3
A0
350
B14
  3
A1
350
B15
  3
A2
350
B16
  3
A3
350
B17
  3
A4
350
B18
  3
A5
350
B19
  3
A6
350
B1A
  3
A7
350
B1B
  3
A8
350
B1C
  3
A9
350
B1D
  3
B0
350
B1E
  3
B1
350
B1F
  3
B2
350
B20
  3
B3
350
B21
  3
B4
350
B22
  3
B5
350
B23
  3
B6
350
B24
  3
B7
350
B25
  3
B8
350
B26
  3
B9
350
B27
  3
C0
350
B28
  3
C1
350
B29
  3
C2
350
B2A
  3
C3
350
B2B
  3
C4
350
B2C
  3
C5
350
B2D
  3
C6
350
B2E
  3
C7
350
B2F
  3
C8
350
B30
  3
C9
350
B31
  3
D0
350
B32
  3
D1
350
B33
  3
D2
350
B34
  0
DICTIONARY
  5
C4C
102
{ACAD_REACTORS
330
C
102
}
330
C
100
AcDbDictionary
281
     1
  0
DICTIONARY
  5
B57
102
{ACAD_REACTORS
330
C
102
}
330
C
100
AcDbDictionary
281
     1
  3
DIMASSOC
350
B5D
  3
INDEXCTL
350
B5C
  3
PROJECTNAME
350
B68
  3
SORTENTS
350
B5B
  0
DICTIONARY
  5
B7C
102
{ACAD_REACTORS
330
C
102
}
330
C
100
AcDbDictionary
281
     1
  0
XRECORD
  5
DCD
102
{ACAD_REACTORS
330
C
102
}
330
C
100
AcDbXrecord
280
     1
  1
DWGPROPS COOKIE
  2

  3

  4

  6

  7

  8
Hiroki Noike
  9

300
=
301
=
302
=
303
=
304
=
305
=
306
=
307
=
308
=
309
=
 40
0.0
 41
2452359.05941441
 42
2459744.015445822
  1

 90
        0
  0
DICTIONARY
  5
BF3
102
{ACAD_REACTORS
330
BF2
102
}
330
BF2
100
AcDbDictionary
281
     1
  0
XRECORD
  5
B3C
102
{ACAD_REACTORS
330
B3B
102
}
330
B3B
100
AcDbXrecord
280
     1
290
     1
  0
XRECORD
  5
B3E
102
{ACAD_REACTORS
330
B3D
102
}
330
B3D
100
AcDbXrecord
280
     1
290
     1
  0
XRECORD
  5
B40
102
{ACAD_REACTORS
330
B3F
102
}
330
B3F
100
AcDbXrecord
280
     1
290
     1
  0
XRECORD
  5
B42
102
{ACAD_REACTORS
330
B41
102
}
330
B41
100
AcDbXrecord
280
     1
290
     1
  0
XRECORD
  5
B86
102
{ACAD_REACTORS
330
B85
102
}
330
B85
100
AcDbXrecord
280
     1
290
     1
  0
XRECORD
  5
B89
102
{ACAD_REACTORS
330
B88
102
}
330
B88
100
AcDbXrecord
280
     1
290
     1
  0
DICTIONARY
  5
D88
102
{ACAD_REACTORS
330
D87
102
}
330
D87
100
AcDbDictionary
281
     1
  0
GROUP
  5
DCC
102
{ACAD_REACTORS
330
D
102
}
330
D
100
AcDbGroup
300

 70
     1
 71
     1
340
DCA
340
DCB
  0
LAYOUT
  5
21
102
{ACAD_REACTORS
330
19
102
}
330
19
100
AcDbPlotSettings
  1

  2
\\Souko01\倉庫プリンタ
  4
A4
  6

 40
5.873749732971191
 41
5.873747825622558
 42
5.873748779296875
 43
5.873748779296875
 44
209.9733276367187
 45
296.9259948730469
 46
0.0
 47
0.0
 48
0.0
 49
0.0
140
0.0
141
0.0
142
1.0
143
1.0
 70
 11952
 72
     0
 73
     1
 74
     0
  7

 75
     0
147
1.0
148
3815.535948988588
149
3815.535956262685
100
AcDbLayout
  1
Model
 70
     1
 71
     0
 10
0.0
 20
0.0
 11
12.0
 21
9.0
 12
0.0
 22
0.0
 32
0.0
 14
860.0234179714198
 24
-31.74223234471401
 34
0.0
 15
1305.529776980172
 25
283.2577926441841
 35
0.0
146
0.0
 13
0.0
 23
0.0
 33
0.0
 16
1.0
 26
0.0
 36
0.0
 17
0.0
 27
1.0
 37
0.0
 76
     0
330
1E
331
B69
  0
LAYOUT
  5
1D
102
{ACAD_REACTORS
330
19
102
}
330
19
100
AcDbPlotSettings
  1

  2
\\Souko01\倉庫プリンタ
  4

  6

 40
0.0
 41
0.0
 42
0.0
 43
0.0
 44
0.0
 45
0.0
 46
0.0
 47
0.0
 48
0.0
 49
0.0
140
0.0
141
0.0
142
1.0
143
1.0
 70
   688
 72
     0
 73
     0
 74
     5
  7

 75
    16
147
1.0
148
0.0
149
0.0
100
AcDbLayout
  1
ﾚｲｱｳﾄ1
 70
     1
 71
     1
 10
0.0
 20
0.0
 11
12.0
 21
9.0
 12
0.0
 22
0.0
 32
0.0
 14
1.000000000000000E+20
 24
1.000000000000000E+20
 34
1.000000000000000E+20
 15
-1.000000000000000E+20
 25
-1.000000000000000E+20
 35
-1.000000000000000E+20
146
0.0
 13
0.0
 23
0.0
 33
0.0
 16
1.0
 26
0.0
 36
0.0
 17
0.0
 27
1.0
 37
0.0
 76
     0
330
1A
  0
MLINESTYLE
  5
17
102
{ACAD_REACTORS
330
16
102
}
330
16
100
AcDbMlineStyle
  2
STANDARD
 70
     0
  3

 62
   256
 51
90.0
 52
90.0
 71
     2
 49
0.5
 62
   256
  6
BYLAYER
 49
-0.5
 62
   256
  6
BYLAYER
  0
ACDBPLACEHOLDER
  5
F
102
{ACAD_REACTORS
330
E
102
}
330
E
  0
SCALE
  5
B14
102
{ACAD_REACTORS
330
B13
102
}
330
B13
100
AcDbScale
 70
     0
300
1:1
140
1.0
141
1.0
290
     1
1001
ACAD
1000
AcRTDxfName
1000
SCALE
  0
SCALE
  5
B15
102
{ACAD_REACTORS
330
B13
102
}
330
B13
100
AcDbScale
 70
     0
300
1:2
140
1.0
141
2.0
290
     0
1001
ACAD
1000
AcRTDxfName
1000
SCALE
  0
SCALE
  5
B16
102
{ACAD_REACTORS
330
B13
102
}
330
B13
100
AcDbScale
 70
     0
300
1:4
140
1.0
141
4.0
290
     0
1001
ACAD
1000
AcRTDxfName
1000
SCALE
  0
SCALE
  5
B17
102
{ACAD_REACTORS
330
B13
102
}
330
B13
100
AcDbScale
 70
     0
300
1:5
140
1.0
141
5.0
290
     0
1001
ACAD
1000
AcRTDxfName
1000
SCALE
  0
SCALE
  5
B18
102
{ACAD_REACTORS
330
B13
102
}
330
B13
100
AcDbScale
 70
     0
300
1:8
140
1.0
141
8.0
290
     0
1001
ACAD
1000
AcRTDxfName
1000
SCALE
  0
SCALE
  5
B19
102
{ACAD_REACTORS
330
B13
102
}
330
B13
100
AcDbScale
 70
     0
300
1:10
140
1.0
141
10.0
290
     0
1001
ACAD
1000
AcRTDxfName
1000
SCALE
  0
SCALE
  5
B1A
102
{ACAD_REACTORS
330
B13
102
}
330
B13
100
AcDbScale
 70
     0
300
1:16
140
1.0
141
16.0
290
     0
1001
ACAD
1000
AcRTDxfName
1000
SCALE
  0
SCALE
  5
B1B
102
{ACAD_REACTORS
330
B13
102
}
330
B13
100
AcDbScale
 70
     0
300
1:20
140
1.0
141
20.0
290
     0
1001
ACAD
1000
AcRTDxfName
1000
SCALE
  0
SCALE
  5
B1C
102
{ACAD_REACTORS
330
B13
102
}
330
B13
100
AcDbScale
 70
     0
300
1:30
140
1.0
141
30.0
290
     0
1001
ACAD
1000
AcRTDxfName
1000
SCALE
  0
SCALE
  5
B1D
102
{ACAD_REACTORS
330
B13
102
}
330
B13
100
AcDbScale
 70
     0
300
1:40
140
1.0
141
40.0
290
     0
1001
ACAD
1000
AcRTDxfName
1000
SCALE
  0
SCALE
  5
B1E
102
{ACAD_REACTORS
330
B13
102
}
330
B13
100
AcDbScale
 70
     0
300
1:50
140
1.0
141
50.0
290
     0
1001
ACAD
1000
AcRTDxfName
1000
SCALE
  0
SCALE
  5
B1F
102
{ACAD_REACTORS
330
B13
102
}
330
B13
100
AcDbScale
 70
     0
300
1:100
140
1.0
141
100.0
290
     0
1001
ACAD
1000
AcRTDxfName
1000
SCALE
  0
SCALE
  5
B20
102
{ACAD_REACTORS
330
B13
102
}
330
B13
100
AcDbScale
 70
     0
300
2:1
140
2.0
141
1.0
290
     0
1001
ACAD
1000
AcRTDxfName
1000
SCALE
  0
SCALE
  5
B21
102
{ACAD_REACTORS
330
B13
102
}
330
B13
100
AcDbScale
 70
     0
300
4:1
140
4.0
141
1.0
290
     0
1001
ACAD
1000
AcRTDxfName
1000
SCALE
  0
SCALE
  5
B22
102
{ACAD_REACTORS
330
B13
102
}
330
B13
100
AcDbScale
 70
     0
300
8:1
140
8.0
141
1.0
290
     0
1001
ACAD
1000
AcRTDxfName
1000
SCALE
  0
SCALE
  5
B23
102
{ACAD_REACTORS
330
B13
102
}
330
B13
100
AcDbScale
 70
     0
300
10:1
140
10.0
141
1.0
290
     0
1001
ACAD
1000
AcRTDxfName
1000
SCALE
  0
SCALE
  5
B24
102
{ACAD_REACTORS
330
B13
102
}
330
B13
100
AcDbScale
 70
     0
300
100:1
140
100.0
141
1.0
290
     0
1001
ACAD
1000
AcRTDxfName
1000
SCALE
  0
SCALE
  5
B25
102
{ACAD_REACTORS
330
B13
102
}
330
B13
100
AcDbScale
 70
     0
300
1/128" = 1'-0"
140
0.0078125
141
12.0
290
     0
1001
ACAD
1000
AcRTDxfName
1000
SCALE
  0
SCALE
  5
B26
102
{ACAD_REACTORS
330
B13
102
}
330
B13
100
AcDbScale
 70
     0
300
1/64" = 1'-0"
140
0.015625
141
12.0
290
     0
1001
ACAD
1000
AcRTDxfName
1000
SCALE
  0
SCALE
  5
B27
102
{ACAD_REACTORS
330
B13
102
}
330
B13
100
AcDbScale
 70
     0
300
1/32" = 1'-0"
140
0.03125
141
12.0
290
     0
1001
ACAD
1000
AcRTDxfName
1000
SCALE
  0
SCALE
  5
B28
102
{ACAD_REACTORS
330
B13
102
}
330
B13
100
AcDbScale
 70
     0
300
1/16" = 1'-0"
140
0.0625
141
12.0
290
     0
1001
ACAD
1000
AcRTDxfName
1000
SCALE
  0
SCALE
  5
B29
102
{ACAD_REACTORS
330
B13
102
}
330
B13
100
AcDbScale
 70
     0
300
3/32" = 1'-0"
140
0.09375
141
12.0
290
     0
1001
ACAD
1000
AcRTDxfName
1000
SCALE
  0
SCALE
  5
B2A
102
{ACAD_REACTORS
330
B13
102
}
330
B13
100
AcDbScale
 70
     0
300
1/8" = 1'-0"
140
0.125
141
12.0
290
     0
1001
ACAD
1000
AcRTDxfName
1000
SCALE
  0
SCALE
  5
B2B
102
{ACAD_REACTORS
330
B13
102
}
330
B13
100
AcDbScale
 70
     0
300
3/16" = 1'-0"
140
0.1875
141
12.0
290
     0
1001
ACAD
1000
AcRTDxfName
1000
SCALE
  0
SCALE
  5
B2C
102
{ACAD_REACTORS
330
B13
102
}
330
B13
100
AcDbScale
 70
     0
300
1/4" = 1'-0"
140
0.25
141
12.0
290
     0
1001
ACAD
1000
AcRTDxfName
1000
SCALE
  0
SCALE
  5
B2D
102
{ACAD_REACTORS
330
B13
102
}
330
B13
100
AcDbScale
 70
     0
300
3/8" = 1'-0"
140
0.375
141
12.0
290
     0
1001
ACAD
1000
AcRTDxfName
1000
SCALE
  0
SCALE
  5
B2E
102
{ACAD_REACTORS
330
B13
102
}
330
B13
100
AcDbScale
 70
     0
300
1/2" = 1'-0"
140
0.5
141
12.0
290
     0
1001
ACAD
1000
AcRTDxfName
1000
SCALE
  0
SCALE
  5
B2F
102
{ACAD_REACTORS
330
B13
102
}
330
B13
100
AcDbScale
 70
     0
300
3/4" = 1'-0"
140
0.75
141
12.0
290
     0
1001
ACAD
1000
AcRTDxfName
1000
SCALE
  0
SCALE
  5
B30
102
{ACAD_REACTORS
330
B13
102
}
330
B13
100
AcDbScale
 70
     0
300
1" = 1'-0"
140
1.0
141
12.0
290
     0
1001
ACAD
1000
AcRTDxfName
1000
SCALE
  0
SCALE
  5
B31
102
{ACAD_REACTORS
330
B13
102
}
330
B13
100
AcDbScale
 70
     0
300
1-1/2" = 1'-0"
140
1.5
141
12.0
290
     0
1001
ACAD
1000
AcRTDxfName
1000
SCALE
  0
SCALE
  5
B32
102
{ACAD_REACTORS
330
B13
102
}
330
B13
100
AcDbScale
 70
     0
300
3" = 1'-0"
140
3.0
141
12.0
290
     0
1001
ACAD
1000
AcRTDxfName
1000
SCALE
  0
SCALE
  5
B33
102
{ACAD_REACTORS
330
B13
102
}
330
B13
100
AcDbScale
 70
     0
300
6" = 1'-0"
140
6.0
141
12.0
290
     0
1001
ACAD
1000
AcRTDxfName
1000
SCALE
  0
SCALE
  5
B34
102
{ACAD_REACTORS
330
B13
102
}
330
B13
100
AcDbScale
 70
     0
300
1'-0" = 1'-0"
140
12.0
141
12.0
290
     0
1001
ACAD
1000
AcRTDxfName
1000
SCALE
  0
DICTIONARYVAR
  5
B5D
102
{ACAD_REACTORS
330
B57
102
}
330
B57
100
DictionaryVariables
280
     0
  1
1
  0
DICTIONARYVAR
  5
B5C
102
{ACAD_REACTORS
330
B57
102
}
330
B57
100
DictionaryVariables
280
     0
  1
0
  0
DICTIONARYVAR
  5
B68
102
{ACAD_REACTORS
330
B57
102
}
330
B57
100
DictionaryVariables
280
     0
  1

  0
DICTIONARYVAR
  5
B5B
102
{ACAD_REACTORS
330
B57
102
}
330
B57
100
DictionaryVariables
280
     0
  1
127
  0
ENDSEC
  0
EOF
