  0
SECTION
  2
HEADER
  9
$ACADVER
  1
AC1015
  9
$ACADMAINTVER
 70
     6
  9
$DWGCODEPAGE
  3
ANSI_932
  9
$INSBASE
 10
0.0
 20
0.0
 30
0.0
  9
$EXTMIN
 10
-2747.467147206442
 20
971.5498145893457
 30
0.0
  9
$EXTMAX
 10
-2079.207608693313
 20
1444.049852072691
 30
0.0
  9
$LIMMIN
 10
-210.0
 20
-148.5
  9
$LIMMAX
 10
210.0
 20
148.5
  9
$ORTHOMODE
 70
     0
  9
$REGENMODE
 70
     1
  9
$FILLMODE
 70
     1
  9
$QTEXTMODE
 70
     0
  9
$MIRRTEXT
 70
     1
  9
$LTSCALE
 40
1.0
  9
$ATTMODE
 70
     1
  9
$TEXTSIZE
 40
1.0
  9
$TRACEWID
 40
0.05
  9
$TEXTSTYLE
  7
STANDARD
  9
$CLAYER
  8
ﾚｲﾔ1
  9
$CELTYPE
  6
ByLayer
  9
$CECOLOR
 62
   256
  9
$CELTSCALE
 40
1.0
  9
$DISPSILH
 70
     0
  9
$DIMSCALE
 40
1.0
  9
$DIMASZ
 40
3.0
  9
$DIMEXO
 40
0.0625
  9
$DIMDLI
 40
0.38
  9
$DIMRND
 40
0.0
  9
$DIMDLE
 40
0.0
  9
$DIMEXE
 40
0.5
  9
$DIMTP
 40
0.0
  9
$DIMTM
 40
0.0
  9
$DIMTXT
 40
50.0
  9
$DIMCEN
 40
0.09
  9
$DIMTSZ
 40
0.0
  9
$DIMTOL
 70
     0
  9
$DIMLIM
 70
     0
  9
$DIMTIH
 70
     0
  9
$DIMTOH
 70
     0
  9
$DIMSE1
 70
     0
  9
$DIMSE2
 70
     0
  9
$DIMTAD
 70
     1
  9
$DIMZIN
 70
     0
  9
$DIMBLK
  1
Open30
  9
$DIMASO
 70
     1
  9
$DIMSHO
 70
     1
  9
$DIMPOST
  1

  9
$DIMAPOST
  1

  9
$DIMALT
 70
     0
  9
$DIMALTD
 70
     2
  9
$DIMALTF
 40
25.4
  9
$DIMLFAC
 40
1.0
  9
$DIMTOFL
 70
     0
  9
$DIMTVP
 40
0.0
  9
$DIMTIX
 70
     0
  9
$DIMSOXD
 70
     0
  9
$DIMSAH
 70
     0
  9
$DIMBLK1
  1

  9
$DIMBLK2
  1

  9
$DIMSTYLE
  2
Standard
  9
$DIMCLRD
 70
     1
  9
$DIMCLRE
 70
     1
  9
$DIMCLRT
 70
     1
  9
$DIMTFAC
 40
1.0
  9
$DIMGAP
 40
0.5
  9
$DIMJUST
 70
     0
  9
$DIMSD1
 70
     0
  9
$DIMSD2
 70
     0
  9
$DIMTOLJ
 70
     1
  9
$DIMTZIN
 70
     0
  9
$DIMALTZ
 70
     0
  9
$DIMALTTZ
 70
     0
  9
$DIMUPT
 70
     0
  9
$DIMDEC
 70
     0
  9
$DIMTDEC
 70
     0
  9
$DIMALTU
 70
     2
  9
$DIMALTTD
 70
     2
  9
$DIMTXSTY
  7
TextStyle01
  9
$DIMAUNIT
 70
     0
  9
$DIMADEC
 70
     0
  9
$DIMALTRND
 40
0.0
  9
$DIMAZIN
 70
     0
  9
$DIMDSEP
 70
    46
  9
$DIMATFIT
 70
     3
  9
$DIMFRAC
 70
     0
  9
$DIMLDRBLK
  1
Open30
  9
$DIMLUNIT
 70
     2
  9
$DIMLWD
 70
    -2
  9
$DIMLWE
 70
    -2
  9
$DIMTMOVE
 70
     2
  9
$LUNITS
 70
     2
  9
$LUPREC
 70
     4
  9
$SKETCHINC
 40
0.1
  9
$FILLETRAD
 40
0.0
  9
$AUNITS
 70
     0
  9
$AUPREC
 70
     0
  9
$MENU
  1
acad
  9
$ELEVATION
 40
0.0
  9
$PELEVATION
 40
0.0
  9
$THICKNESS
 40
0.0
  9
$LIMCHECK
 70
     0
  9
$CHAMFERA
 40
0.0
  9
$CHAMFERB
 40
0.0
  9
$CHAMFERC
 40
0.0
  9
$CHAMFERD
 40
0.0
  9
$SKPOLY
 70
     0
  9
$TDCREATE
 40
2449944.925517361
  9
$TDUCREATE
 40
2449944.550517361
  9
$TDUPDATE
 40
2459744.580475822
  9
$TDUUPDATE
 40
2459744.205475822
  9
$TDINDWG
 40
0.8420028935
  9
$TDUSRTIMER
 40
0.0022516204
  9
$USRTIMER
 70
     1
  9
$ANGBASE
 50
0.0
  9
$ANGDIR
 70
     0
  9
$PDMODE
 70
     0
  9
$PDSIZE
 40
1.5
  9
$PLINEWID
 40
0.0
  9
$SPLFRAME
 70
     0
  9
$SPLINETYPE
 70
     6
  9
$SPLINESEGS
 70
     8
  9
$HANDSEED
  5
562A
  9
$SURFTAB1
 70
     6
  9
$SURFTAB2
 70
     6
  9
$SURFTYPE
 70
     6
  9
$SURFU
 70
     6
  9
$SURFV
 70
     6
  9
$UCSBASE
  2

  9
$UCSNAME
  2

  9
$UCSORG
 10
0.0
 20
0.0
 30
0.0
  9
$UCSXDIR
 10
1.0
 20
0.0
 30
0.0
  9
$UCSYDIR
 10
0.0
 20
1.0
 30
0.0
  9
$UCSORTHOREF
  2

  9
$UCSORTHOVIEW
 70
     0
  9
$UCSORGTOP
 10
0.0
 20
0.0
 30
0.0
  9
$UCSORGBOTTOM
 10
0.0
 20
0.0
 30
0.0
  9
$UCSORGLEFT
 10
0.0
 20
0.0
 30
0.0
  9
$UCSORGRIGHT
 10
0.0
 20
0.0
 30
0.0
  9
$UCSORGFRONT
 10
0.0
 20
0.0
 30
0.0
  9
$UCSORGBACK
 10
0.0
 20
0.0
 30
0.0
  9
$PUCSBASE
  2

  9
$PUCSNAME
  2

  9
$PUCSORG
 10
0.0
 20
0.0
 30
0.0
  9
$PUCSXDIR
 10
1.0
 20
0.0
 30
0.0
  9
$PUCSYDIR
 10
0.0
 20
1.0
 30
0.0
  9
$PUCSORTHOREF
  2

  9
$PUCSORTHOVIEW
 70
     0
  9
$PUCSORGTOP
 10
0.0
 20
0.0
 30
0.0
  9
$PUCSORGBOTTOM
 10
0.0
 20
0.0
 30
0.0
  9
$PUCSORGLEFT
 10
0.0
 20
0.0
 30
0.0
  9
$PUCSORGRIGHT
 10
0.0
 20
0.0
 30
0.0
  9
$PUCSORGFRONT
 10
0.0
 20
0.0
 30
0.0
  9
$PUCSORGBACK
 10
0.0
 20
0.0
 30
0.0
  9
$USERI1
 70
     0
  9
$USERI2
 70
     0
  9
$USERI3
 70
     0
  9
$USERI4
 70
     0
  9
$USERI5
 70
     0
  9
$USERR1
 40
0.0
  9
$USERR2
 40
0.0
  9
$USERR3
 40
0.0
  9
$USERR4
 40
0.0
  9
$USERR5
 40
0.0
  9
$WORLDVIEW
 70
     1
  9
$SHADEDGE
 70
     3
  9
$SHADEDIF
 70
    70
  9
$TILEMODE
 70
     1
  9
$MAXACTVP
 70
    16
  9
$PINSBASE
 10
0.0
 20
0.0
 30
0.0
  9
$PLIMCHECK
 70
     0
  9
$PEXTMIN
 10
1.000000000000000E+20
 20
1.000000000000000E+20
 30
1.000000000000000E+20
  9
$PEXTMAX
 10
-1.000000000000000E+20
 20
-1.000000000000000E+20
 30
-1.000000000000000E+20
  9
$PLIMMIN
 10
0.0
 20
0.0
  9
$PLIMMAX
 10
0.0
 20
0.0
  9
$UNITMODE
 70
     0
  9
$VISRETAIN
 70
     0
  9
$PLINEGEN
 70
     0
  9
$PSLTSCALE
 70
     1
  9
$TREEDEPTH
 70
  3020
  9
$CMLSTYLE
  2
Standard
  9
$CMLJUST
 70
     0
  9
$CMLSCALE
 40
1.0
  9
$PROXYGRAPHICS
 70
     1
  9
$MEASUREMENT
 70
     0
  9
$CELWEIGHT
370
    -1
  9
$ENDCAPS
280
     0
  9
$JOINSTYLE
280
     0
  9
$LWDISPLAY
290
     0
  9
$INSUNITS
 70
     0
  9
$HYPERLINKBASE
  1

  9
$STYLESHEET
  1

  9
$XEDIT
290
     1
  9
$CEPSNTYPE
380
     0
  9
$PSTYLEMODE
290
     1
  9
$FINGERPRINTGUID
  2
{3F05092E-EABE-41D4-925D-E3C07104686B}
  9
$VERSIONGUID
  2
{D1CA79B3-29E1-4DB7-9BEC-3DE01863D6F0}
  9
$EXTNAMES
290
     1
  9
$PSVPSCALE
 40
0.0
  9
$OLESTARTUP
290
     0
  0
ENDSEC
  0
SECTION
  2
CLASSES
  0
CLASS
  1
ACDBDICTIONARYWDFLT
  2
AcDbDictionaryWithDefault
  3
ObjectDBX Classes
 90
        0
280
     0
281
     0
  0
CLASS
  1
ACDBPLACEHOLDER
  2
AcDbPlaceHolder
  3
ObjectDBX Classes
 90
        0
280
     0
281
     0
  0
CLASS
  1
LAYOUT
  2
AcDbLayout
  3
ObjectDBX Classes
 90
        0
280
     0
281
     0
  0
CLASS
  1
DICTIONARYVAR
  2
AcDbDictionaryVar
  3
ObjectDBX Classes
 90
        0
280
     0
281
     0
  0
CLASS
  1
SCALE
  2
AcDbScale
  3
ObjectDBX Classes
 90
     1153
280
     0
281
     0
  0
CLASS
  1
VISUALSTYLE
  2
AcDbVisualStyle
  3
ObjectDBX Classes
 90
     4095
280
     0
281
     0
  0
CLASS
  1
MATERIAL
  2
AcDbMaterial
  3
ObjectDBX Classes
 90
     1153
280
     0
281
     0
  0
CLASS
  1
TABLESTYLE
  2
AcDbTableStyle
  3
ObjectDBX Classes
 90
     4095
280
     0
281
     0
  0
CLASS
  1
MLEADERSTYLE
  2
AcDbMLeaderStyle
  3
ACDB_MLEADERSTYLE_CLASS
 90
     4095
280
     0
281
     0
  0
CLASS
  1
SORTENTSTABLE
  2
AcDbSortentsTable
  3
ObjectDBX Classes
 90
        0
280
     0
281
     0
  0
ENDSEC
  0
SECTION
  2
TABLES
  0
TABLE
  2
VPORT
  5
8
330
0
100
AcDbSymbolTable
 70
     1
  0
VPORT
  5
5328
330
8
100
AcDbSymbolTableRecord
100
AcDbViewportTableRecord
  2
*Active
 70
     0
 10
0.0
 20
0.0
 11
1.0
 21
1.0
 12
-2163.277358901341
 22
1138.513299435572
 13
0.0
 23
0.0
 14
1.0
 24
1.0
 15
0.0
 25
0.0
 16
0.0
 26
0.0
 36
1.0
 17
0.0
 27
0.0
 37
0.0
 40
544.9390184409866
 41
2.082079343365253
 42
50.0
 43
0.0
 44
0.0
 50
0.0
 51
0.0
 71
    16
 72
   100
 73
     1
 74
     0
 75
     0
 76
     0
 77
     0
 78
     0
281
     0
 65
     1
110
0.0
120
0.0
130
0.0
111
1.0
121
0.0
131
0.0
112
0.0
122
1.0
132
0.0
 79
     0
146
0.0
  0
ENDTAB
  0
TABLE
  2
LTYPE
  5
5
330
0
100
AcDbSymbolTable
 70
    13
  0
LTYPE
  5
13
330
5
100
AcDbSymbolTableRecord
100
AcDbLinetypeTableRecord
  2
ByBlock
 70
     0
  3

 72
    65
 73
     0
 40
0.0
  0
LTYPE
  5
14
330
5
100
AcDbSymbolTableRecord
100
AcDbLinetypeTableRecord
  2
ByLayer
 70
     0
  3

 72
    65
 73
     0
 40
0.0
  0
LTYPE
  5
15
330
5
100
AcDbSymbolTableRecord
100
AcDbLinetypeTableRecord
  2
CONTINUOUS
 70
     0
  3
実線
 72
    65
 73
     0
 40
0.0
  0
LTYPE
  5
2D
330
5
100
AcDbSymbolTableRecord
100
AcDbLinetypeTableRecord
  2
DASHED
 70
     0
  3
破線A
 72
    65
 73
     2
 40
7.5
 49
5.0
 74
     0
 49
-2.5
 74
     0
  0
LTYPE
  5
2E
330
5
100
AcDbSymbolTableRecord
100
AcDbLinetypeTableRecord
  2
DASHEDX2
 70
     0
  3
破線B
 72
    65
 73
     2
 40
15.0
 49
10.0
 74
     0
 49
-5.0
 74
     0
  0
LTYPE
  5
2F
330
5
100
AcDbSymbolTableRecord
100
AcDbLinetypeTableRecord
  2
DASHDOT
 70
     0
  3
１点鎖線A
 72
    65
 73
     4
 40
10.0
 49
5.0
 74
     0
 49
-2.5
 74
     0
 49
0.0
 74
     0
 49
-2.5
 74
     0
  0
LTYPE
  5
30
330
5
100
AcDbSymbolTableRecord
100
AcDbLinetypeTableRecord
  2
DASHDOTX2
 70
     0
  3
１点鎖線B
 72
    65
 73
     4
 40
20.0
 49
10.0
 74
     0
 49
-5.0
 74
     0
 49
0.0
 74
     0
 49
-5.0
 74
     0
  0
LTYPE
  5
31
330
5
100
AcDbSymbolTableRecord
100
AcDbLinetypeTableRecord
  2
DIVIDE2
 70
     0
  3
２点鎖線A
 72
    65
 73
     6
 40
6.25
 49
2.5
 74
     0
 49
-1.25
 74
     0
 49
0.0
 74
     0
 49
-1.25
 74
     0
 49
0.0
 74
     0
 49
-1.25
 74
     0
  0
LTYPE
  5
32
330
5
100
AcDbSymbolTableRecord
100
AcDbLinetypeTableRecord
  2
DIVIDE
 70
     0
  3
２点鎖線B
 72
    65
 73
     6
 40
12.5
 49
5.0
 74
     0
 49
-2.5
 74
     0
 49
0.0
 74
     0
 49
-2.5
 74
     0
 49
0.0
 74
     0
 49
-2.5
 74
     0
  0
LTYPE
  5
33
330
5
100
AcDbSymbolTableRecord
100
AcDbLinetypeTableRecord
  2
DOT
 70
     0
  3
点線A
 72
    65
 73
     2
 40
2.5
 49
0.0
 74
     0
 49
-2.5
 74
     0
  0
LTYPE
  5
34
330
5
100
AcDbSymbolTableRecord
100
AcDbLinetypeTableRecord
  2
DOTX2
 70
     0
  3
点線B
 72
    65
 73
     2
 40
5.0
 49
0.0
 74
     0
 49
-5.0
 74
     0
  0
LTYPE
  5
36C
330
5
100
AcDbSymbolTableRecord
100
AcDbLinetypeTableRecord
  2
DASHED1
 70
     0
  3
--  --  --  --  --  --  --  --  
 72
    65
 73
     2
 40
2.5
 49
1.25
 74
     0
 49
-1.25
 74
     0
  0
LTYPE
  5
36D
330
5
100
AcDbSymbolTableRecord
100
AcDbLinetypeTableRecord
  2
DASHED3
 70
     0
  3
------  ------  ------  ------  
 72
    65
 73
     2
 40
5.0
 49
3.75
 74
     0
 49
-1.25
 74
     0
  0
LTYPE
  5
36E
330
5
100
AcDbSymbolTableRecord
100
AcDbLinetypeTableRecord
  2
CENTER1
 70
     0
  3
----- - ----- - ----- - ----- - 
 72
    65
 73
     4
 40
10.0
 49
6.25
 74
     0
 49
-1.25
 74
     0
 49
1.25
 74
     0
 49
-1.25
 74
     0
  0
LTYPE
  5
36F
330
5
100
AcDbSymbolTableRecord
100
AcDbLinetypeTableRecord
  2
CENTER2
 70
     0
  3
----------  --  ----------  --  
 72
    65
 73
     4
 40
20.0
 49
12.5
 74
     0
 49
-2.5
 74
     0
 49
2.5
 74
     0
 49
-2.5
 74
     0
  0
ENDTAB
  0
TABLE
  2
LAYER
  5
2
102
{ACAD_XDICTIONARY
360
53E1
102
}
330
0
100
AcDbSymbolTable
 70
    14
  0
LAYER
  5
10
330
2
100
AcDbSymbolTableRecord
100
AcDbLayerTableRecord
  2
ﾚｲﾔ1
 70
     0
 62
     7
  6
CONTINUOUS
370
    -3
390
F
  0
LAYER
  5
4C
330
2
100
AcDbSymbolTableRecord
100
AcDbLayerTableRecord
  2
0
 70
     0
 62
     7
  6
CONTINUOUS
370
    -3
390
F
  0
LAYER
  5
16B
330
2
100
AcDbSymbolTableRecord
100
AcDbLayerTableRecord
  2
図面
 70
     0
 62
     7
  6
CONTINUOUS
370
    40
390
F
  0
LAYER
  5
16C
330
2
100
AcDbSymbolTableRecord
100
AcDbLayerTableRecord
  2
図面枠
 70
     0
 62
     5
  6
CONTINUOUS
370
    -3
390
F
  0
LAYER
  5
1AB
330
2
100
AcDbSymbolTableRecord
100
AcDbLayerTableRecord
  2
下図
 70
     0
 62
     8
  6
DASHDOT
290
     0
370
    -3
390
F
  0
LAYER
  5
1EA
330
2
100
AcDbSymbolTableRecord
100
AcDbLayerTableRecord
  2
隠れ線
 70
     0
 62
     1
  6
DASHED
370
    -3
390
F
  0
LAYER
  5
1EB
330
2
100
AcDbSymbolTableRecord
100
AcDbLayerTableRecord
  2
文字
 70
     0
 62
     7
  6
CONTINUOUS
370
    -3
390
F
  0
LAYER
  5
370
330
2
100
AcDbSymbolTableRecord
100
AcDbLayerTableRecord
  2
_1-0_
 70
     0
 62
     7
  6
CONTINUOUS
370
    -3
390
F
  0
LAYER
  5
371
330
2
100
AcDbSymbolTableRecord
100
AcDbLayerTableRecord
  2
_2-0_
 70
     0
 62
     7
  6
CONTINUOUS
370
    -3
390
F
  0
LAYER
  5
372
330
2
100
AcDbSymbolTableRecord
100
AcDbLayerTableRecord
  2
_3-0_
 70
     0
 62
     7
  6
CONTINUOUS
370
    -3
390
F
  0
LAYER
  5
373
330
2
100
AcDbSymbolTableRecord
100
AcDbLayerTableRecord
  2
_4-0_
 70
     0
 62
     7
  6
CONTINUOUS
370
    -3
390
F
  0
LAYER
  5
374
330
2
100
AcDbSymbolTableRecord
100
AcDbLayerTableRecord
  2
寸法
 70
     0
 62
     1
  6
CONTINUOUS
370
    -3
390
F
  0
LAYER
  5
28AB
330
2
100
AcDbSymbolTableRecord
100
AcDbLayerTableRecord
  2
Defpoints
 70
     0
 62
     7
  6
CONTINUOUS
290
     0
370
    -3
390
F
  0
LAYER
  5
40F3
330
2
100
AcDbSymbolTableRecord
100
AcDbLayerTableRecord
  2
LEVEL001
 70
     0
 62
     7
  6
CONTINUOUS
370
    -3
390
F
  0
ENDTAB
  0
TABLE
  2
STYLE
  5
3
330
0
100
AcDbSymbolTable
 70
    14
  0
STYLE
  5
11
330
3
100
AcDbSymbolTableRecord
100
AcDbTextStyleTableRecord
  2
STANDARD
 70
     0
 40
1.0
 41
1.0
 50
0.0
 71
     0
 42
1.0
  3
TXT
  4
BIGFONT
  0
STYLE
  5
22
330
3
100
AcDbSymbolTableRecord
100
AcDbTextStyleTableRecord
  2
TATE
 70
     4
 40
1.0
 41
1.0
 50
0.0
 71
     0
 42
1.0
  3
TXT
  4
BIGFONT
  0
STYLE
  5
23
330
3
100
AcDbSymbolTableRecord
100
AcDbTextStyleTableRecord
  2
TextStyle01
 70
     0
 40
0.0
 41
1.0
 50
0.0
 71
     0
 42
0.0
  3
TXT
  4
BIGFONT
  0
STYLE
  5
24
330
3
100
AcDbSymbolTableRecord
100
AcDbTextStyleTableRecord
  2
TextStyle02
 70
     0
 40
0.0
 41
1.0
 50
0.0
 71
     0
 42
0.0
  3
TXT
  4
BIGFONT
  0
STYLE
  5
25
330
3
100
AcDbSymbolTableRecord
100
AcDbTextStyleTableRecord
  2
TextStyle03
 70
     0
 40
0.0
 41
1.0
 50
0.0
 71
     0
 42
0.0
  3
TXT
  4
BIGFONT
  0
STYLE
  5
26
330
3
100
AcDbSymbolTableRecord
100
AcDbTextStyleTableRecord
  2
TextStyle04
 70
     0
 40
0.0
 41
1.0
 50
0.0
 71
     0
 42
0.0
  3
TXT
  4
BIGFONT
  0
STYLE
  5
27
330
3
100
AcDbSymbolTableRecord
100
AcDbTextStyleTableRecord
  2
TextStyle05
 70
     0
 40
0.0
 41
1.0
 50
0.0
 71
     0
 42
0.0
  3
TXT
  4
BIGFONT
  0
STYLE
  5
28
330
3
100
AcDbSymbolTableRecord
100
AcDbTextStyleTableRecord
  2
TextStyle06
 70
     0
 40
0.0
 41
1.0
 50
0.0
 71
     0
 42
0.0
  3

  4

  0
STYLE
  5
29
330
3
100
AcDbSymbolTableRecord
100
AcDbTextStyleTableRecord
  2
TextStyle07
 70
     0
 40
0.0
 41
1.0
 50
0.0
 71
     0
 42
0.0
  3

  4

  0
STYLE
  5
2A
330
3
100
AcDbSymbolTableRecord
100
AcDbTextStyleTableRecord
  2
TextStyle08
 70
     0
 40
0.0
 41
1.0
 50
0.0
 71
     0
 42
0.0
  3

  4

  0
STYLE
  5
2B
330
3
100
AcDbSymbolTableRecord
100
AcDbTextStyleTableRecord
  2
TextStyle09
 70
     0
 40
0.0
 41
1.0
 50
0.0
 71
     0
 42
0.0
  3

  4

  0
STYLE
  5
2C
330
3
100
AcDbSymbolTableRecord
100
AcDbTextStyleTableRecord
  2
TextStyle10
 70
     0
 40
0.0
 41
1.0
 50
0.0
 71
     0
 42
0.0
  3

  4

  0
STYLE
  5
205
330
3
100
AcDbSymbolTableRecord
100
AcDbTextStyleTableRecord
  2
WMF-ＭＳ Ｐ明朝0
 70
     0
 40
0.0
 41
1.0
 50
0.0
 71
     0
 42
1.0
  3
MS PMincho.ttf
  4

1001
ACAD
1000
MS PMincho
1071
    32768
  0
STYLE
  5
54DB
330
3
100
AcDbSymbolTableRecord
100
AcDbTextStyleTableRecord
  2
DIMFONT1
 70
     0
 40
0.0
 41
1.193548387096774
 50
0.0
 71
     0
 42
1.0
  3

  4

1001
ACAD
1000
MS PGothic
1071
    32818
  0
ENDTAB
  0
TABLE
  2
VIEW
  5
6
330
0
100
AcDbSymbolTable
 70
     0
  0
ENDTAB
  0
TABLE
  2
UCS
  5
7
330
0
100
AcDbSymbolTable
 70
     0
  0
ENDTAB
  0
TABLE
  2
APPID
  5
9
330
0
100
AcDbSymbolTable
 70
     5
  0
APPID
  5
12
330
9
100
AcDbSymbolTableRecord
100
AcDbRegAppTableRecord
  2
ACAD
 70
     0
  0
APPID
  5
5381
330
9
100
AcDbSymbolTableRecord
100
AcDbRegAppTableRecord
  2
ACAD_NAV_VCDISPLAY
 70
     0
  0
APPID
  5
543E
330
9
100
AcDbSymbolTableRecord
100
AcDbRegAppTableRecord
  2
FX_DIMP_FAV_VERSION
 70
     0
  0
APPID
  5
54A6
330
9
100
AcDbSymbolTableRecord
100
AcDbRegAppTableRecord
  2
PLOTTRANSPARENCY
 70
     0
  0
APPID
  5
54D9
330
9
100
AcDbSymbolTableRecord
100
AcDbRegAppTableRecord
  2
AcadAnnotative
 70
     0
  0
ENDTAB
  0
TABLE
  2
DIMSTYLE
  5
A
330
0
100
AcDbSymbolTable
 70
     3
100
AcDbDimStyleTable
  0
DIMSTYLE
105
142
102
{ACAD_REACTORS
330
4988
330
4A12
330
4C36
330
4CC4
330
4D11
330
4D66
330
4E1B
330
4E1C
330
4F56
102
}
330
A
100
AcDbSymbolTableRecord
100
AcDbDimStyleTableRecord
  2
Standard
 70
     0
178
     0
340
11
  0
DIMSTYLE
105
54DA
330
A
100
AcDbSymbolTableRecord
100
AcDbDimStyleTableRecord
  2
DIM001
 70
     0
 40
10.0
 41
1.0
 42
0.0
 44
1.0
 45
1.0
 73
     0
 74
     0
 77
     3
140
1.216216216216216
147
0.2
172
     1
176
     7
177
     7
271
     0
178
     7
271
     0
273
     6
340
54DB
  0
DIMSTYLE
105
54DC
330
A
100
AcDbSymbolTableRecord
100
AcDbDimStyleTableRecord
  2
DIM002
 70
     0
 40
10.0
 41
1.0
 42
0.0
 44
0.0
 45
1.0
 73
     0
 74
     0
 77
     3
140
1.216216216216216
147
0.2
172
     1
176
     7
177
     7
271
     0
178
     7
271
     0
273
     6
340
54DB
  0
ENDTAB
  0
TABLE
  2
BLOCK_RECORD
  5
1
330
0
100
AcDbSymbolTable
 70
    12
  0
BLOCK_RECORD
  5
1E
102
{ACAD_XDICTIONARY
360
54A7
102
}
330
1
100
AcDbSymbolTableRecord
100
AcDbBlockTableRecord
  2
*Model_Space
340
21
  0
BLOCK_RECORD
  5
1A
330
1
100
AcDbSymbolTableRecord
100
AcDbBlockTableRecord
  2
*Paper_Space
340
1D
  0
BLOCK_RECORD
  5
1C1
330
1
100
AcDbSymbolTableRecord
100
AcDbBlockTableRecord
  2
_Open30
340
0
102
{BLKREFS
331
5052
331
5053
102
}
  0
BLOCK_RECORD
  5
473D
330
1
100
AcDbSymbolTableRecord
100
AcDbBlockTableRecord
  2
_Open90
340
0
  0
BLOCK_RECORD
  5
4989
330
1
100
AcDbSymbolTableRecord
100
AcDbBlockTableRecord
  2
*D2
340
0
  0
BLOCK_RECORD
  5
4A13
330
1
100
AcDbSymbolTableRecord
100
AcDbBlockTableRecord
  2
*D3
340
0
  0
BLOCK_RECORD
  5
4C37
330
1
100
AcDbSymbolTableRecord
100
AcDbBlockTableRecord
  2
*D4
340
0
  0
BLOCK_RECORD
  5
4CC5
330
1
100
AcDbSymbolTableRecord
100
AcDbBlockTableRecord
  2
*D5
340
0
  0
BLOCK_RECORD
  5
4D12
330
1
100
AcDbSymbolTableRecord
100
AcDbBlockTableRecord
  2
*D6
340
0
  0
BLOCK_RECORD
  5
4D67
330
1
100
AcDbSymbolTableRecord
100
AcDbBlockTableRecord
  2
*D7
340
0
  0
BLOCK_RECORD
  5
4E85
330
1
100
AcDbSymbolTableRecord
100
AcDbBlockTableRecord
  2
*D8
340
0
  0
BLOCK_RECORD
  5
4E91
330
1
100
AcDbSymbolTableRecord
100
AcDbBlockTableRecord
  2
*D9
340
0
  0
BLOCK_RECORD
  5
4F57
330
1
100
AcDbSymbolTableRecord
100
AcDbBlockTableRecord
  2
*D10
340
0
  0
BLOCK_RECORD
  5
51BF
330
1
100
AcDbSymbolTableRecord
100
AcDbBlockTableRecord
  2
_Open
340
0
102
{BLKREFS
331
5249
331
524A
331
5251
331
5252
331
525C
331
525D
331
52F4
331
52F5
331
5236
331
5237
331
521B
331
521C
331
5212
331
5213
331
522D
331
522E
102
}
  0
ENDTAB
  0
ENDSEC
  0
SECTION
  2
BLOCKS
  0
BLOCK
  5
4F
330
1E
100
AcDbEntity
  8
0
100
AcDbBlockBegin
  2
*Model_Space
 70
     0
 10
0.0
 20
0.0
 30
0.0
  3
*Model_Space
  1

  0
ENDBLK
  5
50
330
1E
100
AcDbEntity
  8
0
100
AcDbBlockEnd
  0
BLOCK
  5
4D
330
1A
100
AcDbEntity
 67
     1
  8
0
100
AcDbBlockBegin
  2
*Paper_Space
 70
     0
 10
0.0
 20
0.0
 30
0.0
  3
*Paper_Space
  1

  0
ENDBLK
  5
4E
330
1A
100
AcDbEntity
 67
     1
  8
0
100
AcDbBlockEnd
  0
BLOCK
  5
1C5
330
1C1
100
AcDbEntity
  8
0
100
AcDbBlockBegin
  2
_Open30
 70
     0
 10
0.0
 20
0.0
 30
0.0
  3
_Open30
  1

  0
LINE
  5
1C2
330
1C1
100
AcDbEntity
  8
下図
 62
     0
370
    -2
100
AcDbLine
 10
-1.0
 20
0.26794919
 30
0.0
 11
0.0
 21
0.0
 31
0.0
  0
LINE
  5
1C3
330
1C1
100
AcDbEntity
  8
下図
 62
     0
370
    -2
100
AcDbLine
 10
0.0
 20
0.0
 30
0.0
 11
-1.0
 21
-0.26794919
 31
0.0
  0
LINE
  5
1C4
330
1C1
100
AcDbEntity
  8
下図
 62
     0
370
    -2
100
AcDbLine
 10
0.0
 20
0.0
 30
0.0
 11
-1.0
 21
0.0
 31
0.0
  0
ENDBLK
  5
1C6
330
1C1
100
AcDbEntity
  8
0
100
AcDbBlockEnd
  0
BLOCK
  5
4741
330
473D
100
AcDbEntity
  8
0
100
AcDbBlockBegin
  2
_Open90
 70
     0
 10
0.0
 20
0.0
 30
0.0
  3
_Open90
  1

  0
LINE
  5
473E
330
473D
100
AcDbEntity
  8
0
  6
ByBlock
 62
     0
370
    -2
100
AcDbLine
 10
-0.5
 20
0.5
 30
0.0
 11
0.0
 21
0.0
 31
0.0
  0
LINE
  5
473F
330
473D
100
AcDbEntity
  8
0
  6
ByBlock
 62
     0
370
    -2
100
AcDbLine
 10
0.0
 20
0.0
 30
0.0
 11
-0.5
 21
-0.5
 31
0.0
  0
LINE
  5
4740
330
473D
100
AcDbEntity
  8
0
  6
ByBlock
 62
     0
370
    -2
100
AcDbLine
 10
0.0
 20
0.0
 30
0.0
 11
-1.0
 21
0.0
 31
0.0
  0
ENDBLK
  5
4742
330
473D
100
AcDbEntity
  8
0
100
AcDbBlockEnd
  0
BLOCK
  5
4993
330
4989
100
AcDbEntity
  8
0
100
AcDbBlockBegin
  2
*D2
 70
     1
 10
0.0
 20
0.0
 30
0.0
  3
*D2
  1

  0
LINE
  5
5245
330
4989
100
AcDbEntity
  8
ﾚｲﾔ1
 62
     1
370
    -2
100
AcDbLine
 10
-2437.476248306767
 20
1042.525724090935
 30
0.0
 11
-2319.596023092716
 21
1042.525724090935
 31
0.0
  0
LINE
  5
5246
330
4989
100
AcDbEntity
  8
ﾚｲﾔ1
 62
     1
370
    -2
100
AcDbLine
 10
-2437.652549601303
 20
1063.52417061659
 30
0.0
 11
-2319.596023092716
 21
1063.52417061659
 31
0.0
  0
LINE
  5
5247
330
4989
100
AcDbEntity
  8
ﾚｲﾔ1
 62
     1
370
    -2
100
AcDbLine
 10
-2320.096023092716
 20
1032.525724090935
 30
0.0
 11
-2320.096023092716
 21
1022.525724090935
 31
0.0
  0
LINE
  5
5248
330
4989
100
AcDbEntity
  8
ﾚｲﾔ1
 62
     1
370
    -2
100
AcDbLine
 10
-2320.096023092716
 20
1073.52417061659
 30
0.0
 11
-2320.096023092716
 21
1083.52417061659
 31
0.0
  0
INSERT
  5
5249
330
4989
100
AcDbEntity
  8
ﾚｲﾔ1
 62
     1
370
    -2
100
AcDbBlockReference
  2
_Open
 10
-2320.096023092716
 20
1042.525724090935
 30
0.0
 41
10.0
 42
10.0
 43
10.0
 50
90.0
  0
INSERT
  5
524A
330
4989
100
AcDbEntity
  8
ﾚｲﾔ1
 62
     1
370
    -2
100
AcDbBlockReference
  2
_Open
 10
-2320.096023092716
 20
1063.52417061659
 30
0.0
 41
10.0
 42
10.0
 43
10.0
 50
270.0
  0
MTEXT
  5
524B
330
4989
100
AcDbEntity
  8
ﾚｲﾔ1
 62
     1
100
AcDbMText
 10
-2329.491207515669
 20
1055.044262028495
 30
0.0
 40
10.0
 41
0.0
 71
     5
 72
     1
  1
\A1;21
  7
TextStyle01
 11
0.0
 21
1.0
 31
0.0
 73
     1
 44
1.0
  0
POINT
  5
524C
330
4989
100
AcDbEntity
  8
Defpoints
 62
     0
100
AcDbPoint
 10
-2437.538748306767
 20
1042.525724090935
 30
0.0
  0
POINT
  5
524D
330
4989
100
AcDbEntity
  8
Defpoints
 62
     0
100
AcDbPoint
 10
-2437.715049601303
 20
1063.52417061659
 30
0.0
  0
POINT
  5
524E
330
4989
100
AcDbEntity
  8
Defpoints
 62
     0
100
AcDbPoint
 10
-2320.096023092716
 20
1063.52417061659
 30
0.0
  0
ENDBLK
  5
4994
330
4989
100
AcDbEntity
  8
0
100
AcDbBlockEnd
  0
BLOCK
  5
4A1D
330
4A13
100
AcDbEntity
  8
0
100
AcDbBlockBegin
  2
*D3
 70
     1
 10
0.0
 20
0.0
 30
0.0
  3
*D3
  1

  0
LINE
  5
524F
330
4A13
100
AcDbEntity
  8
ﾚｲﾔ1
 62
     1
370
    -2
100
AcDbLine
 10
-2353.205044093814
 20
1063.52417061659
 30
0.0
 11
-2352.50761402551
 21
1063.52417061659
 31
0.0
  0
ARC
  5
5250
330
4A13
100
AcDbEntity
  8
ﾚｲﾔ1
 62
     1
370
    -2
100
AcDbCircle
 10
-2437.715049601303
 20
1063.52417061659
 30
0.0
 40
84.70743557579308
100
AcDbArc
 50
2.02929438082598
 51
3.3651347816047
  0
INSERT
  5
5251
330
4A13
100
AcDbEntity
  8
ﾚｲﾔ1
 62
     1
370
    -2
100
AcDbBlockReference
  2
_Open
 10
-2353.00761402551
 20
1063.52417061659
 30
0.0
 41
3.0
 42
3.0
 43
3.0
 50
271.014647190413
  0
INSERT
  5
5252
330
4A13
100
AcDbEntity
  8
ﾚｲﾔ1
 62
     1
370
    -2
100
AcDbBlockReference
  2
_Open
 10
-2353.382773940067
 20
1071.487644960391
 30
0.0
 41
3.0
 42
3.0
 43
3.0
 50
94.3797819720177
  0
MTEXT
  5
5253
330
4A13
100
AcDbEntity
  8
ﾚｲﾔ1
 62
     1
100
AcDbMText
 10
-2347.108103001813
 20
1067.792671132445
 30
0.0
 40
10.0
 41
0.0
 71
     5
 72
     1
  1
\A1;5%%d
  7
TextStyle01
 11
0.04705788989358528
 21
-0.9988921638489129
 31
0.0
 73
     1
 44
1.0
  0
POINT
  5
5254
330
4A13
100
AcDbEntity
  8
Defpoints
 62
     0
100
AcDbPoint
 10
-2353.049325842395
 20
1066.182151468182
 30
0.0
  0
POINT
  5
5255
330
4A13
100
AcDbEntity
  8
Defpoints
 62
     0
100
AcDbPoint
 10
-2437.715049601303
 20
1063.52417061659
 30
0.0
  0
POINT
  5
5256
330
4A13
100
AcDbEntity
  8
Defpoints
 62
     0
100
AcDbPoint
 10
-2437.715049601303
 20
1063.52417061659
 30
0.0
  0
POINT
  5
5257
330
4A13
100
AcDbEntity
  8
Defpoints
 62
     0
100
AcDbPoint
 10
-2353.267544093814
 20
1063.52417061659
 30
0.0
  0
POINT
  5
5258
330
4A13
100
AcDbEntity
  8
Defpoints
 62
     0
100
AcDbPoint
 10
-2353.382773940064
 20
1071.487644960392
 30
0.0
  0
ENDBLK
  5
4A1E
330
4A13
100
AcDbEntity
  8
0
100
AcDbBlockEnd
  0
BLOCK
  5
4C41
330
4C37
100
AcDbEntity
  8
0
100
AcDbBlockBegin
  2
*D4
 70
     1
 10
0.0
 20
0.0
 30
0.0
  3
*D4
  1

  0
LINE
  5
5259
330
4C37
100
AcDbEntity
  8
ﾚｲﾔ1
 62
     1
370
    -2
100
AcDbLine
 10
-2582.676826068158
 20
1133.832173097184
 30
0.0
 11
-2582.676826068158
 21
1151.140463715567
 31
0.0
  0
LINE
  5
525A
330
4C37
100
AcDbEntity
  8
ﾚｲﾔ1
 62
     1
370
    -2
100
AcDbLine
 10
-2462.578313648895
 20
1133.834624243877
 30
0.0
 11
-2462.578313648895
 21
1151.140463715567
 31
0.0
  0
LINE
  5
525B
330
4C37
100
AcDbEntity
  8
ﾚｲﾔ1
 62
     1
370
    -2
100
AcDbLine
 10
-2572.676826068158
 20
1150.640463715567
 30
0.0
 11
-2472.578313648895
 21
1150.640463715567
 31
0.0
  0
INSERT
  5
525C
330
4C37
100
AcDbEntity
  8
ﾚｲﾔ1
 62
     1
370
    -2
100
AcDbBlockReference
  2
_Open
 10
-2582.676826068158
 20
1150.640463715567
 30
0.0
 41
10.0
 42
10.0
 43
10.0
 50
180.0
  0
INSERT
  5
525D
330
4C37
100
AcDbEntity
  8
ﾚｲﾔ1
 62
     1
370
    -2
100
AcDbBlockReference
  2
_Open
 10
-2462.578313648895
 20
1150.640463715567
 30
0.0
 41
10.0
 42
10.0
 43
10.0
  0
MTEXT
  5
525E
330
4C37
100
AcDbEntity
  8
ﾚｲﾔ1
 62
     1
100
AcDbMText
 10
-2522.981185361944
 20
1157.671816484512
 30
0.0
 40
10.0
 41
0.0
 71
     5
 72
     1
  1
\A1;φ120
  7
TextStyle01
 73
     1
 44
1.0
  0
POINT
  5
525F
330
4C37
100
AcDbEntity
  8
Defpoints
 62
     0
100
AcDbPoint
 10
-2582.676826068158
 20
1133.769673097184
 30
0.0
  0
POINT
  5
5260
330
4C37
100
AcDbEntity
  8
Defpoints
 62
     0
100
AcDbPoint
 10
-2462.578313648895
 20
1133.772124243877
 30
0.0
  0
POINT
  5
5261
330
4C37
100
AcDbEntity
  8
Defpoints
 62
     0
100
AcDbPoint
 10
-2462.578313648895
 20
1150.640463715567
 30
0.0
  0
ENDBLK
  5
4C42
330
4C37
100
AcDbEntity
  8
0
100
AcDbBlockEnd
  0
BLOCK
  5
4CCF
330
4CC5
100
AcDbEntity
  8
0
100
AcDbBlockBegin
  2
*D5
 70
     1
 10
0.0
 20
0.0
 30
0.0
  3
*D5
  1

  0
LINE
  5
52F1
330
4CC5
100
AcDbEntity
  8
ﾚｲﾔ1
 62
     1
370
    -2
100
AcDbLine
 10
-2462.515813648895
 20
1133.83460376226
 30
0.0
 11
-2308.12845463675
 21
1133.83460376226
 31
0.0
  0
LINE
  5
52F2
330
4CC5
100
AcDbEntity
  8
ﾚｲﾔ1
 62
     1
370
    -2
100
AcDbLine
 10
-2437.538748306767
 20
1042.525724090935
 30
0.0
 11
-2308.12845463675
 21
1042.525724090935
 31
0.0
  0
LINE
  5
52F3
330
4CC5
100
AcDbEntity
  8
ﾚｲﾔ1
 62
     1
370
    -2
100
AcDbLine
 10
-2308.62845463675
 20
1123.83460376226
 30
0.0
 11
-2308.62845463675
 21
1052.525724090935
 31
0.0
  0
INSERT
  5
52F4
330
4CC5
100
AcDbEntity
  8
ﾚｲﾔ1
 62
     1
370
    -2
100
AcDbBlockReference
  2
_Open
 10
-2308.62845463675
 20
1133.83460376226
 30
0.0
 41
10.0
 42
10.0
 43
10.0
 50
90.0
  0
INSERT
  5
52F5
330
4CC5
100
AcDbEntity
  8
ﾚｲﾔ1
 62
     1
370
    -2
100
AcDbBlockReference
  2
_Open
 10
-2308.62845463675
 20
1042.525724090935
 30
0.0
 41
10.0
 42
10.0
 43
10.0
 50
270.0
  0
MTEXT
  5
52F6
330
4CC5
100
AcDbEntity
  8
ﾚｲﾔ1
 62
     1
100
AcDbMText
 10
-2314.12845463675
 20
1088.180163926597
 30
0.0
 40
10.0
 41
0.0
 71
     5
 72
     1
  1
\A1;91
  7
TextStyle01
 11
0.0
 21
1.0
 31
0.0
 73
     1
 44
1.0
  0
POINT
  5
52F7
330
4CC5
100
AcDbEntity
  8
Defpoints
 62
     0
100
AcDbPoint
 10
-2462.578313648895
 20
1133.83460376226
 30
0.0
  0
POINT
  5
52F8
330
4CC5
100
AcDbEntity
  8
Defpoints
 62
     0
100
AcDbPoint
 10
-2437.601248306767
 20
1042.525724090935
 30
0.0
  0
POINT
  5
52F9
330
4CC5
100
AcDbEntity
  8
Defpoints
 62
     0
100
AcDbPoint
 10
-2308.62845463675
 20
1042.525724090935
 30
0.0
  0
ENDBLK
  5
4CD0
330
4CC5
100
AcDbEntity
  8
0
100
AcDbBlockEnd
  0
BLOCK
  5
4D1C
330
4D12
100
AcDbEntity
  8
0
100
AcDbBlockBegin
  2
*D6
 70
     1
 10
0.0
 20
0.0
 30
0.0
  3
*D6
  1

  0
LINE
  5
5233
330
4D12
100
AcDbEntity
  8
ﾚｲﾔ1
 62
     1
370
    -2
100
AcDbLine
 10
-2607.842478248961
 20
1042.506458075383
 30
0.0
 11
-2607.842478248961
 21
1019.966271567739
 31
0.0
  0
LINE
  5
5234
330
4D12
100
AcDbEntity
  8
ﾚｲﾔ1
 62
     1
370
    -2
100
AcDbLine
 10
-2437.715049601303
 20
1042.463224090935
 30
0.0
 11
-2437.715049601303
 21
1019.966271567739
 31
0.0
  0
LINE
  5
5235
330
4D12
100
AcDbEntity
  8
ﾚｲﾔ1
 62
     1
370
    -2
100
AcDbLine
 10
-2597.842478248961
 20
1020.466271567739
 30
0.0
 11
-2447.715049601303
 21
1020.466271567739
 31
0.0
  0
INSERT
  5
5236
330
4D12
100
AcDbEntity
  8
ﾚｲﾔ1
 62
     1
370
    -2
100
AcDbBlockReference
  2
_Open
 10
-2607.842478248961
 20
1020.466271567739
 30
0.0
 41
10.0
 42
10.0
 43
10.0
 50
180.0
  0
INSERT
  5
5237
330
4D12
100
AcDbEntity
  8
ﾚｲﾔ1
 62
     1
370
    -2
100
AcDbBlockReference
  2
_Open
 10
-2437.715049601303
 20
1020.466271567739
 30
0.0
 41
10.0
 42
10.0
 43
10.0
  0
MTEXT
  5
5238
330
4D12
100
AcDbEntity
  8
ﾚｲﾔ1
 62
     1
100
AcDbMText
 10
-2523.902356255131
 20
1028.013812604573
 30
0.0
 40
10.0
 41
0.0
 71
     5
 72
     1
  1
\A1;φ170
  7
TextStyle01
 73
     1
 44
1.0
  0
POINT
  5
5239
330
4D12
100
AcDbEntity
  8
Defpoints
 62
     0
100
AcDbPoint
 10
-2607.842478248961
 20
1042.568958075383
 30
0.0
  0
POINT
  5
523A
330
4D12
100
AcDbEntity
  8
Defpoints
 62
     0
100
AcDbPoint
 10
-2437.715049601303
 20
1042.525724090935
 30
0.0
  0
POINT
  5
523B
330
4D12
100
AcDbEntity
  8
Defpoints
 62
     0
100
AcDbPoint
 10
-2437.715049601303
 20
1020.466271567739
 30
0.0
  0
ENDBLK
  5
4D1D
330
4D12
100
AcDbEntity
  8
0
100
AcDbBlockEnd
  0
BLOCK
  5
4D72
330
4D67
100
AcDbEntity
  8
0
100
AcDbBlockBegin
  2
*D7
 70
     1
 10
0.0
 20
0.0
 30
0.0
  3
*D7
  1

  0
LINE
  5
504E
330
4D67
100
AcDbEntity
  8
ﾚｲﾔ1
 62
     1
370
    -2
100
AcDbLine
 10
-2462.515813648895
 20
1133.834624243877
 30
0.0
 11
-2352.037833810754
 21
1133.834624243877
 31
0.0
  0
LINE
  5
504F
330
4D67
100
AcDbEntity
  8
ﾚｲﾔ1
 62
     1
370
    -2
100
AcDbLine
 10
-2437.718990600869
 20
1132.702122514328
 30
0.0
 11
-2352.037833810754
 21
1132.702122514328
 31
0.0
  0
LINE
  5
5050
330
4D67
100
AcDbEntity
  8
ﾚｲﾔ1
 62
     1
370
    -2
100
AcDbLine
 10
-2352.537833810754
 20
1136.834624243877
 30
0.0
 11
-2352.537833810754
 21
1139.834624243877
 31
0.0
  0
LINE
  5
5051
330
4D67
100
AcDbEntity
  8
ﾚｲﾔ1
 62
     1
370
    -2
100
AcDbLine
 10
-2352.537833810754
 20
1129.702122514328
 30
0.0
 11
-2352.537833810754
 21
1126.702122514328
 31
0.0
  0
INSERT
  5
5052
330
4D67
100
AcDbEntity
  8
ﾚｲﾔ1
 62
     1
370
    -2
100
AcDbBlockReference
  2
_Open30
 10
-2352.537833810754
 20
1133.834624243877
 30
0.0
 41
3.0
 42
3.0
 43
3.0
 50
270.0
  0
INSERT
  5
5053
330
4D67
100
AcDbEntity
  8
ﾚｲﾔ1
 62
     1
370
    -2
100
AcDbBlockReference
  2
_Open30
 10
-2352.537833810754
 20
1132.702122514328
 30
0.0
 41
3.0
 42
3.0
 43
3.0
 50
90.0
  0
MTEXT
  5
5054
330
4D67
100
AcDbEntity
  8
ﾚｲﾔ1
 62
     1
100
AcDbMText
 10
-2343.787833810754
 20
1133.268373379103
 30
0.0
 40
5.0
 41
0.0
 71
     5
 72
     1
  1
\A1;1
  7
TextStyle01
 11
0.0
 21
1.0
 31
0.0
 73
     1
 44
1.0
  0
POINT
  5
5055
330
4D67
100
AcDbEntity
  8
Defpoints
 62
     0
100
AcDbPoint
 10
-2462.578313648895
 20
1133.834624243877
 30
0.0
  0
POINT
  5
5056
330
4D67
100
AcDbEntity
  8
Defpoints
 62
     0
100
AcDbPoint
 10
-2437.781490600869
 20
1132.702122514328
 30
0.0
  0
POINT
  5
5057
330
4D67
100
AcDbEntity
  8
Defpoints
 62
     0
100
AcDbPoint
 10
-2352.537833810754
 20
1132.702122514328
 30
0.0
  0
ENDBLK
  5
4D73
330
4D67
100
AcDbEntity
  8
0
100
AcDbBlockEnd
  0
BLOCK
  5
4E8F
330
4E85
100
AcDbEntity
  8
0
100
AcDbBlockBegin
  2
*D8
 70
     1
 10
0.0
 20
0.0
 30
0.0
  3
*D8
  1

  0
LINE
  5
5218
330
4E85
100
AcDbEntity
  8
ﾚｲﾔ1
 62
     1
370
    -2
100
AcDbLine
 10
-2411.298384022296
 20
1319.127537828244
 30
0.0
 11
-2335.254083715916
 21
1319.127537828244
 31
0.0
  0
LINE
  5
5219
330
4E85
100
AcDbEntity
  8
ﾚｲﾔ1
 62
     1
370
    -2
100
AcDbLine
 10
-2411.104490974181
 20
1199.219325699064
 30
0.0
 11
-2335.254083715916
 21
1199.219325699064
 31
0.0
  0
LINE
  5
521A
330
4E85
100
AcDbEntity
  8
ﾚｲﾔ1
 62
     1
370
    -2
100
AcDbLine
 10
-2335.754083715916
 20
1309.127537828244
 30
0.0
 11
-2335.754083715916
 21
1209.219325699064
 31
0.0
  0
INSERT
  5
521B
330
4E85
100
AcDbEntity
  8
ﾚｲﾔ1
 62
     1
370
    -2
100
AcDbBlockReference
  2
_Open
 10
-2335.754083715916
 20
1319.127537828244
 30
0.0
 41
10.0
 42
10.0
 43
10.0
 50
90.0
  0
INSERT
  5
521C
330
4E85
100
AcDbEntity
  8
ﾚｲﾔ1
 62
     1
370
    -2
100
AcDbBlockReference
  2
_Open
 10
-2335.754083715916
 20
1199.219325699064
 30
0.0
 41
10.0
 42
10.0
 43
10.0
 50
270.0
  0
MTEXT
  5
521D
330
4E85
100
AcDbEntity
  8
ﾚｲﾔ1
 62
     1
100
AcDbMText
 10
-2341.254083715916
 20
1259.173431763654
 30
0.0
 40
10.0
 41
0.0
 71
     5
 72
     1
  1
\A1;120
  7
TextStyle01
 11
0.0
 21
1.0
 31
0.0
 73
     1
 44
1.0
  0
POINT
  5
521E
330
4E85
100
AcDbEntity
  8
Defpoints
 62
     0
100
AcDbPoint
 10
-2411.360884022296
 20
1319.127537828244
 30
0.0
  0
POINT
  5
521F
330
4E85
100
AcDbEntity
  8
Defpoints
 62
     0
100
AcDbPoint
 10
-2411.166990974181
 20
1199.219325699064
 30
0.0
  0
POINT
  5
5220
330
4E85
100
AcDbEntity
  8
Defpoints
 62
     0
100
AcDbPoint
 10
-2335.754083715916
 20
1199.219325699064
 30
0.0
  0
ENDBLK
  5
4E90
330
4E85
100
AcDbEntity
  8
0
100
AcDbBlockEnd
  0
BLOCK
  5
4E9B
330
4E91
100
AcDbEntity
  8
0
100
AcDbBlockBegin
  2
*D9
 70
     1
 10
0.0
 20
0.0
 30
0.0
  3
*D9
  1

  0
LINE
  5
520F
330
4E91
100
AcDbEntity
  8
ﾚｲﾔ1
 62
     1
370
    -2
100
AcDbLine
 10
-2522.597062038105
 20
1355.248576650293
 30
0.0
 11
-2522.597062038105
 21
1360.002767072008
 31
0.0
  0
LINE
  5
5210
330
4E91
100
AcDbEntity
  8
ﾚｲﾔ1
 62
     1
370
    -2
100
AcDbLine
 10
-2387.411781788989
 20
1309.110064305899
 30
0.0
 11
-2387.411781788989
 21
1360.002767072008
 31
0.0
  0
LINE
  5
5211
330
4E91
100
AcDbEntity
  8
ﾚｲﾔ1
 62
     1
370
    -2
100
AcDbLine
 10
-2512.597062038105
 20
1359.502767072008
 30
0.0
 11
-2397.411781788989
 21
1359.502767072008
 31
0.0
  0
INSERT
  5
5212
330
4E91
100
AcDbEntity
  8
ﾚｲﾔ1
 62
     1
370
    -2
100
AcDbBlockReference
  2
_Open
 10
-2522.597062038105
 20
1359.502767072008
 30
0.0
 41
10.0
 42
10.0
 43
10.0
 50
180.0
  0
INSERT
  5
5213
330
4E91
100
AcDbEntity
  8
ﾚｲﾔ1
 62
     1
370
    -2
100
AcDbBlockReference
  2
_Open
 10
-2387.411781788989
 20
1359.502767072008
 30
0.0
 41
10.0
 42
10.0
 43
10.0
  0
MTEXT
  5
5214
330
4E91
100
AcDbEntity
  8
ﾚｲﾔ1
 62
     1
100
AcDbMText
 10
-2455.004421913547
 20
1365.002767072008
 30
0.0
 40
10.0
 41
0.0
 71
     5
 72
     1
  1
\A1;136
  7
TextStyle01
 73
     1
 44
1.0
  0
POINT
  5
5215
330
4E91
100
AcDbEntity
  8
Defpoints
 62
     0
100
AcDbPoint
 10
-2522.597062038105
 20
1355.186076650293
 30
0.0
  0
POINT
  5
5216
330
4E91
100
AcDbEntity
  8
Defpoints
 62
     0
100
AcDbPoint
 10
-2387.411781788989
 20
1309.047564305899
 30
0.0
  0
POINT
  5
5217
330
4E91
100
AcDbEntity
  8
Defpoints
 62
     0
100
AcDbPoint
 10
-2387.411781788989
 20
1359.502767072008
 30
0.0
  0
ENDBLK
  5
4E9C
330
4E91
100
AcDbEntity
  8
0
100
AcDbBlockEnd
  0
BLOCK
  5
4F61
330
4F57
100
AcDbEntity
  8
0
100
AcDbBlockBegin
  2
*D10
 70
     1
 10
0.0
 20
0.0
 30
0.0
  3
*D10
  1

  0
LINE
  5
522A
330
4F57
100
AcDbEntity
  8
ﾚｲﾔ1
 62
     1
370
    -2
100
AcDbLine
 10
-2590.416492047973
 20
1087.672941090275
 30
0.0
 11
-2590.416492047973
 21
1088.224034305611
 31
0.0
  0
LINE
  5
522B
330
4F57
100
AcDbEntity
  8
ﾚｲﾔ1
 62
     1
370
    -2
100
AcDbLine
 10
-2455.258577261847
 20
1087.67620144434
 30
0.0
 11
-2455.258577261847
 21
1088.224034305611
 31
0.0
  0
LINE
  5
522C
330
4F57
100
AcDbEntity
  8
ﾚｲﾔ1
 62
     1
370
    -2
100
AcDbLine
 10
-2580.416492047973
 20
1087.724034305611
 30
0.0
 11
-2465.258577261847
 21
1087.724034305611
 31
0.0
  0
INSERT
  5
522D
330
4F57
100
AcDbEntity
  8
ﾚｲﾔ1
 62
     1
370
    -2
100
AcDbBlockReference
  2
_Open
 10
-2590.416492047973
 20
1087.724034305611
 30
0.0
 41
10.0
 42
10.0
 43
10.0
 50
180.0
  0
INSERT
  5
522E
330
4F57
100
AcDbEntity
  8
ﾚｲﾔ1
 62
     1
370
    -2
100
AcDbBlockReference
  2
_Open
 10
-2455.258577261847
 20
1087.724034305611
 30
0.0
 41
10.0
 42
10.0
 43
10.0
  0
MTEXT
  5
522F
330
4F57
100
AcDbEntity
  8
ﾚｲﾔ1
 62
     1
100
AcDbMText
 10
-2522.83753465491
 20
1093.224034305611
 30
0.0
 40
10.0
 41
0.0
 71
     5
 72
     1
  1
\A1;φ135
  7
TextStyle01
 73
     1
 44
1.0
  0
POINT
  5
5230
330
4F57
100
AcDbEntity
  8
Defpoints
 62
     0
100
AcDbPoint
 10
-2590.416492047973
 20
1087.610441090275
 30
0.0
  0
POINT
  5
5231
330
4F57
100
AcDbEntity
  8
Defpoints
 62
     0
100
AcDbPoint
 10
-2455.258577261847
 20
1087.61370144434
 30
0.0
  0
POINT
  5
5232
330
4F57
100
AcDbEntity
  8
Defpoints
 62
     0
100
AcDbPoint
 10
-2455.258577261847
 20
1087.724034305611
 30
0.0
  0
ENDBLK
  5
4F62
330
4F57
100
AcDbEntity
  8
0
100
AcDbBlockEnd
  0
BLOCK
  5
51C3
330
51BF
100
AcDbEntity
  8
0
100
AcDbBlockBegin
  2
_Open
 70
     0
 10
0.0
 20
0.0
 30
0.0
  3
_Open
  1

  0
LINE
  5
51C0
330
51BF
100
AcDbEntity
  8
0
  6
ByBlock
 62
     0
370
    -2
100
AcDbLine
 10
-1.0
 20
0.1666666666666666
 30
0.0
 11
0.0
 21
0.0
 31
0.0
  0
LINE
  5
51C1
330
51BF
100
AcDbEntity
  8
0
  6
ByBlock
 62
     0
370
    -2
100
AcDbLine
 10
-1.0
 20
-0.1666666666666666
 30
0.0
 11
0.0
 21
0.0
 31
0.0
  0
LINE
  5
51C2
330
51BF
100
AcDbEntity
  8
0
  6
ByBlock
 62
     0
370
    -2
100
AcDbLine
 10
0.0
 20
0.0
 30
0.0
 11
-1.0
 21
0.0
 31
0.0
  0
ENDBLK
  5
51C4
330
51BF
100
AcDbEntity
  8
0
100
AcDbBlockEnd
  0
ENDSEC
  0
SECTION
  2
ENTITIES
  0
LWPOLYLINE
  5
4938
330
1E
100
AcDbEntity
  8
ﾚｲﾔ1
100
AcDbPolyline
 90
        2
 70
     0
 43
0.0
 10
-2605.60011394649
 20
1132.702122514328
 10
-2439.731270375306
 20
1132.702122514328
  0
LINE
  5
4939
330
1E
100
AcDbEntity
  8
ﾚｲﾔ1
100
AcDbLine
 10
-2605.60011394649
 20
1132.702122514328
 30
0.0
 11
-2607.842478248961
 21
1130.693513029078
 31
0.0
  0
LWPOLYLINE
  5
493A
330
1E
100
AcDbEntity
  8
ﾚｲﾔ1
100
AcDbPolyline
 90
        2
 70
     0
 43
0.0
 10
-2607.842478248961
 20
1044.526528432894
 10
-2607.842478248961
 20
1130.693513029078
  0
LINE
  5
493B
330
1E
100
AcDbEntity
  8
ﾚｲﾔ1
100
AcDbLine
 10
-2607.842478248961
 20
1044.526528432894
 30
0.0
 11
-2605.823170788453
 21
1042.525724090935
 31
0.0
  0
LWPOLYLINE
  5
493C
330
1E
100
AcDbEntity
  8
ﾚｲﾔ1
100
AcDbPolyline
 90
        2
 70
     0
 43
0.0
 10
-2439.719336571016
 20
1042.525724090935
 10
-2605.823170788453
 20
1042.525724090935
  0
LINE
  5
493D
330
1E
100
AcDbEntity
  8
ﾚｲﾔ1
100
AcDbLine
 10
-2437.715049601303
 20
1044.52950630654
 30
0.0
 11
-2439.719336571016
 21
1042.525724090935
 31
0.0
  0
LWPOLYLINE
  5
493E
330
1E
100
AcDbEntity
  8
ﾚｲﾔ1
100
AcDbPolyline
 90
        2
 70
     0
 43
0.0
 10
-2437.715049601303
 20
1130.698742971516
 10
-2437.715049601303
 20
1044.52950630654
  0
LINE
  5
493F
330
1E
100
AcDbEntity
  8
ﾚｲﾔ1
100
AcDbLine
 10
-2439.731270375306
 20
1132.702122514328
 30
0.0
 11
-2437.715049601303
 21
1130.698742971516
 31
0.0
  0
LINE
  5
4940
330
1E
100
AcDbEntity
  8
ﾚｲﾔ1
100
AcDbLine
 10
-2607.842478248961
 20
1130.693513029078
 30
0.0
 11
-2437.715049601303
 21
1130.698742971516
 31
0.0
  0
LINE
  5
4941
330
1E
100
AcDbEntity
  8
ﾚｲﾔ1
100
AcDbLine
 10
-2607.842478248961
 20
1044.526528432894
 30
0.0
 11
-2437.715049601303
 21
1044.52950630654
 31
0.0
  0
LINE
  5
4979
330
1E
100
AcDbEntity
  8
ﾚｲﾔ1
  6
DASHDOT
 62
     1
100
AcDbLine
 10
-2454.264268040298
 20
1118.696352726901
 30
0.0
 11
-2370.960887180478
 21
1118.696352726901
 31
0.0
  0
LWPOLYLINE
  5
4983
330
1E
100
AcDbEntity
  8
ﾚｲﾔ1
100
AcDbPolyline
 90
        6
 70
     0
 43
0.0
 10
-2393.456338387223
 20
1111.585684943195
 10
-2393.456338387223
 20
1111.585684943195
 10
-2437.715049143786
 20
1111.585684943195
 10
-2437.715049143786
 20
1125.851607977626
 10
-2393.456338387223
 20
1125.851607977626
 10
-2393.456338387223
 20
1125.851607977626
  0
CIRCLE
  5
4984
330
1E
100
AcDbEntity
  8
ﾚｲﾔ1
100
AcDbCircle
 10
-2393.456338387223
 20
1118.718646460411
 30
0.0
 40
7.0
  0
LINE
  5
4985
330
1E
100
AcDbEntity
  8
ﾚｲﾔ1
  6
DASHDOT
 62
     1
100
AcDbLine
 10
-2393.456338387223
 20
1129.979538122889
 30
0.0
 11
-2393.456338387223
 21
1107.457754797932
 31
0.0
  0
DIMENSION
  5
4988
330
1E
100
AcDbEntity
  8
ﾚｲﾔ1
100
AcDbDimension
  2
*D2
 10
-2320.096023092716
 20
1063.52417061659
 30
0.0
 11
-2329.491207515669
 21
1055.044262028495
 31
0.0
 70
   160
 71
     5
 42
20.99844652565503
  3
Standard
100
AcDbAlignedDimension
 13
-2437.538748306767
 23
1042.525724090935
 33
0.0
 14
-2437.715049601303
 24
1063.52417061659
 34
0.0
 50
90.0
100
AcDbRotatedDimension
1001
ACAD
1000
DSTYLE
1002
{
1070
   343
1005
51BF
1070
   173
1070
     1
1070
   344
1005
51BF
1070
    41
1040
10.0
1070
    44
1040
0.5
1070
    73
1070
     0
1070
    74
1070
     0
1070
    77
1070
     1
1070
   140
1040
10.0
1070
   147
1040
0.5
1070
   176
1070
     1
1070
   177
1070
     1
1070
   178
1070
     1
1070
   271
1070
     0
1070
   272
1070
     0
1070
   279
1070
     2
1070
   340
1005
23
1070
   341
1005
1C1
1070
   342
1005
0
1002
}
  0
LINE
  5
49CD
330
1E
100
AcDbEntity
  8
ﾚｲﾔ1
100
AcDbLine
 10
-2437.715049601303
 20
1063.52417061659
 30
0.0
 11
-2353.267544093814
 21
1063.52417061659
 31
0.0
  0
DIMENSION
  5
4A12
330
1E
100
AcDbEntity
  8
ﾚｲﾔ1
100
AcDbDimension
  2
*D3
 10
-2353.382773940064
 20
1071.487644960392
 30
0.0
 11
-2347.108103001813
 21
1067.792671132445
 31
0.0
 70
    34
 71
     5
 42
0.0941505501500154
  3
Standard
100
AcDb2LineAngularDimension
 13
-2437.715049601303
 23
1063.52417061659
 33
0.0
 14
-2353.267544093814
 24
1063.52417061659
 34
0.0
 15
-2437.715049601303
 25
1063.52417061659
 35
0.0
 16
-2353.049325842395
 26
1066.182151468182
 36
0.0
1001
ACAD
1000
DSTYLE
1002
{
1070
   281
1070
     0
1070
   343
1005
51BF
1070
   173
1070
     1
1070
   344
1005
51BF
1070
    41
1040
3.0
1070
    44
1040
0.5
1070
    73
1070
     0
1070
    74
1070
     0
1070
    77
1070
     1
1070
   140
1040
10.0
1070
   147
1040
0.5
1070
   176
1070
     1
1070
   177
1070
     1
1070
   178
1070
     1
1070
   271
1070
     0
1070
   272
1070
     0
1070
   279
1070
     2
1070
   340
1005
23
1070
   341
1005
1C1
1070
   342
1005
0
1002
}
  0
LINE
  5
4B2E
330
1E
100
AcDbEntity
  8
図面
100
AcDbLine
 10
-2375.060822342681
 20
1057.616192146635
 30
0.0
 11
-2363.103077066242
 21
1058.622337217586
 31
0.0
  0
LINE
  5
4B2F
330
1E
100
AcDbEntity
  8
図面
100
AcDbLine
 10
-2386.105934268663
 20
1057.690371271301
 30
0.0
 11
-2390.09184936081
 21
1057.354989580984
 31
0.0
  0
LINE
  5
4B30
330
1E
100
AcDbEntity
  8
図面
100
AcDbLine
 10
-2379.130582857407
 20
1058.277289229355
 30
0.0
 11
-2386.105934268663
 21
1057.690371271301
 31
0.0
  0
LINE
  5
4B31
330
1E
100
AcDbEntity
  8
図面
100
AcDbLine
 10
-2386.105934268663
 20
1057.690371271301
 30
0.0
 11
-2375.148684820314
 21
1058.612332917812
 31
0.0
  0
LINE
  5
4B32
330
1E
100
AcDbEntity
  8
図面
100
AcDbLine
 10
-2390.00800393823
 20
1056.358510807947
 30
0.0
 11
-2375.060822342681
 21
1057.616192146635
 31
0.0
  0
LINE
  5
4B33
330
1E
100
AcDbEntity
  8
図面
100
AcDbLine
 10
-2366.82616083292
 20
1067.089990213918
 30
0.0
 11
-2367.371156079685
 21
1073.567102238656
 31
0.0
  0
LINE
  5
4B34
330
1E
100
AcDbEntity
  8
図面
100
AcDbLine
 10
-2377.073112484583
 20
1081.531682699513
 30
0.0
 11
-2365.115367208143
 21
1082.537827770464
 31
0.0
  0
LINE
  5
4B35
330
1E
100
AcDbEntity
  8
図面
100
AcDbLine
 10
-2380.975182154149
 20
1080.19982223616
 30
0.0
 11
-2376.989267062003
 21
1080.535203926477
 31
0.0
  0
ARC
  5
4B36
330
1E
100
AcDbEntity
  8
図面
100
AcDbCircle
 10
-2370.360591756955
 20
1073.315565498396
 30
0.0
 40
3.000000006720466
100
AcDbArc
 50
4.809635444281649
 51
94.80963544428202
  0
LINE
  5
4B37
330
1E
100
AcDbEntity
  8
図面
100
AcDbLine
 10
-2380.975182154149
 20
1080.19982223616
 30
0.0
 11
-2387.950533565405
 21
1079.612904278106
 31
0.0
  0
LINE
  5
4B38
330
1E
100
AcDbEntity
  8
図面
100
AcDbLine
 10
-2380.975182154149
 20
1080.19982223616
 30
0.0
 11
-2391.936448657552
 21
1079.277522587789
 31
0.0
  0
LINE
  5
4B39
330
1E
100
AcDbEntity
  8
図面
100
AcDbLine
 10
-2377.073112484583
 20
1081.531682699513
 30
0.0
 11
-2392.020294080131
 21
1080.274001360825
 31
0.0
  0
LWPOLYLINE
  5
4B3A
330
1E
100
AcDbEntity
  8
図面
100
AcDbPolyline
 90
        4
 70
     1
 43
0.0
 10
-2390.175694783389
 20
1058.35146835402
 10
-2386.189779691242
 20
1058.686850044337
 10
-2387.866688142826
 20
1078.616425505068
 10
-2391.852603234973
 20
1078.281043814752
  0
LWPOLYLINE
  5
4B3B
330
1E
100
AcDbEntity
  8
図面
100
AcDbPolyline
 90
        4
 70
     1
 43
0.0
 10
-2386.022088846083
 20
1056.693892498263
 10
-2379.046737434827
 20
1057.280810456319
 10
-2381.059027576729
 20
1081.196301009197
 10
-2388.034378987985
 20
1080.609383051142
  0
ARC
  5
4B3C
330
1E
100
AcDbEntity
  8
図面
100
AcDbCircle
 10
-2369.81559651019
 20
1066.838453473658
 30
0.0
 40
3.000000006720466
100
AcDbArc
 50
274.809635444282
 51
4.809635444281649
  0
LWPOLYLINE
  5
4B3D
330
1E
100
AcDbEntity
  8
図面
100
AcDbPolyline
 90
        4
 70
     0
 43
0.0
 10
-2370.612128666533
 20
1076.305002290028
 10
-2380.576916396898
 20
1075.466548064236
 10
-2379.528848614658
 20
1063.010563401279
 10
-2369.564060884292
 20
1063.849017627071
  0
LWPOLYLINE
  5
4B3E
330
1E
100
AcDbEntity
  8
図面
100
AcDbPolyline
 90
        4
 70
     1
 43
0.0
 10
-2389.756467670493
 20
1053.369074488838
 10
-2374.809286074944
 20
1054.626755827526
 10
-2377.32464875232
 20
1084.521119018623
 10
-2392.271830347869
 20
1083.263437679935
  0
LINE
  5
4B3F
330
1E
100
AcDbEntity
  8
図面
100
AcDbLine
 10
-2365.115367208143
 20
1082.537827770464
 30
0.0
 11
-2363.103077066242
 21
1058.622337217586
 31
0.0
  0
LWPOLYLINE
  5
4B40
330
1E
100
AcDbEntity
  8
図面
100
AcDbPolyline
 90
        4
 70
     1
 43
0.0
 10
-2374.809286074944
 20
1054.626755827526
 10
-2359.862104479394
 20
1055.884437166214
 10
-2362.37746715677
 20
1085.778800357312
 10
-2377.32464875232
 20
1084.521119018623
  0
ARC
  5
4B41
330
1E
100
AcDbEntity
  8
図面
100
AcDbCircle
 10
-2425.63453613305
 20
1056.371434142364
 30
0.0
 40
5.000000011203287
100
AcDbArc
 50
327.9397377983745
 51
41.67953309010322
  0
LINE
  5
4B42
330
1E
100
AcDbEntity
  8
図面
100
AcDbLine
 10
-2421.397085288883
 20
1053.717379996702
 30
0.0
 11
-2424.88476099451
 21
1053.423921017675
 31
0.0
  0
LINE
  5
4B43
330
1E
100
AcDbEntity
  8
図面
100
AcDbLine
 10
-2421.900157824358
 20
1059.696252634922
 30
0.0
 11
-2425.387833529986
 21
1059.402793655895
 31
0.0
  0
LINE
  5
4B44
330
1E
100
AcDbEntity
  8
図面
100
AcDbLine
 10
-2420.836652282201
 20
1057.778667955642
 30
0.0
 11
-2415.27868379042
 21
1058.525546852627
 31
0.0
  0
LINE
  5
4B45
330
1E
100
AcDbEntity
  8
図面
100
AcDbLine
 10
-2420.820357662633
 20
1058.789847276796
 30
0.0
 11
-2415.36263265729
 21
1059.523255031351
 31
0.0
  0
LINE
  5
4B46
330
1E
100
AcDbEntity
  8
図面
100
AcDbLine
 10
-2422.906302895309
 20
1071.653997911361
 30
0.0
 11
-2426.393978600936
 21
1071.360538932334
 31
0.0
  0
LINE
  5
4B47
330
1E
100
AcDbEntity
  8
図面
100
AcDbLine
 10
-2423.409375430785
 20
1077.63287054958
 30
0.0
 11
-2426.897051136412
 21
1077.339411570553
 31
0.0
  0
LINE
  5
4B48
330
1E
100
AcDbEntity
  8
図面
100
AcDbLine
 10
-2422.178179462696
 20
1073.722333306621
 30
0.0
 11
-2416.573552879771
 21
1073.914694187185
 31
0.0
  0
LINE
  5
4B49
330
1E
100
AcDbEntity
  8
図面
100
AcDbLine
 10
-2421.99314551096
 20
1072.728094114645
 30
0.0
 11
-2416.489604012902
 21
1072.916986008462
 31
0.0
  0
ARC
  5
4B4A
330
1E
100
AcDbEntity
  8
図面
100
AcDbCircle
 10
-2427.143753739475
 20
1074.308052057014
 30
0.0
 40
5.000000011203287
100
AcDbArc
 50
327.9397377984562
 51
41.67953309018803
  0
ARC
  5
4B4B
330
1E
100
AcDbEntity
  8
図面
100
AcDbCircle
 10
-2439.841608402434
 20
1064.20782989233
 30
0.0
 40
18.50000004148328
100
AcDbArc
 50
345.8849910282517
 51
23.73427986031061
  0
LINE
  5
4B4C
330
1E
100
AcDbEntity
  8
図面
100
AcDbLine
 10
-2420.652142783584
 20
1056.790661738391
 30
0.0
 11
-2422.16136039001
 21
1074.72727965305
 31
0.0
  0
LWPOLYLINE
  5
4B4D
330
1E
100
AcDbEntity
  8
図面
100
AcDbPolyline
 90
        4
 70
     1
 43
0.0
 10
-2414.961895975435
 20
1054.760614629985
 10
-2404.000629472032
 20
1055.682914278357
 10
-2405.929074191354
 20
1078.601926058198
 10
-2416.890340694756
 20
1077.679626409827
  0
ARC
  5
4B4E
330
1E
100
AcDbEntity
  8
図面
100
AcDbCircle
 10
-2424.638057357782
 20
1056.455279565131
 30
0.0
 40
5.000000011203287
100
AcDbArc
 50
147.9397377984563
 51
221.679533090188
  0
LINE
  5
4B4F
330
1E
100
AcDbEntity
  8
図面
100
AcDbLine
 10
-2429.603632668227
 20
1057.040999281607
 30
0.0
 11
-2437.715049601303
 21
1056.762600488085
 31
0.0
  0
LINE
  5
4B50
330
1E
100
AcDbEntity
  8
図面
100
AcDbLine
 10
-2429.788666619963
 20
1058.035238473583
 30
0.0
 11
-2437.715049601303
 21
1057.763189523456
 31
0.0
  0
LINE
  5
4B51
330
1E
100
AcDbEntity
  8
図面
100
AcDbLine
 10
-2429.603611023539
 20
1061.055138290929
 30
0.0
 11
-2437.715049601303
 21
1060.37262802209
 31
0.0
  0
LINE
  5
4B52
330
1E
100
AcDbEntity
  8
図面
100
AcDbLine
 10
-2430.274374404173
 20
1069.026968475222
 30
0.0
 11
-2437.715049601303
 21
1068.400897380625
 31
0.0
  0
LINE
  5
4B53
330
1E
100
AcDbEntity
  8
図面
100
AcDbLine
 10
-2430.945159848721
 20
1072.984664632586
 30
0.0
 11
-2437.715049601303
 21
1072.07492825383
 31
0.0
  0
LINE
  5
4B54
330
1E
100
AcDbEntity
  8
図面
100
AcDbLine
 10
-2430.961454468289
 20
1071.973485311432
 30
0.0
 11
-2437.715049601303
 21
1071.06593934814
 31
0.0
  0
ARC
  5
4B55
330
1E
100
AcDbEntity
  8
図面
100
AcDbCircle
 10
-2426.147274964207
 20
1074.391897479781
 30
0.0
 40
5.000000011203287
100
AcDbArc
 50
147.9397377983745
 51
221.6795330901032
  0
ARC
  5
4B56
330
1E
100
AcDbEntity
  8
図面
100
AcDbCircle
 10
-2411.940202694823
 20
1066.555501729814
 30
0.0
 40
18.50000004148328
100
AcDbArc
 50
165.8849910282517
 51
203.7342798603106
  0
LINE
  5
4B57
330
1E
100
AcDbEntity
  8
図面
100
AcDbLine
 10
-2429.620451740913
 20
1056.036052935178
 30
0.0
 11
-2431.129669347339
 21
1073.972670849837
 31
0.0
  0
LINE
  5
4B58
330
1E
100
AcDbEntity
  8
図面
100
AcDbLine
 10
-2428.372436700139
 20
1053.130462038648
 30
0.0
 11
-2424.88476099451
 21
1053.423921017675
 31
0.0
  0
LINE
  5
4B59
330
1E
100
AcDbEntity
  8
図面
100
AcDbLine
 10
-2428.875509235614
 20
1059.109334676867
 30
0.0
 11
-2425.387833529986
 21
1059.402793655895
 31
0.0
  0
LINE
  5
4B5A
330
1E
100
AcDbEntity
  8
図面
100
AcDbLine
 10
-2429.881654306564
 20
1071.067079953306
 30
0.0
 11
-2426.393978600936
 21
1071.360538932334
 31
0.0
  0
LINE
  5
4B5B
330
1E
100
AcDbEntity
  8
図面
100
AcDbLine
 10
-2430.38472684204
 20
1077.045952591526
 30
0.0
 11
-2426.897051136412
 21
1077.339411570553
 31
0.0
  0
LWPOLYLINE
  5
4B5C
330
1E
100
AcDbEntity
  8
図面
100
AcDbPolyline
 90
        4
 70
     1
 43
0.0
 10
-2403.791015915584
 20
1053.191717345765
 10
-2389.840313093072
 20
1054.365553261874
 10
-2392.18798492529
 20
1082.266958906899
 10
-2406.138687747802
 20
1081.09312299079
  0
LINE
  5
4B5D
330
1E
100
AcDbEntity
  8
ﾚｲﾔ1
  6
DASHDOTX2
 62
     1
100
AcDbLine
 10
-2449.284216101833
 20
1063.379896510819
 30
0.0
 11
-2357.459902645449
 21
1071.10615077044
 31
0.0
  0
LINE
  5
4C34
330
1E
100
AcDbEntity
  8
ﾚｲﾔ1
100
AcDbLine
 10
-2581.675319991002
 20
1133.83219353739
 30
0.0
 11
-2582.676826068158
 21
1132.702122514328
 31
0.0
  0
LINE
  5
4C35
330
1E
100
AcDbEntity
  8
ﾚｲﾔ1
100
AcDbLine
 10
-2463.581848742092
 20
1133.83460376226
 30
0.0
 11
-2462.578313648895
 21
1132.702122514328
 31
0.0
  0
DIMENSION
  5
4C36
330
1E
100
AcDbEntity
  8
ﾚｲﾔ1
100
AcDbDimension
  2
*D4
 10
-2462.578313648895
 20
1150.640463715567
 30
0.0
 11
-2522.981185361944
 21
1157.671816484512
 31
0.0
 70
   160
  1
φ120
 71
     5
 42
120.098512419263
  3
Standard
100
AcDbAlignedDimension
 13
-2582.676826068158
 23
1133.769673097184
 33
0.0
 14
-2462.578313648895
 24
1133.772124243877
 34
0.0
100
AcDbRotatedDimension
1001
ACAD
1000
DSTYLE
1002
{
1070
   343
1005
51BF
1070
   173
1070
     1
1070
   344
1005
51BF
1070
    41
1040
10.0
1070
    44
1040
0.5
1070
    73
1070
     0
1070
    74
1070
     0
1070
    77
1070
     1
1070
   140
1040
10.0
1070
   147
1040
0.5
1070
   176
1070
     1
1070
   177
1070
     1
1070
   178
1070
     1
1070
   271
1070
     0
1070
   272
1070
     0
1070
   279
1070
     2
1070
   340
1005
23
1070
   341
1005
1C1
1070
   342
1005
0
1002
}
  0
LINE
  5
4CAB
330
1E
100
AcDbEntity
  8
ﾚｲﾔ1
100
AcDbLine
 10
-2581.675319991002
 20
1133.83219353739
 30
0.0
 11
-2463.581848742092
 21
1133.83460376226
 31
0.0
  0
DIMENSION
  5
4CC4
330
1E
100
AcDbEntity
  8
ﾚｲﾔ1
100
AcDbDimension
  2
*D5
 10
-2308.62845463675
 20
1042.525724090935
 30
0.0
 11
-2314.12845463675
 21
1088.180163926597
 31
0.0
 70
    32
 71
     5
 42
91.30887967132503
  3
Standard
100
AcDbAlignedDimension
 13
-2462.578313648895
 23
1133.83460376226
 33
0.0
 14
-2437.601248306767
 24
1042.525724090935
 34
0.0
 50
90.0
100
AcDbRotatedDimension
1001
ACAD
1000
DSTYLE
1002
{
1070
   343
1005
51BF
1070
   173
1070
     1
1070
   344
1005
51BF
1070
    41
1040
10.0
1070
    44
1040
0.5
1070
    73
1070
     0
1070
    74
1070
     0
1070
    77
1070
     1
1070
   140
1040
10.0
1070
   147
1040
0.5
1070
   176
1070
     1
1070
   177
1070
     1
1070
   178
1070
     1
1070
   271
1070
     0
1070
   272
1070
     0
1070
   279
1070
     2
1070
   340
1005
23
1070
   341
1005
1C1
1070
   342
1005
0
1002
}
  0
DIMENSION
  5
4D11
330
1E
100
AcDbEntity
  8
ﾚｲﾔ1
100
AcDbDimension
  2
*D6
 10
-2437.715049601303
 20
1020.466271567739
 30
0.0
 11
-2523.902356255131
 21
1028.013812604573
 31
0.0
 70
   160
  1
φ170
 71
     5
 42
170.1274286476578
  3
Standard
100
AcDbAlignedDimension
 13
-2607.842478248961
 23
1042.568958075383
 33
0.0
 14
-2437.715049601303
 24
1042.525724090935
 34
0.0
100
AcDbRotatedDimension
1001
ACAD
1000
DSTYLE
1002
{
1070
   343
1005
51BF
1070
   173
1070
     1
1070
   344
1005
51BF
1070
    41
1040
10.0
1070
    44
1040
0.5
1070
    73
1070
     0
1070
    74
1070
     0
1070
    77
1070
     1
1070
   140
1040
10.0
1070
   147
1040
0.5
1070
   176
1070
     1
1070
   177
1070
     1
1070
   178
1070
     1
1070
   271
1070
     0
1070
   272
1070
     0
1070
   279
1070
     2
1070
   340
1005
23
1070
   341
1005
1C1
1070
   342
1005
0
1002
}
  0
DIMENSION
  5
4D66
330
1E
100
AcDbEntity
  8
ﾚｲﾔ1
100
AcDbDimension
  2
*D7
 10
-2352.537833810754
 20
1132.702122514328
 30
0.0
 11
-2343.787833810754
 21
1133.268373379103
 31
0.0
 70
    32
 71
     5
 42
1.132501729548038
  3
Standard
100
AcDbAlignedDimension
 13
-2462.578313648895
 23
1133.834624243877
 33
0.0
 14
-2437.781490600869
 24
1132.702122514328
 34
0.0
 50
90.0
100
AcDbRotatedDimension
1001
ACAD
1000
DSTYLE
1002
{
1070
    41
1040
3.0
1070
    44
1040
0.5
1070
    73
1070
     0
1070
    74
1070
     0
1070
    77
1070
     1
1070
   140
1040
5.0
1070
   147
1040
0.5
1070
   176
1070
     1
1070
   177
1070
     1
1070
   178
1070
     1
1070
   271
1070
     0
1070
   272
1070
     0
1070
   279
1070
     2
1070
   340
1005
23
1070
   341
1005
1C1
1070
   342
1005
1C1
1002
}
  0
LINE
  5
4D93
330
1E
100
AcDbEntity
  8
ﾚｲﾔ1
  6
DASHDOT
 62
     1
100
AcDbLine
 10
-2522.778763925132
 20
1036.281426715224
 30
0.0
 11
-2522.778763925132
 21
1144.924966122835
 31
0.0
  0
DIMENSION
  5
4E1B
330
1E
100
AcDbEntity
  8
ﾚｲﾔ1
100
AcDbDimension
  2
*D8
 10
-2335.754083715916
 20
1199.219325699064
 30
0.0
 11
-2341.254083715916
 21
1259.173431763654
 31
0.0
 70
    32
 71
     5
 42
119.9082121291792
  3
Standard
100
AcDbAlignedDimension
 13
-2411.360884022296
 23
1319.127537828244
 33
0.0
 14
-2411.166990974181
 24
1199.219325699064
 34
0.0
 50
90.0
100
AcDbRotatedDimension
1001
ACAD
1000
DSTYLE
1002
{
1070
   343
1005
51BF
1070
   173
1070
     1
1070
   344
1005
51BF
1070
    41
1040
10.0
1070
    44
1040
0.5
1070
    73
1070
     0
1070
    74
1070
     0
1070
    77
1070
     1
1070
   140
1040
10.0
1070
   147
1040
0.5
1070
   176
1070
     1
1070
   177
1070
     1
1070
   178
1070
     1
1070
   271
1070
     0
1070
   272
1070
     0
1070
   279
1070
     2
1070
   340
1005
23
1070
   341
1005
1C1
1070
   342
1005
0
1002
}
  0
DIMENSION
  5
4E1C
330
1E
100
AcDbEntity
  8
ﾚｲﾔ1
100
AcDbDimension
  2
*D9
 10
-2387.411781788989
 20
1359.502767072008
 30
0.0
 11
-2455.004421913547
 21
1365.002767072008
 31
0.0
 70
    32
  1
136
 71
     5
 42
135.1852802491162
  3
Standard
100
AcDbAlignedDimension
 13
-2522.597062038105
 23
1355.186076650293
 33
0.0
 14
-2387.411781788989
 24
1309.047564305899
 34
0.0
100
AcDbRotatedDimension
1001
ACAD
1000
DSTYLE
1002
{
1070
   343
1005
51BF
1070
   173
1070
     1
1070
   344
1005
51BF
1070
    41
1040
10.0
1070
    44
1040
0.5
1070
    73
1070
     0
1070
    74
1070
     0
1070
    77
1070
     1
1070
   140
1040
10.0
1070
   147
1040
0.5
1070
   176
1070
     1
1070
   177
1070
     1
1070
   178
1070
     1
1070
   271
1070
     0
1070
   272
1070
     0
1070
   279
1070
     2
1070
   340
1005
23
1070
   341
1005
1C1
1070
   342
1005
0
1002
}
  0
CIRCLE
  5
4E1D
330
1E
100
AcDbEntity
  8
ﾚｲﾔ1
100
AcDbCircle
 10
-2522.597062038105
 20
1259.473954500441
 30
0.0
 40
85.0
  0
LINE
  5
4E1E
330
1E
100
AcDbEntity
  8
ﾚｲﾔ1
  6
DASHDOTX2
 62
     1
100
AcDbLine
 10
-2621.542020281758
 20
1259.473954500441
 30
0.0
 11
-2351.47851846867
 21
1259.473954500441
 31
0.0
  0
LINE
  5
4E1F
330
1E
100
AcDbEntity
  8
ﾚｲﾔ1
  6
DASHDOTX2
 62
     1
100
AcDbLine
 10
-2522.597062038105
 20
1164.770979801075
 30
0.0
 11
-2522.597062038105
 21
1355.186076650293
 31
0.0
  0
LINE
  5
4E20
330
1E
100
AcDbEntity
  8
ﾚｲﾔ1
  6
DASHDOTX2
 62
     1
100
AcDbLine
 10
-2465.199069480747
 20
1326.231731427219
 30
0.0
 11
-2407.801076923389
 21
1326.213338945405
 31
0.0
  0
LINE
  5
4E21
330
1E
100
AcDbEntity
  8
ﾚｲﾔ1
  6
DASHDOTX2
 62
     1
100
AcDbLine
 10
-2463.767615135034
 20
1192.467897186553
 30
0.0
 11
-2404.938168231963
 21
1192.506536705963
 31
0.0
  0
LWPOLYLINE
  5
4E22
330
1E
100
AcDbEntity
  8
ﾚｲﾔ1
100
AcDbPolyline
 90
        2
 70
     0
 43
0.0
 10
-2474.96493476942
 20
1333.039646326451
 10
-2410.736962677197
 20
1333.037456206644
  0
SPLINE
  5
4E23
330
1E
100
AcDbEntity
  8
ﾚｲﾔ1
100
AcDbSpline
210
0.0
220
0.0
230
1.0
 70
  1064
 71
     3
 72
     9
 73
     5
 74
     3
 42
0.000000001
 43
0.0000000001
 44
0.0000000001
 40
0.0
 40
0.0
 40
0.0
 40
0.0
 40
4.641146878984381
 40
9.28078567522251
 40
9.28078567522251
 40
9.28078567522251
 40
9.28078567522251
 10
-2474.96493476942
 20
1333.039646326451
 30
0.0
 10
-2476.251082590731
 20
1334.110319844332
 30
0.0
 10
-2478.822960315673
 20
1336.251318978098
 30
0.0
 10
-2481.930960044663
 20
1335.011103194136
 30
0.0
 10
-2483.484707391703
 20
1334.391096066686
 30
0.0
 11
-2474.96493476942
 21
1333.039646326451
 31
0.0
 11
-2478.95745229652
 21
1335.406088412813
 31
0.0
 11
-2483.484707391703
 21
1334.391096066686
 31
0.0
  0
SPLINE
  5
4E24
330
1E
100
AcDbEntity
  8
ﾚｲﾔ1
100
AcDbSpline
210
0.0
220
0.0
230
1.0
 70
  1064
 71
     3
 72
     9
 73
     5
 74
     3
 42
0.000000001
 43
0.0000000001
 44
0.0000000001
 40
0.0
 40
0.0
 40
0.0
 40
0.0
 40
2.327175986258156
 40
4.753443423770454
 40
4.753443423770454
 40
4.753443423770454
 40
4.753443423770454
 10
-2458.222603552518
 20
1319.294006672236
 30
0.0
 10
-2458.02040743295
 20
1318.513831585006
 30
0.0
 10
-2457.607405657172
 20
1316.920261455508
 30
0.0
 10
-2458.399095407623
 20
1315.473369043161
 30
0.0
 10
-2458.803192162519
 20
1314.734841699361
 30
0.0
 11
-2458.222603552518
 21
1319.294006672236
 31
0.0
 11
-2457.904762306866
 21
1316.988637935227
 31
0.0
 11
-2458.803192162519
 21
1314.734841699361
 31
0.0
  0
LINE
  5
4E25
330
1E
100
AcDbEntity
  8
ﾚｲﾔ1
100
AcDbLine
 10
-2474.96493476942
 20
1333.039646326451
 30
0.0
 11
-2458.222603552518
 21
1319.294006672236
 31
0.0
  0
LWPOLYLINE
  5
4E26
330
1E
100
AcDbEntity
  8
ﾚｲﾔ1
100
AcDbPolyline
 90
        3
 70
     0
 43
0.0
 10
-2458.571969095424
 20
1199.220942168931
 10
-2411.166990974181
 20
1199.219325699064
 10
-2411.166990974181
 20
1199.219325699064
  0
SPLINE
  5
4E27
330
1E
100
AcDbEntity
  8
ﾚｲﾔ1
100
AcDbSpline
210
0.0
220
0.0
230
1.0
 70
  1064
 71
     3
 72
     9
 73
     5
 74
     3
 42
0.000000001
 43
0.0000000001
 44
0.0000000001
 40
0.0
 40
0.0
 40
0.0
 40
0.0
 40
3.889610619476545
 40
7.514341984185279
 40
7.514341984185279
 40
7.514341984185279
 40
7.514341984185279
 10
-2458.571969095424
 20
1199.220942168931
 30
0.0
 10
-2457.572538053626
 20
1200.258724635782
 30
0.0
 10
-2455.64173639444
 20
1202.263617444863
 30
0.0
 10
-2456.866211793968
 20
1204.739231897439
 30
0.0
 10
-2457.456868220748
 20
1205.933406633173
 30
0.0
 11
-2458.571969095424
 21
1199.220942168931
 31
0.0
 11
-2456.419086867514
 21
1202.460412632432
 31
0.0
 11
-2457.456868220748
 21
1205.933406633173
 31
0.0
  0
SPLINE
  5
4E28
330
1E
100
AcDbEntity
  8
ﾚｲﾔ1
100
AcDbSpline
210
0.0
220
0.0
230
1.0
 70
  1064
 71
     3
 72
     9
 73
     5
 74
     3
 42
0.000000001
 43
0.0000000001
 44
0.0000000001
 40
0.0
 40
0.0
 40
0.0
 40
0.0
 40
5.534358827076145
 40
11.15096023344761
 40
11.15096023344761
 40
11.15096023344761
 40
11.15096023344761
 10
-2475.634806823957
 20
1185.474102558216
 30
0.0
 10
-2477.089206593558
 20
1184.0791251229
 30
0.0
 10
-2480.019619040797
 20
1181.268440381667
 30
0.0
 10
-2483.79407012363
 20
1182.781216162564
 30
0.0
 10
-2485.695214672289
 20
1183.543182701825
 30
0.0
 11
-2475.634806823957
 21
1185.474102558216
 31
0.0
 11
-2480.205914716568
 21
1182.35415059369
 31
0.0
 11
-2485.695214672289
 21
1183.543182701825
 31
0.0
  0
LINE
  5
4E29
330
1E
100
AcDbEntity
  8
ﾚｲﾔ1
100
AcDbLine
 10
-2458.571969095424
 20
1199.220942168931
 30
0.0
 11
-2475.634806823957
 21
1185.536602558216
 31
0.0
  0
LWPOLYLINE
  5
4E2A
330
1E
100
AcDbEntity
  8
ﾚｲﾔ1
100
AcDbPolyline
 90
        3
 70
     0
 43
0.0
 10
-2411.392337141773
 20
1319.169006672236
 10
-2411.392337141773
 20
1319.169006672236
 10
-2458.222603552518
 20
1319.294006672236
  0
LWPOLYLINE
  5
4E2B
330
1E
100
AcDbEntity
  8
ﾚｲﾔ1
100
AcDbPolyline
 90
        3
 70
     0
 43
0.0
 10
-2411.624967407772
 20
1185.536602558216
 10
-2411.624967407772
 20
1185.536602558216
 10
-2475.634806823957
 20
1185.536602558216
  0
ARC
  5
4E2C
330
1E
100
AcDbEntity
  8
LEVEL001
  6
Continuous
 62
     7
100
AcDbCircle
 10
-2410.277395697942
 20
1310.154855735788
 30
0.0
 40
22.89240908563361
100
AcDbArc
 50
356.8987857014237
 51
91.15312988893439
  0
ARC
  5
4E2D
330
1E
100
AcDbEntity
  8
LEVEL001
  6
Continuous
 62
     7
100
AcDbCircle
 10
-2411.360884022296
 20
1309.127537828244
 30
0.0
 40
10.0
100
AcDbArc
 50
0.0
 51
90.0
  0
ARC
  5
4E2E
330
1E
100
AcDbEntity
  8
LEVEL001
  6
Continuous
 62
     7
100
AcDbCircle
 10
-2411.432124254393
 20
1209.531811539885
 30
0.0
 40
24.0
100
AcDbArc
 50
269.5099833733077
 51
359.5099833733337
  0
ARC
  5
4E2F
330
1E
100
AcDbEntity
  8
LEVEL001
  6
Continuous
 62
     7
100
AcDbCircle
 10
-2411.21391809472
 20
1209.25824430023
 30
0.0
 40
10.0
100
AcDbArc
 50
269.5099833733077
 51
359.5099833733337
  0
LINE
  5
4E30
330
1E
100
AcDbEntity
  8
ﾚｲﾔ1
100
AcDbLine
 10
-2401.360884022296
 20
1309.127537828244
 30
0.0
 11
-2401.214283810521
 21
1209.172721307567
 31
0.0
  0
LINE
  5
4E31
330
1E
100
AcDbEntity
  8
ﾚｲﾔ1
100
AcDbLine
 10
-2387.418511996404
 20
1308.916376965856
 30
0.0
 11
-2387.433001972316
 21
1209.326556357494
 31
0.0
  0
LINE
  5
4E32
330
1E
100
AcDbEntity
  8
図面
100
AcDbLine
 10
-2376.741459777594
 20
1247.464511918655
 30
0.0
 11
-2364.741459777594
 21
1247.464511918655
 31
0.0
  0
LINE
  5
4E33
330
1E
100
AcDbEntity
  8
図面
100
AcDbLine
 10
-2380.741459777594
 20
1248.464511918655
 30
0.0
 11
-2387.427307534573
 21
1248.464511918655
 31
0.0
  0
LINE
  5
4E34
330
1E
100
AcDbEntity
  8
図面
100
AcDbLine
 10
-2387.427307534573
 20
1248.464511918655
 30
0.0
 11
-2376.745491027594
 21
1248.464511918655
 31
0.0
  0
LINE
  5
4E35
330
1E
100
AcDbEntity
  8
図面
100
AcDbLine
 10
-2387.427453031129
 20
1247.464511918655
 30
0.0
 11
-2376.741459777594
 21
1247.464511918655
 31
0.0
  0
LINE
  5
4E36
330
1E
100
AcDbEntity
  8
図面
100
AcDbLine
 10
-2367.741459777594
 20
1256.214511918655
 30
0.0
 11
-2367.741459777594
 21
1262.714511918655
 31
0.0
  0
LINE
  5
4E37
330
1E
100
AcDbEntity
  8
図面
100
AcDbLine
 10
-2376.741459777594
 20
1271.464511918655
 30
0.0
 11
-2364.741459777594
 21
1271.464511918655
 31
0.0
  0
LINE
  5
4E38
330
1E
100
AcDbEntity
  8
図面
100
AcDbLine
 10
-2380.741459777594
 20
1270.464511918655
 30
0.0
 11
-2376.741459777594
 21
1270.464511918655
 31
0.0
  0
ARC
  5
4E39
330
1E
100
AcDbEntity
  8
図面
100
AcDbCircle
 10
-2370.741459177633
 20
1262.714511393981
 30
0.0
 40
3.000000006720466
100
AcDbArc
 50
0.0
 51
90.0
  0
LINE
  5
4E3A
330
1E
100
AcDbEntity
  8
図面
100
AcDbLine
 10
-2380.741459777594
 20
1270.464511918655
 30
0.0
 11
-2387.424106610341
 21
1270.464511918655
 31
0.0
  0
LINE
  5
4E3B
330
1E
100
AcDbEntity
  8
図面
100
AcDbLine
 10
-2380.741459777594
 20
1270.464511918655
 30
0.0
 11
-2387.424106610341
 21
1270.464511918655
 31
0.0
  0
LINE
  5
4E3C
330
1E
100
AcDbEntity
  8
図面
100
AcDbLine
 10
-2376.741459777594
 20
1271.464511918655
 30
0.0
 11
-2387.423961113785
 21
1271.464511918655
 31
0.0
  0
ARC
  5
4E3D
330
1E
100
AcDbEntity
  8
図面
100
AcDbCircle
 10
-2370.741459177633
 20
1256.214511393981
 30
0.0
 40
3.000000006720466
100
AcDbArc
 50
270.0
 51
0.0
  0
LWPOLYLINE
  5
4E3E
330
1E
100
AcDbEntity
  8
図面
100
AcDbPolyline
 90
        4
 70
     0
 43
0.0
 10
-2370.741459777594
 20
1265.714511918655
 10
-2380.741459777594
 20
1265.714511918655
 10
-2380.741459777594
 20
1253.214511918655
 10
-2370.741459777594
 20
1253.214511918655
  0
LINE
  5
4E3F
330
1E
100
AcDbEntity
  8
図面
100
AcDbLine
 10
-2364.741459777594
 20
1271.464511918655
 30
0.0
 11
-2364.741459777594
 21
1247.464511918655
 31
0.0
  0
LWPOLYLINE
  5
4E40
330
1E
100
AcDbEntity
  8
図面
100
AcDbPolyline
 90
        4
 70
     1
 43
0.0
 10
-2376.741459777594
 20
1244.464511918655
 10
-2361.741459777594
 20
1244.464511918655
 10
-2361.741459777594
 20
1274.464511918655
 10
-2376.741459777594
 20
1274.464511918655
  0
ARC
  5
4E41
330
1E
100
AcDbEntity
  8
図面
100
AcDbCircle
 10
-2427.241459304202
 20
1250.464511393985
 30
0.0
 40
5.000000011203287
100
AcDbArc
 50
323.1301023540934
 51
36.86989764582421
  0
LINE
  5
4E42
330
1E
100
AcDbEntity
  8
図面
100
AcDbLine
 10
-2423.241459777594
 20
1247.464511918655
 30
0.0
 11
-2426.741459777594
 21
1247.464511918655
 31
0.0
  0
LINE
  5
4E43
330
1E
100
AcDbEntity
  8
図面
100
AcDbLine
 10
-2423.241459777594
 20
1253.464511918655
 30
0.0
 11
-2426.741459777594
 21
1253.464511918655
 31
0.0
  0
LINE
  5
4E44
330
1E
100
AcDbEntity
  8
図面
100
AcDbLine
 10
-2422.342479777594
 20
1251.464509418655
 30
0.0
 11
-2416.741459777594
 21
1251.742748168655
 31
0.0
  0
LINE
  5
4E45
330
1E
100
AcDbEntity
  8
図面
100
AcDbLine
 10
-2422.241459777594
 20
1252.470761918654
 30
0.0
 11
-2416.741459777594
 21
1252.743981918655
 31
0.0
  0
LINE
  5
4E46
330
1E
100
AcDbEntity
  8
図面
100
AcDbLine
 10
-2423.241459777594
 20
1265.464511918655
 30
0.0
 11
-2426.741459777594
 21
1265.464511918655
 31
0.0
  0
LINE
  5
4E47
330
1E
100
AcDbEntity
  8
図面
100
AcDbLine
 10
-2423.241459777594
 20
1271.464511918655
 30
0.0
 11
-2426.741459777594
 21
1271.464511918655
 31
0.0
  0
LINE
  5
4E48
330
1E
100
AcDbEntity
  8
図面
100
AcDbLine
 10
-2422.342479777594
 20
1267.464514418655
 30
0.0
 11
-2416.741459777594
 21
1267.186275668655
 31
0.0
  0
LINE
  5
4E49
330
1E
100
AcDbEntity
  8
図面
100
AcDbLine
 10
-2422.241459777594
 20
1266.458261918655
 30
0.0
 11
-2416.741459777594
 21
1266.185041918655
 31
0.0
  0
ARC
  5
4E4A
330
1E
100
AcDbEntity
  8
図面
100
AcDbCircle
 10
-2427.241459304202
 20
1268.464511393975
 30
0.0
 40
5.000000011203287
100
AcDbArc
 50
323.1301023541758
 51
36.86989764590656
  0
ARC
  5
4E4B
330
1E
100
AcDbEntity
  8
図面
100
AcDbCircle
 10
-2440.741459334486
 20
1259.46451139398
 30
0.0
 40
18.50000004148328
100
AcDbArc
 50
341.0753555839557
 51
18.92464441604434
  0
LINE
  5
4E4C
330
1E
100
AcDbEntity
  8
図面
100
AcDbLine
 10
-2422.241459777594
 20
1250.464511918655
 30
0.0
 11
-2422.241459777594
 21
1268.464511918655
 31
0.0
  0
LWPOLYLINE
  5
4E4D
330
1E
100
AcDbEntity
  8
図面
100
AcDbPolyline
 90
        4
 70
     1
 43
0.0
 10
-2416.741459777594
 20
1247.964511918655
 10
-2405.741459777594
 20
1247.964511918655
 10
-2405.741459777594
 20
1270.964511918655
 10
-2416.741459777594
 20
1270.964511918655
  0
ARC
  5
4E4E
330
1E
100
AcDbEntity
  8
図面
100
AcDbCircle
 10
-2426.241459301962
 20
1250.464511393985
 30
0.0
 40
5.000000011203287
100
AcDbArc
 50
143.1301023541758
 51
216.8698976459066
  0
LINE
  5
4E4F
330
1E
100
AcDbEntity
  8
図面
100
AcDbLine
 10
-2431.140439777594
 20
1251.464509418655
 30
0.0
 11
-2438.60302687945
 21
1251.835223875813
 31
0.0
  0
LINE
  5
4E50
330
1E
100
AcDbEntity
  8
図面
100
AcDbLine
 10
-2431.241459777594
 20
1252.470761918654
 30
0.0
 11
-2438.471959262261
 21
1252.829946310233
 31
0.0
  0
LINE
  5
4E51
330
1E
100
AcDbEntity
  8
図面
100
AcDbLine
 10
-2430.803851027594
 20
1255.464511918655
 30
0.0
 11
-2438.125143389058
 21
1255.464511918655
 31
0.0
  0
LINE
  5
4E52
330
1E
100
AcDbEntity
  8
図面
100
AcDbLine
 10
-2430.803851027594
 20
1263.464511918655
 30
0.0
 11
-2438.122768735007
 21
1263.464511918655
 31
0.0
  0
LINE
  5
4E53
330
1E
100
AcDbEntity
  8
図面
100
AcDbLine
 10
-2431.140439777594
 20
1267.464514418655
 30
0.0
 11
-2438.599541006578
 21
1267.093973127111
 31
0.0
  0
LINE
  5
4E54
330
1E
100
AcDbEntity
  8
図面
100
AcDbLine
 10
-2431.241459777594
 20
1266.458261918655
 30
0.0
 11
-2438.469565094334
 21
1266.099196460459
 31
0.0
  0
ARC
  5
4E55
330
1E
100
AcDbEntity
  8
図面
100
AcDbCircle
 10
-2426.241459301962
 20
1268.464511393975
 30
0.0
 40
5.000000011203287
100
AcDbArc
 50
143.1301023540935
 51
216.8698976458242
  0
ARC
  5
4E56
330
1E
100
AcDbEntity
  8
図面
100
AcDbCircle
 10
-2412.741459271679
 20
1259.46451139398
 30
0.0
 40
18.50000004148328
100
AcDbArc
 50
161.0753555839557
 51
198.9246444160444
  0
LINE
  5
4E57
330
1E
100
AcDbEntity
  8
図面
100
AcDbLine
 10
-2431.241459777594
 20
1250.464511918655
 30
0.0
 11
-2431.241459777594
 21
1268.464511918655
 31
0.0
  0
LINE
  5
4E58
330
1E
100
AcDbEntity
  8
図面
100
AcDbLine
 10
-2430.241459777594
 20
1247.464511918655
 30
0.0
 11
-2426.741459777594
 21
1247.464511918655
 31
0.0
  0
LINE
  5
4E59
330
1E
100
AcDbEntity
  8
図面
100
AcDbLine
 10
-2430.241459777594
 20
1253.464511918655
 30
0.0
 11
-2426.741459777594
 21
1253.464511918655
 31
0.0
  0
LINE
  5
4E5A
330
1E
100
AcDbEntity
  8
図面
100
AcDbLine
 10
-2430.241459777594
 20
1265.464511918655
 30
0.0
 11
-2426.741459777594
 21
1265.464511918655
 31
0.0
  0
LINE
  5
4E5B
330
1E
100
AcDbEntity
  8
図面
100
AcDbLine
 10
-2430.241459777594
 20
1271.464511918655
 30
0.0
 11
-2426.741459777594
 21
1271.464511918655
 31
0.0
  0
LWPOLYLINE
  5
4E5C
330
1E
100
AcDbEntity
  8
図面
100
AcDbPolyline
 90
        4
 70
     0
 43
0.0
 10
-2401.30857831725
 20
1273.464511918655
 10
-2405.741459777594
 20
1273.464511918655
 10
-2405.741459777594
 20
1245.464511918655
 10
-2401.267511702628
 20
1245.464511918655
  0
LWPOLYLINE
  5
4E5D
330
1E
100
AcDbEntity
  8
図面
100
AcDbPolyline
 90
        4
 70
     0
 43
0.0
 10
-2387.427889520796
 20
1244.464511918655
 10
-2376.741459777594
 20
1244.464511918655
 10
-2376.741459777594
 20
1274.464511918655
 10
-2387.423524624116
 20
1274.464511918655
  0
LWPOLYLINE
  5
4E5E
330
1E
100
AcDbEntity
  8
図面
100
AcDbPolyline
 90
        4
 70
     0
 43
0.0
 10
-2387.427453031129
 20
1247.464511918655
 10
-2380.741459777594
 20
1247.464511918655
 10
-2380.741459777594
 20
1271.464511918655
 10
-2387.423961113785
 20
1271.464511918655
  0
LINE
  5
4E5F
330
1E
100
AcDbEntity
  8
ﾚｲﾔ1
  6
DASHDOT
 62
     1
100
AcDbLine
 10
-2394.389698009351
 20
1309.02195739705
 30
0.0
 11
-2394.323642891419
 21
1209.24963883251
 31
0.0
  0
CIRCLE
  5
4E60
330
1E
100
AcDbEntity
  8
ﾚｲﾔ1
100
AcDbCircle
 10
-2522.597062038105
 20
1259.473954500441
 30
0.0
 40
73.5
  0
ARC
  5
4E61
330
1E
100
AcDbEntity
  8
ﾚｲﾔ1
  6
DASHDOTX2
 62
     1
100
AcDbCircle
 10
-2410.754016338816
 20
1207.92974206464
 30
0.0
 40
16.48330364637894
100
AcDbArc
 50
290.6606665493156
 51
4.592863597292408
  0
ARC
  5
4E62
330
1E
100
AcDbEntity
  8
ﾚｲﾔ1
  6
DASHDOT
 62
     1
100
AcDbCircle
 10
-2410.49555879228
 20
1310.245705350161
 30
0.0
 40
16.15228499661389
100
AcDbArc
 50
355.654927791218
 51
81.20495492668533
  0
CIRCLE
  5
4E63
330
1E
100
AcDbEntity
  8
ﾚｲﾔ1
100
AcDbCircle
 10
-2522.597062038105
 20
1259.473954500441
 30
0.0
 40
72.0
  0
CIRCLE
  5
4E64
330
1E
100
AcDbEntity
  8
ﾚｲﾔ1
100
AcDbCircle
 10
-2522.597062038105
 20
1259.473954500441
 30
0.0
 40
60.0
  0
CIRCLE
  5
4E65
330
1E
100
AcDbEntity
  8
ﾚｲﾔ1
100
AcDbCircle
 10
-2522.597062038105
 20
1259.473954500441
 30
0.0
 40
46.0
  0
CIRCLE
  5
4E66
330
1E
100
AcDbEntity
  8
ﾚｲﾔ1
100
AcDbCircle
 10
-2522.597062038105
 20
1259.473954500441
 30
0.0
 40
44.0
  0
CIRCLE
  5
4E67
330
1E
100
AcDbEntity
  8
ﾚｲﾔ1
100
AcDbCircle
 10
-2522.597062038105
 20
1259.473954500441
 30
0.0
 40
31.0
  0
CIRCLE
  5
4E68
330
1E
100
AcDbEntity
  8
ﾚｲﾔ1
100
AcDbCircle
 10
-2522.597062038105
 20
1259.473954500441
 30
0.0
 40
29.0
  0
CIRCLE
  5
4E69
330
1E
100
AcDbEntity
  8
ﾚｲﾔ1
100
AcDbCircle
 10
-2522.597062038105
 20
1259.473954500441
 30
0.0
 40
16.0
  0
CIRCLE
  5
4E6A
330
1E
100
AcDbEntity
  8
ﾚｲﾔ1
100
AcDbCircle
 10
-2522.597062038105
 20
1259.473954500441
 30
0.0
 40
14.0
  0
CIRCLE
  5
4E6B
330
1E
100
AcDbEntity
  8
ﾚｲﾔ1
  6
DASHDOT
 62
     1
100
AcDbCircle
 10
-2522.597062038105
 20
1259.473954500441
 30
0.0
 40
15.0
  0
CIRCLE
  5
4E6C
330
1E
100
AcDbEntity
  8
ﾚｲﾔ1
  6
DASHDOT
 62
     1
100
AcDbCircle
 10
-2522.597062038105
 20
1259.473954500441
 30
0.0
 40
30.0
  0
CIRCLE
  5
4E6D
330
1E
100
AcDbEntity
  8
ﾚｲﾔ1
  6
DASHDOT
 62
     1
100
AcDbCircle
 10
-2522.597062038105
 20
1259.473954500441
 30
0.0
 40
45.0
  0
LINE
  5
4E6E
330
1E
100
AcDbEntity
  8
ﾚｲﾔ1
  6
DASHDOT
 62
     1
 48
0.1
100
AcDbLine
 10
-2456.858293275252
 20
1255.480282207686
 30
0.0
 11
-2456.858293275252
 21
1263.5578215367
 31
0.0
  0
LINE
  5
4E6F
330
1E
100
AcDbEntity
  8
ﾚｲﾔ1
  6
DASHDOT
 62
     1
 48
0.1
100
AcDbLine
 10
-2461.324955553731
 20
1259.519051872193
 30
0.0
 11
-2452.391630996774
 21
1259.519051872193
 31
0.0
  0
CIRCLE
  5
4E70
330
1E
100
AcDbEntity
  8
ﾚｲﾔ1
100
AcDbCircle
 10
-2456.858293275252
 20
1259.519051872193
 30
0.0
 40
3.0
  0
LINE
  5
4E71
330
1E
100
AcDbEntity
  8
ﾚｲﾔ1
  6
DASHDOT
 62
     1
 48
0.1
100
AcDbLine
 10
-2588.489944895102
 20
1255.394810499737
 30
0.0
 11
-2588.489944895102
 21
1263.472349828751
 31
0.0
  0
LINE
  5
4E72
330
1E
100
AcDbEntity
  8
ﾚｲﾔ1
  6
DASHDOT
 62
     1
 48
0.1
100
AcDbLine
 10
-2592.95660717358
 20
1259.433580164243
 30
0.0
 11
-2584.023282616624
 21
1259.433580164243
 31
0.0
  0
CIRCLE
  5
4E73
330
1E
100
AcDbEntity
  8
ﾚｲﾔ1
100
AcDbCircle
 10
-2588.489944895102
 20
1259.433580164243
 30
0.0
 40
3.0
  0
LINE
  5
4E74
330
1E
100
AcDbEntity
  8
ﾚｲﾔ1
  6
DASHDOT
 62
     1
100
AcDbLine
 10
-2522.546410556198
 20
1267.760921231688
 30
0.0
 11
-2522.546410556198
 21
1251.47845539012
 31
0.0
  0
LINE
  5
4E75
330
1E
100
AcDbEntity
  8
LEVEL001
  6
Continuous
 62
     7
100
AcDbLine
 10
-2520.053037975786
 20
1261.070135778335
 30
0.0
 11
-2520.053037975786
 21
1259.626761144547
 31
0.0
  0
LINE
  5
4E76
330
1E
100
AcDbEntity
  8
LEVEL001
  6
Continuous
 62
     7
100
AcDbLine
 10
-2522.553037975786
 20
1262.513510412126
 30
0.0
 11
-2520.053037975786
 21
1261.070135778335
 31
0.0
  0
LINE
  5
4E77
330
1E
100
AcDbEntity
  8
LEVEL001
  6
Continuous
 62
     7
100
AcDbLine
 10
-2525.053045605176
 20
1261.070120519546
 30
0.0
 11
-2522.553037975786
 21
1262.513510412126
 31
0.0
  0
LINE
  5
4E78
330
1E
100
AcDbEntity
  8
LEVEL001
  6
Continuous
 62
     7
100
AcDbLine
 10
-2525.053037975786
 20
1259.626761144547
 30
0.0
 11
-2525.053045605176
 21
1261.070120519546
 31
0.0
  0
ARC
  5
4E79
330
1E
100
AcDbEntity
  8
LEVEL001
  6
Continuous
 62
     7
100
AcDbCircle
 10
-2522.553037975786
 20
1259.626761144547
 30
0.0
 40
4.4803848266602
100
AcDbArc
 50
0.0
 51
180.0
  0
ARC
  5
4E7A
330
1E
100
AcDbEntity
  8
LEVEL001
  6
Continuous
 62
     7
100
AcDbCircle
 10
-2522.553037975786
 20
1259.626761144547
 30
0.0
 40
5.0
100
AcDbArc
 50
0.0
 51
180.0
  0
LINE
  5
4E7B
330
1E
100
AcDbEntity
  8
LEVEL001
  6
DASHDOT
 62
     1
100
AcDbLine
 10
-2514.553037975785
 20
1259.626761144547
 30
0.0
 11
-2530.553037975785
 21
1259.626761144547
 31
0.0
  0
ARC
  5
4E7C
330
1E
100
AcDbEntity
  8
LEVEL001
  6
Continuous
 62
     7
100
AcDbCircle
 10
-2522.553037975786
 20
1259.626761144547
 30
0.0
 40
6.0
100
AcDbArc
 50
0.0
 51
180.0
  0
ARC
  5
4E7D
330
1E
100
AcDbEntity
  8
LEVEL001
  6
Continuous
 62
     7
100
AcDbCircle
 10
-2522.546410556198
 20
1259.619688310903
 30
0.0
 40
6.0
100
AcDbArc
 50
180.0
 51
0.0
  0
LINE
  5
4E7E
330
1E
100
AcDbEntity
  8
LEVEL001
  6
DASHDOT
 62
     1
100
AcDbLine
 10
-2530.546410556199
 20
1259.619688310903
 30
0.0
 11
-2514.546410556198
 21
1259.619688310903
 31
0.0
  0
ARC
  5
4E7F
330
1E
100
AcDbEntity
  8
LEVEL001
  6
Continuous
 62
     7
100
AcDbCircle
 10
-2522.546410556198
 20
1259.619688310903
 30
0.0
 40
5.0
100
AcDbArc
 50
180.0
 51
0.0
  0
ARC
  5
4E80
330
1E
100
AcDbEntity
  8
LEVEL001
  6
Continuous
 62
     7
100
AcDbCircle
 10
-2522.546410556198
 20
1259.619688310903
 30
0.0
 40
4.4803848266602
100
AcDbArc
 50
180.0
 51
0.0
  0
LINE
  5
4E81
330
1E
100
AcDbEntity
  8
LEVEL001
  6
Continuous
 62
     7
100
AcDbLine
 10
-2520.046410556199
 20
1259.619688310903
 30
0.0
 11
-2520.046402926808
 21
1258.176328935903
 31
0.0
  0
LINE
  5
4E82
330
1E
100
AcDbEntity
  8
LEVEL001
  6
Continuous
 62
     7
100
AcDbLine
 10
-2520.046402926808
 20
1258.176328935903
 30
0.0
 11
-2522.546410556198
 21
1256.732939043324
 31
0.0
  0
LINE
  5
4E83
330
1E
100
AcDbEntity
  8
LEVEL001
  6
Continuous
 62
     7
100
AcDbLine
 10
-2522.546410556198
 20
1256.732939043324
 30
0.0
 11
-2525.046410556199
 21
1258.176313677114
 31
0.0
  0
LINE
  5
4E84
330
1E
100
AcDbEntity
  8
LEVEL001
  6
Continuous
 62
     7
100
AcDbLine
 10
-2525.046410556199
 20
1258.176313677114
 30
0.0
 11
-2525.046410556199
 21
1259.619688310903
 31
0.0
  0
LINE
  5
4F54
330
1E
100
AcDbEntity
  8
ﾚｲﾔ1
  6
DOT
100
AcDbLine
 10
-2590.416492047973
 20
1077.574045294515
 30
0.0
 11
-2590.416492047973
 21
1097.705018618549
 31
0.0
  0
LINE
  5
4F55
330
1E
100
AcDbEntity
  8
ﾚｲﾔ1
  6
DOT
100
AcDbLine
 10
-2455.258577261847
 20
1077.673907748128
 30
0.0
 11
-2455.258577261847
 21
1097.774160863094
 31
0.0
  0
DIMENSION
  5
4F56
330
1E
100
AcDbEntity
  8
ﾚｲﾔ1
100
AcDbDimension
  2
*D10
 10
-2455.258577261847
 20
1087.724034305611
 30
0.0
 11
-2522.83753465491
 21
1093.224034305611
 31
0.0
 70
    32
  1
φ135
 71
     5
 42
135.1579147861262
  3
Standard
100
AcDbAlignedDimension
 13
-2590.416492047973
 23
1087.610441090275
 33
0.0
 14
-2455.258577261847
 24
1087.61370144434
 34
0.0
100
AcDbRotatedDimension
1001
ACAD
1000
DSTYLE
1002
{
1070
   343
1005
51BF
1070
   173
1070
     1
1070
   344
1005
51BF
1070
    41
1040
10.0
1070
    44
1040
0.5
1070
    73
1070
     0
1070
    74
1070
     0
1070
    77
1070
     1
1070
   140
1040
10.0
1070
   147
1040
0.5
1070
   176
1070
     1
1070
   177
1070
     1
1070
   178
1070
     1
1070
   271
1070
     0
1070
   272
1070
     0
1070
   279
1070
     2
1070
   340
1005
23
1070
   341
1005
1C1
1070
   342
1005
0
1002
}
  0
MTEXT
  5
53E6
330
1E
100
AcDbEntity
  8
図面枠
370
    30
100
AcDbMText
 10
-2221.900305970432
 20
997.633520600069
 30
0.0
 40
6.883531502314025
 41
113.6084276569691
 71
     1
 72
     5
  1
株式会社　関東油機サービス
 73
     1
 44
1.0
  0
TEXT
  5
53E7
330
1E
100
AcDbEntity
  8
図面枠
100
AcDbText
 10
-2190.616392174424
 20
1013.004152958279
 30
0.0
 40
4.693316933395926
  1
図
100
AcDbText
  0
TEXT
  5
53E8
330
1E
100
AcDbEntity
  8
図面枠
100
AcDbText
 10
-2226.89413353895
 20
1004.423719774499
 30
0.0
 40
4.693316933395926
  1
１：2
100
AcDbText
  0
TEXT
  5
53E9
330
1E
100
AcDbEntity
  8
図面枠
100
AcDbText
 10
-2190.616392174424
 20
1005.614666035302
 30
0.0
 40
4.693316933395926
  1
番
100
AcDbText
  0
TEXT
  5
53EB
330
1E
100
AcDbEntity
  8
図面枠
100
AcDbText
 10
-2227.976238593579
 20
1012.122061444162
 30
0.0
 40
6.25775591119457
  1
尺度
 41
1.125
100
AcDbText
  0
LINE
  5
53EC
330
1E
100
AcDbEntity
  8
図面枠
  6
Continuous
100
AcDbLine
 10
-2119.669084531256
 20
1003.580895364163
 30
0.0
 11
-2712.591457116938
 21
1003.580895364163
 31
0.0
  0
LINE
  5
53ED
330
1E
100
AcDbEntity
  8
図面枠
  6
Continuous
100
AcDbLine
 10
-2315.223956756083
 20
1003.580895364163
 30
0.0
 11
-2299.579566978095
 21
1003.580895364163
 31
0.0
  0
LINE
  5
53EE
330
1E
100
AcDbEntity
  8
図面枠
  6
Continuous
100
AcDbLine
 10
-2119.669084531256
 20
1419.721663458603
 30
0.0
 11
-2119.669084531256
 21
1003.580895364163
 31
0.0
  0
LINE
  5
53EF
330
1E
100
AcDbEntity
  8
図面枠
  6
Continuous
100
AcDbLine
 10
-2712.591457116938
 20
1003.580895364163
 30
0.0
 11
-2712.591457116938
 21
1419.721663458603
 31
0.0
  0
LINE
  5
53F0
330
1E
100
AcDbEntity
  8
図面枠
  6
Continuous
100
AcDbLine
 10
-2712.591457116938
 20
1419.721663458603
 30
0.0
 11
-2119.669084531256
 21
1419.721663458603
 31
0.0
  0
LINE
  5
53F1
330
1E
100
AcDbEntity
  8
図面枠
  6
Continuous
100
AcDbLine
 10
-2218.228740132566
 20
1030.019914088961
 30
0.0
 11
-2124.675289260209
 21
1030.019914088961
 31
0.0
  0
LINE
  5
53F2
330
1E
100
AcDbEntity
  8
図面枠
  6
Continuous
100
AcDbLine
 10
-2230.744251954954
 20
1011.403090253157
 30
0.0
 11
-2191.633277509991
 21
1011.403090253157
 31
0.0
  0
LINE
  5
53F3
330
1E
100
AcDbEntity
  8
図面枠
  6
Continuous
100
AcDbLine
 10
-2119.669084531256
 20
1042.691869809129
 30
0.0
 11
-2230.744251954954
 21
1042.691869809129
 31
0.0
  0
LINE
  5
53F4
330
1E
100
AcDbEntity
  8
図面枠
  6
Continuous
100
AcDbLine
 10
-2119.669084531256
 20
1073.980649365103
 30
0.0
 11
-2119.669084531256
 21
1042.691869809129
 31
0.0
  0
LINE
  5
53F5
330
1E
100
AcDbEntity
  8
図面枠
  6
Continuous
100
AcDbLine
 10
-2119.669084531256
 20
1019.22528514215
 30
0.0
 11
-2222.922057065965
 21
1019.22528514215
 31
0.0
  0
LINE
  5
53F6
330
1E
100
AcDbEntity
  8
図面枠
  6
Continuous
100
AcDbLine
 10
-2119.669084531256
 20
1042.691869809129
 30
0.0
 11
-2119.669084531256
 21
1019.22528514215
 31
0.0
  0
LINE
  5
53F7
330
1E
100
AcDbEntity
  8
図面枠
  6
Continuous
100
AcDbLine
 10
-2222.922057065965
 20
1042.691869809129
 30
0.0
 11
-2119.669084531256
 21
1042.691869809129
 31
0.0
  0
LINE
  5
53F8
330
1E
100
AcDbEntity
  8
図面枠
  6
Continuous
100
AcDbLine
 10
-2222.922057065965
 20
1019.22528514215
 30
0.0
 11
-2222.922057065965
 21
1042.691869809129
 31
0.0
  0
LINE
  5
53F9
330
1E
100
AcDbEntity
  8
図面枠
  6
Continuous
100
AcDbLine
 10
-2222.922057065965
 20
1042.691869809129
 30
0.0
 11
-2230.744251954954
 21
1042.691869809129
 31
0.0
  0
LINE
  5
53FA
330
1E
100
AcDbEntity
  8
図面枠
  6
Continuous
100
AcDbLine
 10
-2222.922057065965
 20
1019.22528514215
 30
0.0
 11
-2222.922057065965
 21
1042.691869809129
 31
0.0
  0
LINE
  5
53FB
330
1E
100
AcDbEntity
  8
図面枠
  6
Continuous
100
AcDbLine
 10
-2230.744251954954
 20
1019.22528514215
 30
0.0
 11
-2222.922057065965
 21
1019.22528514215
 31
0.0
  0
LINE
  5
53FC
330
1E
100
AcDbEntity
  8
図面枠
  6
Continuous
100
AcDbLine
 10
-2230.744251954954
 20
1042.691869809129
 30
0.0
 11
-2230.744251954954
 21
1019.22528514215
 31
0.0
  0
LINE
  5
53FD
330
1E
100
AcDbEntity
  8
図面枠
  6
Continuous
100
AcDbLine
 10
-2230.744251954954
 20
1042.691869809129
 30
0.0
 11
-2230.744251954954
 21
1034.869674920138
 31
0.0
  0
LINE
  5
53FE
330
1E
100
AcDbEntity
  8
図面枠
  6
Continuous
100
AcDbLine
 10
-2230.744251954954
 20
1034.869674920138
 30
0.0
 11
-2230.744251954954
 21
1027.047480031144
 31
0.0
  0
LINE
  5
53FF
330
1E
100
AcDbEntity
  8
図面枠
  6
Continuous
100
AcDbLine
 10
-2230.744251954954
 20
1027.047480031144
 30
0.0
 11
-2230.744251954954
 21
1019.22528514215
 31
0.0
  0
LINE
  5
5400
330
1E
100
AcDbEntity
  8
図面枠
  6
Continuous
100
AcDbLine
 10
-2119.669084531256
 20
1019.22528514215
 30
0.0
 11
-2185.375521598795
 21
1019.22528514215
 31
0.0
  0
LINE
  5
5401
330
1E
100
AcDbEntity
  8
図面枠
  6
Continuous
100
AcDbLine
 10
-2119.669084531256
 20
1003.580895364163
 30
0.0
 11
-2119.669084531256
 21
1019.22528514215
 31
0.0
  0
LINE
  5
5402
330
1E
100
AcDbEntity
  8
図面枠
  6
Continuous
100
AcDbLine
 10
-2185.375521598795
 20
1003.580895364163
 30
0.0
 11
-2119.669084531256
 21
1003.580895364163
 31
0.0
  0
LINE
  5
5403
330
1E
100
AcDbEntity
  8
図面枠
  6
Continuous
100
AcDbLine
 10
-2185.375521598795
 20
1019.22528514215
 30
0.0
 11
-2185.375521598795
 21
1003.580895364163
 31
0.0
  0
LINE
  5
5404
330
1E
100
AcDbEntity
  8
図面枠
  6
Continuous
100
AcDbLine
 10
-2185.375521598795
 20
1019.22528514215
 30
0.0
 11
-2191.633277509991
 21
1019.22528514215
 31
0.0
  0
LINE
  5
5405
330
1E
100
AcDbEntity
  8
図面枠
  6
Continuous
100
AcDbLine
 10
-2185.375521598795
 20
1003.580895364163
 30
0.0
 11
-2185.375521598795
 21
1019.22528514215
 31
0.0
  0
LINE
  5
5406
330
1E
100
AcDbEntity
  8
図面枠
  6
Continuous
100
AcDbLine
 10
-2191.633277509991
 20
1003.580895364163
 30
0.0
 11
-2185.375521598795
 21
1003.580895364163
 31
0.0
  0
LINE
  5
5407
330
1E
100
AcDbEntity
  8
図面枠
  6
Continuous
100
AcDbLine
 10
-2191.633277509991
 20
1019.22528514215
 30
0.0
 11
-2191.633277509991
 21
1003.580895364163
 31
0.0
  0
LINE
  5
5408
330
1E
100
AcDbEntity
  8
図面枠
  6
Continuous
100
AcDbLine
 10
-2191.633277509991
 20
1019.22528514215
 30
0.0
 11
-2208.842106265777
 21
1019.22528514215
 31
0.0
  0
LINE
  5
5409
330
1E
100
AcDbEntity
  8
図面枠
  6
Continuous
100
AcDbLine
 10
-2191.633277509991
 20
1003.580895364163
 30
0.0
 11
-2191.633277509991
 21
1019.22528514215
 31
0.0
  0
LINE
  5
540A
330
1E
100
AcDbEntity
  8
図面枠
  6
Continuous
100
AcDbLine
 10
-2208.842106265777
 20
1003.580895364163
 30
0.0
 11
-2191.633277509991
 21
1003.580895364163
 31
0.0
  0
LINE
  5
540B
330
1E
100
AcDbEntity
  8
図面枠
  6
Continuous
100
AcDbLine
 10
-2208.842106265777
 20
1019.22528514215
 30
0.0
 11
-2208.842106265777
 21
1003.580895364163
 31
0.0
  0
LINE
  5
540C
330
1E
100
AcDbEntity
  8
図面枠
  6
Continuous
100
AcDbLine
 10
-2208.842106265777
 20
1019.22528514215
 30
0.0
 11
-2230.744251954954
 21
1019.22528514215
 31
0.0
  0
LINE
  5
540D
330
1E
100
AcDbEntity
  8
図面枠
  6
Continuous
100
AcDbLine
 10
-2208.842106265777
 20
1003.580895364163
 30
0.0
 11
-2208.842106265777
 21
1019.22528514215
 31
0.0
  0
LINE
  5
540E
330
1E
100
AcDbEntity
  8
図面枠
  6
Continuous
100
AcDbLine
 10
-2230.744251954954
 20
1003.580895364163
 30
0.0
 11
-2208.842106265777
 21
1003.580895364163
 31
0.0
  0
LINE
  5
540F
330
1E
100
AcDbEntity
  8
図面枠
  6
Continuous
100
AcDbLine
 10
-2230.744251954954
 20
1019.22528514215
 30
0.0
 11
-2230.744251954954
 21
1003.580895364163
 31
0.0
  0
LINE
  5
5410
330
1E
100
AcDbEntity
  8
図面枠
  6
Continuous
100
AcDbLine
 10
-2230.744251954954
 20
1003.580895364163
 30
0.0
 11
-2230.744251954954
 21
1019.22528514215
 31
0.0
  0
LINE
  5
5411
330
1E
100
AcDbEntity
  8
図面枠
  6
Continuous
100
AcDbLine
 10
-2252.64639764414
 20
1003.580895364163
 30
0.0
 11
-2230.744251954954
 21
1003.580895364163
 31
0.0
  0
LINE
  5
5412
330
1E
100
AcDbEntity
  8
図面枠
  6
Continuous
100
AcDbLine
 10
-2268.290787422127
 20
1003.580895364163
 30
0.0
 11
-2252.64639764414
 21
1003.580895364163
 31
0.0
  0
LINE
  5
5413
330
1E
100
AcDbEntity
  8
図面枠
  6
Continuous
100
AcDbLine
 10
-2283.935177200111
 20
1003.580895364163
 30
0.0
 11
-2268.290787422127
 21
1003.580895364163
 31
0.0
  0
LINE
  5
5414
330
1E
100
AcDbEntity
  8
図面枠
  6
Continuous
100
AcDbLine
 10
-2299.579566978095
 20
1003.580895364163
 30
0.0
 11
-2283.935177200111
 21
1003.580895364163
 31
0.0
  0
LINE
  5
5415
330
1E
100
AcDbEntity
  8
図面枠
  6
Continuous
100
AcDbLine
 10
-2114.975767597859
 20
1424.414980391998
 30
0.0
 11
-2114.975767597859
 21
998.8875784307675
 31
0.0
  0
LINE
  5
5416
330
1E
100
AcDbEntity
  8
図面枠
  6
Continuous
100
AcDbLine
 10
-2114.975767597859
 20
998.8875784307675
 30
0.0
 11
-2717.284774050336
 21
998.8875784307675
 31
0.0
  0
LINE
  5
5417
330
1E
100
AcDbEntity
  8
図面枠
  6
Continuous
100
AcDbLine
 10
-2717.284774050336
 20
1424.414980391998
 30
0.0
 11
-2717.284774050336
 21
998.8875784307675
 31
0.0
  0
LINE
  5
5418
330
1E
100
AcDbEntity
  8
図面枠
  6
Continuous
100
AcDbLine
 10
-2114.975767597859
 20
1424.414980391998
 30
0.0
 11
-2717.284774050336
 21
1424.414980391998
 31
0.0
  0
LWPOLYLINE
  5
5419
330
1E
100
AcDbEntity
  8
ﾚｲﾔ1
100
AcDbPolyline
 90
        4
 70
     1
 43
0.0
 10
-2747.467147206442
 20
1444.049852072691
 10
-2079.207608693313
 20
1444.049852072691
 10
-2079.207608693313
 20
971.5498145893457
 10
-2747.467147206442
 20
971.5498145893457
  0
MTEXT
  5
5431
330
1E
100
AcDbEntity
  8
ﾚｲﾔ1
100
AcDbMText
 10
-2217.839243927468
 20
1035.919494525092
 30
0.0
 40
4.725
 41
88.70369004118129
 71
     1
 72
     5
  1
{1000KN15st油圧ジャッキ}
 73
     1
 44
1.0
1001
ACAD
1000
ACAD_MTEXT_DEFINED_HEIGHT_BEGIN
1070
    46
1040
4.725
1000
ACAD_MTEXT_DEFINED_HEIGHT_END
  0
MTEXT
  5
5432
330
1E
100
AcDbEntity
  8
ﾚｲﾔ1
100
AcDbMText
 10
-2217.579668706393
 20
1024.735420061331
 30
0.0
 40
4.725
 41
88.70369004118129
 71
     1
 72
     5
  1
{SM-1001.5H}
 73
     1
 44
1.0
1001
ACAD
1000
ACAD_MTEXT_DEFINED_HEIGHT_BEGIN
1070
    46
1040
4.725
1000
ACAD_MTEXT_DEFINED_HEIGHT_END
  0
MTEXT
  5
557D
330
1E
100
AcDbEntity
  8
ﾚｲﾔ1
100
AcDbMText
 10
-2267.95059342239
 20
1412.973384801626
 30
0.0
 40
4.276799999999996
 41
688.4608722015536
 71
     1
 72
     5
  1
仕  様
 73
     1
 44
1.0
  0
MTEXT
  5
557E
330
1E
100
AcDbEntity
  8
ﾚｲﾔ1
100
AcDbMText
 10
-2268.150815790555
 20
1401.093038051489
 30
0.0
 40
4.9896
 41
688.4608722015536
 71
     1
 72
     5
  1
能　　力
 73
     1
 44
1.0
  0
MTEXT
  5
557F
330
1E
100
AcDbEntity
  8
ﾚｲﾔ1
100
AcDbMText
 10
-2268.404353068745
 20
1388.899626068009
 30
0.0
 40
4.9896
 41
688.4608722015536
 71
     1
 72
     5
  1
機　械　高　さ
 73
     1
 44
1.0
  0
MTEXT
  5
5580
330
1E
100
AcDbEntity
  8
ﾚｲﾔ1
100
AcDbMText
 10
-2268.222462777337
 20
1375.459239602991
 30
0.0
 40
4.9896
 41
688.460872201553
 71
     1
 72
     5
  1
{ス　ト　ロ　-　ク}
 73
     1
 44
1.0
1001
ACAD
1000
ACAD_MTEXT_DEFINED_HEIGHT_BEGIN
1070
    46
1040
6.3
1000
ACAD_MTEXT_DEFINED_HEIGHT_END
  0
MTEXT
  5
5581
330
1E
100
AcDbEntity
  8
ﾚｲﾔ1
100
AcDbMText
 10
-2268.307696108634
 20
1362.989013132686
 30
0.0
 40
4.9896
 41
688.4608722015536
 71
     1
 72
     5
  1
使　用　圧　力
 73
     1
 44
1.0
  0
MTEXT
  5
5582
330
1E
100
AcDbEntity
  8
ﾚｲﾔ1
100
AcDbMText
 10
-2268.271663030504
 20
1350.38106595855
 30
0.0
 40
4.9896
 41
688.4608722015536
 71
     1
 72
     5
  1
受　圧　面　積
 73
     1
 44
1.0
  0
MTEXT
  5
5583
330
1E
100
AcDbEntity
  8
ﾚｲﾔ1
100
AcDbMText
 10
-2267.444076597638
 20
1336.99193060663
 30
0.0
 40
4.276799999999996
 41
688.4608722015536
 71
     1
 72
     5
  1
ロ　ッ　ド　径
 73
     1
 44
1.0
  0
MTEXT
  5
5584
330
1E
100
AcDbEntity
  8
ﾚｲﾔ1
100
AcDbMText
 10
-2268.419141097148
 20
1323.235699854965
 30
0.0
 40
4.276799999999996
 41
688.4608722015536
 71
     1
 72
     5
  1
重　　量
 73
     1
 44
1.0
  0
LINE
  5
5585
330
1E
100
AcDbEntity
  8
ﾚｲﾔ1
100
AcDbLine
 10
-2268.909436882811
 20
1408.244998967186
 30
0.0
 11
-2250.733496445909
 21
1408.23917032161
 31
0.0
  0
LINE
  5
5586
330
1E
100
AcDbEntity
  8
ﾚｲﾔ1
100
AcDbLine
 10
-2268.909436882811
 20
1395.412880563342
 30
0.0
 11
-2128.730112531376
 21
1395.412880563342
 31
0.0
  0
LINE
  5
5587
330
1E
100
AcDbEntity
  8
ﾚｲﾔ1
100
AcDbLine
 10
-2268.909436882811
 20
1382.582480563347
 30
0.0
 11
-2128.730112531376
 21
1382.582480563347
 31
0.0
  0
LINE
  5
5588
330
1E
100
AcDbEntity
  8
ﾚｲﾔ1
100
AcDbLine
 10
-2268.909436882811
 20
1369.752080563352
 30
0.0
 11
-2128.730112531376
 21
1369.752080563352
 31
0.0
  0
LINE
  5
5589
330
1E
100
AcDbEntity
  8
ﾚｲﾔ1
100
AcDbLine
 10
-2268.909436882811
 20
1356.921680563355
 30
0.0
 11
-2128.730112531376
 21
1356.921680563355
 31
0.0
  0
LINE
  5
558A
330
1E
100
AcDbEntity
  8
ﾚｲﾔ1
100
AcDbLine
 10
-2268.909436882811
 20
1344.091280563359
 30
0.0
 11
-2128.730112531376
 21
1344.091280563362
 31
0.0
  0
LINE
  5
558B
330
1E
100
AcDbEntity
  8
ﾚｲﾔ1
100
AcDbLine
 10
-2268.909436882811
 20
1331.260880563364
 30
0.0
 11
-2128.730112531376
 21
1331.260880563364
 31
0.0
  0
LINE
  5
558C
330
1E
100
AcDbEntity
  8
ﾚｲﾔ1
100
AcDbLine
 10
-2268.909436882811
 20
1318.430480563366
 30
0.0
 11
-2128.730112531376
 21
1318.430480563369
 31
0.0
  0
TEXT
  5
558F
330
1E
100
AcDbEntity
  8
ﾚｲﾔ1
100
AcDbText
 10
-2169.818622100231
 20
1383.940219471777
 30
0.0
 40
4.752
  1
91
 50
360.0
100
AcDbText
  0
TEXT
  5
5590
330
1E
100
AcDbEntity
  8
ﾚｲﾔ1
100
AcDbText
 10
-2169.818622100231
 20
1371.080462951404
 30
0.0
 40
4.752
  1
15
 50
360.0
100
AcDbText
  0
TEXT
  5
5591
330
1E
100
AcDbEntity
  8
ﾚｲﾔ1
100
AcDbText
 10
-2169.818622100231
 20
1358.082264076146
 30
0.0
 40
4.752
  1
69.9
 50
360.0
100
AcDbText
  0
TEXT
  5
5592
330
1E
100
AcDbEntity
  8
ﾚｲﾔ1
100
AcDbText
 10
-2169.818622100231
 20
1345.54553971717
 30
0.0
 40
4.752
  1
143
 50
360.0
100
AcDbText
  0
TEXT
  5
5593
330
1E
100
AcDbEntity
  8
ﾚｲﾔ1
100
AcDbText
 10
-2165.128525941429
 20
1332.427295010743
 30
0.0
 40
4.752
  1
120
 50
360.0
100
AcDbText
  0
TEXT
  5
5594
330
1E
100
AcDbEntity
  8
ﾚｲﾔ1
100
AcDbText
 10
-2165.112016802951
 20
1319.203210789229
 30
0.0
 40
4.752
  1
16
 50
360.0
100
AcDbText
  0
MTEXT
  5
5595
330
1E
100
AcDbEntity
  8
ﾚｲﾔ1
100
AcDbMText
 10
-2169.923429838111
 20
1336.723573364874
 30
0.0
 40
4.752
 41
0.0
 71
     1
 72
     5
  1
{Φ}
 73
     1
 44
1.0
1001
ACAD
1000
ACAD_MTEXT_DEFINED_HEIGHT_BEGIN
1070
    46
1040
12.0
1000
ACAD_MTEXT_DEFINED_HEIGHT_END
  0
MTEXT
  5
5596
330
1E
100
AcDbEntity
  8
ﾚｲﾔ1
100
AcDbMText
 10
-2171.207567756063
 20
1324.184138728847
 30
0.0
 40
4.752
 41
0.0
 71
     1
 72
     5
  1
{約}
 73
     1
 44
1.0
1001
ACAD
1000
ACAD_MTEXT_DEFINED_HEIGHT_BEGIN
1070
    46
1040
6.0
1000
ACAD_MTEXT_DEFINED_HEIGHT_END
  0
TEXT
  5
5597
330
1E
100
AcDbEntity
  8
ﾚｲﾔ1
100
AcDbText
 10
-2169.818622100231
 20
1397.092755807071
 30
0.0
 40
4.752
  1
1000
 50
360.0
100
AcDbText
  0
TEXT
  5
5598
330
1E
100
AcDbEntity
  8
ﾚｲﾔ1
100
AcDbText
 10
-2138.398948264331
 20
1396.949731272657
 30
0.0
 40
4.752
  1
KN
 50
360.0
100
AcDbText
  0
TEXT
  5
5599
330
1E
100
AcDbEntity
  8
ﾚｲﾔ1
100
AcDbText
 10
-2138.398948264331
 20
1383.99055442082
 30
0.0
 40
4.752
  1
mm
 50
360.0
100
AcDbText
  0
TEXT
  5
559A
330
1E
100
AcDbEntity
  8
ﾚｲﾔ1
100
AcDbText
 10
-2138.398948264331
 20
1371.083409791801
 30
0.0
 40
4.752
  1
mm
 50
360.0
100
AcDbText
  0
TEXT
  5
559B
330
1E
100
AcDbEntity
  8
ﾚｲﾔ1
100
AcDbText
 10
-2141.568702852294
 20
1358.506447932362
 30
0.0
 40
4.752
  1
Mpa
 50
360.0
100
AcDbText
  0
TEXT
  5
559C
330
1E
100
AcDbEntity
  8
ﾚｲﾔ1
100
AcDbText
 10
-2138.398948264331
 20
1332.962308213071
 30
0.0
 40
4.752
  1
mm
 50
360.0
100
AcDbText
  0
TEXT
  5
559D
330
1E
100
AcDbEntity
  8
ﾚｲﾔ1
100
AcDbText
 10
-2141.568702852294
 20
1345.044596250449
 30
0.0
 40
4.752
  1
cm2
 50
360.0
100
AcDbText
  0
TEXT
  5
559E
330
1E
100
AcDbEntity
  8
ﾚｲﾔ1
100
AcDbText
 10
-2138.398948264331
 20
1319.703068685217
 30
0.0
 40
4.752
  1
Kg
 50
360.0
100
AcDbText
  0
TEXT
  5
5604
102
{ACAD_REACTORS
330
5606
102
}
330
1E
100
AcDbEntity
  8
図面枠
100
AcDbText
 10
-2229.637738500777
 20
1032.37410917489
 30
0.0
 40
6.488041328726529
  1
名
100
AcDbText
  0
TEXT
  5
5605
102
{ACAD_REACTORS
330
5606
102
}
330
1E
100
AcDbEntity
  8
図面枠
100
AcDbText
 10
-2229.637738500777
 20
1022.158882452567
 30
0.0
 40
6.488041328726529
  1
称
100
AcDbText
  0
ENDSEC
  0
SECTION
  2
OBJECTS
  0
DICTIONARY
  5
C
330
0
100
AcDbDictionary
281
     1
  3
ACAD_DETAILVIEWSTYLE
350
543B
  3
ACAD_GROUP
350
D
  3
ACAD_LAYOUT
350
19
  3
ACAD_MLINESTYLE
350
16
  3
ACAD_PLOTSETTINGS
350
18
  3
ACAD_PLOTSTYLENAME
350
E
  3
ACAD_SCALELIST
350
5330
  3
ACAD_SECTIONVIEWSTYLE
350
543C
  3
AcDbVariableDictionary
350
5325
  3
APPDATA
350
5372
  3
DWGPROPS
350
5629
  3
FX_DICT_DIMENSION_PALETTE
350
543D
  0
DICTIONARY
  5
53E1
330
2
100
AcDbDictionary
280
     1
281
     1
  3
ACAD_LAYERSTATES
360
53E2
  0
DICTIONARY
  5
54A7
330
1E
100
AcDbDictionary
280
     1
281
     1
  3
DIM_BOUNDING_BOXES_V1
360
54A8
  0
DICTIONARY
  5
543B
102
{ACAD_REACTORS
330
C
102
}
330
C
100
AcDbDictionary
281
     1
  0
DICTIONARY
  5
D
102
{ACAD_REACTORS
330
C
102
}
330
C
100
AcDbDictionary
281
     1
  3
*A1
350
5606
  0
DICTIONARY
  5
19
102
{ACAD_REACTORS
330
C
102
}
330
C
100
AcDbDictionary
281
     1
  3
Model
350
21
  3
ﾚｲｱｳﾄ1
350
1D
  0
DICTIONARY
  5
16
102
{ACAD_REACTORS
330
C
102
}
330
C
100
AcDbDictionary
281
     1
  3
Standard
350
17
  0
DICTIONARY
  5
18
102
{ACAD_REACTORS
330
C
102
}
330
C
100
AcDbDictionary
281
     1
  0
ACDBDICTIONARYWDFLT
  5
E
102
{ACAD_REACTORS
330
C
102
}
330
C
100
AcDbDictionary
281
     1
  3
Normal
350
F
100
AcDbDictionaryWithDefault
340
F
  0
DICTIONARY
  5
5330
102
{ACAD_REACTORS
330
C
102
}
330
C
100
AcDbDictionary
281
     1
  3
A0
350
5331
  3
A1
350
5332
  3
A2
350
5333
  3
A3
350
5334
  3
A4
350
5335
  3
A5
350
5336
  3
A6
350
5337
  3
A7
350
5338
  3
A8
350
5339
  3
A9
350
533A
  3
B0
350
533B
  3
B1
350
533C
  3
B2
350
533D
  3
B3
350
533E
  3
B4
350
533F
  3
B5
350
5340
  3
B6
350
5341
  3
B7
350
5342
  3
B8
350
5343
  3
B9
350
5344
  3
C0
350
5345
  3
C1
350
5346
  3
C2
350
5347
  3
C3
350
5348
  3
C4
350
5349
  3
C5
350
534A
  3
C6
350
534B
  3
C7
350
534C
  3
C8
350
534D
  3
C9
350
534E
  3
D0
350
534F
  3
D1
350
5350
  3
D2
350
5351
  0
DICTIONARY
  5
543C
102
{ACAD_REACTORS
330
C
102
}
330
C
100
AcDbDictionary
281
     1
  0
DICTIONARY
  5
5325
102
{ACAD_REACTORS
330
C
102
}
330
C
100
AcDbDictionary
281
     1
  3
DIMASSOC
350
5326
  3
PROJECTNAME
350
5327
  0
DICTIONARY
  5
5372
102
{ACAD_REACTORS
330
C
102
}
330
C
100
AcDbDictionary
281
     1
  0
XRECORD
  5
5629
102
{ACAD_REACTORS
330
C
102
}
330
C
100
AcDbXrecord
280
     1
  1
DWGPROPS COOKIE
  2

  3

  4

  6

  7

  8
Hiroki Noike
  9

300
=
301
=
302
=
303
=
304
=
305
=
306
=
307
=
308
=
309
=
 40
0.0
 41
2449944.550517361
 42
2459744.205475822
  1

 90
        0
  0
DICTIONARY
  5
543D
102
{ACAD_REACTORS
330
C
102
}
330
C
100
AcDbDictionary
281
     1
1001
FX_DIMP_FAV_VERSION
1071
        1
  0
DICTIONARY
  5
53E2
102
{ACAD_REACTORS
330
53E1
102
}
330
53E1
100
AcDbDictionary
281
     1
  0
DICTIONARY
  5
54A8
102
{ACAD_REACTORS
330
54A7
102
}
330
54A7
100
AcDbDictionary
281
     1
  0
GROUP
  5
5606
102
{ACAD_REACTORS
330
D
102
}
330
D
100
AcDbGroup
300

 70
     1
 71
     1
340
5604
340
5605
  0
LAYOUT
  5
21
102
{ACAD_REACTORS
330
19
102
}
330
19
100
AcDbPlotSettings
  1

  2
倉庫ﾌﾟﾘﾝﾀ.pc3
  4
A3
  6

 40
5.873749732971191
 41
5.873747825622558
 42
5.873748779296875
 43
5.873748779296875
 44
296.9259948730469
 45
419.9466552734374
 46
-5.919999999999999
 47
-5.91
 48
-210.0
 49
-148.5
140
210.0
141
148.5
142
1.0
143
1.0
 70
 11940
 72
     1
 73
     1
 74
     1
  7

 75
     0
147
1.0
148
210.0064041928747
149
148.5045286792472
100
AcDbLayout
  1
Model
 70
     1
 71
     0
 10
0.0
 20
0.0
 11
12.0
 21
9.0
 12
0.0
 22
0.0
 32
0.0
 14
-2747.467147206442
 24
971.5498145893457
 34
0.0
 15
-2079.207608693313
 25
1444.049852072691
 35
0.0
146
0.0
 13
0.0
 23
0.0
 33
0.0
 16
1.0
 26
0.0
 36
0.0
 17
0.0
 27
1.0
 37
0.0
 76
     0
330
1E
331
5328
  0
LAYOUT
  5
1D
102
{ACAD_REACTORS
330
19
102
}
330
19
100
AcDbPlotSettings
  1

  2
なし
  4

  6

 40
0.0
 41
0.0
 42
0.0
 43
0.0
 44
0.0
 45
0.0
 46
0.0
 47
0.0
 48
0.0
 49
0.0
140
0.0
141
0.0
142
1.0
143
1.0
 70
   688
 72
     0
 73
     0
 74
     5
  7

 75
    16
147
1.0
148
0.0
149
0.0
100
AcDbLayout
  1
ﾚｲｱｳﾄ1
 70
     1
 71
     1
 10
0.0
 20
0.0
 11
12.0
 21
9.0
 12
0.0
 22
0.0
 32
0.0
 14
1.000000000000000E+20
 24
1.000000000000000E+20
 34
1.000000000000000E+20
 15
-1.000000000000000E+20
 25
-1.000000000000000E+20
 35
-1.000000000000000E+20
146
0.0
 13
0.0
 23
0.0
 33
0.0
 16
1.0
 26
0.0
 36
0.0
 17
0.0
 27
1.0
 37
0.0
 76
     0
330
1A
  0
MLINESTYLE
  5
17
102
{ACAD_REACTORS
330
16
102
}
330
16
100
AcDbMlineStyle
  2
STANDARD
 70
     0
  3

 62
   256
 51
90.0
 52
90.0
 71
     2
 49
0.5
 62
   256
  6
BYLAYER
 49
-0.5
 62
   256
  6
BYLAYER
  0
ACDBPLACEHOLDER
  5
F
102
{ACAD_REACTORS
330
E
102
}
330
E
  0
SCALE
  5
5331
102
{ACAD_REACTORS
330
5330
102
}
330
5330
100
AcDbScale
 70
     0
300
1:1
140
1.0
141
1.0
290
     1
  0
SCALE
  5
5332
102
{ACAD_REACTORS
330
5330
102
}
330
5330
100
AcDbScale
 70
     0
300
1:2
140
1.0
141
2.0
290
     0
  0
SCALE
  5
5333
102
{ACAD_REACTORS
330
5330
102
}
330
5330
100
AcDbScale
 70
     0
300
1:4
140
1.0
141
4.0
290
     0
  0
SCALE
  5
5334
102
{ACAD_REACTORS
330
5330
102
}
330
5330
100
AcDbScale
 70
     0
300
1:5
140
1.0
141
5.0
290
     0
  0
SCALE
  5
5335
102
{ACAD_REACTORS
330
5330
102
}
330
5330
100
AcDbScale
 70
     0
300
1:8
140
1.0
141
8.0
290
     0
  0
SCALE
  5
5336
102
{ACAD_REACTORS
330
5330
102
}
330
5330
100
AcDbScale
 70
     0
300
1:10
140
1.0
141
10.0
290
     0
  0
SCALE
  5
5337
102
{ACAD_REACTORS
330
5330
102
}
330
5330
100
AcDbScale
 70
     0
300
1:16
140
1.0
141
16.0
290
     0
  0
SCALE
  5
5338
102
{ACAD_REACTORS
330
5330
102
}
330
5330
100
AcDbScale
 70
     0
300
1:20
140
1.0
141
20.0
290
     0
  0
SCALE
  5
5339
102
{ACAD_REACTORS
330
5330
102
}
330
5330
100
AcDbScale
 70
     0
300
1:30
140
1.0
141
30.0
290
     0
  0
SCALE
  5
533A
102
{ACAD_REACTORS
330
5330
102
}
330
5330
100
AcDbScale
 70
     0
300
1:40
140
1.0
141
40.0
290
     0
  0
SCALE
  5
533B
102
{ACAD_REACTORS
330
5330
102
}
330
5330
100
AcDbScale
 70
     0
300
1:50
140
1.0
141
50.0
290
     0
  0
SCALE
  5
533C
102
{ACAD_REACTORS
330
5330
102
}
330
5330
100
AcDbScale
 70
     0
300
1:100
140
1.0
141
100.0
290
     0
  0
SCALE
  5
533D
102
{ACAD_REACTORS
330
5330
102
}
330
5330
100
AcDbScale
 70
     0
300
2:1
140
2.0
141
1.0
290
     0
  0
SCALE
  5
533E
102
{ACAD_REACTORS
330
5330
102
}
330
5330
100
AcDbScale
 70
     0
300
4:1
140
4.0
141
1.0
290
     0
  0
SCALE
  5
533F
102
{ACAD_REACTORS
330
5330
102
}
330
5330
100
AcDbScale
 70
     0
300
8:1
140
8.0
141
1.0
290
     0
  0
SCALE
  5
5340
102
{ACAD_REACTORS
330
5330
102
}
330
5330
100
AcDbScale
 70
     0
300
10:1
140
10.0
141
1.0
290
     0
  0
SCALE
  5
5341
102
{ACAD_REACTORS
330
5330
102
}
330
5330
100
AcDbScale
 70
     0
300
100:1
140
100.0
141
1.0
290
     0
  0
SCALE
  5
5342
102
{ACAD_REACTORS
330
5330
102
}
330
5330
100
AcDbScale
 70
     0
300
1/128" = 1'-0"
140
0.0078125
141
12.0
290
     0
  0
SCALE
  5
5343
102
{ACAD_REACTORS
330
5330
102
}
330
5330
100
AcDbScale
 70
     0
300
1/64" = 1'-0"
140
0.015625
141
12.0
290
     0
  0
SCALE
  5
5344
102
{ACAD_REACTORS
330
5330
102
}
330
5330
100
AcDbScale
 70
     0
300
1/32" = 1'-0"
140
0.03125
141
12.0
290
     0
  0
SCALE
  5
5345
102
{ACAD_REACTORS
330
5330
102
}
330
5330
100
AcDbScale
 70
     0
300
1/16" = 1'-0"
140
0.0625
141
12.0
290
     0
  0
SCALE
  5
5346
102
{ACAD_REACTORS
330
5330
102
}
330
5330
100
AcDbScale
 70
     0
300
3/32" = 1'-0"
140
0.09375
141
12.0
290
     0
  0
SCALE
  5
5347
102
{ACAD_REACTORS
330
5330
102
}
330
5330
100
AcDbScale
 70
     0
300
1/8" = 1'-0"
140
0.125
141
12.0
290
     0
  0
SCALE
  5
5348
102
{ACAD_REACTORS
330
5330
102
}
330
5330
100
AcDbScale
 70
     0
300
3/16" = 1'-0"
140
0.1875
141
12.0
290
     0
  0
SCALE
  5
5349
102
{ACAD_REACTORS
330
5330
102
}
330
5330
100
AcDbScale
 70
     0
300
1/4" = 1'-0"
140
0.25
141
12.0
290
     0
  0
SCALE
  5
534A
102
{ACAD_REACTORS
330
5330
102
}
330
5330
100
AcDbScale
 70
     0
300
3/8" = 1'-0"
140
0.375
141
12.0
290
     0
  0
SCALE
  5
534B
102
{ACAD_REACTORS
330
5330
102
}
330
5330
100
AcDbScale
 70
     0
300
1/2" = 1'-0"
140
0.5
141
12.0
290
     0
  0
SCALE
  5
534C
102
{ACAD_REACTORS
330
5330
102
}
330
5330
100
AcDbScale
 70
     0
300
3/4" = 1'-0"
140
0.75
141
12.0
290
     0
  0
SCALE
  5
534D
102
{ACAD_REACTORS
330
5330
102
}
330
5330
100
AcDbScale
 70
     0
300
1" = 1'-0"
140
1.0
141
12.0
290
     0
  0
SCALE
  5
534E
102
{ACAD_REACTORS
330
5330
102
}
330
5330
100
AcDbScale
 70
     0
300
1-1/2" = 1'-0"
140
1.5
141
12.0
290
     0
  0
SCALE
  5
534F
102
{ACAD_REACTORS
330
5330
102
}
330
5330
100
AcDbScale
 70
     0
300
3" = 1'-0"
140
3.0
141
12.0
290
     0
  0
SCALE
  5
5350
102
{ACAD_REACTORS
330
5330
102
}
330
5330
100
AcDbScale
 70
     0
300
6" = 1'-0"
140
6.0
141
12.0
290
     0
  0
SCALE
  5
5351
102
{ACAD_REACTORS
330
5330
102
}
330
5330
100
AcDbScale
 70
     0
300
1'-0" = 1'-0"
140
12.0
141
12.0
290
     0
  0
DICTIONARYVAR
  5
5326
102
{ACAD_REACTORS
330
5325
102
}
330
5325
100
DictionaryVariables
280
     0
  1
1
  0
DICTIONARYVAR
  5
5327
102
{ACAD_REACTORS
330
5325
102
}
330
5325
100
DictionaryVariables
280
     0
  1

  0
ENDSEC
  0
EOF
