  0
SECTION
  2
HEADER
  9
$ACADVER
  1
AC1015
  9
$ACADMAINTVER
 70
     6
  9
$DWGCODEPAGE
  3
ANSI_932
  9
$INSBASE
 10
0.0
 20
0.0
 30
0.0
  9
$EXTMIN
 10
-3771.323683943586
 20
958.8334964266471
 30
0.0
  9
$EXTMAX
 10
-3103.064145430456
 20
1431.333533909993
 30
0.0
  9
$LIMMIN
 10
-210.0
 20
-148.5
  9
$LIMMAX
 10
210.0
 20
148.5
  9
$ORTHOMODE
 70
     0
  9
$REGENMODE
 70
     1
  9
$FILLMODE
 70
     1
  9
$QTEXTMODE
 70
     0
  9
$MIRRTEXT
 70
     1
  9
$LTSCALE
 40
1.0
  9
$ATTMODE
 70
     1
  9
$TEXTSIZE
 40
1.0
  9
$TRACEWID
 40
0.05
  9
$TEXTSTYLE
  7
STANDARD
  9
$CLAYER
  8
ﾚｲﾔ1
  9
$CELTYPE
  6
ByLayer
  9
$CECOLOR
 62
   256
  9
$CELTSCALE
 40
1.0
  9
$DISPSILH
 70
     0
  9
$DIMSCALE
 40
1.0
  9
$DIMASZ
 40
3.0
  9
$DIMEXO
 40
0.0625
  9
$DIMDLI
 40
0.38
  9
$DIMRND
 40
0.0
  9
$DIMDLE
 40
0.0
  9
$DIMEXE
 40
0.5
  9
$DIMTP
 40
0.0
  9
$DIMTM
 40
0.0
  9
$DIMTXT
 40
50.0
  9
$DIMCEN
 40
0.09
  9
$DIMTSZ
 40
0.0
  9
$DIMTOL
 70
     0
  9
$DIMLIM
 70
     0
  9
$DIMTIH
 70
     0
  9
$DIMTOH
 70
     0
  9
$DIMSE1
 70
     0
  9
$DIMSE2
 70
     0
  9
$DIMTAD
 70
     1
  9
$DIMZIN
 70
     0
  9
$DIMBLK
  1
Open30
  9
$DIMASO
 70
     1
  9
$DIMSHO
 70
     1
  9
$DIMPOST
  1

  9
$DIMAPOST
  1

  9
$DIMALT
 70
     0
  9
$DIMALTD
 70
     2
  9
$DIMALTF
 40
25.4
  9
$DIMLFAC
 40
1.0
  9
$DIMTOFL
 70
     0
  9
$DIMTVP
 40
0.0
  9
$DIMTIX
 70
     0
  9
$DIMSOXD
 70
     0
  9
$DIMSAH
 70
     0
  9
$DIMBLK1
  1

  9
$DIMBLK2
  1

  9
$DIMSTYLE
  2
Standard
  9
$DIMCLRD
 70
     1
  9
$DIMCLRE
 70
     1
  9
$DIMCLRT
 70
     1
  9
$DIMTFAC
 40
1.0
  9
$DIMGAP
 40
0.5
  9
$DIMJUST
 70
     0
  9
$DIMSD1
 70
     0
  9
$DIMSD2
 70
     0
  9
$DIMTOLJ
 70
     1
  9
$DIMTZIN
 70
     0
  9
$DIMALTZ
 70
     0
  9
$DIMALTTZ
 70
     0
  9
$DIMUPT
 70
     0
  9
$DIMDEC
 70
     0
  9
$DIMTDEC
 70
     0
  9
$DIMALTU
 70
     2
  9
$DIMALTTD
 70
     2
  9
$DIMTXSTY
  7
TextStyle01
  9
$DIMAUNIT
 70
     0
  9
$DIMADEC
 70
     0
  9
$DIMALTRND
 40
0.0
  9
$DIMAZIN
 70
     0
  9
$DIMDSEP
 70
    46
  9
$DIMATFIT
 70
     3
  9
$DIMFRAC
 70
     0
  9
$DIMLDRBLK
  1
Open30
  9
$DIMLUNIT
 70
     2
  9
$DIMLWD
 70
    -2
  9
$DIMLWE
 70
    -2
  9
$DIMTMOVE
 70
     2
  9
$LUNITS
 70
     2
  9
$LUPREC
 70
     4
  9
$SKETCHINC
 40
0.1
  9
$FILLETRAD
 40
0.0
  9
$AUNITS
 70
     0
  9
$AUPREC
 70
     0
  9
$MENU
  1
acad
  9
$ELEVATION
 40
0.0
  9
$PELEVATION
 40
0.0
  9
$THICKNESS
 40
0.0
  9
$LIMCHECK
 70
     0
  9
$CHAMFERA
 40
0.0
  9
$CHAMFERB
 40
0.0
  9
$CHAMFERC
 40
0.0
  9
$CHAMFERD
 40
0.0
  9
$SKPOLY
 70
     0
  9
$TDCREATE
 40
2449944.925517361
  9
$TDUCREATE
 40
2449944.550517361
  9
$TDUPDATE
 40
2459744.578058218
  9
$TDUUPDATE
 40
2459744.203058218
  9
$TDINDWG
 40
0.8450611921
  9
$TDUSRTIMER
 40
0.0011000116
  9
$USRTIMER
 70
     1
  9
$ANGBASE
 50
0.0
  9
$ANGDIR
 70
     0
  9
$PDMODE
 70
     0
  9
$PDSIZE
 40
1.5
  9
$PLINEWID
 40
0.0
  9
$SPLFRAME
 70
     0
  9
$SPLINETYPE
 70
     6
  9
$SPLINESEGS
 70
     8
  9
$HANDSEED
  5
5686
  9
$SURFTAB1
 70
     6
  9
$SURFTAB2
 70
     6
  9
$SURFTYPE
 70
     6
  9
$SURFU
 70
     6
  9
$SURFV
 70
     6
  9
$UCSBASE
  2

  9
$UCSNAME
  2

  9
$UCSORG
 10
0.0
 20
0.0
 30
0.0
  9
$UCSXDIR
 10
1.0
 20
0.0
 30
0.0
  9
$UCSYDIR
 10
0.0
 20
1.0
 30
0.0
  9
$UCSORTHOREF
  2

  9
$UCSORTHOVIEW
 70
     0
  9
$UCSORGTOP
 10
0.0
 20
0.0
 30
0.0
  9
$UCSORGBOTTOM
 10
0.0
 20
0.0
 30
0.0
  9
$UCSORGLEFT
 10
0.0
 20
0.0
 30
0.0
  9
$UCSORGRIGHT
 10
0.0
 20
0.0
 30
0.0
  9
$UCSORGFRONT
 10
0.0
 20
0.0
 30
0.0
  9
$UCSORGBACK
 10
0.0
 20
0.0
 30
0.0
  9
$PUCSBASE
  2

  9
$PUCSNAME
  2

  9
$PUCSORG
 10
0.0
 20
0.0
 30
0.0
  9
$PUCSXDIR
 10
1.0
 20
0.0
 30
0.0
  9
$PUCSYDIR
 10
0.0
 20
1.0
 30
0.0
  9
$PUCSORTHOREF
  2

  9
$PUCSORTHOVIEW
 70
     0
  9
$PUCSORGTOP
 10
0.0
 20
0.0
 30
0.0
  9
$PUCSORGBOTTOM
 10
0.0
 20
0.0
 30
0.0
  9
$PUCSORGLEFT
 10
0.0
 20
0.0
 30
0.0
  9
$PUCSORGRIGHT
 10
0.0
 20
0.0
 30
0.0
  9
$PUCSORGFRONT
 10
0.0
 20
0.0
 30
0.0
  9
$PUCSORGBACK
 10
0.0
 20
0.0
 30
0.0
  9
$USERI1
 70
     0
  9
$USERI2
 70
     0
  9
$USERI3
 70
     0
  9
$USERI4
 70
     0
  9
$USERI5
 70
     0
  9
$USERR1
 40
0.0
  9
$USERR2
 40
0.0
  9
$USERR3
 40
0.0
  9
$USERR4
 40
0.0
  9
$USERR5
 40
0.0
  9
$WORLDVIEW
 70
     1
  9
$SHADEDGE
 70
     3
  9
$SHADEDIF
 70
    70
  9
$TILEMODE
 70
     1
  9
$MAXACTVP
 70
    16
  9
$PINSBASE
 10
0.0
 20
0.0
 30
0.0
  9
$PLIMCHECK
 70
     0
  9
$PEXTMIN
 10
1.000000000000000E+20
 20
1.000000000000000E+20
 30
1.000000000000000E+20
  9
$PEXTMAX
 10
-1.000000000000000E+20
 20
-1.000000000000000E+20
 30
-1.000000000000000E+20
  9
$PLIMMIN
 10
0.0
 20
0.0
  9
$PLIMMAX
 10
0.0
 20
0.0
  9
$UNITMODE
 70
     0
  9
$VISRETAIN
 70
     0
  9
$PLINEGEN
 70
     0
  9
$PSLTSCALE
 70
     1
  9
$TREEDEPTH
 70
  3020
  9
$CMLSTYLE
  2
Standard
  9
$CMLJUST
 70
     0
  9
$CMLSCALE
 40
1.0
  9
$PROXYGRAPHICS
 70
     1
  9
$MEASUREMENT
 70
     0
  9
$CELWEIGHT
370
    -1
  9
$ENDCAPS
280
     0
  9
$JOINSTYLE
280
     0
  9
$LWDISPLAY
290
     0
  9
$INSUNITS
 70
     0
  9
$HYPERLINKBASE
  1

  9
$STYLESHEET
  1

  9
$XEDIT
290
     1
  9
$CEPSNTYPE
380
     0
  9
$PSTYLEMODE
290
     1
  9
$FINGERPRINTGUID
  2
{3F05092E-EABE-41D4-925D-E3C07104686B}
  9
$VERSIONGUID
  2
{1B4E35B5-70E4-4397-8A55-D067B4E107C3}
  9
$EXTNAMES
290
     1
  9
$PSVPSCALE
 40
0.0
  9
$OLESTARTUP
290
     0
  0
ENDSEC
  0
SECTION
  2
CLASSES
  0
CLASS
  1
ACDBDICTIONARYWDFLT
  2
AcDbDictionaryWithDefault
  3
ObjectDBX Classes
 90
        0
280
     0
281
     0
  0
CLASS
  1
ACDBPLACEHOLDER
  2
AcDbPlaceHolder
  3
ObjectDBX Classes
 90
        0
280
     0
281
     0
  0
CLASS
  1
LAYOUT
  2
AcDbLayout
  3
ObjectDBX Classes
 90
        0
280
     0
281
     0
  0
CLASS
  1
DICTIONARYVAR
  2
AcDbDictionaryVar
  3
ObjectDBX Classes
 90
        0
280
     0
281
     0
  0
CLASS
  1
SCALE
  2
AcDbScale
  3
ObjectDBX Classes
 90
     1153
280
     0
281
     0
  0
CLASS
  1
VISUALSTYLE
  2
AcDbVisualStyle
  3
ObjectDBX Classes
 90
     4095
280
     0
281
     0
  0
CLASS
  1
MATERIAL
  2
AcDbMaterial
  3
ObjectDBX Classes
 90
     1153
280
     0
281
     0
  0
CLASS
  1
TABLESTYLE
  2
AcDbTableStyle
  3
ObjectDBX Classes
 90
     4095
280
     0
281
     0
  0
CLASS
  1
MLEADERSTYLE
  2
AcDbMLeaderStyle
  3
ACDB_MLEADERSTYLE_CLASS
 90
     4095
280
     0
281
     0
  0
CLASS
  1
SORTENTSTABLE
  2
AcDbSortentsTable
  3
ObjectDBX Classes
 90
        0
280
     0
281
     0
  0
ENDSEC
  0
SECTION
  2
TABLES
  0
TABLE
  2
VPORT
  5
8
330
0
100
AcDbSymbolTable
 70
     1
  0
VPORT
  5
537D
330
8
100
AcDbSymbolTableRecord
100
AcDbViewportTableRecord
  2
*Active
 70
     0
 10
0.0
 20
0.0
 11
1.0
 21
1.0
 12
-3208.930655040134
 22
1049.007134173245
 13
0.0
 23
0.0
 14
1.0
 24
1.0
 15
0.0
 25
0.0
 16
0.0
 26
0.0
 36
1.0
 17
0.0
 27
0.0
 37
0.0
 40
160.5462868888834
 41
2.082079343365253
 42
50.0
 43
0.0
 44
0.0
 50
0.0
 51
0.0
 71
    16
 72
   100
 73
     1
 74
     0
 75
     0
 76
     0
 77
     0
 78
     0
281
     0
 65
     1
110
0.0
120
0.0
130
0.0
111
1.0
121
0.0
131
0.0
112
0.0
122
1.0
132
0.0
 79
     0
146
0.0
  0
ENDTAB
  0
TABLE
  2
LTYPE
  5
5
330
0
100
AcDbSymbolTable
 70
    13
  0
LTYPE
  5
13
330
5
100
AcDbSymbolTableRecord
100
AcDbLinetypeTableRecord
  2
ByBlock
 70
     0
  3

 72
    65
 73
     0
 40
0.0
  0
LTYPE
  5
14
330
5
100
AcDbSymbolTableRecord
100
AcDbLinetypeTableRecord
  2
ByLayer
 70
     0
  3

 72
    65
 73
     0
 40
0.0
  0
LTYPE
  5
15
330
5
100
AcDbSymbolTableRecord
100
AcDbLinetypeTableRecord
  2
CONTINUOUS
 70
     0
  3
実線
 72
    65
 73
     0
 40
0.0
  0
LTYPE
  5
2D
330
5
100
AcDbSymbolTableRecord
100
AcDbLinetypeTableRecord
  2
DASHED
 70
     0
  3
破線A
 72
    65
 73
     2
 40
7.5
 49
5.0
 74
     0
 49
-2.5
 74
     0
  0
LTYPE
  5
2E
330
5
100
AcDbSymbolTableRecord
100
AcDbLinetypeTableRecord
  2
DASHEDX2
 70
     0
  3
破線B
 72
    65
 73
     2
 40
15.0
 49
10.0
 74
     0
 49
-5.0
 74
     0
  0
LTYPE
  5
2F
330
5
100
AcDbSymbolTableRecord
100
AcDbLinetypeTableRecord
  2
DASHDOT
 70
     0
  3
１点鎖線A
 72
    65
 73
     4
 40
10.0
 49
5.0
 74
     0
 49
-2.5
 74
     0
 49
0.0
 74
     0
 49
-2.5
 74
     0
  0
LTYPE
  5
30
330
5
100
AcDbSymbolTableRecord
100
AcDbLinetypeTableRecord
  2
DASHDOTX2
 70
     0
  3
１点鎖線B
 72
    65
 73
     4
 40
20.0
 49
10.0
 74
     0
 49
-5.0
 74
     0
 49
0.0
 74
     0
 49
-5.0
 74
     0
  0
LTYPE
  5
31
330
5
100
AcDbSymbolTableRecord
100
AcDbLinetypeTableRecord
  2
DIVIDE2
 70
     0
  3
２点鎖線A
 72
    65
 73
     6
 40
6.25
 49
2.5
 74
     0
 49
-1.25
 74
     0
 49
0.0
 74
     0
 49
-1.25
 74
     0
 49
0.0
 74
     0
 49
-1.25
 74
     0
  0
LTYPE
  5
32
330
5
100
AcDbSymbolTableRecord
100
AcDbLinetypeTableRecord
  2
DIVIDE
 70
     0
  3
２点鎖線B
 72
    65
 73
     6
 40
12.5
 49
5.0
 74
     0
 49
-2.5
 74
     0
 49
0.0
 74
     0
 49
-2.5
 74
     0
 49
0.0
 74
     0
 49
-2.5
 74
     0
  0
LTYPE
  5
33
330
5
100
AcDbSymbolTableRecord
100
AcDbLinetypeTableRecord
  2
DOT
 70
     0
  3
点線A
 72
    65
 73
     2
 40
2.5
 49
0.0
 74
     0
 49
-2.5
 74
     0
  0
LTYPE
  5
34
330
5
100
AcDbSymbolTableRecord
100
AcDbLinetypeTableRecord
  2
DOTX2
 70
     0
  3
点線B
 72
    65
 73
     2
 40
5.0
 49
0.0
 74
     0
 49
-5.0
 74
     0
  0
LTYPE
  5
36C
330
5
100
AcDbSymbolTableRecord
100
AcDbLinetypeTableRecord
  2
DASHED1
 70
     0
  3
--  --  --  --  --  --  --  --  
 72
    65
 73
     2
 40
2.5
 49
1.25
 74
     0
 49
-1.25
 74
     0
  0
LTYPE
  5
36D
330
5
100
AcDbSymbolTableRecord
100
AcDbLinetypeTableRecord
  2
DASHED3
 70
     0
  3
------  ------  ------  ------  
 72
    65
 73
     2
 40
5.0
 49
3.75
 74
     0
 49
-1.25
 74
     0
  0
LTYPE
  5
36E
330
5
100
AcDbSymbolTableRecord
100
AcDbLinetypeTableRecord
  2
CENTER1
 70
     0
  3
----- - ----- - ----- - ----- - 
 72
    65
 73
     4
 40
10.0
 49
6.25
 74
     0
 49
-1.25
 74
     0
 49
1.25
 74
     0
 49
-1.25
 74
     0
  0
LTYPE
  5
36F
330
5
100
AcDbSymbolTableRecord
100
AcDbLinetypeTableRecord
  2
CENTER2
 70
     0
  3
----------  --  ----------  --  
 72
    65
 73
     4
 40
20.0
 49
12.5
 74
     0
 49
-2.5
 74
     0
 49
2.5
 74
     0
 49
-2.5
 74
     0
  0
ENDTAB
  0
TABLE
  2
LAYER
  5
2
102
{ACAD_XDICTIONARY
360
5436
102
}
330
0
100
AcDbSymbolTable
 70
    14
  0
LAYER
  5
10
330
2
100
AcDbSymbolTableRecord
100
AcDbLayerTableRecord
  2
ﾚｲﾔ1
 70
     0
 62
     7
  6
CONTINUOUS
370
    -3
390
F
  0
LAYER
  5
4C
330
2
100
AcDbSymbolTableRecord
100
AcDbLayerTableRecord
  2
0
 70
     0
 62
     7
  6
CONTINUOUS
370
    -3
390
F
  0
LAYER
  5
16B
330
2
100
AcDbSymbolTableRecord
100
AcDbLayerTableRecord
  2
図面
 70
     0
 62
     7
  6
CONTINUOUS
370
    40
390
F
  0
LAYER
  5
16C
330
2
100
AcDbSymbolTableRecord
100
AcDbLayerTableRecord
  2
図面枠
 70
     0
 62
     5
  6
CONTINUOUS
370
    -3
390
F
  0
LAYER
  5
1AB
330
2
100
AcDbSymbolTableRecord
100
AcDbLayerTableRecord
  2
下図
 70
     0
 62
     8
  6
DASHDOT
290
     0
370
    -3
390
F
  0
LAYER
  5
1EA
330
2
100
AcDbSymbolTableRecord
100
AcDbLayerTableRecord
  2
隠れ線
 70
     0
 62
     1
  6
DASHED
370
    -3
390
F
  0
LAYER
  5
1EB
330
2
100
AcDbSymbolTableRecord
100
AcDbLayerTableRecord
  2
文字
 70
     0
 62
     7
  6
CONTINUOUS
370
    -3
390
F
  0
LAYER
  5
370
330
2
100
AcDbSymbolTableRecord
100
AcDbLayerTableRecord
  2
_1-0_
 70
     0
 62
     7
  6
CONTINUOUS
370
    -3
390
F
  0
LAYER
  5
371
330
2
100
AcDbSymbolTableRecord
100
AcDbLayerTableRecord
  2
_2-0_
 70
     0
 62
     7
  6
CONTINUOUS
370
    -3
390
F
  0
LAYER
  5
372
330
2
100
AcDbSymbolTableRecord
100
AcDbLayerTableRecord
  2
_3-0_
 70
     0
 62
     7
  6
CONTINUOUS
370
    -3
390
F
  0
LAYER
  5
373
330
2
100
AcDbSymbolTableRecord
100
AcDbLayerTableRecord
  2
_4-0_
 70
     0
 62
     7
  6
CONTINUOUS
370
    -3
390
F
  0
LAYER
  5
374
330
2
100
AcDbSymbolTableRecord
100
AcDbLayerTableRecord
  2
寸法
 70
     0
 62
     1
  6
CONTINUOUS
370
    -3
390
F
  0
LAYER
  5
28AB
330
2
100
AcDbSymbolTableRecord
100
AcDbLayerTableRecord
  2
Defpoints
 70
     0
 62
     7
  6
CONTINUOUS
290
     0
370
    -3
390
F
  0
LAYER
  5
40F3
330
2
100
AcDbSymbolTableRecord
100
AcDbLayerTableRecord
  2
LEVEL001
 70
     0
 62
     7
  6
CONTINUOUS
370
    -3
390
F
  0
ENDTAB
  0
TABLE
  2
STYLE
  5
3
330
0
100
AcDbSymbolTable
 70
    14
  0
STYLE
  5
11
330
3
100
AcDbSymbolTableRecord
100
AcDbTextStyleTableRecord
  2
STANDARD
 70
     0
 40
1.0
 41
1.0
 50
0.0
 71
     0
 42
1.0
  3
TXT
  4
BIGFONT
  0
STYLE
  5
22
330
3
100
AcDbSymbolTableRecord
100
AcDbTextStyleTableRecord
  2
TATE
 70
     4
 40
1.0
 41
1.0
 50
0.0
 71
     0
 42
1.0
  3
TXT
  4
BIGFONT
  0
STYLE
  5
23
330
3
100
AcDbSymbolTableRecord
100
AcDbTextStyleTableRecord
  2
TextStyle01
 70
     0
 40
0.0
 41
1.0
 50
0.0
 71
     0
 42
0.0
  3
TXT
  4
BIGFONT
  0
STYLE
  5
24
330
3
100
AcDbSymbolTableRecord
100
AcDbTextStyleTableRecord
  2
TextStyle02
 70
     0
 40
0.0
 41
1.0
 50
0.0
 71
     0
 42
0.0
  3
TXT
  4
BIGFONT
  0
STYLE
  5
25
330
3
100
AcDbSymbolTableRecord
100
AcDbTextStyleTableRecord
  2
TextStyle03
 70
     0
 40
0.0
 41
1.0
 50
0.0
 71
     0
 42
0.0
  3
TXT
  4
BIGFONT
  0
STYLE
  5
26
330
3
100
AcDbSymbolTableRecord
100
AcDbTextStyleTableRecord
  2
TextStyle04
 70
     0
 40
0.0
 41
1.0
 50
0.0
 71
     0
 42
0.0
  3
TXT
  4
BIGFONT
  0
STYLE
  5
27
330
3
100
AcDbSymbolTableRecord
100
AcDbTextStyleTableRecord
  2
TextStyle05
 70
     0
 40
0.0
 41
1.0
 50
0.0
 71
     0
 42
0.0
  3
TXT
  4
BIGFONT
  0
STYLE
  5
28
330
3
100
AcDbSymbolTableRecord
100
AcDbTextStyleTableRecord
  2
TextStyle06
 70
     0
 40
0.0
 41
1.0
 50
0.0
 71
     0
 42
0.0
  3

  4

  0
STYLE
  5
29
330
3
100
AcDbSymbolTableRecord
100
AcDbTextStyleTableRecord
  2
TextStyle07
 70
     0
 40
0.0
 41
1.0
 50
0.0
 71
     0
 42
0.0
  3

  4

  0
STYLE
  5
2A
330
3
100
AcDbSymbolTableRecord
100
AcDbTextStyleTableRecord
  2
TextStyle08
 70
     0
 40
0.0
 41
1.0
 50
0.0
 71
     0
 42
0.0
  3

  4

  0
STYLE
  5
2B
330
3
100
AcDbSymbolTableRecord
100
AcDbTextStyleTableRecord
  2
TextStyle09
 70
     0
 40
0.0
 41
1.0
 50
0.0
 71
     0
 42
0.0
  3

  4

  0
STYLE
  5
2C
330
3
100
AcDbSymbolTableRecord
100
AcDbTextStyleTableRecord
  2
TextStyle10
 70
     0
 40
0.0
 41
1.0
 50
0.0
 71
     0
 42
0.0
  3

  4

  0
STYLE
  5
205
330
3
100
AcDbSymbolTableRecord
100
AcDbTextStyleTableRecord
  2
WMF-ＭＳ Ｐ明朝0
 70
     0
 40
0.0
 41
1.0
 50
0.0
 71
     0
 42
1.0
  3
MS PMincho.ttf
  4

1001
ACAD
1000
MS PMincho
1071
    32768
  0
STYLE
  5
5533
330
3
100
AcDbSymbolTableRecord
100
AcDbTextStyleTableRecord
  2
DIMFONT1
 70
     0
 40
0.0
 41
1.193548387096774
 50
0.0
 71
     0
 42
1.0
  3

  4

1001
ACAD
1000
MS PGothic
1071
    32818
  0
ENDTAB
  0
TABLE
  2
VIEW
  5
6
330
0
100
AcDbSymbolTable
 70
     0
  0
ENDTAB
  0
TABLE
  2
UCS
  5
7
330
0
100
AcDbSymbolTable
 70
     0
  0
ENDTAB
  0
TABLE
  2
APPID
  5
9
330
0
100
AcDbSymbolTable
 70
     5
  0
APPID
  5
12
330
9
100
AcDbSymbolTableRecord
100
AcDbRegAppTableRecord
  2
ACAD
 70
     0
  0
APPID
  5
53D6
330
9
100
AcDbSymbolTableRecord
100
AcDbRegAppTableRecord
  2
ACAD_NAV_VCDISPLAY
 70
     0
  0
APPID
  5
548C
330
9
100
AcDbSymbolTableRecord
100
AcDbRegAppTableRecord
  2
FX_DIMP_FAV_VERSION
 70
     0
  0
APPID
  5
54FE
330
9
100
AcDbSymbolTableRecord
100
AcDbRegAppTableRecord
  2
PLOTTRANSPARENCY
 70
     0
  0
APPID
  5
5531
330
9
100
AcDbSymbolTableRecord
100
AcDbRegAppTableRecord
  2
AcadAnnotative
 70
     0
  0
ENDTAB
  0
TABLE
  2
DIMSTYLE
  5
A
330
0
100
AcDbSymbolTable
 70
     3
100
AcDbDimStyleTable
  0
DIMSTYLE
105
142
102
{ACAD_REACTORS
330
43C2
330
43C3
330
459D
330
4622
330
46C9
330
470C
330
4FD2
102
}
330
A
100
AcDbSymbolTableRecord
100
AcDbDimStyleTableRecord
  2
Standard
 70
     0
178
     0
340
11
  0
DIMSTYLE
105
5532
330
A
100
AcDbSymbolTableRecord
100
AcDbDimStyleTableRecord
  2
DIM001
 70
     0
 40
10.0
 41
1.0
 42
0.0
 44
1.0
 45
1.0
 73
     0
 74
     0
 77
     3
140
1.216216216216216
147
0.2
172
     1
176
     7
177
     7
271
     0
178
     7
271
     0
273
     6
340
5533
  0
DIMSTYLE
105
5534
330
A
100
AcDbSymbolTableRecord
100
AcDbDimStyleTableRecord
  2
DIM002
 70
     0
 40
10.0
 41
1.0
 42
0.0
 44
0.0
 45
1.0
 73
     0
 74
     0
 77
     3
140
1.216216216216216
147
0.2
172
     1
176
     7
177
     7
271
     0
178
     7
271
     0
273
     6
340
5533
  0
ENDTAB
  0
TABLE
  2
BLOCK_RECORD
  5
1
330
0
100
AcDbSymbolTable
 70
    10
  0
BLOCK_RECORD
  5
1E
102
{ACAD_XDICTIONARY
360
54FF
102
}
330
1
100
AcDbSymbolTableRecord
100
AcDbBlockTableRecord
  2
*Model_Space
340
21
  0
BLOCK_RECORD
  5
1A
330
1
100
AcDbSymbolTableRecord
100
AcDbBlockTableRecord
  2
*Paper_Space
340
1D
  0
BLOCK_RECORD
  5
1C1
330
1
100
AcDbSymbolTableRecord
100
AcDbBlockTableRecord
  2
_Open30
340
0
  0
BLOCK_RECORD
  5
43D7
330
1
100
AcDbSymbolTableRecord
100
AcDbBlockTableRecord
  2
*D1
340
0
  0
BLOCK_RECORD
  5
43E3
330
1
100
AcDbSymbolTableRecord
100
AcDbBlockTableRecord
  2
*D2
340
0
  0
BLOCK_RECORD
  5
459E
330
1
100
AcDbSymbolTableRecord
100
AcDbBlockTableRecord
  2
*D3
340
0
  0
BLOCK_RECORD
  5
4623
330
1
100
AcDbSymbolTableRecord
100
AcDbBlockTableRecord
  2
*D4
340
0
  0
BLOCK_RECORD
  5
46CA
330
1
100
AcDbSymbolTableRecord
100
AcDbBlockTableRecord
  2
*D5
340
0
  0
BLOCK_RECORD
  5
470D
330
1
100
AcDbSymbolTableRecord
100
AcDbBlockTableRecord
  2
*D6
340
0
  0
BLOCK_RECORD
  5
473D
330
1
100
AcDbSymbolTableRecord
100
AcDbBlockTableRecord
  2
_Open90
340
0
  0
BLOCK_RECORD
  5
4FD3
330
1
100
AcDbSymbolTableRecord
100
AcDbBlockTableRecord
  2
*D8
340
0
  0
BLOCK_RECORD
  5
51BF
330
1
100
AcDbSymbolTableRecord
100
AcDbBlockTableRecord
  2
_Open
340
0
102
{BLKREFS
331
52DA
331
52DB
331
52B6
331
52B7
331
52C8
331
52C9
331
530F
331
5310
331
52AD
331
52AE
331
52A4
331
52A5
331
52BF
331
52C0
102
}
  0
ENDTAB
  0
ENDSEC
  0
SECTION
  2
BLOCKS
  0
BLOCK
  5
4F
330
1E
100
AcDbEntity
  8
0
100
AcDbBlockBegin
  2
*Model_Space
 70
     0
 10
0.0
 20
0.0
 30
0.0
  3
*Model_Space
  1

  0
ENDBLK
  5
50
330
1E
100
AcDbEntity
  8
0
100
AcDbBlockEnd
  0
BLOCK
  5
4D
330
1A
100
AcDbEntity
 67
     1
  8
0
100
AcDbBlockBegin
  2
*Paper_Space
 70
     0
 10
0.0
 20
0.0
 30
0.0
  3
*Paper_Space
  1

  0
ENDBLK
  5
4E
330
1A
100
AcDbEntity
 67
     1
  8
0
100
AcDbBlockEnd
  0
BLOCK
  5
1C5
330
1C1
100
AcDbEntity
  8
0
100
AcDbBlockBegin
  2
_Open30
 70
     0
 10
0.0
 20
0.0
 30
0.0
  3
_Open30
  1

  0
LINE
  5
1C2
330
1C1
100
AcDbEntity
  8
下図
 62
     0
370
    -2
100
AcDbLine
 10
-1.0
 20
0.26794919
 30
0.0
 11
0.0
 21
0.0
 31
0.0
  0
LINE
  5
1C3
330
1C1
100
AcDbEntity
  8
下図
 62
     0
370
    -2
100
AcDbLine
 10
0.0
 20
0.0
 30
0.0
 11
-1.0
 21
-0.26794919
 31
0.0
  0
LINE
  5
1C4
330
1C1
100
AcDbEntity
  8
下図
 62
     0
370
    -2
100
AcDbLine
 10
0.0
 20
0.0
 30
0.0
 11
-1.0
 21
0.0
 31
0.0
  0
ENDBLK
  5
1C6
330
1C1
100
AcDbEntity
  8
0
100
AcDbBlockEnd
  0
BLOCK
  5
43E1
330
43D7
100
AcDbEntity
  8
0
100
AcDbBlockBegin
  2
*D1
 70
     1
 10
0.0
 20
0.0
 30
0.0
  3
*D1
  1

  0
LINE
  5
52D7
330
43D7
100
AcDbEntity
  8
ﾚｲﾔ1
 62
     1
370
    -2
100
AcDbLine
 10
-3486.842375683485
 20
1038.148731861876
 30
0.0
 11
-3386.772818311482
 21
1038.148731861876
 31
0.0
  0
LINE
  5
52D8
330
43D7
100
AcDbEntity
  8
ﾚｲﾔ1
 62
     1
370
    -2
100
AcDbLine
 10
-3387.210318311482
 20
1066.410380450036
 30
0.0
 11
-3386.772818311482
 21
1066.410380450036
 31
0.0
  0
LINE
  5
52D9
330
43D7
100
AcDbEntity
  8
ﾚｲﾔ1
 62
     1
370
    -2
100
AcDbLine
 10
-3387.272818311482
 20
1048.148731861876
 30
0.0
 11
-3387.272818311482
 21
1056.410380450036
 31
0.0
  0
INSERT
  5
52DA
330
43D7
100
AcDbEntity
  8
ﾚｲﾔ1
 62
     1
370
    -2
100
AcDbBlockReference
  2
_Open
 10
-3387.272818311482
 20
1038.148731861876
 30
0.0
 41
10.0
 42
10.0
 43
10.0
 50
270.0
  0
INSERT
  5
52DB
330
43D7
100
AcDbEntity
  8
ﾚｲﾔ1
 62
     1
370
    -2
100
AcDbBlockReference
  2
_Open
 10
-3387.272818311482
 20
1066.410380450036
 30
0.0
 41
10.0
 42
10.0
 43
10.0
 50
90.0
  0
MTEXT
  5
52DC
330
43D7
100
AcDbEntity
  8
ﾚｲﾔ1
 62
     1
100
AcDbMText
 10
-3396.270363432177
 20
1052.555888895006
 30
0.0
 40
10.0
 41
0.0
 71
     5
 72
     1
  1
\A1;28
  7
TextStyle01
 11
0.0
 21
1.0
 31
0.0
 73
     1
 44
1.0
  0
POINT
  5
52DD
330
43D7
100
AcDbEntity
  8
Defpoints
 62
     0
100
AcDbPoint
 10
-3486.904875683485
 20
1038.148731861876
 30
0.0
  0
POINT
  5
52DE
330
43D7
100
AcDbEntity
  8
Defpoints
 62
     0
100
AcDbPoint
 10
-3387.272818311482
 20
1066.410380450036
 30
0.0
  0
POINT
  5
52DF
330
43D7
100
AcDbEntity
  8
Defpoints
 62
     0
100
AcDbPoint
 10
-3387.272818311482
 20
1066.410380450036
 30
0.0
  0
ENDBLK
  5
43E2
330
43D7
100
AcDbEntity
  8
0
100
AcDbBlockEnd
  0
BLOCK
  5
43ED
330
43E3
100
AcDbEntity
  8
0
100
AcDbBlockBegin
  2
*D2
 70
     1
 10
0.0
 20
0.0
 30
0.0
  3
*D2
  1

  0
LINE
  5
52B3
330
43E3
100
AcDbEntity
  8
ﾚｲﾔ1
 62
     1
370
    -2
100
AcDbLine
 10
-3629.866410883967
 20
1120.016482272998
 30
0.0
 11
-3629.866410883967
 21
1133.303290925515
 31
0.0
  0
LINE
  5
52B4
330
43E3
100
AcDbEntity
  8
ﾚｲﾔ1
 62
     1
370
    -2
100
AcDbLine
 10
-3517.786503785625
 20
1120.016482272998
 30
0.0
 11
-3517.786503785625
 21
1133.303290925515
 31
0.0
  0
LINE
  5
52B5
330
43E3
100
AcDbEntity
  8
ﾚｲﾔ1
 62
     1
370
    -2
100
AcDbLine
 10
-3619.866410883967
 20
1132.803290925515
 30
0.0
 11
-3527.786503785625
 21
1132.803290925515
 31
0.0
  0
INSERT
  5
52B6
330
43E3
100
AcDbEntity
  8
ﾚｲﾔ1
 62
     1
370
    -2
100
AcDbBlockReference
  2
_Open
 10
-3629.866410883967
 20
1132.803290925515
 30
0.0
 41
10.0
 42
10.0
 43
10.0
 50
180.0
  0
INSERT
  5
52B7
330
43E3
100
AcDbEntity
  8
ﾚｲﾔ1
 62
     1
370
    -2
100
AcDbBlockReference
  2
_Open
 10
-3517.786503785625
 20
1132.803290925515
 30
0.0
 41
10.0
 42
10.0
 43
10.0
  0
MTEXT
  5
52B8
330
43E3
100
AcDbEntity
  8
ﾚｲﾔ1
 62
     1
100
AcDbMText
 10
-3576.455631802934
 20
1142.320209160471
 30
0.0
 40
10.0
 41
0.0
 71
     5
 72
     1
  1
\A1;φ112
  7
TextStyle01
 73
     1
 44
1.0
  0
POINT
  5
52B9
330
43E3
100
AcDbEntity
  8
Defpoints
 62
     0
100
AcDbPoint
 10
-3629.866410883967
 20
1119.953982272998
 30
0.0
  0
POINT
  5
52BA
330
43E3
100
AcDbEntity
  8
Defpoints
 62
     0
100
AcDbPoint
 10
-3517.786503785625
 20
1119.953982272998
 30
0.0
  0
POINT
  5
52BB
330
43E3
100
AcDbEntity
  8
Defpoints
 62
     0
100
AcDbPoint
 10
-3517.786503785625
 20
1132.803290925515
 30
0.0
  0
ENDBLK
  5
43EE
330
43E3
100
AcDbEntity
  8
0
100
AcDbBlockEnd
  0
BLOCK
  5
45A8
330
459E
100
AcDbEntity
  8
0
100
AcDbBlockBegin
  2
*D3
 70
     1
 10
0.0
 20
0.0
 30
0.0
  3
*D3
  1

  0
LINE
  5
52C5
330
459E
100
AcDbEntity
  8
ﾚｲﾔ1
 62
     1
370
    -2
100
AcDbLine
 10
-3660.921101571379
 20
1040.093504393271
 30
0.0
 11
-3660.921101571379
 21
1018.777351074316
 31
0.0
  0
LINE
  5
52C6
330
459E
100
AcDbEntity
  8
ﾚｲﾔ1
 62
     1
370
    -2
100
AcDbLine
 10
-3486.904875683485
 20
1040.088371168523
 30
0.0
 11
-3486.904875683485
 21
1018.777351074316
 31
0.0
  0
LINE
  5
52C7
330
459E
100
AcDbEntity
  8
ﾚｲﾔ1
 62
     1
370
    -2
100
AcDbLine
 10
-3650.921101571379
 20
1019.277351074316
 30
0.0
 11
-3496.904875683485
 21
1019.277351074316
 31
0.0
  0
INSERT
  5
52C8
330
459E
100
AcDbEntity
  8
ﾚｲﾔ1
 62
     1
370
    -2
100
AcDbBlockReference
  2
_Open
 10
-3660.921101571379
 20
1019.277351074316
 30
0.0
 41
10.0
 42
10.0
 43
10.0
 50
180.0
  0
INSERT
  5
52C9
330
459E
100
AcDbEntity
  8
ﾚｲﾔ1
 62
     1
370
    -2
100
AcDbBlockReference
  2
_Open
 10
-3486.904875683485
 20
1019.277351074316
 30
0.0
 41
10.0
 42
10.0
 43
10.0
  0
MTEXT
  5
52CA
330
459E
100
AcDbEntity
  8
ﾚｲﾔ1
 62
     1
100
AcDbMText
 10
-3573.912988627432
 20
1024.777351074316
 30
0.0
 40
10.0
 41
0.0
 71
     5
 72
     1
  1
\A1;φ174
  7
TextStyle01
 73
     1
 44
1.0
  0
POINT
  5
52CB
330
459E
100
AcDbEntity
  8
Defpoints
 62
     0
100
AcDbPoint
 10
-3660.921101571379
 20
1040.156004393271
 30
0.0
  0
POINT
  5
52CC
330
459E
100
AcDbEntity
  8
Defpoints
 62
     0
100
AcDbPoint
 10
-3486.904875683485
 20
1040.150871168523
 30
0.0
  0
POINT
  5
52CD
330
459E
100
AcDbEntity
  8
Defpoints
 62
     0
100
AcDbPoint
 10
-3486.904875683485
 20
1019.277351074316
 30
0.0
  0
ENDBLK
  5
45A9
330
459E
100
AcDbEntity
  8
0
100
AcDbBlockEnd
  0
BLOCK
  5
462D
330
4623
100
AcDbEntity
  8
0
100
AcDbBlockBegin
  2
*D4
 70
     1
 10
0.0
 20
0.0
 30
0.0
  3
*D4
  1

  0
LINE
  5
530C
330
4623
100
AcDbEntity
  8
ﾚｲﾔ1
 62
     1
370
    -2
100
AcDbLine
 10
-3488.722258509311
 20
1120.820817025128
 30
0.0
 11
-3362.276837966302
 21
1120.820817025128
 31
0.0
  0
LINE
  5
530D
330
4623
100
AcDbEntity
  8
ﾚｲﾔ1
 62
     1
370
    -2
100
AcDbLine
 10
-3486.842375683485
 20
1038.148731861876
 30
0.0
 11
-3362.276837966302
 21
1038.148731861876
 31
0.0
  0
LINE
  5
530E
330
4623
100
AcDbEntity
  8
ﾚｲﾔ1
 62
     1
370
    -2
100
AcDbLine
 10
-3362.776837966302
 20
1110.820817025128
 30
0.0
 11
-3362.776837966302
 21
1048.148731861876
 31
0.0
  0
INSERT
  5
530F
330
4623
100
AcDbEntity
  8
ﾚｲﾔ1
 62
     1
370
    -2
100
AcDbBlockReference
  2
_Open
 10
-3362.776837966302
 20
1120.820817025128
 30
0.0
 41
10.0
 42
10.0
 43
10.0
 50
90.0
  0
INSERT
  5
5310
330
4623
100
AcDbEntity
  8
ﾚｲﾔ1
 62
     1
370
    -2
100
AcDbBlockReference
  2
_Open
 10
-3362.776837966302
 20
1038.148731861876
 30
0.0
 41
10.0
 42
10.0
 43
10.0
 50
270.0
  0
MTEXT
  5
5311
330
4623
100
AcDbEntity
  8
ﾚｲﾔ1
 62
     1
100
AcDbMText
 10
-3371.001094374732
 20
1084.234303898204
 30
0.0
 40
10.0
 41
0.0
 71
     5
 72
     1
  1
\A1;83
  7
TextStyle01
 11
0.0
 21
1.0
 31
0.0
 73
     1
 44
1.0
  0
POINT
  5
5312
330
4623
100
AcDbEntity
  8
Defpoints
 62
     0
100
AcDbPoint
 10
-3488.784758509311
 20
1120.820817025128
 30
0.0
  0
POINT
  5
5313
330
4623
100
AcDbEntity
  8
Defpoints
 62
     0
100
AcDbPoint
 10
-3486.904875683485
 20
1038.148731861876
 30
0.0
  0
POINT
  5
5314
330
4623
100
AcDbEntity
  8
Defpoints
 62
     0
100
AcDbPoint
 10
-3362.776837966302
 20
1038.148731861876
 30
0.0
  0
ENDBLK
  5
462E
330
4623
100
AcDbEntity
  8
0
100
AcDbBlockEnd
  0
BLOCK
  5
46D4
330
46CA
100
AcDbEntity
  8
0
100
AcDbBlockBegin
  2
*D5
 70
     1
 10
0.0
 20
0.0
 30
0.0
  3
*D5
  1

  0
LINE
  5
52AA
330
46CA
100
AcDbEntity
  8
ﾚｲﾔ1
 62
     1
370
    -2
100
AcDbLine
 10
-3573.780655541697
 20
1350.470092451581
 30
0.0
 11
-3573.780655541697
 21
1355.224282873296
 31
0.0
  0
LINE
  5
52AB
330
46CA
100
AcDbEntity
  8
ﾚｲﾔ1
 62
     1
370
    -2
100
AcDbLine
 10
-3438.595375292583
 20
1304.331580107186
 30
0.0
 11
-3438.595375292583
 21
1355.224282873296
 31
0.0
  0
LINE
  5
52AC
330
46CA
100
AcDbEntity
  8
ﾚｲﾔ1
 62
     1
370
    -2
100
AcDbLine
 10
-3563.780655541697
 20
1354.724282873296
 30
0.0
 11
-3448.595375292583
 21
1354.724282873296
 31
0.0
  0
INSERT
  5
52AD
330
46CA
100
AcDbEntity
  8
ﾚｲﾔ1
 62
     1
370
    -2
100
AcDbBlockReference
  2
_Open
 10
-3573.780655541697
 20
1354.724282873296
 30
0.0
 41
10.0
 42
10.0
 43
10.0
 50
180.0
  0
INSERT
  5
52AE
330
46CA
100
AcDbEntity
  8
ﾚｲﾔ1
 62
     1
370
    -2
100
AcDbBlockReference
  2
_Open
 10
-3438.595375292583
 20
1354.724282873296
 30
0.0
 41
10.0
 42
10.0
 43
10.0
  0
MTEXT
  5
52AF
330
46CA
100
AcDbEntity
  8
ﾚｲﾔ1
 62
     1
100
AcDbMText
 10
-3506.18801541714
 20
1360.224282873296
 30
0.0
 40
10.0
 41
0.0
 71
     5
 72
     1
  1
\A1;136
  7
TextStyle01
 73
     1
 44
1.0
  0
POINT
  5
52B0
330
46CA
100
AcDbEntity
  8
Defpoints
 62
     0
100
AcDbPoint
 10
-3573.780655541697
 20
1350.407592451581
 30
0.0
  0
POINT
  5
52B1
330
46CA
100
AcDbEntity
  8
Defpoints
 62
     0
100
AcDbPoint
 10
-3438.595375292583
 20
1304.269080107186
 30
0.0
  0
POINT
  5
52B2
330
46CA
100
AcDbEntity
  8
Defpoints
 62
     0
100
AcDbPoint
 10
-3438.595375292583
 20
1354.724282873296
 30
0.0
  0
ENDBLK
  5
46D5
330
46CA
100
AcDbEntity
  8
0
100
AcDbBlockEnd
  0
BLOCK
  5
4717
330
470D
100
AcDbEntity
  8
0
100
AcDbBlockBegin
  2
*D6
 70
     1
 10
0.0
 20
0.0
 30
0.0
  3
*D6
  1

  0
LINE
  5
52A1
330
470D
100
AcDbEntity
  8
ﾚｲﾔ1
 62
     1
370
    -2
100
AcDbLine
 10
-3462.481977525888
 20
1314.349053629531
 30
0.0
 11
-3386.43767721951
 21
1314.349053629531
 31
0.0
  0
LINE
  5
52A2
330
470D
100
AcDbEntity
  8
ﾚｲﾔ1
 62
     1
370
    -2
100
AcDbLine
 10
-3462.288084477775
 20
1194.440841500352
 30
0.0
 11
-3386.43767721951
 21
1194.440841500352
 31
0.0
  0
LINE
  5
52A3
330
470D
100
AcDbEntity
  8
ﾚｲﾔ1
 62
     1
370
    -2
100
AcDbLine
 10
-3386.93767721951
 20
1304.349053629531
 30
0.0
 11
-3386.93767721951
 21
1204.440841500352
 31
0.0
  0
INSERT
  5
52A4
330
470D
100
AcDbEntity
  8
ﾚｲﾔ1
 62
     1
370
    -2
100
AcDbBlockReference
  2
_Open
 10
-3386.93767721951
 20
1314.349053629531
 30
0.0
 41
10.0
 42
10.0
 43
10.0
 50
90.0
  0
INSERT
  5
52A5
330
470D
100
AcDbEntity
  8
ﾚｲﾔ1
 62
     1
370
    -2
100
AcDbBlockReference
  2
_Open
 10
-3386.93767721951
 20
1194.440841500352
 30
0.0
 41
10.0
 42
10.0
 43
10.0
 50
270.0
  0
MTEXT
  5
52A6
330
470D
100
AcDbEntity
  8
ﾚｲﾔ1
 62
     1
100
AcDbMText
 10
-3392.43767721951
 20
1254.394947564941
 30
0.0
 40
10.0
 41
0.0
 71
     5
 72
     1
  1
\A1;120
  7
TextStyle01
 11
0.0
 21
1.0
 31
0.0
 73
     1
 44
1.0
  0
POINT
  5
52A7
330
470D
100
AcDbEntity
  8
Defpoints
 62
     0
100
AcDbPoint
 10
-3462.544477525888
 20
1314.349053629531
 30
0.0
  0
POINT
  5
52A8
330
470D
100
AcDbEntity
  8
Defpoints
 62
     0
100
AcDbPoint
 10
-3462.350584477775
 20
1194.440841500352
 30
0.0
  0
POINT
  5
52A9
330
470D
100
AcDbEntity
  8
Defpoints
 62
     0
100
AcDbPoint
 10
-3386.93767721951
 20
1194.440841500352
 30
0.0
  0
ENDBLK
  5
4718
330
470D
100
AcDbEntity
  8
0
100
AcDbBlockEnd
  0
BLOCK
  5
4741
330
473D
100
AcDbEntity
  8
0
100
AcDbBlockBegin
  2
_Open90
 70
     0
 10
0.0
 20
0.0
 30
0.0
  3
_Open90
  1

  0
LINE
  5
473E
330
473D
100
AcDbEntity
  8
0
  6
ByBlock
 62
     0
370
    -2
100
AcDbLine
 10
-0.5
 20
0.5
 30
0.0
 11
0.0
 21
0.0
 31
0.0
  0
LINE
  5
473F
330
473D
100
AcDbEntity
  8
0
  6
ByBlock
 62
     0
370
    -2
100
AcDbLine
 10
0.0
 20
0.0
 30
0.0
 11
-0.5
 21
-0.5
 31
0.0
  0
LINE
  5
4740
330
473D
100
AcDbEntity
  8
0
  6
ByBlock
 62
     0
370
    -2
100
AcDbLine
 10
0.0
 20
0.0
 30
0.0
 11
-1.0
 21
0.0
 31
0.0
  0
ENDBLK
  5
4742
330
473D
100
AcDbEntity
  8
0
100
AcDbBlockEnd
  0
BLOCK
  5
4FDD
330
4FD3
100
AcDbEntity
  8
0
100
AcDbBlockBegin
  2
*D8
 70
     1
 10
0.0
 20
0.0
 30
0.0
  3
*D8
  1

  0
LINE
  5
52BC
330
4FD3
100
AcDbEntity
  8
ﾚｲﾔ1
 62
     1
370
    -2
100
AcDbLine
 10
-3642.890046200307
 20
1078.992664990019
 30
0.0
 11
-3642.890046200307
 21
1078.550390164222
 31
0.0
  0
LINE
  5
52BD
330
4FD3
100
AcDbEntity
  8
ﾚｲﾔ1
 62
     1
370
    -2
100
AcDbLine
 10
-3505.041325542339
 20
1078.987890164222
 30
0.0
 11
-3505.041325542339
 21
1078.550390164222
 31
0.0
  0
LINE
  5
52BE
330
4FD3
100
AcDbEntity
  8
ﾚｲﾔ1
 62
     1
370
    -2
100
AcDbLine
 10
-3632.890046200307
 20
1079.050390164222
 30
0.0
 11
-3515.041325542339
 21
1079.050390164222
 31
0.0
  0
INSERT
  5
52BF
330
4FD3
100
AcDbEntity
  8
ﾚｲﾔ1
 62
     1
370
    -2
100
AcDbBlockReference
  2
_Open
 10
-3642.890046200307
 20
1079.050390164222
 30
0.0
 41
10.0
 42
10.0
 43
10.0
 50
180.0
  0
INSERT
  5
52C0
330
4FD3
100
AcDbEntity
  8
ﾚｲﾔ1
 62
     1
370
    -2
100
AcDbBlockReference
  2
_Open
 10
-3505.041325542339
 20
1079.050390164222
 30
0.0
 41
10.0
 42
10.0
 43
10.0
  0
MTEXT
  5
52C1
330
4FD3
100
AcDbEntity
  8
ﾚｲﾔ1
 62
     1
100
AcDbMText
 10
-3580.164222227205
 20
1085.580725659094
 30
0.0
 40
10.0
 41
0.0
 71
     5
 72
     1
  1
\A1;φ138
  7
TextStyle01
 73
     1
 44
1.0
  0
POINT
  5
52C2
330
4FD3
100
AcDbEntity
  8
Defpoints
 62
     0
100
AcDbPoint
 10
-3642.890046200307
 20
1079.055164990019
 30
0.0
  0
POINT
  5
52C3
330
4FD3
100
AcDbEntity
  8
Defpoints
 62
     0
100
AcDbPoint
 10
-3505.041325542339
 20
1079.050390164222
 30
0.0
  0
POINT
  5
52C4
330
4FD3
100
AcDbEntity
  8
Defpoints
 62
     0
100
AcDbPoint
 10
-3505.041325542339
 20
1079.050390164222
 30
0.0
  0
ENDBLK
  5
4FDE
330
4FD3
100
AcDbEntity
  8
0
100
AcDbBlockEnd
  0
BLOCK
  5
51C3
330
51BF
100
AcDbEntity
  8
0
100
AcDbBlockBegin
  2
_Open
 70
     0
 10
0.0
 20
0.0
 30
0.0
  3
_Open
  1

  0
LINE
  5
51C0
330
51BF
100
AcDbEntity
  8
0
  6
ByBlock
 62
     0
370
    -2
100
AcDbLine
 10
-1.0
 20
0.1666666666666666
 30
0.0
 11
0.0
 21
0.0
 31
0.0
  0
LINE
  5
51C1
330
51BF
100
AcDbEntity
  8
0
  6
ByBlock
 62
     0
370
    -2
100
AcDbLine
 10
-1.0
 20
-0.1666666666666666
 30
0.0
 11
0.0
 21
0.0
 31
0.0
  0
LINE
  5
51C2
330
51BF
100
AcDbEntity
  8
0
  6
ByBlock
 62
     0
370
    -2
100
AcDbLine
 10
0.0
 20
0.0
 30
0.0
 11
-1.0
 21
0.0
 31
0.0
  0
ENDBLK
  5
51C4
330
51BF
100
AcDbEntity
  8
0
100
AcDbBlockEnd
  0
ENDSEC
  0
SECTION
  2
ENTITIES
  0
LINE
  5
4327
330
1E
100
AcDbEntity
  8
LEVEL001
  6
Continuous
 62
     7
100
AcDbLine
 10
-3576.230004059791
 20
1253.397829478401
 30
0.0
 11
-3576.230004059791
 21
1254.841204112192
 31
0.0
  0
LINE
  5
4328
330
1E
100
AcDbEntity
  8
LEVEL001
  6
Continuous
 62
     7
100
AcDbLine
 10
-3573.730004059792
 20
1251.954454844612
 30
0.0
 11
-3576.230004059791
 21
1253.397829478401
 31
0.0
  0
LINE
  5
4329
330
1E
100
AcDbEntity
  8
LEVEL001
  6
Continuous
 62
     7
100
AcDbLine
 10
-3571.229996430401
 20
1253.397844737192
 30
0.0
 11
-3573.730004059792
 21
1251.954454844612
 31
0.0
  0
LINE
  5
432A
330
1E
100
AcDbEntity
  8
LEVEL001
  6
Continuous
 62
     7
100
AcDbLine
 10
-3571.230004059791
 20
1254.841204112192
 30
0.0
 11
-3571.229996430401
 21
1253.397844737192
 31
0.0
  0
ARC
  5
432B
330
1E
100
AcDbEntity
  8
LEVEL001
  6
Continuous
 62
     7
100
AcDbCircle
 10
-3573.730004059792
 20
1254.841204112192
 30
0.0
 40
4.4803848266602
100
AcDbArc
 50
180.0
 51
0.0
  0
ARC
  5
432C
330
1E
100
AcDbEntity
  8
LEVEL001
  6
Continuous
 62
     7
100
AcDbCircle
 10
-3573.730004059792
 20
1254.841204112192
 30
0.0
 40
5.0
100
AcDbArc
 50
180.0
 51
0.0
  0
LINE
  5
432D
330
1E
100
AcDbEntity
  8
LEVEL001
  6
DASHDOT
 62
     1
100
AcDbLine
 10
-3581.730004059792
 20
1254.841204112192
 30
0.0
 11
-3565.730004059791
 21
1254.841204112192
 31
0.0
  0
ARC
  5
432E
330
1E
100
AcDbEntity
  8
LEVEL001
  6
Continuous
 62
     7
100
AcDbCircle
 10
-3573.730004059792
 20
1254.841204112192
 30
0.0
 40
6.0
100
AcDbArc
 50
180.0
 51
0.0
  0
ARC
  5
432F
330
1E
100
AcDbEntity
  8
LEVEL001
  6
Continuous
 62
     7
100
AcDbCircle
 10
-3573.736631479378
 20
1254.848276945834
 30
0.0
 40
6.0
100
AcDbArc
 50
0.0
 51
180.0
  0
LINE
  5
4330
330
1E
100
AcDbEntity
  8
LEVEL001
  6
DASHDOT
 62
     1
100
AcDbLine
 10
-3565.736631479378
 20
1254.848276945834
 30
0.0
 11
-3581.736631479378
 21
1254.848276945834
 31
0.0
  0
ARC
  5
4331
330
1E
100
AcDbEntity
  8
LEVEL001
  6
Continuous
 62
     7
100
AcDbCircle
 10
-3573.736631479378
 20
1254.848276945834
 30
0.0
 40
5.0
100
AcDbArc
 50
0.0
 51
180.0
  0
ARC
  5
4332
330
1E
100
AcDbEntity
  8
LEVEL001
  6
Continuous
 62
     7
100
AcDbCircle
 10
-3573.736631479378
 20
1254.848276945834
 30
0.0
 40
4.4803848266602
100
AcDbArc
 50
0.0
 51
180.0
  0
LINE
  5
4333
330
1E
100
AcDbEntity
  8
LEVEL001
  6
Continuous
 62
     7
100
AcDbLine
 10
-3576.23663147938
 20
1254.848276945834
 30
0.0
 11
-3576.236639108768
 21
1256.291636320834
 31
0.0
  0
LINE
  5
4334
330
1E
100
AcDbEntity
  8
LEVEL001
  6
Continuous
 62
     7
100
AcDbLine
 10
-3576.236639108768
 20
1256.291636320834
 30
0.0
 11
-3573.736631479378
 21
1257.735026213414
 31
0.0
  0
LINE
  5
4335
330
1E
100
AcDbEntity
  8
LEVEL001
  6
Continuous
 62
     7
100
AcDbLine
 10
-3573.736631479378
 20
1257.735026213414
 30
0.0
 11
-3571.23663147938
 21
1256.291651579624
 31
0.0
  0
LINE
  5
4336
330
1E
100
AcDbEntity
  8
LEVEL001
  6
Continuous
 62
     7
100
AcDbLine
 10
-3571.23663147938
 20
1256.291651579624
 30
0.0
 11
-3571.23663147938
 21
1254.848276945834
 31
0.0
  0
LINE
  5
4337
330
1E
100
AcDbEntity
  8
ﾚｲﾔ1
  6
DASHDOT
 62
     1
100
AcDbLine
 10
-3573.730004059792
 20
1262.982437032976
 30
0.0
 11
-3573.730004059792
 21
1246.699971191408
 31
0.0
  0
CIRCLE
  5
4338
330
1E
100
AcDbEntity
  8
ﾚｲﾔ1
100
AcDbCircle
 10
-3639.673538398694
 20
1254.655095965531
 30
0.0
 40
3.0
  0
LINE
  5
4339
330
1E
100
AcDbEntity
  8
ﾚｲﾔ1
  6
DASHDOT
 62
     1
 48
0.1
100
AcDbLine
 10
-3644.140200677173
 20
1254.655095965531
 30
0.0
 11
-3635.206876120216
 21
1254.655095965531
 31
0.0
  0
LINE
  5
433A
330
1E
100
AcDbEntity
  8
ﾚｲﾔ1
  6
DASHDOT
 62
     1
 48
0.1
100
AcDbLine
 10
-3639.673538398694
 20
1250.616326301023
 30
0.0
 11
-3639.673538398694
 21
1258.693865630038
 31
0.0
  0
CIRCLE
  5
433B
330
1E
100
AcDbEntity
  8
ﾚｲﾔ1
100
AcDbCircle
 10
-3508.041886778846
 20
1254.74056767348
 30
0.0
 40
3.0
  0
LINE
  5
433C
330
1E
100
AcDbEntity
  8
ﾚｲﾔ1
  6
DASHDOT
 62
     1
 48
0.1
100
AcDbLine
 10
-3512.508549057323
 20
1254.74056767348
 30
0.0
 11
-3503.575224500368
 21
1254.74056767348
 31
0.0
  0
LINE
  5
433D
330
1E
100
AcDbEntity
  8
ﾚｲﾔ1
  6
DASHDOT
 62
     1
 48
0.1
100
AcDbLine
 10
-3508.041886778846
 20
1250.701798008973
 30
0.0
 11
-3508.041886778846
 21
1258.779337337987
 31
0.0
  0
CIRCLE
  5
433E
330
1E
100
AcDbEntity
  8
ﾚｲﾔ1
  6
DASHDOT
 62
     1
100
AcDbCircle
 10
-3573.780655541697
 20
1254.695470301729
 30
0.0
 40
45.0
  0
CIRCLE
  5
433F
330
1E
100
AcDbEntity
  8
ﾚｲﾔ1
  6
DASHDOT
 62
     1
100
AcDbCircle
 10
-3573.780655541697
 20
1254.695470301729
 30
0.0
 40
30.0
  0
CIRCLE
  5
4340
330
1E
100
AcDbEntity
  8
ﾚｲﾔ1
  6
DASHDOT
 62
     1
100
AcDbCircle
 10
-3573.780655541697
 20
1254.695470301729
 30
0.0
 40
15.0
  0
CIRCLE
  5
4341
330
1E
100
AcDbEntity
  8
ﾚｲﾔ1
100
AcDbCircle
 10
-3573.780655541697
 20
1254.695470301729
 30
0.0
 40
14.0
  0
CIRCLE
  5
4342
330
1E
100
AcDbEntity
  8
ﾚｲﾔ1
100
AcDbCircle
 10
-3573.780655541697
 20
1254.695470301729
 30
0.0
 40
16.0
  0
CIRCLE
  5
4343
330
1E
100
AcDbEntity
  8
ﾚｲﾔ1
100
AcDbCircle
 10
-3573.780655541697
 20
1254.695470301729
 30
0.0
 40
29.0
  0
CIRCLE
  5
4344
330
1E
100
AcDbEntity
  8
ﾚｲﾔ1
100
AcDbCircle
 10
-3573.780655541697
 20
1254.695470301729
 30
0.0
 40
31.0
  0
CIRCLE
  5
4345
330
1E
100
AcDbEntity
  8
ﾚｲﾔ1
100
AcDbCircle
 10
-3573.780655541697
 20
1254.695470301729
 30
0.0
 40
44.0
  0
CIRCLE
  5
4346
330
1E
100
AcDbEntity
  8
ﾚｲﾔ1
100
AcDbCircle
 10
-3573.780655541697
 20
1254.695470301729
 30
0.0
 40
46.0
  0
CIRCLE
  5
4347
330
1E
100
AcDbEntity
  8
ﾚｲﾔ1
100
AcDbCircle
 10
-3573.780655541697
 20
1254.695470301729
 30
0.0
 40
60.0
  0
CIRCLE
  5
4348
330
1E
100
AcDbEntity
  8
ﾚｲﾔ1
100
AcDbCircle
 10
-3573.780655541697
 20
1254.695470301729
 30
0.0
 40
72.0
  0
ARC
  5
4349
330
1E
100
AcDbEntity
  8
ﾚｲﾔ1
  6
DASHDOT
 62
     1
100
AcDbCircle
 10
-3461.679152295872
 20
1305.467221151449
 30
0.0
 40
16.15228499661389
100
AcDbArc
 50
355.6549277912164
 51
81.20495492668694
  0
ARC
  5
434A
330
1E
100
AcDbEntity
  8
ﾚｲﾔ1
  6
DASHDOTX2
 62
     1
100
AcDbCircle
 10
-3461.937609842408
 20
1203.151257865927
 30
0.0
 40
16.48330364637894
100
AcDbArc
 50
290.6606665493156
 51
4.592863597290044
  0
CIRCLE
  5
434B
330
1E
100
AcDbEntity
  8
ﾚｲﾔ1
100
AcDbCircle
 10
-3573.780655541697
 20
1254.695470301729
 30
0.0
 40
73.5
  0
LINE
  5
434C
330
1E
100
AcDbEntity
  8
ﾚｲﾔ1
  6
DASHDOT
 62
     1
100
AcDbLine
 10
-3445.573291512944
 20
1304.243473198337
 30
0.0
 11
-3445.507236395012
 21
1204.471154633797
 31
0.0
  0
LWPOLYLINE
  5
434D
330
1E
100
AcDbEntity
  8
図面
100
AcDbPolyline
 90
        4
 70
     0
 43
0.0
 10
-3438.611046534721
 20
1242.686027719943
 10
-3431.925053281188
 20
1242.686027719943
 10
-3431.925053281188
 20
1266.686027719943
 10
-3438.607554617377
 20
1266.686027719943
  0
LWPOLYLINE
  5
434E
330
1E
100
AcDbEntity
  8
図面
100
AcDbPolyline
 90
        4
 70
     0
 43
0.0
 10
-3438.61148302439
 20
1239.686027719943
 10
-3427.925053281187
 20
1239.686027719943
 10
-3427.925053281187
 20
1269.686027719943
 10
-3438.607118127709
 20
1269.686027719943
  0
LWPOLYLINE
  5
434F
330
1E
100
AcDbEntity
  8
図面
100
AcDbPolyline
 90
        4
 70
     0
 43
0.0
 10
-3452.492171820843
 20
1268.686027719943
 10
-3456.925053281187
 20
1268.686027719943
 10
-3456.925053281187
 20
1240.686027719943
 10
-3452.451105206221
 20
1240.686027719943
  0
LINE
  5
4350
330
1E
100
AcDbEntity
  8
図面
100
AcDbLine
 10
-3481.425053281188
 20
1266.686027719943
 30
0.0
 11
-3477.925053281187
 21
1266.686027719943
 31
0.0
  0
LINE
  5
4351
330
1E
100
AcDbEntity
  8
図面
100
AcDbLine
 10
-3481.425053281188
 20
1260.686027719943
 30
0.0
 11
-3477.925053281187
 21
1260.686027719943
 31
0.0
  0
LINE
  5
4352
330
1E
100
AcDbEntity
  8
図面
100
AcDbLine
 10
-3481.425053281188
 20
1248.686027719943
 30
0.0
 11
-3477.925053281187
 21
1248.686027719943
 31
0.0
  0
LINE
  5
4353
330
1E
100
AcDbEntity
  8
図面
100
AcDbLine
 10
-3481.425053281188
 20
1242.686027719943
 30
0.0
 11
-3477.925053281187
 21
1242.686027719943
 31
0.0
  0
LINE
  5
4354
330
1E
100
AcDbEntity
  8
図面
100
AcDbLine
 10
-3482.425053281187
 20
1245.686027719943
 30
0.0
 11
-3482.425053281187
 21
1263.686027719943
 31
0.0
  0
ARC
  5
4355
330
1E
100
AcDbEntity
  8
図面
100
AcDbCircle
 10
-3463.925052775272
 20
1254.686027195267
 30
0.0
 40
18.50000004148328
100
AcDbArc
 50
161.0753555839561
 51
198.9246444160439
  0
ARC
  5
4356
330
1E
100
AcDbEntity
  8
図面
100
AcDbCircle
 10
-3477.425052805555
 20
1263.686027195264
 30
0.0
 40
5.000000011203287
100
AcDbArc
 50
143.1301023540935
 51
216.8698976458211
  0
LINE
  5
4357
330
1E
100
AcDbEntity
  8
図面
100
AcDbLine
 10
-3482.425053281187
 20
1261.679777719943
 30
0.0
 11
-3489.653158597927
 21
1261.320712261747
 31
0.0
  0
LINE
  5
4358
330
1E
100
AcDbEntity
  8
図面
100
AcDbLine
 10
-3482.324033281187
 20
1262.686030219942
 30
0.0
 11
-3489.783134510171
 21
1262.315488928398
 31
0.0
  0
LINE
  5
4359
330
1E
100
AcDbEntity
  8
図面
100
AcDbLine
 10
-3481.987444531186
 20
1258.686027719943
 30
0.0
 11
-3489.306362238602
 21
1258.686027719943
 31
0.0
  0
LINE
  5
435A
330
1E
100
AcDbEntity
  8
図面
100
AcDbLine
 10
-3481.987444531186
 20
1250.686027719943
 30
0.0
 11
-3489.308736892651
 21
1250.686027719943
 31
0.0
  0
LINE
  5
435B
330
1E
100
AcDbEntity
  8
図面
100
AcDbLine
 10
-3482.425053281187
 20
1247.692277719943
 30
0.0
 11
-3489.655552765855
 21
1248.051462111521
 31
0.0
  0
LINE
  5
435C
330
1E
100
AcDbEntity
  8
図面
100
AcDbLine
 10
-3482.324033281187
 20
1246.686025219943
 30
0.0
 11
-3489.786620383044
 21
1247.0567396771
 31
0.0
  0
ARC
  5
435D
330
1E
100
AcDbEntity
  8
図面
100
AcDbCircle
 10
-3477.425052805555
 20
1245.686027195273
 30
0.0
 40
5.000000011203287
100
AcDbArc
 50
143.1301023541789
 51
216.8698976459066
  0
LWPOLYLINE
  5
435E
330
1E
100
AcDbEntity
  8
図面
100
AcDbPolyline
 90
        4
 70
     1
 43
0.0
 10
-3467.925053281187
 20
1243.186027719943
 10
-3456.925053281187
 20
1243.186027719943
 10
-3456.925053281187
 20
1266.186027719943
 10
-3467.925053281187
 20
1266.186027719943
  0
LINE
  5
435F
330
1E
100
AcDbEntity
  8
図面
100
AcDbLine
 10
-3473.425053281188
 20
1245.686027719943
 30
0.0
 11
-3473.425053281188
 21
1263.686027719943
 31
0.0
  0
ARC
  5
4360
330
1E
100
AcDbEntity
  8
図面
100
AcDbCircle
 10
-3491.925052838078
 20
1254.686027195267
 30
0.0
 40
18.50000004148328
100
AcDbArc
 50
341.0753555839561
 51
18.92464441604389
  0
ARC
  5
4361
330
1E
100
AcDbEntity
  8
図面
100
AcDbCircle
 10
-3478.425052807796
 20
1263.686027195264
 30
0.0
 40
5.000000011203287
100
AcDbArc
 50
323.1301023541789
 51
36.86989764590656
  0
LINE
  5
4362
330
1E
100
AcDbEntity
  8
図面
100
AcDbLine
 10
-3473.425053281188
 20
1261.679777719943
 30
0.0
 11
-3467.925053281187
 21
1261.406557719943
 31
0.0
  0
LINE
  5
4363
330
1E
100
AcDbEntity
  8
図面
100
AcDbLine
 10
-3473.526073281188
 20
1262.686030219942
 30
0.0
 11
-3467.925053281187
 21
1262.407791469943
 31
0.0
  0
LINE
  5
4364
330
1E
100
AcDbEntity
  8
図面
100
AcDbLine
 10
-3474.425053281188
 20
1266.686027719943
 30
0.0
 11
-3477.925053281187
 21
1266.686027719943
 31
0.0
  0
LINE
  5
4365
330
1E
100
AcDbEntity
  8
図面
100
AcDbLine
 10
-3474.425053281188
 20
1260.686027719943
 30
0.0
 11
-3477.925053281187
 21
1260.686027719943
 31
0.0
  0
LINE
  5
4366
330
1E
100
AcDbEntity
  8
図面
100
AcDbLine
 10
-3473.425053281188
 20
1247.692277719943
 30
0.0
 11
-3467.925053281187
 21
1247.965497719943
 31
0.0
  0
LINE
  5
4367
330
1E
100
AcDbEntity
  8
図面
100
AcDbLine
 10
-3473.526073281188
 20
1246.686025219943
 30
0.0
 11
-3467.925053281187
 21
1246.964263969943
 31
0.0
  0
LINE
  5
4368
330
1E
100
AcDbEntity
  8
図面
100
AcDbLine
 10
-3474.425053281188
 20
1248.686027719943
 30
0.0
 11
-3477.925053281187
 21
1248.686027719943
 31
0.0
  0
LINE
  5
4369
330
1E
100
AcDbEntity
  8
図面
100
AcDbLine
 10
-3474.425053281188
 20
1242.686027719943
 30
0.0
 11
-3477.925053281187
 21
1242.686027719943
 31
0.0
  0
ARC
  5
436A
330
1E
100
AcDbEntity
  8
図面
100
AcDbCircle
 10
-3478.425052807796
 20
1245.686027195273
 30
0.0
 40
5.000000011203287
100
AcDbArc
 50
323.1301023540934
 51
36.8698976458211
  0
LWPOLYLINE
  5
436B
330
1E
100
AcDbEntity
  8
図面
100
AcDbPolyline
 90
        4
 70
     1
 43
0.0
 10
-3427.925053281187
 20
1239.686027719943
 10
-3412.925053281188
 20
1239.686027719943
 10
-3412.925053281188
 20
1269.686027719943
 10
-3427.925053281187
 20
1269.686027719943
  0
LINE
  5
436C
330
1E
100
AcDbEntity
  8
図面
100
AcDbLine
 10
-3415.925053281188
 20
1266.686027719943
 30
0.0
 11
-3415.925053281188
 21
1242.686027719943
 31
0.0
  0
LWPOLYLINE
  5
436D
330
1E
100
AcDbEntity
  8
図面
100
AcDbPolyline
 90
        4
 70
     0
 43
0.0
 10
-3421.925053281188
 20
1260.936027719943
 10
-3431.925053281188
 20
1260.936027719943
 10
-3431.925053281188
 20
1248.436027719943
 10
-3421.925053281188
 20
1248.436027719943
  0
ARC
  5
436E
330
1E
100
AcDbEntity
  8
図面
100
AcDbCircle
 10
-3421.925052681227
 20
1251.436027195268
 30
0.0
 40
3.000000006720466
100
AcDbArc
 50
270.0
 51
0.0
  0
LINE
  5
436F
330
1E
100
AcDbEntity
  8
図面
100
AcDbLine
 10
-3427.925053281187
 20
1266.686027719943
 30
0.0
 11
-3438.607554617377
 21
1266.686027719943
 31
0.0
  0
LINE
  5
4370
330
1E
100
AcDbEntity
  8
図面
100
AcDbLine
 10
-3431.925053281188
 20
1265.686027719943
 30
0.0
 11
-3438.607700113933
 21
1265.686027719943
 31
0.0
  0
LINE
  5
4371
330
1E
100
AcDbEntity
  8
図面
100
AcDbLine
 10
-3431.925053281188
 20
1265.686027719943
 30
0.0
 11
-3438.607700113933
 21
1265.686027719943
 31
0.0
  0
ARC
  5
4372
330
1E
100
AcDbEntity
  8
図面
100
AcDbCircle
 10
-3421.925052681227
 20
1257.936027195268
 30
0.0
 40
3.000000006720466
100
AcDbArc
 50
0.0
 51
90.0
  0
LINE
  5
4373
330
1E
100
AcDbEntity
  8
図面
100
AcDbLine
 10
-3431.925053281188
 20
1265.686027719943
 30
0.0
 11
-3427.925053281187
 21
1265.686027719943
 31
0.0
  0
LINE
  5
4374
330
1E
100
AcDbEntity
  8
図面
100
AcDbLine
 10
-3427.925053281187
 20
1266.686027719943
 30
0.0
 11
-3415.925053281188
 21
1266.686027719943
 31
0.0
  0
LINE
  5
4375
330
1E
100
AcDbEntity
  8
図面
100
AcDbLine
 10
-3418.925053281188
 20
1251.436027719943
 30
0.0
 11
-3418.925053281188
 21
1257.936027719943
 31
0.0
  0
LINE
  5
4376
330
1E
100
AcDbEntity
  8
図面
100
AcDbLine
 10
-3438.611046534721
 20
1242.686027719943
 30
0.0
 11
-3427.925053281187
 21
1242.686027719943
 31
0.0
  0
LINE
  5
4377
330
1E
100
AcDbEntity
  8
図面
100
AcDbLine
 10
-3438.610901038166
 20
1243.686027719943
 30
0.0
 11
-3427.929084531187
 21
1243.686027719943
 31
0.0
  0
LINE
  5
4378
330
1E
100
AcDbEntity
  8
図面
100
AcDbLine
 10
-3431.925053281188
 20
1243.686027719943
 30
0.0
 11
-3438.610901038166
 21
1243.686027719943
 31
0.0
  0
LINE
  5
4379
330
1E
100
AcDbEntity
  8
図面
100
AcDbLine
 10
-3427.925053281187
 20
1242.686027719943
 30
0.0
 11
-3415.925053281188
 21
1242.686027719943
 31
0.0
  0
LINE
  5
437C
330
1E
100
AcDbEntity
  8
ﾚｲﾔ1
100
AcDbLine
 10
-3438.602105499996
 20
1304.137892767144
 30
0.0
 11
-3438.616595475909
 21
1204.548072158781
 31
0.0
  0
LINE
  5
437D
330
1E
100
AcDbEntity
  8
ﾚｲﾔ1
100
AcDbLine
 10
-3452.544477525888
 20
1304.349053629531
 30
0.0
 11
-3452.397877314114
 21
1204.394237108855
 31
0.0
  0
ARC
  5
437E
330
1E
100
AcDbEntity
  8
LEVEL001
  6
Continuous
 62
     7
100
AcDbCircle
 10
-3462.397511598312
 20
1204.479760101518
 30
0.0
 40
10.0
100
AcDbArc
 50
269.5099833733077
 51
359.5099833733337
  0
ARC
  5
437F
330
1E
100
AcDbEntity
  8
LEVEL001
  6
Continuous
 62
     7
100
AcDbCircle
 10
-3462.615717757986
 20
1204.753327341173
 30
0.0
 40
24.0
100
AcDbArc
 50
269.5099833733077
 51
359.5099833733337
  0
ARC
  5
4380
330
1E
100
AcDbEntity
  8
LEVEL001
  6
Continuous
 62
     7
100
AcDbCircle
 10
-3462.544477525888
 20
1304.349053629531
 30
0.0
 40
10.0
100
AcDbArc
 50
0.0
 51
90.0
  0
ARC
  5
4381
330
1E
100
AcDbEntity
  8
LEVEL001
  6
Continuous
 62
     7
100
AcDbCircle
 10
-3461.460989201534
 20
1305.376371537076
 30
0.0
 40
22.89240908563361
100
AcDbArc
 50
356.8987857014237
 51
91.15312988893439
  0
LWPOLYLINE
  5
4382
330
1E
100
AcDbEntity
  8
ﾚｲﾔ1
100
AcDbPolyline
 90
        3
 70
     0
 43
0.0
 10
-3462.808560911364
 20
1180.758118359503
 10
-3462.808560911364
 20
1180.758118359503
 10
-3526.818400327549
 20
1180.758118359503
  0
LWPOLYLINE
  5
4383
330
1E
100
AcDbEntity
  8
ﾚｲﾔ1
100
AcDbPolyline
 90
        3
 70
     0
 43
0.0
 10
-3462.575930645366
 20
1314.390522473523
 10
-3462.575930645366
 20
1314.390522473523
 10
-3509.406197056112
 20
1314.515522473523
  0
LINE
  5
4384
330
1E
100
AcDbEntity
  8
ﾚｲﾔ1
100
AcDbLine
 10
-3509.755562599016
 20
1194.442457970219
 30
0.0
 11
-3526.818400327549
 21
1180.758118359503
 31
0.0
  0
SPLINE
  5
4385
330
1E
100
AcDbEntity
  8
ﾚｲﾔ1
100
AcDbSpline
210
0.0
220
0.0
230
1.0
 70
  1064
 71
     3
 72
     9
 73
     5
 74
     3
 42
0.000000001
 43
0.0000000001
 44
0.0000000001
 40
0.0
 40
0.0
 40
0.0
 40
0.0
 40
5.534358827078022
 40
11.15096023344752
 40
11.15096023344752
 40
11.15096023344752
 40
11.15096023344752
 10
-3526.818400327549
 20
1180.695618359504
 30
0.0
 10
-3528.272800097151
 20
1179.300640924188
 30
0.0
 10
-3531.20321254439
 20
1176.489956182955
 30
0.0
 10
-3534.977663627224
 20
1178.002731963852
 30
0.0
 10
-3536.878808175881
 20
1178.764698503112
 30
0.0
 11
-3526.818400327549
 21
1180.695618359504
 31
0.0
 11
-3531.389508220162
 21
1177.575666394978
 31
0.0
 11
-3536.878808175881
 21
1178.764698503112
 31
0.0
  0
SPLINE
  5
4386
330
1E
100
AcDbEntity
  8
ﾚｲﾔ1
100
AcDbSpline
210
0.0
220
0.0
230
1.0
 70
  1064
 71
     3
 72
     9
 73
     5
 74
     3
 42
0.000000001
 43
0.0000000001
 44
0.0000000001
 40
0.0
 40
0.0
 40
0.0
 40
0.0
 40
3.889610619475095
 40
7.51434198418605
 40
7.51434198418605
 40
7.51434198418605
 40
7.51434198418605
 10
-3509.755562599016
 20
1194.442457970219
 30
0.0
 10
-3508.75613155722
 20
1195.48024043707
 30
0.0
 10
-3506.825329898034
 20
1197.485133246151
 30
0.0
 10
-3508.049805297561
 20
1199.960747698727
 30
0.0
 10
-3508.640461724342
 20
1201.154922434462
 30
0.0
 11
-3509.755562599016
 21
1194.442457970219
 31
0.0
 11
-3507.602680371107
 21
1197.681928433719
 31
0.0
 11
-3508.640461724342
 21
1201.154922434462
 31
0.0
  0
LWPOLYLINE
  5
4387
330
1E
100
AcDbEntity
  8
ﾚｲﾔ1
100
AcDbPolyline
 90
        3
 70
     0
 43
0.0
 10
-3509.755562599016
 20
1194.442457970219
 10
-3462.350584477775
 20
1194.440841500352
 10
-3462.350584477775
 20
1194.440841500352
  0
LINE
  5
4388
330
1E
100
AcDbEntity
  8
ﾚｲﾔ1
100
AcDbLine
 10
-3526.148528273014
 20
1328.261162127739
 30
0.0
 11
-3509.406197056112
 21
1314.515522473523
 31
0.0
  0
SPLINE
  5
4389
330
1E
100
AcDbEntity
  8
ﾚｲﾔ1
100
AcDbSpline
210
0.0
220
0.0
230
1.0
 70
  1064
 71
     3
 72
     9
 73
     5
 74
     3
 42
0.000000001
 43
0.0000000001
 44
0.0000000001
 40
0.0
 40
0.0
 40
0.0
 40
0.0
 40
2.327175986257379
 40
4.753443423770186
 40
4.753443423770186
 40
4.753443423770186
 40
4.753443423770186
 10
-3509.406197056112
 20
1314.515522473523
 30
0.0
 10
-3509.204000936543
 20
1313.735347386293
 30
0.0
 10
-3508.790999160765
 20
1312.141777256796
 30
0.0
 10
-3509.582688911214
 20
1310.694884844448
 30
0.0
 10
-3509.986785666111
 20
1309.956357500648
 30
0.0
 11
-3509.406197056112
 21
1314.515522473523
 31
0.0
 11
-3509.088355810459
 21
1312.210153736515
 31
0.0
 11
-3509.986785666111
 21
1309.956357500648
 31
0.0
  0
SPLINE
  5
438A
330
1E
100
AcDbEntity
  8
ﾚｲﾔ1
100
AcDbSpline
210
0.0
220
0.0
230
1.0
 70
  1064
 71
     3
 72
     9
 73
     5
 74
     3
 42
0.000000001
 43
0.0000000001
 44
0.0000000001
 40
0.0
 40
0.0
 40
0.0
 40
0.0
 40
4.641146878982744
 40
9.28078567521959
 40
9.28078567521959
 40
9.28078567521959
 40
9.28078567521959
 10
-3526.148528273014
 20
1328.261162127739
 30
0.0
 10
-3527.434676094325
 20
1329.331835645619
 30
0.0
 10
-3530.006553819267
 20
1331.472834779385
 30
0.0
 10
-3533.114553548256
 20
1330.232618995424
 30
0.0
 10
-3534.668300895295
 20
1329.612611867975
 30
0.0
 11
-3526.148528273014
 21
1328.261162127739
 31
0.0
 11
-3530.141045800113
 21
1330.6276042141
 31
0.0
 11
-3534.668300895295
 21
1329.612611867975
 31
0.0
  0
LWPOLYLINE
  5
438B
330
1E
100
AcDbEntity
  8
ﾚｲﾔ1
100
AcDbPolyline
 90
        2
 70
     0
 43
0.0
 10
-3526.148528273014
 20
1328.261162127739
 10
-3461.920556180789
 20
1328.258972007933
  0
LINE
  5
438C
330
1E
100
AcDbEntity
  8
ﾚｲﾔ1
  6
DASHDOTX2
 62
     1
100
AcDbLine
 10
-3514.951208638628
 20
1187.68941298784
 30
0.0
 11
-3456.121761735556
 21
1187.72805250725
 31
0.0
  0
LINE
  5
438D
330
1E
100
AcDbEntity
  8
ﾚｲﾔ1
  6
DASHDOTX2
 62
     1
100
AcDbLine
 10
-3516.38266298434
 20
1321.453247228506
 30
0.0
 11
-3458.984670426981
 21
1321.434854746693
 31
0.0
  0
LINE
  5
438E
330
1E
100
AcDbEntity
  8
ﾚｲﾔ1
  6
DASHDOTX2
 62
     1
100
AcDbLine
 10
-3573.780655541697
 20
1159.992495602362
 30
0.0
 11
-3573.780655541697
 21
1350.407592451581
 31
0.0
  0
LINE
  5
438F
330
1E
100
AcDbEntity
  8
ﾚｲﾔ1
  6
DASHDOTX2
 62
     1
100
AcDbLine
 10
-3672.725613785351
 20
1254.695470301729
 30
0.0
 11
-3402.662111972262
 21
1254.695470301729
 31
0.0
  0
CIRCLE
  5
4390
330
1E
100
AcDbEntity
  8
ﾚｲﾔ1
100
AcDbCircle
 10
-3573.780655541697
 20
1254.695470301729
 30
0.0
 40
85.0
  0
LWPOLYLINE
  5
4391
330
1E
100
AcDbEntity
  8
図面
100
AcDbPolyline
 90
        4
 70
     1
 43
0.0
 10
-3453.545586781784
 20
1052.44367958207
 10
-3439.545586781784
 20
1052.44367958207
 10
-3439.545586781784
 20
1080.44367958207
 10
-3453.545586781784
 20
1080.44367958207
  0
LINE
  5
4392
330
1E
100
AcDbEntity
  8
図面
100
AcDbLine
 10
-3478.045586781784
 20
1078.44367958207
 30
0.0
 11
-3474.545586781784
 21
1078.44367958207
 31
0.0
  0
LINE
  5
4393
330
1E
100
AcDbEntity
  8
図面
100
AcDbLine
 10
-3478.045586781784
 20
1072.44367958207
 30
0.0
 11
-3474.545586781784
 21
1072.44367958207
 31
0.0
  0
LINE
  5
4394
330
1E
100
AcDbEntity
  8
図面
100
AcDbLine
 10
-3478.045586781784
 20
1060.44367958207
 30
0.0
 11
-3474.545586781784
 21
1060.44367958207
 31
0.0
  0
LINE
  5
4395
330
1E
100
AcDbEntity
  8
図面
100
AcDbLine
 10
-3478.045586781784
 20
1054.44367958207
 30
0.0
 11
-3474.545586781784
 21
1054.44367958207
 31
0.0
  0
LINE
  5
4396
330
1E
100
AcDbEntity
  8
図面
100
AcDbLine
 10
-3479.045586781784
 20
1057.44367958207
 30
0.0
 11
-3479.045586781784
 21
1075.44367958207
 31
0.0
  0
ARC
  5
4397
330
1E
100
AcDbEntity
  8
図面
100
AcDbCircle
 10
-3460.545586275867
 20
1066.443679057395
 30
0.0
 40
18.50000004148328
100
AcDbArc
 50
161.0753555839684
 51
198.9246444160316
  0
ARC
  5
4398
330
1E
100
AcDbEntity
  8
図面
100
AcDbCircle
 10
-3474.045586306151
 20
1075.443679057391
 30
0.0
 40
5.000000011203287
100
AcDbArc
 50
143.1301023540935
 51
216.8698976458211
  0
LINE
  5
4399
330
1E
100
AcDbEntity
  8
図面
100
AcDbLine
 10
-3479.045586781784
 20
1073.43742958207
 30
0.0
 11
-3486.904875683485
 21
1073.04700926486
 31
0.0
  0
LINE
  5
439A
330
1E
100
AcDbEntity
  8
図面
100
AcDbLine
 10
-3478.944566781784
 20
1074.44368208207
 30
0.0
 11
-3486.904875683485
 21
1074.048242598011
 31
0.0
  0
LINE
  5
439B
330
1E
100
AcDbEntity
  8
図面
100
AcDbLine
 10
-3478.607978031783
 20
1070.44367958207
 30
0.0
 11
-3486.904875683485
 21
1070.44367958207
 31
0.0
  0
LINE
  5
439C
330
1E
100
AcDbEntity
  8
図面
100
AcDbLine
 10
-3478.607978031783
 20
1062.44367958207
 30
0.0
 11
-3486.904875683485
 21
1062.44367958207
 31
0.0
  0
LINE
  5
439D
330
1E
100
AcDbEntity
  8
図面
100
AcDbLine
 10
-3479.045586781784
 20
1059.44992958207
 30
0.0
 11
-3486.904875683485
 21
1059.84034989928
 31
0.0
  0
LINE
  5
439E
330
1E
100
AcDbEntity
  8
図面
100
AcDbLine
 10
-3478.944566781784
 20
1058.44367708207
 30
0.0
 11
-3486.904875683485
 21
1058.839116566128
 31
0.0
  0
ARC
  5
439F
330
1E
100
AcDbEntity
  8
図面
100
AcDbCircle
 10
-3474.045586306151
 20
1057.4436790574
 30
0.0
 40
5.000000011203287
100
AcDbArc
 50
143.1301023541789
 51
216.8698976459066
  0
LWPOLYLINE
  5
43A0
330
1E
100
AcDbEntity
  8
図面
100
AcDbPolyline
 90
        4
 70
     1
 43
0.0
 10
-3464.545586781784
 20
1054.94367958207
 10
-3453.545586781784
 20
1054.94367958207
 10
-3453.545586781784
 20
1077.94367958207
 10
-3464.545586781784
 20
1077.94367958207
  0
LINE
  5
43A1
330
1E
100
AcDbEntity
  8
図面
100
AcDbLine
 10
-3470.045586781784
 20
1057.44367958207
 30
0.0
 11
-3470.045586781784
 21
1075.44367958207
 31
0.0
  0
ARC
  5
43A2
330
1E
100
AcDbEntity
  8
図面
100
AcDbCircle
 10
-3488.545586338675
 20
1066.443679057395
 30
0.0
 40
18.50000004148328
100
AcDbArc
 50
341.0753555839677
 51
18.92464441603165
  0
ARC
  5
43A3
330
1E
100
AcDbEntity
  8
図面
100
AcDbCircle
 10
-3475.045586308392
 20
1075.443679057391
 30
0.0
 40
5.000000011203287
100
AcDbArc
 50
323.1301023541789
 51
36.86989764590656
  0
LINE
  5
43A4
330
1E
100
AcDbEntity
  8
図面
100
AcDbLine
 10
-3470.045586781784
 20
1073.43742958207
 30
0.0
 11
-3464.545586781784
 21
1073.16420958207
 31
0.0
  0
LINE
  5
43A5
330
1E
100
AcDbEntity
  8
図面
100
AcDbLine
 10
-3470.146606781784
 20
1074.44368208207
 30
0.0
 11
-3464.545586781784
 21
1074.16544333207
 31
0.0
  0
LINE
  5
43A6
330
1E
100
AcDbEntity
  8
図面
100
AcDbLine
 10
-3471.045586781784
 20
1078.44367958207
 30
0.0
 11
-3474.545586781784
 21
1078.44367958207
 31
0.0
  0
LINE
  5
43A7
330
1E
100
AcDbEntity
  8
図面
100
AcDbLine
 10
-3471.045586781784
 20
1072.44367958207
 30
0.0
 11
-3474.545586781784
 21
1072.44367958207
 31
0.0
  0
LINE
  5
43A8
330
1E
100
AcDbEntity
  8
図面
100
AcDbLine
 10
-3470.045586781784
 20
1059.44992958207
 30
0.0
 11
-3464.545586781784
 21
1059.72314958207
 31
0.0
  0
LINE
  5
43A9
330
1E
100
AcDbEntity
  8
図面
100
AcDbLine
 10
-3470.146606781784
 20
1058.44367708207
 30
0.0
 11
-3464.545586781784
 21
1058.721915832069
 31
0.0
  0
LINE
  5
43AA
330
1E
100
AcDbEntity
  8
図面
100
AcDbLine
 10
-3471.045586781784
 20
1060.44367958207
 30
0.0
 11
-3474.545586781784
 21
1060.44367958207
 31
0.0
  0
LINE
  5
43AB
330
1E
100
AcDbEntity
  8
図面
100
AcDbLine
 10
-3471.045586781784
 20
1054.44367958207
 30
0.0
 11
-3474.545586781784
 21
1054.44367958207
 31
0.0
  0
ARC
  5
43AC
330
1E
100
AcDbEntity
  8
図面
100
AcDbCircle
 10
-3475.045586308392
 20
1057.4436790574
 30
0.0
 40
5.000000011203287
100
AcDbArc
 50
323.1301023540934
 51
36.8698976458211
  0
LWPOLYLINE
  5
43AD
330
1E
100
AcDbEntity
  8
図面
100
AcDbPolyline
 90
        4
 70
     1
 43
0.0
 10
-3424.545586781784
 20
1051.44367958207
 10
-3409.545586781784
 20
1051.44367958207
 10
-3409.545586781784
 20
1081.44367958207
 10
-3424.545586781784
 20
1081.44367958207
  0
LINE
  5
43AE
330
1E
100
AcDbEntity
  8
図面
100
AcDbLine
 10
-3412.545586781784
 20
1078.44367958207
 30
0.0
 11
-3412.545586781784
 21
1054.44367958207
 31
0.0
  0
LWPOLYLINE
  5
43AF
330
1E
100
AcDbEntity
  8
図面
100
AcDbPolyline
 90
        4
 70
     1
 43
0.0
 10
-3439.545586781784
 20
1051.44367958207
 10
-3424.545586781784
 20
1051.44367958207
 10
-3424.545586781784
 20
1081.44367958207
 10
-3439.545586781784
 20
1081.44367958207
  0
LWPOLYLINE
  5
43B0
330
1E
100
AcDbEntity
  8
図面
100
AcDbPolyline
 90
        4
 70
     0
 43
0.0
 10
-3418.545586781784
 20
1072.69367958207
 10
-3428.545586781785
 20
1072.69367958207
 10
-3428.545586781785
 20
1060.19367958207
 10
-3418.545586781784
 20
1060.19367958207
  0
ARC
  5
43B1
330
1E
100
AcDbEntity
  8
図面
100
AcDbCircle
 10
-3418.545586181822
 20
1063.193679057395
 30
0.0
 40
3.000000006720466
100
AcDbArc
 50
270.0
 51
0.0
  0
LWPOLYLINE
  5
43B2
330
1E
100
AcDbEntity
  8
図面
100
AcDbPolyline
 90
        4
 70
     1
 43
0.0
 10
-3435.545586781784
 20
1054.44367958207
 10
-3428.545586781785
 20
1054.44367958207
 10
-3428.545586781785
 20
1078.44367958207
 10
-3435.545586781784
 20
1078.44367958207
  0
LWPOLYLINE
  5
43B3
330
1E
100
AcDbEntity
  8
図面
100
AcDbPolyline
 90
        4
 70
     1
 43
0.0
 10
-3439.545586781784
 20
1056.44367958207
 10
-3435.545586781784
 20
1056.44367958207
 10
-3435.545586781784
 20
1076.44367958207
 10
-3439.545586781784
 20
1076.44367958207
  0
LINE
  5
43B4
330
1E
100
AcDbEntity
  8
図面
100
AcDbLine
 10
-3424.545586781784
 20
1078.44367958207
 30
0.0
 11
-3439.545586781784
 21
1078.44367958207
 31
0.0
  0
LINE
  5
43B5
330
1E
100
AcDbEntity
  8
図面
100
AcDbLine
 10
-3428.545586781785
 20
1077.44367958207
 30
0.0
 11
-3439.545586781784
 21
1077.44367958207
 31
0.0
  0
LINE
  5
43B6
330
1E
100
AcDbEntity
  8
図面
100
AcDbLine
 10
-3428.545586781785
 20
1077.44367958207
 30
0.0
 11
-3435.545586781784
 21
1077.44367958207
 31
0.0
  0
ARC
  5
43B7
330
1E
100
AcDbEntity
  8
図面
100
AcDbCircle
 10
-3418.545586181822
 20
1069.693679057395
 30
0.0
 40
3.000000006720466
100
AcDbArc
 50
0.0
 51
90.0
  0
LINE
  5
43B8
330
1E
100
AcDbEntity
  8
図面
100
AcDbLine
 10
-3428.545586781785
 20
1077.44367958207
 30
0.0
 11
-3424.545586781784
 21
1077.44367958207
 31
0.0
  0
LINE
  5
43B9
330
1E
100
AcDbEntity
  8
図面
100
AcDbLine
 10
-3424.545586781784
 20
1078.44367958207
 30
0.0
 11
-3412.545586781784
 21
1078.44367958207
 31
0.0
  0
LINE
  5
43BA
330
1E
100
AcDbEntity
  8
図面
100
AcDbLine
 10
-3415.545586781784
 20
1063.19367958207
 30
0.0
 11
-3415.545586781784
 21
1069.69367958207
 31
0.0
  0
LINE
  5
43BB
330
1E
100
AcDbEntity
  8
図面
100
AcDbLine
 10
-3439.545586781784
 20
1054.44367958207
 30
0.0
 11
-3424.545586781784
 21
1054.44367958207
 31
0.0
  0
LINE
  5
43BC
330
1E
100
AcDbEntity
  8
図面
100
AcDbLine
 10
-3435.545586781784
 20
1055.44367958207
 30
0.0
 11
-3424.549618031783
 21
1055.44367958207
 31
0.0
  0
LINE
  5
43BD
330
1E
100
AcDbEntity
  8
図面
100
AcDbLine
 10
-3428.545586781785
 20
1055.44367958207
 30
0.0
 11
-3435.545586781784
 21
1055.44367958207
 31
0.0
  0
LINE
  5
43BE
330
1E
100
AcDbEntity
  8
図面
100
AcDbLine
 10
-3435.545586781784
 20
1055.44367958207
 30
0.0
 11
-3439.545586781784
 21
1055.44367958207
 31
0.0
  0
LINE
  5
43BF
330
1E
100
AcDbEntity
  8
図面
100
AcDbLine
 10
-3424.545586781784
 20
1054.44367958207
 30
0.0
 11
-3412.545586781784
 21
1054.44367958207
 31
0.0
  0
LINE
  5
43C0
330
1E
100
AcDbEntity
  8
ﾚｲﾔ1
  6
DASHDOTX2
 62
     1
100
AcDbLine
 10
-3524.369464428907
 20
1066.410380450036
 30
0.0
 11
-3387.272818311482
 21
1066.410380450036
 31
0.0
  0
LINE
  5
43C1
330
1E
100
AcDbEntity
  8
ﾚｲﾔ1
100
AcDbLine
 10
-3486.904875683485
 20
1066.410380450036
 30
0.0
 11
-3486.904875683485
 21
1038.148731861876
 31
0.0
  0
DIMENSION
  5
43C2
330
1E
100
AcDbEntity
  8
ﾚｲﾔ1
100
AcDbDimension
  2
*D1
 10
-3387.272818311482
 20
1066.410380450036
 30
0.0
 11
-3396.270363432177
 21
1052.555888895006
 31
0.0
 70
   160
 71
     5
 42
28.26164858815992
  3
Standard
100
AcDbAlignedDimension
 13
-3486.904875683485
 23
1038.148731861876
 33
0.0
 14
-3387.272818311482
 24
1066.410380450036
 34
0.0
 50
90.0
100
AcDbRotatedDimension
1001
ACAD
1000
DSTYLE
1002
{
1070
   343
1005
51BF
1070
   173
1070
     1
1070
   344
1005
51BF
1070
    41
1040
10.0
1070
    44
1040
0.5
1070
    73
1070
     0
1070
    74
1070
     0
1070
    77
1070
     1
1070
   140
1040
10.0
1070
   147
1040
0.5
1070
   176
1070
     1
1070
   177
1070
     1
1070
   178
1070
     1
1070
   271
1070
     0
1070
   272
1070
     0
1070
   279
1070
     2
1070
   340
1005
23
1070
   341
1005
1C1
1070
   342
1005
0
1002
}
  0
DIMENSION
  5
43C3
330
1E
100
AcDbEntity
  8
ﾚｲﾔ1
100
AcDbDimension
  2
*D2
 10
-3517.786503785625
 20
1132.803290925515
 30
0.0
 11
-3576.455631802934
 21
1142.320209160471
 31
0.0
 70
   160
  1
φ112
 71
     5
 42
112.0799070983412
  3
Standard
100
AcDbAlignedDimension
 13
-3629.866410883967
 23
1119.953982272998
 33
0.0
 14
-3517.786503785625
 24
1119.953982272998
 34
0.0
100
AcDbRotatedDimension
1001
ACAD
1000
DSTYLE
1002
{
1070
   343
1005
51BF
1070
   173
1070
     1
1070
   344
1005
51BF
1070
    41
1040
10.0
1070
    44
1040
0.5
1070
    73
1070
     0
1070
    74
1070
     0
1070
    77
1070
     1
1070
   140
1040
10.0
1070
   147
1040
0.5
1070
   176
1070
     1
1070
   177
1070
     1
1070
   178
1070
     1
1070
   271
1070
     0
1070
   272
1070
     0
1070
   279
1070
     2
1070
   340
1005
23
1070
   341
1005
1C1
1070
   342
1005
0
1002
}
  0
LWPOLYLINE
  5
43C5
330
1E
100
AcDbEntity
  8
ﾚｲﾔ1
100
AcDbPolyline
 90
        2
 70
     0
 43
0.0
 10
-3518.788150029953
 20
1120.820817025128
 10
-3628.847605027387
 20
1120.820817025128
  0
LINE
  5
43C9
330
1E
100
AcDbEntity
  8
ﾚｲﾔ1
  6
DASHDOT
 62
     1
100
AcDbLine
 10
-3442.646164926921
 20
1117.533311307868
 30
0.0
 11
-3442.646164926921
 21
1095.011527982911
 31
0.0
  0
CIRCLE
  5
43CA
330
1E
100
AcDbEntity
  8
ﾚｲﾔ1
100
AcDbCircle
 10
-3442.646164926921
 20
1106.272419645389
 30
0.0
 40
7.0
  0
LINE
  5
43CB
330
1E
100
AcDbEntity
  8
ﾚｲﾔ1
  6
DASHDOT
 62
     1
100
AcDbLine
 10
-3486.842375683484
 20
1106.272419645389
 30
0.0
 11
-3429.057698270964
 21
1106.272419645389
 31
0.0
  0
LWPOLYLINE
  5
43CC
330
1E
100
AcDbEntity
  8
ﾚｲﾔ1
100
AcDbPolyline
 90
        6
 70
     0
 43
0.0
 10
-3442.646164926921
 20
1099.139458128173
 10
-3442.646164926921
 20
1099.139458128173
 10
-3486.904875683485
 20
1099.139458128173
 10
-3486.904875683485
 20
1113.405381162604
 10
-3442.646164926921
 20
1113.405381162604
 10
-3442.646164926921
 20
1113.405381162604
  0
LINE
  5
43CD
330
1E
100
AcDbEntity
  8
ﾚｲﾔ1
100
AcDbLine
 10
-3486.904875683485
 20
1040.150871168523
 30
0.0
 11
-3660.921101571379
 21
1040.156004393271
 31
0.0
  0
LINE
  5
43CE
330
1E
100
AcDbEntity
  8
ﾚｲﾔ1
100
AcDbLine
 10
-3660.921120644906
 20
1117.955199681745
 30
0.0
 11
-3486.904894757013
 21
1117.948671813744
 31
0.0
  0
LINE
  5
43CF
330
1E
100
AcDbEntity
  8
ﾚｲﾔ1
100
AcDbLine
 10
-3488.913123342679
 20
1119.957609517425
 30
0.0
 11
-3486.904894757013
 21
1117.948671813744
 31
0.0
  0
LINE
  5
43D0
330
1E
100
AcDbEntity
  8
ﾚｲﾔ1
100
AcDbLine
 10
-3486.904875683485
 20
1040.150871168523
 30
0.0
 11
-3488.911406725293
 21
1038.148731861876
 31
0.0
  0
LINE
  5
43D1
330
1E
100
AcDbEntity
  8
ﾚｲﾔ1
100
AcDbLine
 10
-3660.921101571379
 20
1040.156004393271
 30
0.0
 11
-3658.827087882553
 21
1038.148731861876
 31
0.0
  0
LWPOLYLINE
  5
43D2
330
1E
100
AcDbEntity
  8
ﾚｲﾔ1
100
AcDbPolyline
 90
        2
 70
     0
 43
0.0
 10
-3486.904875683485
 20
1117.948652733481
 10
-3486.904875683485
 20
1040.150871168523
  0
LWPOLYLINE
  5
43D3
330
1E
100
AcDbEntity
  8
ﾚｲﾔ1
100
AcDbPolyline
 90
        2
 70
     0
 43
0.0
 10
-3488.911406725293
 20
1038.148731861876
 10
-3658.827087882553
 20
1038.148731861876
  0
LWPOLYLINE
  5
43D4
330
1E
100
AcDbEntity
  8
ﾚｲﾔ1
100
AcDbPolyline
 90
        2
 70
     0
 43
0.0
 10
-3660.921101571379
 20
1040.156004393271
 10
-3660.921101571379
 20
1117.955574711865
  0
LINE
  5
43D5
330
1E
100
AcDbEntity
  8
ﾚｲﾔ1
100
AcDbLine
 10
-3658.907044105658
 20
1119.957609517425
 30
0.0
 11
-3660.921120644906
 21
1117.955199681745
 31
0.0
  0
LWPOLYLINE
  5
43D6
330
1E
100
AcDbEntity
  8
ﾚｲﾔ1
100
AcDbPolyline
 90
        2
 70
     0
 43
0.0
 10
-3658.907044105658
 20
1119.957609517425
 10
-3488.913123342679
 20
1119.957609517425
  0
LINE
  5
4428
330
1E
100
AcDbEntity
  8
ﾚｲﾔ1
  6
DASHDOT
 62
     1
100
AcDbLine
 10
-3573.912988627431
 20
1126.780965116129
 30
0.0
 11
-3573.912988627431
 21
1035.104055704504
 31
0.0
  0
DIMENSION
  5
459D
330
1E
100
AcDbEntity
  8
ﾚｲﾔ1
100
AcDbDimension
  2
*D3
 10
-3486.904875683485
 20
1019.277351074316
 30
0.0
 11
-3573.912988627432
 21
1024.777351074316
 31
0.0
 70
    32
  1
φ174
 71
     5
 42
174.0162258878945
  3
Standard
100
AcDbAlignedDimension
 13
-3660.921101571379
 23
1040.156004393271
 33
0.0
 14
-3486.904875683485
 24
1040.150871168523
 34
0.0
100
AcDbRotatedDimension
1001
ACAD
1000
DSTYLE
1002
{
1070
   343
1005
51BF
1070
   173
1070
     1
1070
   344
1005
51BF
1070
    41
1040
10.0
1070
    44
1040
0.5
1070
    73
1070
     0
1070
    74
1070
     0
1070
    77
1070
     1
1070
   140
1040
10.0
1070
   147
1040
0.5
1070
   176
1070
     1
1070
   177
1070
     1
1070
   178
1070
     1
1070
   271
1070
     0
1070
   272
1070
     0
1070
   279
1070
     2
1070
   340
1005
23
1070
   341
1005
1C1
1070
   342
1005
0
1002
}
  0
LINE
  5
460B
330
1E
100
AcDbEntity
  8
ﾚｲﾔ1
100
AcDbLine
 10
-3628.847605027387
 20
1120.820817025128
 30
0.0
 11
-3629.866410883967
 21
1120.016482272998
 31
0.0
  0
LINE
  5
460C
330
1E
100
AcDbEntity
  8
ﾚｲﾔ1
100
AcDbLine
 10
-3518.788150029953
 20
1120.820817025128
 30
0.0
 11
-3517.786503785625
 21
1120.016482272998
 31
0.0
  0
DIMENSION
  5
4622
330
1E
100
AcDbEntity
  8
ﾚｲﾔ1
100
AcDbDimension
  2
*D4
 10
-3362.776837966302
 20
1038.148731861876
 30
0.0
 11
-3371.001094374732
 21
1084.234303898204
 31
0.0
 70
   160
 71
     5
 42
82.67208516325195
  3
Standard
100
AcDbAlignedDimension
 13
-3488.784758509311
 23
1120.820817025128
 33
0.0
 14
-3486.904875683485
 24
1038.148731861876
 34
0.0
 50
90.0
100
AcDbRotatedDimension
1001
ACAD
1000
DSTYLE
1002
{
1070
   343
1005
51BF
1070
   173
1070
     1
1070
   344
1005
51BF
1070
    41
1040
10.0
1070
    44
1040
0.5
1070
    73
1070
     0
1070
    74
1070
     0
1070
    77
1070
     1
1070
   140
1040
10.0
1070
   147
1040
0.5
1070
   176
1070
     1
1070
   177
1070
     1
1070
   178
1070
     1
1070
   271
1070
     0
1070
   272
1070
     0
1070
   279
1070
     2
1070
   340
1005
23
1070
   341
1005
1C1
1070
   342
1005
0
1002
}
  0
DIMENSION
  5
46C9
330
1E
100
AcDbEntity
  8
ﾚｲﾔ1
100
AcDbDimension
  2
*D5
 10
-3438.595375292583
 20
1354.724282873296
 30
0.0
 11
-3506.18801541714
 21
1360.224282873296
 31
0.0
 70
    32
  1
136
 71
     5
 42
135.1852802491148
  3
Standard
100
AcDbAlignedDimension
 13
-3573.780655541697
 23
1350.407592451581
 33
0.0
 14
-3438.595375292583
 24
1304.269080107186
 34
0.0
100
AcDbRotatedDimension
1001
ACAD
1000
DSTYLE
1002
{
1070
   343
1005
51BF
1070
   173
1070
     1
1070
   344
1005
51BF
1070
    41
1040
10.0
1070
    44
1040
0.5
1070
    73
1070
     0
1070
    74
1070
     0
1070
    77
1070
     1
1070
   140
1040
10.0
1070
   147
1040
0.5
1070
   176
1070
     1
1070
   177
1070
     1
1070
   178
1070
     1
1070
   271
1070
     0
1070
   272
1070
     0
1070
   279
1070
     2
1070
   340
1005
23
1070
   341
1005
1C1
1070
   342
1005
0
1002
}
  0
DIMENSION
  5
470C
330
1E
100
AcDbEntity
  8
ﾚｲﾔ1
100
AcDbDimension
  2
*D6
 10
-3386.93767721951
 20
1194.440841500352
 30
0.0
 11
-3392.43767721951
 21
1254.394947564941
 31
0.0
 70
    32
 71
     5
 42
119.908212129179
  3
Standard
100
AcDbAlignedDimension
 13
-3462.544477525888
 23
1314.349053629531
 33
0.0
 14
-3462.350584477775
 24
1194.440841500352
 34
0.0
 50
90.0
100
AcDbRotatedDimension
1001
ACAD
1000
DSTYLE
1002
{
1070
   343
1005
51BF
1070
   173
1070
     1
1070
   344
1005
51BF
1070
    41
1040
10.0
1070
    44
1040
0.5
1070
    73
1070
     0
1070
    74
1070
     0
1070
    77
1070
     1
1070
   140
1040
10.0
1070
   147
1040
0.5
1070
   176
1070
     1
1070
   177
1070
     1
1070
   178
1070
     1
1070
   271
1070
     0
1070
   272
1070
     0
1070
   279
1070
     2
1070
   340
1005
23
1070
   341
1005
1C1
1070
   342
1005
0
1002
}
  0
LINE
  5
4FC6
330
1E
100
AcDbEntity
  8
ﾚｲﾔ1
  6
DOT
100
AcDbLine
 10
-3642.890046200307
 20
1069.076843912765
 30
0.0
 11
-3642.890046200307
 21
1089.281285278302
 31
0.0
  0
LINE
  5
4FD0
330
1E
100
AcDbEntity
  8
ﾚｲﾔ1
  6
DOT
100
AcDbLine
 10
-3505.041325542339
 20
1069.087892736439
 30
0.0
 11
-3505.041325542339
 21
1089.126249213075
 31
0.0
  0
DIMENSION
  5
4FD2
330
1E
100
AcDbEntity
  8
ﾚｲﾔ1
100
AcDbDimension
  2
*D8
 10
-3505.041325542339
 20
1079.050390164222
 30
0.0
 11
-3580.164222227205
 21
1085.580725659094
 31
0.0
 70
   160
  1
φ138
 71
     5
 42
137.8487206579675
  3
Standard
100
AcDbAlignedDimension
 13
-3642.890046200307
 23
1079.055164990019
 33
0.0
 14
-3505.041325542339
 24
1079.050390164222
 34
0.0
100
AcDbRotatedDimension
1001
ACAD
1000
DSTYLE
1002
{
1070
   343
1005
51BF
1070
   173
1070
     1
1070
   344
1005
51BF
1070
    41
1040
10.0
1070
    44
1040
0.5
1070
    73
1070
     0
1070
    74
1070
     0
1070
    77
1070
     1
1070
   140
1040
10.0
1070
   147
1040
0.5
1070
   176
1070
     1
1070
   177
1070
     1
1070
   178
1070
     1
1070
   271
1070
     0
1070
   272
1070
     0
1070
   279
1070
     2
1070
   340
1005
23
1070
   341
1005
1C1
1070
   342
1005
0
1002
}
  0
MTEXT
  5
543B
330
1E
100
AcDbEntity
  8
図面枠
370
    30
100
AcDbMText
 10
-3245.756842707576
 20
984.9172024373704
 30
0.0
 40
6.883531502314025
 41
113.6084276569691
 71
     1
 72
     5
  1
株式会社　関東油機サービス
 73
     1
 44
1.0
  0
TEXT
  5
543C
330
1E
100
AcDbEntity
  8
図面枠
100
AcDbText
 10
-3214.472928911568
 20
1000.28783479558
 30
0.0
 40
4.693316933395926
  1
図
100
AcDbText
  0
TEXT
  5
543D
330
1E
100
AcDbEntity
  8
図面枠
100
AcDbText
 10
-3250.750670276093
 20
991.7074016118008
 30
0.0
 40
4.693316933395926
  1
１：3
100
AcDbText
  0
TEXT
  5
543E
330
1E
100
AcDbEntity
  8
図面枠
100
AcDbText
 10
-3214.472928911568
 20
992.8983478726036
 30
0.0
 40
4.693316933395926
  1
番
100
AcDbText
  0
TEXT
  5
5440
330
1E
100
AcDbEntity
  8
図面枠
100
AcDbText
 10
-3251.832775330723
 20
999.4057432814636
 30
0.0
 40
6.25775591119457
  1
尺度
 41
1.125
100
AcDbText
  0
LINE
  5
5441
330
1E
100
AcDbEntity
  8
図面枠
  6
Continuous
100
AcDbLine
 10
-3143.525621268399
 20
990.864577201464
 30
0.0
 11
-3736.447993854082
 21
990.864577201464
 31
0.0
  0
LINE
  5
5442
330
1E
100
AcDbEntity
  8
図面枠
  6
Continuous
100
AcDbLine
 10
-3339.080493493227
 20
990.864577201464
 30
0.0
 11
-3323.436103715239
 21
990.864577201464
 31
0.0
  0
LINE
  5
5443
330
1E
100
AcDbEntity
  8
図面枠
  6
Continuous
100
AcDbLine
 10
-3143.525621268399
 20
1407.005345295905
 30
0.0
 11
-3143.525621268399
 21
990.864577201464
 31
0.0
  0
LINE
  5
5444
330
1E
100
AcDbEntity
  8
図面枠
  6
Continuous
100
AcDbLine
 10
-3736.447993854082
 20
990.864577201464
 30
0.0
 11
-3736.447993854082
 21
1407.005345295905
 31
0.0
  0
LINE
  5
5445
330
1E
100
AcDbEntity
  8
図面枠
  6
Continuous
100
AcDbLine
 10
-3736.447993854082
 20
1407.005345295905
 30
0.0
 11
-3143.525621268399
 21
1407.005345295905
 31
0.0
  0
LINE
  5
5446
330
1E
100
AcDbEntity
  8
図面枠
  6
Continuous
100
AcDbLine
 10
-3242.08527686971
 20
1017.303595926262
 30
0.0
 11
-3148.531825997352
 21
1017.303595926262
 31
0.0
  0
LINE
  5
5447
330
1E
100
AcDbEntity
  8
図面枠
  6
Continuous
100
AcDbLine
 10
-3254.600788692097
 20
998.6867720904588
 30
0.0
 11
-3215.489814247134
 21
998.6867720904588
 31
0.0
  0
LINE
  5
5448
330
1E
100
AcDbEntity
  8
図面枠
  6
Continuous
100
AcDbLine
 10
-3143.525621268399
 20
1029.975551646431
 30
0.0
 11
-3254.600788692097
 21
1029.975551646431
 31
0.0
  0
LINE
  5
5449
330
1E
100
AcDbEntity
  8
図面枠
  6
Continuous
100
AcDbLine
 10
-3143.525621268399
 20
1061.264331202404
 30
0.0
 11
-3143.525621268399
 21
1029.975551646431
 31
0.0
  0
LINE
  5
544A
330
1E
100
AcDbEntity
  8
図面枠
  6
Continuous
100
AcDbLine
 10
-3143.525621268399
 20
1006.508966979452
 30
0.0
 11
-3246.778593803108
 21
1006.508966979452
 31
0.0
  0
LINE
  5
544B
330
1E
100
AcDbEntity
  8
図面枠
  6
Continuous
100
AcDbLine
 10
-3143.525621268399
 20
1029.975551646431
 30
0.0
 11
-3143.525621268399
 21
1006.508966979452
 31
0.0
  0
LINE
  5
544C
330
1E
100
AcDbEntity
  8
図面枠
  6
Continuous
100
AcDbLine
 10
-3246.778593803108
 20
1029.975551646431
 30
0.0
 11
-3143.525621268399
 21
1029.975551646431
 31
0.0
  0
LINE
  5
544D
330
1E
100
AcDbEntity
  8
図面枠
  6
Continuous
100
AcDbLine
 10
-3246.778593803108
 20
1006.508966979452
 30
0.0
 11
-3246.778593803108
 21
1029.975551646431
 31
0.0
  0
LINE
  5
544E
330
1E
100
AcDbEntity
  8
図面枠
  6
Continuous
100
AcDbLine
 10
-3246.778593803108
 20
1029.975551646431
 30
0.0
 11
-3254.600788692097
 21
1029.975551646431
 31
0.0
  0
LINE
  5
544F
330
1E
100
AcDbEntity
  8
図面枠
  6
Continuous
100
AcDbLine
 10
-3246.778593803108
 20
1006.508966979452
 30
0.0
 11
-3246.778593803108
 21
1029.975551646431
 31
0.0
  0
LINE
  5
5450
330
1E
100
AcDbEntity
  8
図面枠
  6
Continuous
100
AcDbLine
 10
-3254.600788692097
 20
1006.508966979452
 30
0.0
 11
-3246.778593803108
 21
1006.508966979452
 31
0.0
  0
LINE
  5
5451
330
1E
100
AcDbEntity
  8
図面枠
  6
Continuous
100
AcDbLine
 10
-3254.600788692097
 20
1029.975551646431
 30
0.0
 11
-3254.600788692097
 21
1006.508966979452
 31
0.0
  0
LINE
  5
5452
330
1E
100
AcDbEntity
  8
図面枠
  6
Continuous
100
AcDbLine
 10
-3254.600788692097
 20
1029.975551646431
 30
0.0
 11
-3254.600788692097
 21
1022.153356757439
 31
0.0
  0
LINE
  5
5453
330
1E
100
AcDbEntity
  8
図面枠
  6
Continuous
100
AcDbLine
 10
-3254.600788692097
 20
1022.153356757439
 30
0.0
 11
-3254.600788692097
 21
1014.331161868445
 31
0.0
  0
LINE
  5
5454
330
1E
100
AcDbEntity
  8
図面枠
  6
Continuous
100
AcDbLine
 10
-3254.600788692097
 20
1014.331161868445
 30
0.0
 11
-3254.600788692097
 21
1006.508966979452
 31
0.0
  0
LINE
  5
5455
330
1E
100
AcDbEntity
  8
図面枠
  6
Continuous
100
AcDbLine
 10
-3143.525621268399
 20
1006.508966979452
 30
0.0
 11
-3209.232058335939
 21
1006.508966979452
 31
0.0
  0
LINE
  5
5456
330
1E
100
AcDbEntity
  8
図面枠
  6
Continuous
100
AcDbLine
 10
-3143.525621268399
 20
990.864577201464
 30
0.0
 11
-3143.525621268399
 21
1006.508966979452
 31
0.0
  0
LINE
  5
5457
330
1E
100
AcDbEntity
  8
図面枠
  6
Continuous
100
AcDbLine
 10
-3209.232058335939
 20
990.864577201464
 30
0.0
 11
-3143.525621268399
 21
990.864577201464
 31
0.0
  0
LINE
  5
5458
330
1E
100
AcDbEntity
  8
図面枠
  6
Continuous
100
AcDbLine
 10
-3209.232058335939
 20
1006.508966979452
 30
0.0
 11
-3209.232058335939
 21
990.864577201464
 31
0.0
  0
LINE
  5
5459
330
1E
100
AcDbEntity
  8
図面枠
  6
Continuous
100
AcDbLine
 10
-3209.232058335939
 20
1006.508966979452
 30
0.0
 11
-3215.489814247134
 21
1006.508966979452
 31
0.0
  0
LINE
  5
545A
330
1E
100
AcDbEntity
  8
図面枠
  6
Continuous
100
AcDbLine
 10
-3209.232058335939
 20
990.864577201464
 30
0.0
 11
-3209.232058335939
 21
1006.508966979452
 31
0.0
  0
LINE
  5
545B
330
1E
100
AcDbEntity
  8
図面枠
  6
Continuous
100
AcDbLine
 10
-3215.489814247134
 20
990.864577201464
 30
0.0
 11
-3209.232058335939
 21
990.864577201464
 31
0.0
  0
LINE
  5
545C
330
1E
100
AcDbEntity
  8
図面枠
  6
Continuous
100
AcDbLine
 10
-3215.489814247134
 20
1006.508966979452
 30
0.0
 11
-3215.489814247134
 21
990.864577201464
 31
0.0
  0
LINE
  5
545D
330
1E
100
AcDbEntity
  8
図面枠
  6
Continuous
100
AcDbLine
 10
-3215.489814247134
 20
1006.508966979452
 30
0.0
 11
-3232.698643002921
 21
1006.508966979452
 31
0.0
  0
LINE
  5
545E
330
1E
100
AcDbEntity
  8
図面枠
  6
Continuous
100
AcDbLine
 10
-3215.489814247134
 20
990.864577201464
 30
0.0
 11
-3215.489814247134
 21
1006.508966979452
 31
0.0
  0
LINE
  5
545F
330
1E
100
AcDbEntity
  8
図面枠
  6
Continuous
100
AcDbLine
 10
-3232.698643002921
 20
990.864577201464
 30
0.0
 11
-3215.489814247134
 21
990.864577201464
 31
0.0
  0
LINE
  5
5460
330
1E
100
AcDbEntity
  8
図面枠
  6
Continuous
100
AcDbLine
 10
-3232.698643002921
 20
1006.508966979452
 30
0.0
 11
-3232.698643002921
 21
990.864577201464
 31
0.0
  0
LINE
  5
5461
330
1E
100
AcDbEntity
  8
図面枠
  6
Continuous
100
AcDbLine
 10
-3232.698643002921
 20
1006.508966979452
 30
0.0
 11
-3254.600788692097
 21
1006.508966979452
 31
0.0
  0
LINE
  5
5462
330
1E
100
AcDbEntity
  8
図面枠
  6
Continuous
100
AcDbLine
 10
-3232.698643002921
 20
990.864577201464
 30
0.0
 11
-3232.698643002921
 21
1006.508966979452
 31
0.0
  0
LINE
  5
5463
330
1E
100
AcDbEntity
  8
図面枠
  6
Continuous
100
AcDbLine
 10
-3254.600788692097
 20
990.864577201464
 30
0.0
 11
-3232.698643002921
 21
990.864577201464
 31
0.0
  0
LINE
  5
5464
330
1E
100
AcDbEntity
  8
図面枠
  6
Continuous
100
AcDbLine
 10
-3254.600788692097
 20
1006.508966979452
 30
0.0
 11
-3254.600788692097
 21
990.864577201464
 31
0.0
  0
LINE
  5
5465
330
1E
100
AcDbEntity
  8
図面枠
  6
Continuous
100
AcDbLine
 10
-3254.600788692097
 20
990.864577201464
 30
0.0
 11
-3254.600788692097
 21
1006.508966979452
 31
0.0
  0
LINE
  5
5466
330
1E
100
AcDbEntity
  8
図面枠
  6
Continuous
100
AcDbLine
 10
-3276.502934381283
 20
990.864577201464
 30
0.0
 11
-3254.600788692097
 21
990.864577201464
 31
0.0
  0
LINE
  5
5467
330
1E
100
AcDbEntity
  8
図面枠
  6
Continuous
100
AcDbLine
 10
-3292.147324159271
 20
990.864577201464
 30
0.0
 11
-3276.502934381283
 21
990.864577201464
 31
0.0
  0
LINE
  5
5468
330
1E
100
AcDbEntity
  8
図面枠
  6
Continuous
100
AcDbLine
 10
-3307.791713937255
 20
990.864577201464
 30
0.0
 11
-3292.147324159271
 21
990.864577201464
 31
0.0
  0
LINE
  5
5469
330
1E
100
AcDbEntity
  8
図面枠
  6
Continuous
100
AcDbLine
 10
-3323.436103715239
 20
990.864577201464
 30
0.0
 11
-3307.791713937255
 21
990.864577201464
 31
0.0
  0
LINE
  5
546A
330
1E
100
AcDbEntity
  8
図面枠
  6
Continuous
100
AcDbLine
 10
-3138.832304335002
 20
1411.698662229299
 30
0.0
 11
-3138.832304335002
 21
986.1712602680689
 31
0.0
  0
LINE
  5
546B
330
1E
100
AcDbEntity
  8
図面枠
  6
Continuous
100
AcDbLine
 10
-3138.832304335002
 20
986.1712602680689
 30
0.0
 11
-3741.14131078748
 21
986.1712602680689
 31
0.0
  0
LINE
  5
546C
330
1E
100
AcDbEntity
  8
図面枠
  6
Continuous
100
AcDbLine
 10
-3741.14131078748
 20
1411.698662229299
 30
0.0
 11
-3741.14131078748
 21
986.1712602680689
 31
0.0
  0
LINE
  5
546D
330
1E
100
AcDbEntity
  8
図面枠
  6
Continuous
100
AcDbLine
 10
-3138.832304335002
 20
1411.698662229299
 30
0.0
 11
-3741.14131078748
 21
1411.698662229299
 31
0.0
  0
LWPOLYLINE
  5
546E
330
1E
100
AcDbEntity
  8
ﾚｲﾔ1
100
AcDbPolyline
 90
        4
 70
     1
 43
0.0
 10
-3771.323683943586
 20
1431.333533909993
 10
-3103.064145430456
 20
1431.333533909993
 10
-3103.064145430456
 20
958.8334964266471
 10
-3771.323683943586
 20
958.8334964266471
  0
MTEXT
  5
5486
330
1E
100
AcDbEntity
  8
ﾚｲﾔ1
100
AcDbMText
 10
-3241.695780664612
 20
1023.203176362394
 30
0.0
 40
4.725
 41
88.70369004118129
 71
     1
 72
     5
  1
{1000KN15st油圧ジャッキ}
 73
     1
 44
1.0
1001
ACAD
1000
ACAD_MTEXT_DEFINED_HEIGHT_BEGIN
1070
    46
1040
4.725
1000
ACAD_MTEXT_DEFINED_HEIGHT_END
  0
MTEXT
  5
5487
330
1E
100
AcDbEntity
  8
ﾚｲﾔ1
100
AcDbMText
 10
-3241.436205443537
 20
1012.019101898632
 30
0.0
 40
4.725
 41
88.70369004118129
 71
     1
 72
     5
  1
{SM-1001.5S}
 73
     1
 44
1.0
1001
ACAD
1000
ACAD_MTEXT_DEFINED_HEIGHT_BEGIN
1070
    46
1040
4.725
1000
ACAD_MTEXT_DEFINED_HEIGHT_END
  0
MTEXT
  5
55D5
330
1E
100
AcDbEntity
  8
ﾚｲﾔ1
100
AcDbMText
 10
-3291.894297746845
 20
1391.662257162722
 30
0.0
 40
3.887999999999996
 41
625.8735201832304
 71
     1
 72
     5
  1
仕  様
 73
     1
 44
1.0
  0
MTEXT
  5
55D6
330
1E
100
AcDbEntity
  8
ﾚｲﾔ1
100
AcDbMText
 10
-3292.07631808154
 20
1380.861941935325
 30
0.0
 40
4.536
 41
625.8735201832304
 71
     1
 72
     5
  1
能　　力
 73
     1
 44
1.0
  0
MTEXT
  5
55D7
330
1E
100
AcDbEntity
  8
ﾚｲﾔ1
100
AcDbMText
 10
-3292.306806516258
 20
1369.777021950344
 30
0.0
 40
4.536
 41
625.8735201832304
 71
     1
 72
     5
  1
機　械　高　さ
 73
     1
 44
1.0
  0
MTEXT
  5
55D8
330
1E
100
AcDbEntity
  8
ﾚｲﾔ1
100
AcDbMText
 10
-3292.141451705885
 20
1357.558488800327
 30
0.0
 40
4.536
 41
625.87352018323
 71
     1
 72
     5
  1
{ス　ト　ロ　-　ク}
 73
     1
 44
1.0
1001
ACAD
1000
ACAD_MTEXT_DEFINED_HEIGHT_BEGIN
1070
    46
1040
6.3
1000
ACAD_MTEXT_DEFINED_HEIGHT_END
  0
MTEXT
  5
55D9
330
1E
100
AcDbEntity
  8
ﾚｲﾔ1
100
AcDbMText
 10
-3292.218936552518
 20
1346.221919281868
 30
0.0
 40
4.536
 41
625.8735201832304
 71
     1
 72
     5
  1
使　用　圧　力
 73
     1
 44
1.0
  0
MTEXT
  5
55DA
330
1E
100
AcDbEntity
  8
ﾚｲﾔ1
100
AcDbMText
 10
-3292.186179208767
 20
1334.760149123562
 30
0.0
 40
4.536
 41
625.8735201832304
 71
     1
 72
     5
  1
受　圧　面　積
 73
     1
 44
1.0
  0
MTEXT
  5
55DB
330
1E
100
AcDbEntity
  8
ﾚｲﾔ1
100
AcDbMText
 10
-3291.433827906162
 20
1322.588207894544
 30
0.0
 40
3.887999999999996
 41
625.8735201832304
 71
     1
 72
     5
  1
ロ　ッ　ド　径
 73
     1
 44
1.0
  0
MTEXT
  5
55DC
330
1E
100
AcDbEntity
  8
ﾚｲﾔ1
100
AcDbMText
 10
-3292.320250178443
 20
1310.082543574848
 30
0.0
 40
3.887999999999996
 41
625.8735201832304
 71
     1
 72
     5
  1
重　　量
 73
     1
 44
1.0
  0
LINE
  5
55DD
330
1E
100
AcDbEntity
  8
ﾚｲﾔ1
100
AcDbLine
 10
-3292.765973619955
 20
1387.363724585959
 30
0.0
 11
-3276.242391404589
 21
1387.358425817254
 31
0.0
  0
LINE
  5
55DE
330
1E
100
AcDbEntity
  8
ﾚｲﾔ1
100
AcDbLine
 10
-3292.765973619955
 20
1375.698162400646
 30
0.0
 11
-3165.33022420956
 21
1375.698162400646
 31
0.0
  0
LINE
  5
55DF
330
1E
100
AcDbEntity
  8
ﾚｲﾔ1
100
AcDbLine
 10
-3292.765973619955
 20
1364.034162400651
 30
0.0
 11
-3165.33022420956
 21
1364.034162400651
 31
0.0
  0
LINE
  5
55E0
330
1E
100
AcDbEntity
  8
ﾚｲﾔ1
100
AcDbLine
 10
-3292.765973619955
 20
1352.370162400655
 30
0.0
 11
-3165.33022420956
 21
1352.370162400655
 31
0.0
  0
LINE
  5
55E1
330
1E
100
AcDbEntity
  8
ﾚｲﾔ1
100
AcDbLine
 10
-3292.765973619955
 20
1340.706162400658
 30
0.0
 11
-3165.33022420956
 21
1340.706162400658
 31
0.0
  0
LINE
  5
55E2
330
1E
100
AcDbEntity
  8
ﾚｲﾔ1
100
AcDbLine
 10
-3292.765973619955
 20
1329.042162400661
 30
0.0
 11
-3165.33022420956
 21
1329.042162400664
 31
0.0
  0
LINE
  5
55E3
330
1E
100
AcDbEntity
  8
ﾚｲﾔ1
100
AcDbLine
 10
-3292.765973619955
 20
1317.378162400666
 30
0.0
 11
-3165.33022420956
 21
1317.378162400666
 31
0.0
  0
LINE
  5
55E4
330
1E
100
AcDbEntity
  8
ﾚｲﾔ1
100
AcDbLine
 10
-3292.765973619955
 20
1305.714162400668
 30
0.0
 11
-3165.33022420956
 21
1305.714162400671
 31
0.0
  0
TEXT
  5
55E7
330
1E
100
AcDbEntity
  8
ﾚｲﾔ1
100
AcDbText
 10
-3202.683414726697
 20
1365.268470499223
 30
0.0
 40
4.319999999999999
  1
83
 50
360.0
100
AcDbText
  0
TEXT
  5
55E8
330
1E
100
AcDbEntity
  8
ﾚｲﾔ1
100
AcDbText
 10
-3202.683414726697
 20
1353.57778275343
 30
0.0
 40
4.319999999999999
  1
15
 50
360.0
100
AcDbText
  0
TEXT
  5
55E9
330
1E
100
AcDbEntity
  8
ﾚｲﾔ1
100
AcDbText
 10
-3202.683414726697
 20
1341.761238321377
 30
0.0
 40
4.319999999999999
  1
69.9
 50
360.0
100
AcDbText
  0
TEXT
  5
55EA
330
1E
100
AcDbEntity
  8
ﾚｲﾔ1
100
AcDbText
 10
-3202.683414726697
 20
1330.364216176853
 30
0.0
 40
4.319999999999999
  1
149
 50
360.0
100
AcDbText
  0
TEXT
  5
55EB
330
1E
100
AcDbEntity
  8
ﾚｲﾔ1
100
AcDbText
 10
-3198.419690945971
 20
1318.43853917101
 30
0.0
 40
4.319999999999999
  1
112
 50
360.0
100
AcDbText
  0
TEXT
  5
55EC
330
1E
100
AcDbEntity
  8
ﾚｲﾔ1
100
AcDbText
 10
-3198.404682638262
 20
1306.41664442418
 30
0.0
 40
4.319999999999999
  1
14.2
 50
360.0
100
AcDbText
  0
MTEXT
  5
55ED
330
1E
100
AcDbEntity
  8
ﾚｲﾔ1
100
AcDbMText
 10
-3202.778694488409
 20
1322.344246765675
 30
0.0
 40
4.319999999999999
 41
0.0
 71
     1
 72
     5
  1
{Φ}
 73
     1
 44
1.0
1001
ACAD
1000
ACAD_MTEXT_DEFINED_HEIGHT_BEGIN
1070
    46
1040
12.0
1000
ACAD_MTEXT_DEFINED_HEIGHT_END
  0
MTEXT
  5
55EE
330
1E
100
AcDbEntity
  8
ﾚｲﾔ1
100
AcDbMText
 10
-3203.946092595639
 20
1310.944760732923
 30
0.0
 40
4.319999999999999
 41
0.0
 71
     1
 72
     5
  1
{約}
 73
     1
 44
1.0
1001
ACAD
1000
ACAD_MTEXT_DEFINED_HEIGHT_BEGIN
1070
    46
1040
6.0
1000
ACAD_MTEXT_DEFINED_HEIGHT_END
  0
TEXT
  5
55EF
330
1E
100
AcDbEntity
  8
ﾚｲﾔ1
100
AcDbText
 10
-3202.683414726697
 20
1377.225321713127
 30
0.0
 40
4.319999999999999
  1
1000
 50
360.0
100
AcDbText
  0
TEXT
  5
55F0
330
1E
100
AcDbEntity
  8
ﾚｲﾔ1
100
AcDbText
 10
-3174.12007487588
 20
1377.095299409114
 30
0.0
 40
4.319999999999999
  1
KN
 50
360.0
100
AcDbText
  0
TEXT
  5
55F1
330
1E
100
AcDbEntity
  8
ﾚｲﾔ1
100
AcDbText
 10
-3174.12007487588
 20
1365.314229543808
 30
0.0
 40
4.319999999999999
  1
mm
 50
360.0
100
AcDbText
  0
TEXT
  5
55F2
330
1E
100
AcDbEntity
  8
ﾚｲﾔ1
100
AcDbText
 10
-3174.12007487588
 20
1353.580461699245
 30
0.0
 40
4.319999999999999
  1
mm
 50
360.0
100
AcDbText
  0
TEXT
  5
55F3
330
1E
100
AcDbEntity
  8
ﾚｲﾔ1
100
AcDbText
 10
-3177.001669955846
 20
1342.146860008846
 30
0.0
 40
4.319999999999999
  1
Mpa
 50
360.0
100
AcDbText
  0
TEXT
  5
55F4
330
1E
100
AcDbEntity
  8
ﾚｲﾔ1
100
AcDbText
 10
-3174.12007487588
 20
1318.92491480949
 30
0.0
 40
4.319999999999999
  1
mm
 50
360.0
100
AcDbText
  0
TEXT
  5
55F5
330
1E
100
AcDbEntity
  8
ﾚｲﾔ1
100
AcDbText
 10
-3177.001669955846
 20
1329.908813025288
 30
0.0
 40
4.319999999999999
  1
cm2
 50
360.0
100
AcDbText
  0
TEXT
  5
55F6
330
1E
100
AcDbEntity
  8
ﾚｲﾔ1
100
AcDbText
 10
-3174.12007487588
 20
1306.87106069326
 30
0.0
 40
4.319999999999999
  1
Kg
 50
360.0
100
AcDbText
  0
TEXT
  5
5682
102
{ACAD_REACTORS
330
5684
102
}
330
1E
100
AcDbEntity
  8
図面枠
100
AcDbText
 10
-3253.480416880893
 20
1018.900093298869
 30
0.0
 40
6.343862632532606
  1
名
100
AcDbText
  0
TEXT
  5
5683
102
{ACAD_REACTORS
330
5684
102
}
330
1E
100
AcDbEntity
  8
図面枠
100
AcDbText
 10
-3253.480416880893
 20
1008.911871614819
 30
0.0
 40
6.343862632532606
  1
称
100
AcDbText
  0
ENDSEC
  0
SECTION
  2
OBJECTS
  0
DICTIONARY
  5
C
330
0
100
AcDbDictionary
281
     1
  3
ACAD_DETAILVIEWSTYLE
350
5493
  3
ACAD_GROUP
350
D
  3
ACAD_LAYOUT
350
19
  3
ACAD_MLINESTYLE
350
16
  3
ACAD_PLOTSETTINGS
350
18
  3
ACAD_PLOTSTYLENAME
350
E
  3
ACAD_SCALELIST
350
5385
  3
ACAD_SECTIONVIEWSTYLE
350
5494
  3
AcDbVariableDictionary
350
537A
  3
APPDATA
350
53C7
  3
DWGPROPS
350
5685
  3
FX_DICT_DIMENSION_PALETTE
350
548B
  0
DICTIONARY
  5
5436
330
2
100
AcDbDictionary
280
     1
281
     1
  3
ACAD_LAYERSTATES
360
5437
  0
DICTIONARY
  5
54FF
330
1E
100
AcDbDictionary
280
     1
281
     1
  3
DIM_BOUNDING_BOXES_V1
360
5500
  0
DICTIONARY
  5
5493
102
{ACAD_REACTORS
330
C
102
}
330
C
100
AcDbDictionary
281
     1
  0
DICTIONARY
  5
D
102
{ACAD_REACTORS
330
C
102
}
330
C
100
AcDbDictionary
281
     1
  3
*A1
350
5684
  0
DICTIONARY
  5
19
102
{ACAD_REACTORS
330
C
102
}
330
C
100
AcDbDictionary
281
     1
  3
Model
350
21
  3
ﾚｲｱｳﾄ1
350
1D
  0
DICTIONARY
  5
16
102
{ACAD_REACTORS
330
C
102
}
330
C
100
AcDbDictionary
281
     1
  3
Standard
350
17
  0
DICTIONARY
  5
18
102
{ACAD_REACTORS
330
C
102
}
330
C
100
AcDbDictionary
281
     1
  0
ACDBDICTIONARYWDFLT
  5
E
102
{ACAD_REACTORS
330
C
102
}
330
C
100
AcDbDictionary
281
     1
  3
Normal
350
F
100
AcDbDictionaryWithDefault
340
F
  0
DICTIONARY
  5
5385
102
{ACAD_REACTORS
330
C
102
}
330
C
100
AcDbDictionary
281
     1
  3
A0
350
5386
  3
A1
350
5387
  3
A2
350
5388
  3
A3
350
5389
  3
A4
350
538A
  3
A5
350
538B
  3
A6
350
538C
  3
A7
350
538D
  3
A8
350
538E
  3
A9
350
538F
  3
B0
350
5390
  3
B1
350
5391
  3
B2
350
5392
  3
B3
350
5393
  3
B4
350
5394
  3
B5
350
5395
  3
B6
350
5396
  3
B7
350
5397
  3
B8
350
5398
  3
B9
350
5399
  3
C0
350
539A
  3
C1
350
539B
  3
C2
350
539C
  3
C3
350
539D
  3
C4
350
539E
  3
C5
350
539F
  3
C6
350
53A0
  3
C7
350
53A1
  3
C8
350
53A2
  3
C9
350
53A3
  3
D0
350
53A4
  3
D1
350
53A5
  3
D2
350
53A6
  0
DICTIONARY
  5
5494
102
{ACAD_REACTORS
330
C
102
}
330
C
100
AcDbDictionary
281
     1
  0
DICTIONARY
  5
537A
102
{ACAD_REACTORS
330
C
102
}
330
C
100
AcDbDictionary
281
     1
  3
DIMASSOC
350
537B
  3
PROJECTNAME
350
537C
  0
DICTIONARY
  5
53C7
102
{ACAD_REACTORS
330
C
102
}
330
C
100
AcDbDictionary
281
     1
  0
XRECORD
  5
5685
102
{ACAD_REACTORS
330
C
102
}
330
C
100
AcDbXrecord
280
     1
  1
DWGPROPS COOKIE
  2

  3

  4

  6

  7

  8
Hiroki Noike
  9

300
=
301
=
302
=
303
=
304
=
305
=
306
=
307
=
308
=
309
=
 40
0.0
 41
2449944.550517361
 42
2459744.203058218
  1

 90
        0
  0
DICTIONARY
  5
548B
102
{ACAD_REACTORS
330
C
102
}
330
C
100
AcDbDictionary
281
     1
1001
FX_DIMP_FAV_VERSION
1071
        1
  0
DICTIONARY
  5
5437
102
{ACAD_REACTORS
330
5436
102
}
330
5436
100
AcDbDictionary
281
     1
  0
DICTIONARY
  5
5500
102
{ACAD_REACTORS
330
54FF
102
}
330
54FF
100
AcDbDictionary
281
     1
  0
GROUP
  5
5684
102
{ACAD_REACTORS
330
D
102
}
330
D
100
AcDbGroup
300

 70
     1
 71
     1
340
5682
340
5683
  0
LAYOUT
  5
21
102
{ACAD_REACTORS
330
19
102
}
330
19
100
AcDbPlotSettings
  1

  2
倉庫ﾌﾟﾘﾝﾀ.pc3
  4
A3
  6

 40
5.873749732971191
 41
5.873747825622558
 42
5.873748779296875
 43
5.873748779296875
 44
296.9259948730469
 45
419.9466552734374
 46
-5.919999999999999
 47
-5.91
 48
-210.0
 49
-148.5
140
210.0
141
148.5
142
1.0
143
1.0
 70
 11940
 72
     1
 73
     1
 74
     1
  7

 75
     0
147
1.0
148
210.0064041928747
149
148.5045286792472
100
AcDbLayout
  1
Model
 70
     1
 71
     0
 10
0.0
 20
0.0
 11
12.0
 21
9.0
 12
0.0
 22
0.0
 32
0.0
 14
-3771.323683943586
 24
958.8334964266471
 34
0.0
 15
-3103.064145430456
 25
1431.333533909993
 35
0.0
146
0.0
 13
0.0
 23
0.0
 33
0.0
 16
1.0
 26
0.0
 36
0.0
 17
0.0
 27
1.0
 37
0.0
 76
     0
330
1E
331
537D
  0
LAYOUT
  5
1D
102
{ACAD_REACTORS
330
19
102
}
330
19
100
AcDbPlotSettings
  1

  2
なし
  4

  6

 40
0.0
 41
0.0
 42
0.0
 43
0.0
 44
0.0
 45
0.0
 46
0.0
 47
0.0
 48
0.0
 49
0.0
140
0.0
141
0.0
142
1.0
143
1.0
 70
   688
 72
     0
 73
     0
 74
     5
  7

 75
    16
147
1.0
148
0.0
149
0.0
100
AcDbLayout
  1
ﾚｲｱｳﾄ1
 70
     1
 71
     1
 10
0.0
 20
0.0
 11
12.0
 21
9.0
 12
0.0
 22
0.0
 32
0.0
 14
1.000000000000000E+20
 24
1.000000000000000E+20
 34
1.000000000000000E+20
 15
-1.000000000000000E+20
 25
-1.000000000000000E+20
 35
-1.000000000000000E+20
146
0.0
 13
0.0
 23
0.0
 33
0.0
 16
1.0
 26
0.0
 36
0.0
 17
0.0
 27
1.0
 37
0.0
 76
     0
330
1A
  0
MLINESTYLE
  5
17
102
{ACAD_REACTORS
330
16
102
}
330
16
100
AcDbMlineStyle
  2
STANDARD
 70
     0
  3

 62
   256
 51
90.0
 52
90.0
 71
     2
 49
0.5
 62
   256
  6
BYLAYER
 49
-0.5
 62
   256
  6
BYLAYER
  0
ACDBPLACEHOLDER
  5
F
102
{ACAD_REACTORS
330
E
102
}
330
E
  0
SCALE
  5
5386
102
{ACAD_REACTORS
330
5385
102
}
330
5385
100
AcDbScale
 70
     0
300
1:1
140
1.0
141
1.0
290
     1
  0
SCALE
  5
5387
102
{ACAD_REACTORS
330
5385
102
}
330
5385
100
AcDbScale
 70
     0
300
1:2
140
1.0
141
2.0
290
     0
  0
SCALE
  5
5388
102
{ACAD_REACTORS
330
5385
102
}
330
5385
100
AcDbScale
 70
     0
300
1:4
140
1.0
141
4.0
290
     0
  0
SCALE
  5
5389
102
{ACAD_REACTORS
330
5385
102
}
330
5385
100
AcDbScale
 70
     0
300
1:5
140
1.0
141
5.0
290
     0
  0
SCALE
  5
538A
102
{ACAD_REACTORS
330
5385
102
}
330
5385
100
AcDbScale
 70
     0
300
1:8
140
1.0
141
8.0
290
     0
  0
SCALE
  5
538B
102
{ACAD_REACTORS
330
5385
102
}
330
5385
100
AcDbScale
 70
     0
300
1:10
140
1.0
141
10.0
290
     0
  0
SCALE
  5
538C
102
{ACAD_REACTORS
330
5385
102
}
330
5385
100
AcDbScale
 70
     0
300
1:16
140
1.0
141
16.0
290
     0
  0
SCALE
  5
538D
102
{ACAD_REACTORS
330
5385
102
}
330
5385
100
AcDbScale
 70
     0
300
1:20
140
1.0
141
20.0
290
     0
  0
SCALE
  5
538E
102
{ACAD_REACTORS
330
5385
102
}
330
5385
100
AcDbScale
 70
     0
300
1:30
140
1.0
141
30.0
290
     0
  0
SCALE
  5
538F
102
{ACAD_REACTORS
330
5385
102
}
330
5385
100
AcDbScale
 70
     0
300
1:40
140
1.0
141
40.0
290
     0
  0
SCALE
  5
5390
102
{ACAD_REACTORS
330
5385
102
}
330
5385
100
AcDbScale
 70
     0
300
1:50
140
1.0
141
50.0
290
     0
  0
SCALE
  5
5391
102
{ACAD_REACTORS
330
5385
102
}
330
5385
100
AcDbScale
 70
     0
300
1:100
140
1.0
141
100.0
290
     0
  0
SCALE
  5
5392
102
{ACAD_REACTORS
330
5385
102
}
330
5385
100
AcDbScale
 70
     0
300
2:1
140
2.0
141
1.0
290
     0
  0
SCALE
  5
5393
102
{ACAD_REACTORS
330
5385
102
}
330
5385
100
AcDbScale
 70
     0
300
4:1
140
4.0
141
1.0
290
     0
  0
SCALE
  5
5394
102
{ACAD_REACTORS
330
5385
102
}
330
5385
100
AcDbScale
 70
     0
300
8:1
140
8.0
141
1.0
290
     0
  0
SCALE
  5
5395
102
{ACAD_REACTORS
330
5385
102
}
330
5385
100
AcDbScale
 70
     0
300
10:1
140
10.0
141
1.0
290
     0
  0
SCALE
  5
5396
102
{ACAD_REACTORS
330
5385
102
}
330
5385
100
AcDbScale
 70
     0
300
100:1
140
100.0
141
1.0
290
     0
  0
SCALE
  5
5397
102
{ACAD_REACTORS
330
5385
102
}
330
5385
100
AcDbScale
 70
     0
300
1/128" = 1'-0"
140
0.0078125
141
12.0
290
     0
  0
SCALE
  5
5398
102
{ACAD_REACTORS
330
5385
102
}
330
5385
100
AcDbScale
 70
     0
300
1/64" = 1'-0"
140
0.015625
141
12.0
290
     0
  0
SCALE
  5
5399
102
{ACAD_REACTORS
330
5385
102
}
330
5385
100
AcDbScale
 70
     0
300
1/32" = 1'-0"
140
0.03125
141
12.0
290
     0
  0
SCALE
  5
539A
102
{ACAD_REACTORS
330
5385
102
}
330
5385
100
AcDbScale
 70
     0
300
1/16" = 1'-0"
140
0.0625
141
12.0
290
     0
  0
SCALE
  5
539B
102
{ACAD_REACTORS
330
5385
102
}
330
5385
100
AcDbScale
 70
     0
300
3/32" = 1'-0"
140
0.09375
141
12.0
290
     0
  0
SCALE
  5
539C
102
{ACAD_REACTORS
330
5385
102
}
330
5385
100
AcDbScale
 70
     0
300
1/8" = 1'-0"
140
0.125
141
12.0
290
     0
  0
SCALE
  5
539D
102
{ACAD_REACTORS
330
5385
102
}
330
5385
100
AcDbScale
 70
     0
300
3/16" = 1'-0"
140
0.1875
141
12.0
290
     0
  0
SCALE
  5
539E
102
{ACAD_REACTORS
330
5385
102
}
330
5385
100
AcDbScale
 70
     0
300
1/4" = 1'-0"
140
0.25
141
12.0
290
     0
  0
SCALE
  5
539F
102
{ACAD_REACTORS
330
5385
102
}
330
5385
100
AcDbScale
 70
     0
300
3/8" = 1'-0"
140
0.375
141
12.0
290
     0
  0
SCALE
  5
53A0
102
{ACAD_REACTORS
330
5385
102
}
330
5385
100
AcDbScale
 70
     0
300
1/2" = 1'-0"
140
0.5
141
12.0
290
     0
  0
SCALE
  5
53A1
102
{ACAD_REACTORS
330
5385
102
}
330
5385
100
AcDbScale
 70
     0
300
3/4" = 1'-0"
140
0.75
141
12.0
290
     0
  0
SCALE
  5
53A2
102
{ACAD_REACTORS
330
5385
102
}
330
5385
100
AcDbScale
 70
     0
300
1" = 1'-0"
140
1.0
141
12.0
290
     0
  0
SCALE
  5
53A3
102
{ACAD_REACTORS
330
5385
102
}
330
5385
100
AcDbScale
 70
     0
300
1-1/2" = 1'-0"
140
1.5
141
12.0
290
     0
  0
SCALE
  5
53A4
102
{ACAD_REACTORS
330
5385
102
}
330
5385
100
AcDbScale
 70
     0
300
3" = 1'-0"
140
3.0
141
12.0
290
     0
  0
SCALE
  5
53A5
102
{ACAD_REACTORS
330
5385
102
}
330
5385
100
AcDbScale
 70
     0
300
6" = 1'-0"
140
6.0
141
12.0
290
     0
  0
SCALE
  5
53A6
102
{ACAD_REACTORS
330
5385
102
}
330
5385
100
AcDbScale
 70
     0
300
1'-0" = 1'-0"
140
12.0
141
12.0
290
     0
  0
DICTIONARYVAR
  5
537B
102
{ACAD_REACTORS
330
537A
102
}
330
537A
100
DictionaryVariables
280
     0
  1
1
  0
DICTIONARYVAR
  5
537C
102
{ACAD_REACTORS
330
537A
102
}
330
537A
100
DictionaryVariables
280
     0
  1

  0
ENDSEC
  0
EOF
