  0
SECTION
  2
HEADER
  9
$ACADVER
  1
AC1006
  9
$DWGCODEPAGE
  3
ansi_932
  9
$INSBASE
 10
0.0
 20
0.0
 30
0.0
  9
$EXTMIN
 10
-210.0
 20
-148.5
  9
$EXTMAX
 10
1890.0
 20
1336.5
  9
$LIMMIN
 10
-210.0
 20
-148.5
  9
$LIMMAX
 10
1890.0
 20
1336.5
  9
$ORTHOMODE
 70
     1
  9
$REGENMODE
 70
     1
  9
$FILLMODE
 70
     1
  9
$QTEXTMODE
 70
     0
  9
$MIRRTEXT
 70
     1
  9
$DRAGMODE
 70
     2
  9
$LTSCALE
 40
5.0
  9
$OSMODE
 70
    37
  9
$ATTMODE
 70
     1
  9
$TEXTSIZE
 40
1.0
  9
$TRACEWID
 40
0.05
  9
$TEXTSTYLE
  7
STANDARD
  9
$CLAYER
  8
寸法
  9
$CELTYPE
  6
CONTINUOUS
  9
$CECOLOR
 62
   256
  9
$DIMSCALE
 40
1.0
  9
$DIMASZ
 40
12.0
  9
$DIMEXO
 40
0.5
  9
$DIMDLI
 40
0.5
  9
$DIMRND
 40
0.0
  9
$DIMDLE
 40
0.0
  9
$DIMEXE
 40
0.5
  9
$DIMTP
 40
0.0
  9
$DIMTM
 40
0.0
  9
$DIMTXT
 40
20.0
  9
$DIMCEN
 40
0.5
  9
$DIMTSZ
 40
0.0
  9
$DIMTOL
 70
     0
  9
$DIMLIM
 70
     0
  9
$DIMTIH
 70
     0
  9
$DIMTOH
 70
     0
  9
$DIMSE1
 70
     0
  9
$DIMSE2
 70
     0
  9
$DIMTAD
 70
     1
  9
$DIMZIN
 70
     0
  9
$DIMBLK
  1
OPEN30
  9
$DIMASO
 70
     1
  9
$DIMSHO
 70
     1
  9
$DIMPOST
  1

  9
$DIMAPOST
  1

  9
$DIMALT
 70
     0
  9
$DIMALTD
 70
     2
  9
$DIMALTF
 40
25.4
  9
$DIMLFAC
 40
1.0
  9
$DIMTOFL
 70
     0
  9
$DIMTVP
 40
0.0
  9
$DIMTIX
 70
     0
  9
$DIMSOXD
 70
     0
  9
$DIMSAH
 70
     0
  9
$DIMBLK1
  1

  9
$DIMBLK2
  1

  9
$LUNITS
 70
     2
  9
$LUPREC
 70
     4
  9
$SKETCHINC
 40
0.1
  9
$FILLETRAD
 40
0.0
  9
$AUNITS
 70
     0
  9
$AUPREC
 70
     0
  9
$MENU
  1
.
  9
$ELEVATION
 40
0.0
  9
$THICKNESS
 40
0.0
  9
$LIMCHECK
 70
     0
  9
$CHAMFERA
 40
0.0
  9
$CHAMFERB
 40
0.0
  9
$SKPOLY
 70
     0
  9
$TDCREATE
 40
2452454.328385162
  9
$TDUPDATE
 40
2459969.439725706
  9
$TDINDWG
 40
0.4015864815
  9
$TDUSRTIMER
 40
0.4015864815
  9
$USRTIMER
 70
     1
  9
$ANGBASE
 50
0.0
  9
$ANGDIR
 70
     0
  9
$PDMODE
 70
     0
  9
$PDSIZE
 40
1.5
  9
$PLINEWID
 40
0.0
  9
$COORDS
 70
     1
  9
$SPLFRAME
 70
     0
  9
$SPLINETYPE
 70
     6
  9
$SPLINESEGS
 70
     8
  9
$ATTDIA
 70
     0
  9
$ATTREQ
 70
     1
  9
$HANDLING
 70
     1
  9
$HANDSEED
  5
1784
  9
$SURFTAB1
 70
     6
  9
$SURFTAB2
 70
     6
  9
$SURFTYPE
 70
     6
  9
$SURFU
 70
     6
  9
$SURFV
 70
     6
  9
$UCSNAME
  2

  9
$UCSORG
 10
0.0
 20
0.0
 30
0.0
  9
$UCSXDIR
 10
1.0
 20
0.0
 30
0.0
  9
$UCSYDIR
 10
0.0
 20
1.0
 30
0.0
  9
$USERI1
 70
     0
  9
$USERI2
 70
     0
  9
$USERI3
 70
     0
  9
$USERI4
 70
     0
  9
$USERI5
 70
     0
  9
$USERR1
 40
0.0
  9
$USERR2
 40
0.0
  9
$USERR3
 40
0.0
  9
$USERR4
 40
0.0
  9
$USERR5
 40
0.0
  9
$WORLDVIEW
 70
     1
  0
ENDSEC
  0
SECTION
  2
TABLES
  0
TABLE
  2
VPORT
 70
     1
  0
VPORT
  2
*ACTIVE
 70
     0
 10
0.0
 20
0.0
 11
1.0
 21
1.0
 12
761.0511550944166
 22
609.7142797975348
 13
0.0
 23
0.0
 14
1.0
 24
1.0
 15
0.0
 25
0.0
 16
0.0
 26
0.0
 36
1.0
 17
0.0
 27
0.0
 37
0.0
 40
1874.68171693156
 41
1.757855822550832
 42
50.0
 43
0.0
 44
0.0
 50
0.0
 51
0.0
 71
     0
 72
   100
 73
     1
 74
     1
 75
     0
 76
     0
 77
     0
 78
     0
  0
ENDTAB
  0
TABLE
  2
LTYPE
 70
     9
  0
LTYPE
  2
CONTINUOUS
 70
     0
  3
実線
 72
    65
 73
     0
 40
0.0
  0
LTYPE
  2
DASHED
 70
     0
  3
破線A
 72
    65
 73
     2
 40
7.5
 49
5.0
 49
-2.5
  0
LTYPE
  2
DASHEDX2
 70
     0
  3
破線B
 72
    65
 73
     2
 40
15.0
 49
10.0
 49
-5.0
  0
LTYPE
  2
DASHDOT
 70
     0
  3
１点鎖線A
 72
    65
 73
     4
 40
10.0
 49
5.0
 49
-2.5
 49
0.0
 49
-2.5
  0
LTYPE
  2
DASHDOTX2
 70
     0
  3
１点鎖線B
 72
    65
 73
     4
 40
20.0
 49
10.0
 49
-5.0
 49
0.0
 49
-5.0
  0
LTYPE
  2
DIVIDE2
 70
     0
  3
２点鎖線A
 72
    65
 73
     6
 40
6.25
 49
2.5
 49
-1.25
 49
0.0
 49
-1.25
 49
0.0
 49
-1.25
  0
LTYPE
  2
DIVIDE
 70
     0
  3
２点鎖線B
 72
    65
 73
     6
 40
12.5
 49
5.0
 49
-2.5
 49
0.0
 49
-2.5
 49
0.0
 49
-2.5
  0
LTYPE
  2
DOT
 70
     0
  3
点線A
 72
    65
 73
     2
 40
2.5
 49
0.0
 49
-2.5
  0
LTYPE
  2
DOTX2
 70
     0
  3
点線B
 72
    65
 73
     2
 40
5.0
 49
0.0
 49
-5.0
  0
ENDTAB
  0
TABLE
  2
LAYER
 70
     6
  0
LAYER
  2
0
 70
     0
 62
     7
  6
CONTINUOUS
  0
LAYER
  2
ﾚｲﾔ1
 70
     0
 62
     7
  6
CONTINUOUS
  0
LAYER
  2
寸法
 70
     0
 62
     1
  6
CONTINUOUS
  0
LAYER
  2
図面枠
 70
     0
 62
     5
  6
CONTINUOUS
  0
LAYER
  2
下図
 70
     0
 62
     8
  6
CONTINUOUS
  0
LAYER
  2
DEFPOINTS
 70
     0
 62
     7
  6
CONTINUOUS
  0
ENDTAB
  0
TABLE
  2
STYLE
 70
    13
  0
STYLE
  2
STANDARD
 70
     0
 40
1.0
 41
1.0
 50
0.0
 71
     0
 42
1.0
  3
TXT
  4
BIGFONT
  0
STYLE
  2
TATE
 70
     4
 40
1.0
 41
1.0
 50
0.0
 71
     0
 42
1.0
  3
TXT
  4
BIGFONT
  0
STYLE
  2
TEXTSTYLE01
 70
     0
 40
0.0
 41
1.0
 50
0.0
 71
     0
 42
0.2
  3
TXT
  4
BIGFONT
  0
STYLE
  2
TEXTSTYLE02
 70
     0
 40
0.0
 41
1.0
 50
0.0
 71
     0
 42
0.2
  3
TXT
  4
BIGFONT
  0
STYLE
  2
TEXTSTYLE03
 70
     0
 40
0.0
 41
1.0
 50
0.0
 71
     0
 42
0.2
  3
TXT
  4
BIGFONT
  0
STYLE
  2
TEXTSTYLE04
 70
     0
 40
0.0
 41
1.0
 50
0.0
 71
     0
 42
0.2
  3
TXT
  4
BIGFONT
  0
STYLE
  2
TEXTSTYLE05
 70
     0
 40
0.0
 41
1.0
 50
0.0
 71
     0
 42
0.2
  3
TXT
  4
BIGFONT
  0
STYLE
  2
TEXTSTYLE06
 70
     0
 40
0.0
 41
1.0
 50
0.0
 71
     0
 42
0.2
  3

  4

  0
STYLE
  2
TEXTSTYLE07
 70
     0
 40
0.0
 41
1.0
 50
0.0
 71
     0
 42
0.2
  3

  4

  0
STYLE
  2
TEXTSTYLE08
 70
     0
 40
0.0
 41
1.0
 50
0.0
 71
     0
 42
0.2
  3

  4

  0
STYLE
  2
TEXTSTYLE09
 70
     0
 40
0.0
 41
1.0
 50
0.0
 71
     0
 42
0.2
  3

  4

  0
STYLE
  2
TEXTSTYLE10
 70
     0
 40
0.0
 41
1.0
 50
0.0
 71
     0
 42
0.2
  3

  4

  0
STYLE
  2

 70
     1
 40
0.0
 41
1.0
 50
0.0
 71
     0
 42
1.0
  3
ltypeshp.shx
  4

  0
ENDTAB
  0
TABLE
  2
VIEW
 70
     0
  0
ENDTAB
  0
TABLE
  2
UCS
 70
     0
  0
ENDTAB
  0
ENDSEC
  0
SECTION
  2
BLOCKS
  0
BLOCK
  8
0
  2
_OPEN30
 70
     0
 10
0.0
 20
0.0
 30
0.0
  0
LINE
  5
A95
  8
下図
 62
     0
 10
-1.0
 20
0.26794919
 30
0.0
 11
0.0
 21
0.0
 31
0.0
  0
LINE
  5
A96
  8
下図
 62
     0
 10
0.0
 20
0.0
 30
0.0
 11
-1.0
 21
-0.26794919
 31
0.0
  0
LINE
  5
A97
  8
下図
 62
     0
 10
0.0
 20
0.0
 30
0.0
 11
-1.0
 21
0.0
 31
0.0
  0
ENDBLK
  8
0
  0
BLOCK
  8
0
  2
*D1
 70
     1
 10
0.0
 20
0.0
 30
0.0
  0
LINE
  5
1579
  8
寸法
  6
CONTINUOUS
 62
     1
 10
157.5379471276617
 20
488.6023041464908
 30
0.0
 11
157.5379471276617
 21
553.8163791464909
 31
0.0
  0
LINE
  5
157A
  8
寸法
  6
CONTINUOUS
 62
     1
 10
169.5379471276617
 20
553.3163791464909
 30
0.0
 11
225.5000821276617
 21
553.3163791464909
 31
0.0
  0
INSERT
  5
157B
  8
寸法
  6
CONTINUOUS
 62
     1
  2
_OPEN30
 10
157.5379471276617
 20
553.3163791464909
 30
0.0
 41
12.0
 42
12.0
 43
12.0
 50
180.0
  0
INSERT
  5
157C
  8
寸法
  6
CONTINUOUS
 62
     1
  2
_OPEN30
 10
237.5000821276617
 20
553.3163791464909
 30
0.0
 41
12.0
 42
12.0
 43
12.0
  0
TEXT
  5
157D
  8
寸法
  6
CONTINUOUS
 62
     1
 10
182.5190146276617
 20
553.8163791464909
 30
0.0
 40
20.0
  1
80
  7
TEXTSTYLE01
  0
POINT
  5
157E
  8
DEFPOINTS
  6
CONTINUOUS
 62
     0
 10
157.5379471276617
 20
488.1023041464908
 30
0.0
  0
POINT
  5
157F
  8
DEFPOINTS
  6
CONTINUOUS
 62
     0
 10
237.5000821276617
 20
414.094694146491
 30
0.0
  0
POINT
  5
1580
  8
DEFPOINTS
  6
CONTINUOUS
 62
     0
 10
237.5000821276617
 20
553.3163791464909
 30
0.0
  0
ENDBLK
  8
0
  0
BLOCK
  8
0
  2
*D2
 70
     1
 10
0.0
 20
0.0
 30
0.0
  0
LINE
  5
1570
  8
寸法
  6
CONTINUOUS
 62
     1
 10
237.5000821276617
 20
424.594694146491
 30
0.0
 11
237.5000821276617
 21
553.8163791464909
 31
0.0
  0
LINE
  5
1571
  8
寸法
  6
CONTINUOUS
 62
     1
 10
677.2921721276617
 20
414.594694146491
 30
0.0
 11
677.2921721276617
 21
553.8163791464909
 31
0.0
  0
LINE
  5
1572
  8
寸法
  6
CONTINUOUS
 62
     1
 10
249.5000821276617
 20
553.3163791464909
 30
0.0
 11
665.2921721276617
 21
553.3163791464909
 31
0.0
  0
INSERT
  5
1573
  8
寸法
  6
CONTINUOUS
 62
     1
  2
_OPEN30
 10
237.5000821276617
 20
553.3163791464909
 30
0.0
 41
12.0
 42
12.0
 43
12.0
 50
180.0
  0
INSERT
  5
1574
  8
寸法
  6
CONTINUOUS
 62
     1
  2
_OPEN30
 10
677.2921721276617
 20
553.3163791464909
 30
0.0
 41
12.0
 42
12.0
 43
12.0
  0
TEXT
  5
1575
  8
寸法
  6
CONTINUOUS
 62
     1
 10
432.3961271276617
 20
553.8163791464909
 30
0.0
 40
20.0
  1
440
  7
TEXTSTYLE01
  0
POINT
  5
1576
  8
DEFPOINTS
  6
CONTINUOUS
 62
     0
 10
237.5000821276617
 20
424.094694146491
 30
0.0
  0
POINT
  5
1577
  8
DEFPOINTS
  6
CONTINUOUS
 62
     0
 10
677.2921721276617
 20
414.094694146491
 30
0.0
  0
POINT
  5
1578
  8
DEFPOINTS
  6
CONTINUOUS
 62
     0
 10
677.2921721276617
 20
553.3163791464909
 30
0.0
  0
ENDBLK
  8
0
  0
BLOCK
  8
0
  2
*D3
 70
     1
 10
0.0
 20
0.0
 30
0.0
  0
LINE
  5
1567
  8
寸法
  6
CONTINUOUS
 62
     1
 10
677.2921721276618
 20
472.5815291464909
 30
0.0
 11
677.2921721276618
 21
553.8163791464909
 31
0.0
  0
LINE
  5
1568
  8
寸法
  6
CONTINUOUS
 62
     1
 10
757.2544221276617
 20
488.6023041464908
 30
0.0
 11
757.2544221276617
 21
553.8163791464909
 31
0.0
  0
LINE
  5
1569
  8
寸法
  6
CONTINUOUS
 62
     1
 10
689.2921721276618
 20
553.3163791464909
 30
0.0
 11
745.2544221276617
 21
553.3163791464909
 31
0.0
  0
INSERT
  5
156A
  8
寸法
  6
CONTINUOUS
 62
     1
  2
_OPEN30
 10
677.2921721276618
 20
553.3163791464909
 30
0.0
 41
12.0
 42
12.0
 43
12.0
 50
180.0
  0
INSERT
  5
156B
  8
寸法
  6
CONTINUOUS
 62
     1
  2
_OPEN30
 10
757.2544221276617
 20
553.3163791464909
 30
0.0
 41
12.0
 42
12.0
 43
12.0
  0
TEXT
  5
156C
  8
寸法
  6
CONTINUOUS
 62
     1
 10
702.2732971276617
 20
553.8163791464909
 30
0.0
 40
20.0
  1
80
  7
TEXTSTYLE01
  0
POINT
  5
156D
  8
DEFPOINTS
  6
CONTINUOUS
 62
     0
 10
677.2921721276618
 20
472.0815291464909
 30
0.0
  0
POINT
  5
156E
  8
DEFPOINTS
  6
CONTINUOUS
 62
     0
 10
757.2544221276617
 20
488.1023041464908
 30
0.0
  0
POINT
  5
156F
  8
DEFPOINTS
  6
CONTINUOUS
 62
     0
 10
757.2544221276617
 20
553.3163791464909
 30
0.0
  0
ENDBLK
  8
0
  0
BLOCK
  8
0
  2
*D4
 70
     1
 10
0.0
 20
0.0
 30
0.0
  0
LINE
  5
155E
  8
寸法
  6
CONTINUOUS
 62
     1
 10
157.5379471276617
 20
554.3163791464909
 30
0.0
 11
157.5379471276617
 21
590.9008957107368
 31
0.0
  0
LINE
  5
155F
  8
寸法
  6
CONTINUOUS
 62
     1
 10
757.2544221276617
 20
554.3163791464909
 30
0.0
 11
757.2544221276617
 21
590.9008957107368
 31
0.0
  0
LINE
  5
1560
  8
寸法
  6
CONTINUOUS
 62
     1
 10
169.5379471276617
 20
590.4008957107368
 30
0.0
 11
745.2544221276617
 21
590.4008957107368
 31
0.0
  0
INSERT
  5
1561
  8
寸法
  6
CONTINUOUS
 62
     1
  2
_OPEN30
 10
157.5379471276617
 20
590.4008957107368
 30
0.0
 41
12.0
 42
12.0
 43
12.0
 50
180.0
  0
INSERT
  5
1562
  8
寸法
  6
CONTINUOUS
 62
     1
  2
_OPEN30
 10
757.2544221276617
 20
590.4008957107368
 30
0.0
 41
12.0
 42
12.0
 43
12.0
  0
TEXT
  5
1563
  8
寸法
  6
CONTINUOUS
 62
     1
 10
434.0628512943284
 20
590.9008957107368
 30
0.0
 40
20.0
  1
600
  7
TEXTSTYLE01
  0
POINT
  5
1564
  8
DEFPOINTS
  6
CONTINUOUS
 62
     0
 10
157.5379471276617
 20
553.8163791464909
 30
0.0
  0
POINT
  5
1565
  8
DEFPOINTS
  6
CONTINUOUS
 62
     0
 10
757.2544221276617
 20
553.8163791464909
 30
0.0
  0
POINT
  5
1566
  8
DEFPOINTS
  6
CONTINUOUS
 62
     0
 10
757.2544221276617
 20
590.4008957107368
 30
0.0
  0
ENDBLK
  8
0
  0
BLOCK
  8
0
  2
*D5
 70
     1
 10
0.0
 20
0.0
 30
0.0
  0
LINE
  5
1555
  8
寸法
  6
CONTINUOUS
 62
     1
 10
103.0870971276617
 20
198.168404146491
 30
0.0
 11
53.5958571276617
 21
198.168404146491
 31
0.0
  0
LINE
  5
1556
  8
寸法
  6
CONTINUOUS
 62
     1
 10
107.1324721276617
 20
254.1703041464909
 30
0.0
 11
53.59585712766171
 21
254.170304146491
 31
0.0
  0
LINE
  5
1557
  8
寸法
  6
CONTINUOUS
 62
     1
 10
54.0958571276617
 20
210.168404146491
 30
0.0
 11
54.09585712766171
 21
242.170304146491
 31
0.0
  0
INSERT
  5
1558
  8
寸法
  6
CONTINUOUS
 62
     1
  2
_OPEN30
 10
54.0958571276617
 20
198.168404146491
 30
0.0
 41
12.0
 42
12.0
 43
12.0
 50
270.0
  0
INSERT
  5
1559
  8
寸法
  6
CONTINUOUS
 62
     1
  2
_OPEN30
 10
54.09585712766171
 20
254.170304146491
 30
0.0
 41
12.0
 42
12.0
 43
12.0
 50
90.0
  0
TEXT
  5
155A
  8
寸法
  6
CONTINUOUS
 62
     1
 10
53.59585712766167
 20
209.5026874798243
 30
0.0
 40
20.0
  1
56
 50
90.0
  7
TEXTSTYLE01
  0
POINT
  5
155B
  8
DEFPOINTS
  6
CONTINUOUS
 62
     0
 10
103.5870971276617
 20
198.168404146491
 30
0.0
  0
POINT
  5
155C
  8
DEFPOINTS
  6
CONTINUOUS
 62
     0
 10
107.6324721276617
 20
254.1703041464909
 30
0.0
  0
POINT
  5
155D
  8
DEFPOINTS
  6
CONTINUOUS
 62
     0
 10
54.09585712766171
 20
254.170304146491
 30
0.0
  0
ENDBLK
  8
0
  0
BLOCK
  8
0
  2
*D6
 70
     1
 10
0.0
 20
0.0
 30
0.0
  0
LINE
  5
154C
  8
寸法
  6
CONTINUOUS
 62
     1
 10
107.1324721276617
 20
254.1703041464909
 30
0.0
 11
53.59585712766169
 21
254.170304146491
 31
0.0
  0
LINE
  5
154D
  8
寸法
  6
CONTINUOUS
 62
     1
 10
157.0379471276617
 20
354.1230391464909
 30
0.0
 11
53.59585712766171
 21
354.123039146491
 31
0.0
  0
LINE
  5
154E
  8
寸法
  6
CONTINUOUS
 62
     1
 10
54.09585712766169
 20
266.1703041464909
 30
0.0
 11
54.09585712766171
 21
342.123039146491
 31
0.0
  0
INSERT
  5
154F
  8
寸法
  6
CONTINUOUS
 62
     1
  2
_OPEN30
 10
54.09585712766169
 20
254.170304146491
 30
0.0
 41
12.0
 42
12.0
 43
12.0
 50
270.0
  0
INSERT
  5
1550
  8
寸法
  6
CONTINUOUS
 62
     1
  2
_OPEN30
 10
54.09585712766171
 20
354.123039146491
 30
0.0
 41
12.0
 42
12.0
 43
12.0
 50
90.0
  0
TEXT
  5
1551
  8
寸法
  6
CONTINUOUS
 62
     1
 10
53.59585712766165
 20
284.1466716464909
 30
0.0
 40
20.0
  1
100
 50
90.0
  7
TEXTSTYLE01
  0
POINT
  5
1552
  8
DEFPOINTS
  6
CONTINUOUS
 62
     0
 10
107.6324721276617
 20
254.1703041464909
 30
0.0
  0
POINT
  5
1553
  8
DEFPOINTS
  6
CONTINUOUS
 62
     0
 10
157.5379471276617
 20
354.1230391464909
 30
0.0
  0
POINT
  5
1554
  8
DEFPOINTS
  6
CONTINUOUS
 62
     0
 10
54.09585712766171
 20
354.123039146491
 30
0.0
  0
ENDBLK
  8
0
  0
BLOCK
  8
0
  2
*D7
 70
     1
 10
0.0
 20
0.0
 30
0.0
  0
LINE
  5
1544
  8
寸法
  6
CONTINUOUS
 62
     1
 10
157.0379471276617
 20
488.6023041464908
 30
0.0
 11
53.59585712766172
 21
488.6023041464909
 31
0.0
  0
LINE
  5
1545
  8
寸法
  6
CONTINUOUS
 62
     1
 10
54.09585712766172
 20
476.6023041464909
 30
0.0
 11
54.09585712766169
 21
366.1230391464909
 31
0.0
  0
INSERT
  5
1546
  8
寸法
  6
CONTINUOUS
 62
     1
  2
_OPEN30
 10
54.09585712766172
 20
488.6023041464909
 30
0.0
 41
12.0
 42
12.0
 43
12.0
 50
90.0
  0
INSERT
  5
1547
  8
寸法
  6
CONTINUOUS
 62
     1
  2
_OPEN30
 10
54.09585712766169
 20
354.1230391464909
 30
0.0
 41
12.0
 42
12.0
 43
12.0
 50
270.0
  0
TEXT
  5
1548
  8
寸法
  6
CONTINUOUS
 62
     1
 10
53.59585712766165
 20
398.0293383131576
 30
0.0
 40
20.0
  1
134
 50
90.0
  7
TEXTSTYLE01
  0
POINT
  5
1549
  8
DEFPOINTS
  6
CONTINUOUS
 62
     0
 10
157.5379471276617
 20
488.6023041464908
 30
0.0
  0
POINT
  5
154A
  8
DEFPOINTS
  6
CONTINUOUS
 62
     0
 10
54.09585712766171
 20
354.1230391464909
 30
0.0
  0
POINT
  5
154B
  8
DEFPOINTS
  6
CONTINUOUS
 62
     0
 10
54.09585712766169
 20
354.1230391464909
 30
0.0
  0
ENDBLK
  8
0
  0
BLOCK
  8
0
  2
*D8
 70
     1
 10
0.0
 20
0.0
 30
0.0
  0
LINE
  5
153B
  8
寸法
  6
CONTINUOUS
 62
     1
 10
53.09585712766172
 20
488.6023041464908
 30
0.0
 11
12.55525595873934
 21
488.6023041464908
 31
0.0
  0
LINE
  5
153C
  8
寸法
  6
CONTINUOUS
 62
     1
 10
53.0958571276617
 20
198.168404146491
 30
0.0
 11
12.55525595873928
 21
198.168404146491
 31
0.0
  0
LINE
  5
153D
  8
寸法
  6
CONTINUOUS
 62
     1
 10
13.05525595873934
 20
476.6023041464908
 30
0.0
 11
13.05525595873928
 21
210.168404146491
 31
0.0
  0
INSERT
  5
153E
  8
寸法
  6
CONTINUOUS
 62
     1
  2
_OPEN30
 10
13.05525595873934
 20
488.6023041464908
 30
0.0
 41
12.0
 42
12.0
 43
12.0
 50
90.0
  0
INSERT
  5
153F
  8
寸法
  6
CONTINUOUS
 62
     1
  2
_OPEN30
 10
13.05525595873928
 20
198.168404146491
 30
0.0
 41
12.0
 42
12.0
 43
12.0
 50
270.0
  0
TEXT
  5
1540
  8
寸法
  6
CONTINUOUS
 62
     1
 10
12.55525595873922
 20
318.3853541464909
 30
0.0
 40
20.0
  1
290
 50
90.0
  7
TEXTSTYLE01
  0
POINT
  5
1541
  8
DEFPOINTS
  6
CONTINUOUS
 62
     0
 10
53.59585712766172
 20
488.6023041464908
 30
0.0
  0
POINT
  5
1542
  8
DEFPOINTS
  6
CONTINUOUS
 62
     0
 10
53.5958571276617
 20
198.168404146491
 30
0.0
  0
POINT
  5
1543
  8
DEFPOINTS
  6
CONTINUOUS
 62
     0
 10
13.05525595873928
 20
198.168404146491
 30
0.0
  0
ENDBLK
  8
0
  0
BLOCK
  8
0
  2
*D9
 70
     1
 10
0.0
 20
0.0
 30
0.0
  0
LINE
  5
1532
  8
寸法
  6
CONTINUOUS
 62
     1
 10
107.6324721276617
 20
203.7648691464909
 30
0.0
 11
107.6324721276617
 21
139.455321734126
 31
0.0
  0
LINE
  5
1533
  8
寸法
  6
CONTINUOUS
 62
     1
 10
807.3016221276616
 20
203.7648691464909
 30
0.0
 11
807.3016221276616
 21
139.455321734126
 31
0.0
  0
LINE
  5
1534
  8
寸法
  6
CONTINUOUS
 62
     1
 10
119.6324721276617
 20
139.955321734126
 30
0.0
 11
795.3016221276616
 21
139.955321734126
 31
0.0
  0
INSERT
  5
1535
  8
寸法
  6
CONTINUOUS
 62
     1
  2
_OPEN30
 10
107.6324721276617
 20
139.955321734126
 30
0.0
 41
12.0
 42
12.0
 43
12.0
 50
180.0
  0
INSERT
  5
1536
  8
寸法
  6
CONTINUOUS
 62
     1
  2
_OPEN30
 10
807.3016221276616
 20
139.955321734126
 30
0.0
 41
12.0
 42
12.0
 43
12.0
  0
TEXT
  5
1537
  8
寸法
  6
CONTINUOUS
 62
     1
 10
434.1337137943283
 20
140.455321734126
 30
0.0
 40
20.0
  1
700
  7
TEXTSTYLE01
  0
POINT
  5
1538
  8
DEFPOINTS
  6
CONTINUOUS
 62
     0
 10
107.6324721276617
 20
204.2648691464909
 30
0.0
  0
POINT
  5
1539
  8
DEFPOINTS
  6
CONTINUOUS
 62
     0
 10
807.3016221276616
 20
204.2648691464909
 30
0.0
  0
POINT
  5
153A
  8
DEFPOINTS
  6
CONTINUOUS
 62
     0
 10
807.3016221276616
 20
139.955321734126
 30
0.0
  0
ENDBLK
  8
0
  0
BLOCK
  8
0
  2
*D10
 70
     1
 10
0.0
 20
0.0
 30
0.0
  0
LINE
  5
152B
  8
寸法
  6
CONTINUOUS
 62
     1
 10
809.8691001893611
 20
439.595278604439
 30
0.0
 11
713.5344037988364
 21
377.2215355575162
 31
0.0
  0
TEXT
  5
152C
  8
寸法
  6
CONTINUOUS
 62
     1
 10
770.0050385646407
 20
414.3801832204247
 30
0.0
 40
20.0
  1
\U+220561
 50
32.92181109286919
  7
TEXTSTYLE01
  0
INSERT
  5
152D
  8
寸法
  6
CONTINUOUS
 62
     1
  2
_OPEN30
 10
703.4614474321062
 20
370.699607159109
 30
0.0
 41
12.0
 42
12.0
 43
12.0
 50
212.9218110928692
  0
LINE
  5
152E
  8
寸法
  6
CONTINUOUS
 62
     1
 10
677.3593500000002
 20
354.1230391464907
 30
0.0
 11
678.3593500000001
 21
354.1230391464907
 31
0.0
  0
LINE
  5
152F
  8
寸法
  6
CONTINUOUS
 62
     1
 10
677.8593500000001
 20
353.6230391464907
 30
0.0
 11
677.8593500000002
 21
354.6230391464907
 31
0.0
  0
POINT
  5
1530
  8
DEFPOINTS
  6
CONTINUOUS
 62
     0
 10
703.4614474321062
 20
370.699607159109
 30
0.0
  0
POINT
  5
1531
  8
DEFPOINTS
  6
CONTINUOUS
 62
     0
 10
652.2572525678939
 20
337.5464711338724
 30
0.0
  0
ENDBLK
  8
0
  0
BLOCK
  8
0
  2
*D11
 70
     1
 10
0.0
 20
0.0
 30
0.0
  0
LINE
  5
1524
  8
寸法
  6
CONTINUOUS
 62
     1
 10
832.8615184918634
 20
296.6408585846234
 30
0.0
 11
740.1448172051711
 21
330.8738943915314
 31
0.0
  0
TEXT
  5
1525
  8
寸法
  6
CONTINUOUS
 62
     1
 10
779.4066987303858
 20
316.9105409216934
 30
0.0
 40
20.0
  1
\U+2205110
 50
339.7347501693769
  7
TEXTSTYLE01
  0
INSERT
  5
1526
  8
寸法
  6
CONTINUOUS
 62
     1
  2
_OPEN30
 10
728.8876270420351
 20
335.0302954346207
 30
0.0
 41
12.0
 42
12.0
 43
12.0
 50
159.734750169377
  0
LINE
  5
1527
  8
寸法
  6
CONTINUOUS
 62
     1
 10
676.7921721276617
 20
354.0804668821132
 30
0.0
 11
677.7921721276618
 21
354.0804668821132
 31
0.0
  0
LINE
  5
1528
  8
寸法
  6
CONTINUOUS
 62
     1
 10
677.2921721276617
 20
353.5804668821132
 30
0.0
 11
677.2921721276618
 21
354.5804668821132
 31
0.0
  0
POINT
  5
1529
  8
DEFPOINTS
  6
CONTINUOUS
 62
     0
 10
728.8876270420351
 20
335.0302954346207
 30
0.0
  0
POINT
  5
152A
  8
DEFPOINTS
  6
CONTINUOUS
 62
     0
 10
625.6967172132885
 20
373.1306383296059
 30
0.0
  0
ENDBLK
  8
0
  0
BLOCK
  8
0
  2
*D12
 70
     1
 10
0.0
 20
0.0
 30
0.0
  0
LINE
  5
151B
  8
寸法
  6
CONTINUOUS
 62
     1
 10
1228.016337127662
 20
488.6023041464908
 30
0.0
 11
1228.016337127662
 21
553.8163791464909
 31
0.0
  0
LINE
  5
151C
  8
寸法
  6
CONTINUOUS
 62
     1
 10
1289.972747127661
 20
472.5815291464909
 30
0.0
 11
1289.972747127661
 21
553.8163791464909
 31
0.0
  0
LINE
  5
151D
  8
寸法
  6
CONTINUOUS
 62
     1
 10
1240.016337127662
 20
553.3163791464909
 30
0.0
 11
1277.972747127661
 21
553.3163791464909
 31
0.0
  0
INSERT
  5
151E
  8
寸法
  6
CONTINUOUS
 62
     1
  2
_OPEN30
 10
1228.016337127662
 20
553.3163791464909
 30
0.0
 41
12.0
 42
12.0
 43
12.0
 50
180.0
  0
INSERT
  5
151F
  8
寸法
  6
CONTINUOUS
 62
     1
  2
_OPEN30
 10
1289.972747127661
 20
553.3163791464909
 30
0.0
 41
12.0
 42
12.0
 43
12.0
  0
TEXT
  5
1520
  8
寸法
  6
CONTINUOUS
 62
     1
 10
1242.327875460995
 20
553.8163791464909
 30
0.0
 40
20.0
  1
62
  7
TEXTSTYLE01
  0
POINT
  5
1521
  8
DEFPOINTS
  6
CONTINUOUS
 62
     0
 10
1228.016337127662
 20
488.1023041464908
 30
0.0
  0
POINT
  5
1522
  8
DEFPOINTS
  6
CONTINUOUS
 62
     0
 10
1289.972747127661
 20
472.0815291464909
 30
0.0
  0
POINT
  5
1523
  8
DEFPOINTS
  6
CONTINUOUS
 62
     0
 10
1289.972747127661
 20
553.3163791464909
 30
0.0
  0
ENDBLK
  8
0
  0
BLOCK
  8
0
  2
*D13
 70
     1
 10
0.0
 20
0.0
 30
0.0
  0
LINE
  5
1513
  8
寸法
  6
CONTINUOUS
 62
     1
 10
1218.040787127662
 20
399.0157891464909
 30
0.0
 11
1230.040787127662
 21
399.0157891464909
 31
0.0
  0
LINE
  5
1514
  8
寸法
  6
CONTINUOUS
 62
     1
 10
1185.108897127662
 20
399.0157891464909
 30
0.0
 11
1158.775563794328
 21
399.0157891464909
 31
0.0
  0
INSERT
  5
1515
  8
寸法
  6
CONTINUOUS
 62
     1
  2
_OPEN30
 10
1206.040787127662
 20
399.0157891464909
 30
0.0
 41
12.0
 42
12.0
 43
12.0
 50
180.0
  0
INSERT
  5
1516
  8
寸法
  6
CONTINUOUS
 62
     1
  2
_OPEN30
 10
1197.108897127662
 20
399.0157891464909
 30
0.0
 41
12.0
 42
12.0
 43
12.0
  0
TEXT
  5
1517
  8
寸法
  6
CONTINUOUS
 62
     1
 10
1159.275563794328
 20
399.5157891464909
 30
0.0
 40
20.0
  1
9
  7
TEXTSTYLE01
  0
POINT
  5
1518
  8
DEFPOINTS
  6
CONTINUOUS
 62
     0
 10
1206.040787127662
 20
384.0379791464909
 30
0.0
  0
POINT
  5
1519
  8
DEFPOINTS
  6
CONTINUOUS
 62
     0
 10
1197.108897127662
 20
384.0379791464909
 30
0.0
  0
POINT
  5
151A
  8
DEFPOINTS
  6
CONTINUOUS
 62
     0
 10
1197.108897127662
 20
399.0157891464909
 30
0.0
  0
ENDBLK
  8
0
  0
BLOCK
  8
0
  2
*D14
 70
     1
 10
0.0
 20
0.0
 30
0.0
  0
LINE
  5
150B
  8
寸法
  6
CONTINUOUS
 62
     1
 10
1194.040787127662
 20
399.0157891464909
 30
0.0
 11
1182.040787127662
 21
399.0157891464909
 31
0.0
  0
LINE
  5
150C
  8
寸法
  6
CONTINUOUS
 62
     1
 10
1240.016337127662
 20
399.0157891464909
 30
0.0
 11
1286.349670460995
 21
399.0157891464909
 31
0.0
  0
INSERT
  5
150D
  8
寸法
  6
CONTINUOUS
 62
     1
  2
_OPEN30
 10
1206.040787127662
 20
399.0157891464909
 30
0.0
 41
12.0
 42
12.0
 43
12.0
  0
INSERT
  5
150E
  8
寸法
  6
CONTINUOUS
 62
     1
  2
_OPEN30
 10
1228.016337127662
 20
399.0157891464909
 30
0.0
 41
12.0
 42
12.0
 43
12.0
 50
180.0
  0
TEXT
  5
150F
  8
寸法
  6
CONTINUOUS
 62
     1
 10
1252.516337127662
 20
399.5157891464909
 30
0.0
 40
20.0
  1
22
  7
TEXTSTYLE01
  0
POINT
  5
1510
  8
DEFPOINTS
  6
CONTINUOUS
 62
     0
 10
1206.040787127662
 20
384.0379791464909
 30
0.0
  0
POINT
  5
1511
  8
DEFPOINTS
  6
CONTINUOUS
 62
     0
 10
1228.016337127662
 20
384.0379791464909
 30
0.0
  0
POINT
  5
1512
  8
DEFPOINTS
  6
CONTINUOUS
 62
     0
 10
1228.016337127662
 20
399.0157891464909
 30
0.0
  0
ENDBLK
  8
0
  0
BLOCK
  8
0
  2
*D15
 70
     1
 10
0.0
 20
0.0
 30
0.0
  0
LINE
  5
1502
  8
寸法
  6
CONTINUOUS
 62
     1
 10
1084.018097127662
 20
225.5985141464909
 30
0.0
 11
1084.018097127662
 21
154.0352949139234
 31
0.0
  0
LINE
  5
1503
  8
寸法
  6
CONTINUOUS
 62
     1
 10
1433.970797127662
 20
225.5985141464909
 30
0.0
 11
1433.970797127662
 21
154.0352949139234
 31
0.0
  0
LINE
  5
1504
  8
寸法
  6
CONTINUOUS
 62
     1
 10
1096.018097127662
 20
154.5352949139234
 30
0.0
 11
1421.970797127662
 21
154.5352949139234
 31
0.0
  0
INSERT
  5
1505
  8
寸法
  6
CONTINUOUS
 62
     1
  2
_OPEN30
 10
1084.018097127662
 20
154.5352949139234
 30
0.0
 41
12.0
 42
12.0
 43
12.0
 50
180.0
  0
INSERT
  5
1506
  8
寸法
  6
CONTINUOUS
 62
     1
  2
_OPEN30
 10
1433.970797127662
 20
154.5352949139234
 30
0.0
 41
12.0
 42
12.0
 43
12.0
  0
TEXT
  5
1507
  8
寸法
  6
CONTINUOUS
 62
     1
 10
1233.994447127662
 20
155.0352949139234
 30
0.0
 40
20.0
  1
350
  7
TEXTSTYLE01
  0
POINT
  5
1508
  8
DEFPOINTS
  6
CONTINUOUS
 62
     0
 10
1084.018097127662
 20
226.0985141464909
 30
0.0
  0
POINT
  5
1509
  8
DEFPOINTS
  6
CONTINUOUS
 62
     0
 10
1433.970797127662
 20
226.0985141464909
 30
0.0
  0
POINT
  5
150A
  8
DEFPOINTS
  6
CONTINUOUS
 62
     0
 10
1433.970797127662
 20
154.5352949139234
 30
0.0
  0
ENDBLK
  8
0
  0
BLOCK
  8
0
  2
*D16
 70
     1
 10
0.0
 20
0.0
 30
0.0
  0
LINE
  5
14F9
  8
寸法
  6
CONTINUOUS
 62
     1
 10
1039.074812127662
 20
209.7194441464909
 30
0.0
 11
1039.074812127662
 21
123.4770041464909
 31
0.0
  0
LINE
  5
14FA
  8
寸法
  6
CONTINUOUS
 62
     1
 10
1478.914087127662
 20
209.7194441464909
 30
0.0
 11
1478.914087127662
 21
123.4770041464909
 31
0.0
  0
LINE
  5
14FB
  8
寸法
  6
CONTINUOUS
 62
     1
 10
1051.074812127662
 20
123.9770041464909
 30
0.0
 11
1466.914087127662
 21
123.9770041464909
 31
0.0
  0
INSERT
  5
14FC
  8
寸法
  6
CONTINUOUS
 62
     1
  2
_OPEN30
 10
1039.074812127662
 20
123.9770041464909
 30
0.0
 41
12.0
 42
12.0
 43
12.0
 50
180.0
  0
INSERT
  5
14FD
  8
寸法
  6
CONTINUOUS
 62
     1
  2
_OPEN30
 10
1478.914087127662
 20
123.9770041464909
 30
0.0
 41
12.0
 42
12.0
 43
12.0
  0
TEXT
  5
14FE
  8
寸法
  6
CONTINUOUS
 62
     1
 10
1233.994449627662
 20
124.4770041464909
 30
0.0
 40
20.0
  1
470
  7
TEXTSTYLE01
  0
POINT
  5
14FF
  8
DEFPOINTS
  6
CONTINUOUS
 62
     0
 10
1039.074812127662
 20
210.2194441464909
 30
0.0
  0
POINT
  5
1500
  8
DEFPOINTS
  6
CONTINUOUS
 62
     0
 10
1478.914087127662
 20
210.2194441464909
 30
0.0
  0
POINT
  5
1501
  8
DEFPOINTS
  6
CONTINUOUS
 62
     0
 10
1478.914087127662
 20
123.9770041464909
 30
0.0
  0
ENDBLK
  8
0
  0
BLOCK
  8
0
  2
*D17
 70
     1
 10
0.0
 20
0.0
 30
0.0
  0
LINE
  5
14F0
  8
寸法
  6
CONTINUOUS
 62
     1
 10
1484.565392127662
 20
488.1023041464908
 30
0.0
 11
1605.651169211534
 21
488.1023041464908
 31
0.0
  0
LINE
  5
14F1
  8
寸法
  6
CONTINUOUS
 62
     1
 10
1434.470797127662
 20
226.0985141464909
 30
0.0
 11
1605.651169211534
 21
226.0985141464908
 31
0.0
  0
LINE
  5
14F2
  8
寸法
  6
CONTINUOUS
 62
     1
 10
1605.151169211534
 20
476.1023041464908
 30
0.0
 11
1605.151169211534
 21
238.0985141464908
 31
0.0
  0
INSERT
  5
14F3
  8
寸法
  6
CONTINUOUS
 62
     1
  2
_OPEN30
 10
1605.151169211534
 20
488.1023041464908
 30
0.0
 41
12.0
 42
12.0
 43
12.0
 50
90.0
  0
INSERT
  5
14F4
  8
寸法
  6
CONTINUOUS
 62
     1
  2
_OPEN30
 10
1605.151169211534
 20
226.0985141464908
 30
0.0
 41
12.0
 42
12.0
 43
12.0
 50
270.0
  0
TEXT
  5
14F5
  8
寸法
  6
CONTINUOUS
 62
     1
 10
1604.651169211534
 20
330.4337424798243
 30
0.0
 40
20.0
  1
262
 50
90.0
  7
TEXTSTYLE01
  0
POINT
  5
14F6
  8
DEFPOINTS
  6
CONTINUOUS
 62
     0
 10
1484.065392127662
 20
488.1023041464908
 30
0.0
  0
POINT
  5
14F7
  8
DEFPOINTS
  6
CONTINUOUS
 62
     0
 10
1433.970797127662
 20
226.0985141464909
 30
0.0
  0
POINT
  5
14F8
  8
DEFPOINTS
  6
CONTINUOUS
 62
     0
 10
1605.151169211534
 20
226.0985141464908
 30
0.0
  0
ENDBLK
  8
0
  0
BLOCK
  8
0
  2
*D18
 70
     1
 10
0.0
 20
0.0
 30
0.0
  0
LINE
  5
14E7
  8
寸法
  6
CONTINUOUS
 62
     1
 10
961.0974871276617
 20
237.6495041464909
 30
0.0
 11
961.0974871276617
 21
94.16123740337537
 31
0.0
  0
LINE
  5
14E8
  8
寸法
  6
CONTINUOUS
 62
     1
 10
1556.891397127662
 20
237.6495041464909
 30
0.0
 11
1556.891397127662
 21
94.16123740337537
 31
0.0
  0
LINE
  5
14E9
  8
寸法
  6
CONTINUOUS
 62
     1
 10
973.0974871276617
 20
94.66123740337537
 30
0.0
 11
1544.891397127662
 21
94.66123740337537
 31
0.0
  0
INSERT
  5
14EA
  8
寸法
  6
CONTINUOUS
 62
     1
  2
_OPEN30
 10
961.0974871276617
 20
94.66123740337537
 30
0.0
 41
12.0
 42
12.0
 43
12.0
 50
180.0
  0
INSERT
  5
14EB
  8
寸法
  6
CONTINUOUS
 62
     1
  2
_OPEN30
 10
1556.891397127662
 20
94.66123740337537
 30
0.0
 41
12.0
 42
12.0
 43
12.0
  0
TEXT
  5
14EC
  8
寸法
  6
CONTINUOUS
 62
     1
 10
1235.661108794328
 20
95.16123740337537
 30
0.0
 40
20.0
  1
600
  7
TEXTSTYLE01
  0
POINT
  5
14ED
  8
DEFPOINTS
  6
CONTINUOUS
 62
     0
 10
961.0974871276617
 20
238.1495041464909
 30
0.0
  0
POINT
  5
14EE
  8
DEFPOINTS
  6
CONTINUOUS
 62
     0
 10
1556.891397127662
 20
238.1495041464909
 30
0.0
  0
POINT
  5
14EF
  8
DEFPOINTS
  6
CONTINUOUS
 62
     0
 10
1556.891397127662
 20
94.66123740337537
 30
0.0
  0
ENDBLK
  8
0
  0
BLOCK
  8
0
  2
*D19
 70
     1
 10
0.0
 20
0.0
 30
0.0
  0
LINE
  5
14DE
  8
寸法
  6
CONTINUOUS
 62
     1
 10
1034.065392127662
 20
488.6023041464908
 30
0.0
 11
1034.065392127662
 21
554.3404476724755
 31
0.0
  0
LINE
  5
14DF
  8
寸法
  6
CONTINUOUS
 62
     1
 10
1228.016337127662
 20
553.8163791464909
 30
0.0
 11
1228.016337127662
 21
554.3404476724755
 31
0.0
  0
LINE
  5
14E0
  8
寸法
  6
CONTINUOUS
 62
     1
 10
1046.065392127662
 20
553.8404476724755
 30
0.0
 11
1216.016337127662
 21
553.8404476724755
 31
0.0
  0
INSERT
  5
14E1
  8
寸法
  6
CONTINUOUS
 62
     1
  2
_OPEN30
 10
1034.065392127662
 20
553.8404476724755
 30
0.0
 41
12.0
 42
12.0
 43
12.0
 50
180.0
  0
INSERT
  5
14E2
  8
寸法
  6
CONTINUOUS
 62
     1
  2
_OPEN30
 10
1228.016337127662
 20
553.8404476724755
 30
0.0
 41
12.0
 42
12.0
 43
12.0
  0
TEXT
  5
14E3
  8
寸法
  6
CONTINUOUS
 62
     1
 10
1107.707531294328
 20
554.3404476724755
 30
0.0
 40
20.0
  1
194
  7
TEXTSTYLE01
  0
POINT
  5
14E4
  8
DEFPOINTS
  6
CONTINUOUS
 62
     0
 10
1034.065392127662
 20
488.1023041464908
 30
0.0
  0
POINT
  5
14E5
  8
DEFPOINTS
  6
CONTINUOUS
 62
     0
 10
1228.016337127662
 20
553.3163791464909
 30
0.0
  0
POINT
  5
14E6
  8
DEFPOINTS
  6
CONTINUOUS
 62
     0
 10
1228.016337127662
 20
553.8404476724755
 30
0.0
  0
ENDBLK
  8
0
  0
BLOCK
  8
0
  2
*D20
 70
     1
 10
0.0
 20
0.0
 30
0.0
  0
LINE
  5
14D5
  8
寸法
  6
CONTINUOUS
 62
     1
 10
1289.972747127661
 20
553.8163791464909
 30
0.0
 11
1289.972747127661
 21
554.3404476724755
 31
0.0
  0
LINE
  5
14D6
  8
寸法
  6
CONTINUOUS
 62
     1
 10
1484.065392127662
 20
488.6023041464908
 30
0.0
 11
1484.065392127662
 21
554.3404476724755
 31
0.0
  0
LINE
  5
14D7
  8
寸法
  6
CONTINUOUS
 62
     1
 10
1301.972747127661
 20
553.8404476724755
 30
0.0
 11
1472.065392127662
 21
553.8404476724755
 31
0.0
  0
INSERT
  5
14D8
  8
寸法
  6
CONTINUOUS
 62
     1
  2
_OPEN30
 10
1289.972747127661
 20
553.8404476724755
 30
0.0
 41
12.0
 42
12.0
 43
12.0
 50
180.0
  0
INSERT
  5
14D9
  8
寸法
  6
CONTINUOUS
 62
     1
  2
_OPEN30
 10
1484.065392127662
 20
553.8404476724755
 30
0.0
 41
12.0
 42
12.0
 43
12.0
  0
TEXT
  5
14DA
  8
寸法
  6
CONTINUOUS
 62
     1
 10
1363.685736294328
 20
554.3404476724755
 30
0.0
 40
20.0
  1
194
  7
TEXTSTYLE01
  0
POINT
  5
14DB
  8
DEFPOINTS
  6
CONTINUOUS
 62
     0
 10
1289.972747127661
 20
553.3163791464909
 30
0.0
  0
POINT
  5
14DC
  8
DEFPOINTS
  6
CONTINUOUS
 62
     0
 10
1484.065392127662
 20
488.1023041464908
 30
0.0
  0
POINT
  5
14DD
  8
DEFPOINTS
  6
CONTINUOUS
 62
     0
 10
1484.065392127662
 20
553.8404476724755
 30
0.0
  0
ENDBLK
  8
0
  0
BLOCK
  8
0
  2
*D21
 70
     1
 10
0.0
 20
0.0
 30
0.0
  0
LINE
  5
14CC
  8
寸法
  6
CONTINUOUS
 62
     1
 10
1034.065392127662
 20
554.8404476724755
 30
0.0
 11
1034.065392127662
 21
592.2946447984133
 31
0.0
  0
LINE
  5
14CD
  8
寸法
  6
CONTINUOUS
 62
     1
 10
1484.065392127662
 20
554.8404476724755
 30
0.0
 11
1484.065392127662
 21
592.2946447984133
 31
0.0
  0
LINE
  5
14CE
  8
寸法
  6
CONTINUOUS
 62
     1
 10
1046.065392127662
 20
591.7946447984133
 30
0.0
 11
1472.065392127662
 21
591.7946447984133
 31
0.0
  0
INSERT
  5
14CF
  8
寸法
  6
CONTINUOUS
 62
     1
  2
_OPEN30
 10
1034.065392127662
 20
591.7946447984133
 30
0.0
 41
12.0
 42
12.0
 43
12.0
 50
180.0
  0
INSERT
  5
14D0
  8
寸法
  6
CONTINUOUS
 62
     1
  2
_OPEN30
 10
1484.065392127662
 20
591.7946447984133
 30
0.0
 41
12.0
 42
12.0
 43
12.0
  0
TEXT
  5
14D1
  8
寸法
  6
CONTINUOUS
 62
     1
 10
1234.065392127662
 20
592.2946447984133
 30
0.0
 40
20.0
  1
450
  7
TEXTSTYLE01
  0
POINT
  5
14D2
  8
DEFPOINTS
  6
CONTINUOUS
 62
     0
 10
1034.065392127662
 20
554.3404476724755
 30
0.0
  0
POINT
  5
14D3
  8
DEFPOINTS
  6
CONTINUOUS
 62
     0
 10
1484.065392127662
 20
554.3404476724755
 30
0.0
  0
POINT
  5
14D4
  8
DEFPOINTS
  6
CONTINUOUS
 62
     0
 10
1484.065392127662
 20
591.7946447984133
 30
0.0
  0
ENDBLK
  8
0
  0
BLOCK
  8
0
  2
*D22
 70
     1
 10
0.0
 20
0.0
 30
0.0
  0
LINE
  5
123A
  8
寸法
  6
CONTINUOUS
 62
     1
 10
98.0712305820216
 20
1224.493144885878
 30
0.0
 11
58.8443044657707
 21
1224.493144885878
 31
0.0
  0
LINE
  5
123B
  8
寸法
  6
CONTINUOUS
 62
     1
 10
98.0712305820216
 20
774.4931448858779
 30
0.0
 11
58.8443044657706
 21
774.4931448858779
 31
0.0
  0
LINE
  5
123C
  8
寸法
  6
CONTINUOUS
 62
     1
 10
59.3443044657707
 20
1212.493144885878
 30
0.0
 11
59.34430446577061
 21
786.4931448858779
 31
0.0
  0
INSERT
  5
123D
  8
寸法
  6
CONTINUOUS
 62
     1
  2
_OPEN30
 10
59.3443044657707
 20
1224.493144885878
 30
0.0
 41
12.0
 42
12.0
 43
12.0
 50
90.0
  0
INSERT
  5
123E
  8
寸法
  6
CONTINUOUS
 62
     1
  2
_OPEN30
 10
59.3443044657706
 20
774.4931448858779
 30
0.0
 41
12.0
 42
12.0
 43
12.0
 50
270.0
  0
TEXT
  5
123F
  8
寸法
  6
CONTINUOUS
 62
     1
 10
58.84430446577039
 20
974.4931448858779
 30
0.0
 40
20.0
  1
450
 50
90.0
  7
TEXTSTYLE01
  0
POINT
  5
1240
  8
DEFPOINTS
  6
CONTINUOUS
 62
     0
 10
98.5712305820216
 20
1224.493144885878
 30
0.0
  0
POINT
  5
1241
  8
DEFPOINTS
  6
CONTINUOUS
 62
     0
 10
98.5712305820216
 20
774.4931448858779
 30
0.0
  0
POINT
  5
1242
  8
DEFPOINTS
  6
CONTINUOUS
 62
     0
 10
59.3443044657706
 20
774.4931448858779
 30
0.0
  0
ENDBLK
  8
0
  0
BLOCK
  8
0
  2
*D23
 70
     1
 10
0.0
 20
0.0
 30
0.0
  0
LINE
  5
13FF
  8
寸法
  6
CONTINUOUS
 62
     1
 10
735.56286
 20
889.4931448858779
 30
0.0
 11
841.8315136979327
 21
889.4931448858778
 31
0.0
  0
LINE
  5
1400
  8
寸法
  6
CONTINUOUS
 62
     1
 10
735.56286
 20
1109.493144885878
 30
0.0
 11
841.8315136979327
 21
1109.493144885878
 31
0.0
  0
LINE
  5
1401
  8
寸法
  6
CONTINUOUS
 62
     1
 10
841.3315136979327
 20
901.4931448858778
 30
0.0
 11
841.3315136979327
 21
1097.493144885878
 31
0.0
  0
INSERT
  5
1402
  8
寸法
  6
CONTINUOUS
 62
     1
  2
_OPEN30
 10
841.3315136979327
 20
889.4931448858778
 30
0.0
 41
12.0
 42
12.0
 43
12.0
 50
270.0
  0
INSERT
  5
1403
  8
寸法
  6
CONTINUOUS
 62
     1
  2
_OPEN30
 10
841.3315136979327
 20
1109.493144885878
 30
0.0
 41
12.0
 42
12.0
 43
12.0
 50
90.0
  0
TEXT
  5
1404
  8
寸法
  6
CONTINUOUS
 62
     1
 10
840.8315136979325
 20
974.4931448858781
 30
0.0
 40
20.0
  1
220
 50
90.0
  7
TEXTSTYLE01
  0
POINT
  5
1405
  8
DEFPOINTS
  6
CONTINUOUS
 62
     0
 10
735.06286
 20
889.4931448858779
 30
0.0
  0
POINT
  5
1406
  8
DEFPOINTS
  6
CONTINUOUS
 62
     0
 10
735.06286
 20
1109.493144885878
 30
0.0
  0
POINT
  5
1407
  8
DEFPOINTS
  6
CONTINUOUS
 62
     0
 10
841.3315136979327
 20
1109.493144885878
 30
0.0
  0
ENDBLK
  8
0
  0
BLOCK
  8
0
  2
*D24
 70
     1
 10
0.0
 20
0.0
 30
0.0
  0
LINE
  5
140C
  8
寸法
  6
CONTINUOUS
 62
     1
 10
736.06286
 20
1109.493144885878
 30
0.0
 11
841.8315136979327
 21
1109.493144885878
 31
0.0
  0
LINE
  5
140D
  8
寸法
  6
CONTINUOUS
 62
     1
 10
760.06286
 20
1224.493144885878
 30
0.0
 11
841.8315136979327
 21
1224.493144885878
 31
0.0
  0
LINE
  5
140E
  8
寸法
  6
CONTINUOUS
 62
     1
 10
841.3315136979327
 20
1121.493144885878
 30
0.0
 11
841.3315136979327
 21
1212.493144885878
 31
0.0
  0
INSERT
  5
140F
  8
寸法
  6
CONTINUOUS
 62
     1
  2
_OPEN30
 10
841.3315136979327
 20
1109.493144885878
 30
0.0
 41
12.0
 42
12.0
 43
12.0
 50
270.0
  0
INSERT
  5
1410
  8
寸法
  6
CONTINUOUS
 62
     1
  2
_OPEN30
 10
841.3315136979327
 20
1224.493144885878
 30
0.0
 41
12.0
 42
12.0
 43
12.0
 50
90.0
  0
TEXT
  5
1411
  8
寸法
  6
CONTINUOUS
 62
     1
 10
840.8315136979325
 20
1146.993144885878
 30
0.0
 40
20.0
  1
115
 50
90.0
  7
TEXTSTYLE01
  0
POINT
  5
1412
  8
DEFPOINTS
  6
CONTINUOUS
 62
     0
 10
735.56286
 20
1109.493144885878
 30
0.0
  0
POINT
  5
1413
  8
DEFPOINTS
  6
CONTINUOUS
 62
     0
 10
759.56286
 20
1224.493144885878
 30
0.0
  0
POINT
  5
1414
  8
DEFPOINTS
  6
CONTINUOUS
 62
     0
 10
841.3315136979327
 20
1224.493144885878
 30
0.0
  0
ENDBLK
  8
0
  0
BLOCK
  8
0
  2
*D25
 70
     1
 10
0.0
 20
0.0
 30
0.0
  0
LINE
  5
1590
  8
寸法
  6
CONTINUOUS
 62
     1
 10
515.062865
 20
889.4931448858779
 30
0.0
 11
841.8315136979327
 21
889.4931448858778
 31
0.0
  0
LINE
  5
1591
  8
寸法
  6
CONTINUOUS
 62
     1
 10
589.221635
 20
774.4931448858779
 30
0.0
 11
841.8315136979327
 21
774.4931448858778
 31
0.0
  0
LINE
  5
1592
  8
寸法
  6
CONTINUOUS
 62
     1
 10
841.3315136979327
 20
877.4931448858778
 30
0.0
 11
841.3315136979327
 21
786.4931448858778
 31
0.0
  0
INSERT
  5
1593
  8
寸法
  6
CONTINUOUS
 62
     1
  2
_OPEN30
 10
841.3315136979327
 20
889.4931448858778
 30
0.0
 41
12.0
 42
12.0
 43
12.0
 50
90.0
  0
INSERT
  5
1594
  8
寸法
  6
CONTINUOUS
 62
     1
  2
_OPEN30
 10
841.3315136979327
 20
774.4931448858778
 30
0.0
 41
12.0
 42
12.0
 43
12.0
 50
270.0
  0
TEXT
  5
1595
  8
寸法
  6
CONTINUOUS
 62
     1
 10
840.8315136979326
 20
811.993144885878
 30
0.0
 40
20.0
  1
115
 50
90.0
  7
TEXTSTYLE01
  0
POINT
  5
1596
  8
DEFPOINTS
  6
CONTINUOUS
 62
     0
 10
514.562865
 20
889.4931448858779
 30
0.0
  0
POINT
  5
1597
  8
DEFPOINTS
  6
CONTINUOUS
 62
     0
 10
588.721635
 20
774.4931448858779
 30
0.0
  0
POINT
  5
1598
  8
DEFPOINTS
  6
CONTINUOUS
 62
     0
 10
841.3315136979327
 20
774.4931448858778
 30
0.0
  0
ENDBLK
  8
0
  0
BLOCK
  8
0
  2
*D26
 70
     1
 10
0.0
 20
0.0
 30
0.0
  0
LINE
  5
15A6
  8
寸法
  6
CONTINUOUS
 62
     1
 10
198.8463750000001
 20
1224.493144885878
 30
0.0
 11
98.8212305820216
 21
1224.493144885878
 31
0.0
  0
LINE
  5
15A7
  8
寸法
  6
CONTINUOUS
 62
     1
 10
198.8463750000001
 20
1184.493144885878
 30
0.0
 11
98.8212305820216
 21
1184.493144885878
 31
0.0
  0
LINE
  5
15A8
  8
寸法
  6
CONTINUOUS
 62
     1
 10
99.3212305820216
 20
1212.493144885878
 30
0.0
 11
99.3212305820216
 21
1196.493144885878
 31
0.0
  0
INSERT
  5
15A9
  8
寸法
  6
CONTINUOUS
 62
     1
  2
_OPEN30
 10
99.3212305820216
 20
1224.493144885878
 30
0.0
 41
12.0
 42
12.0
 43
12.0
 50
90.0
  0
INSERT
  5
15AA
  8
寸法
  6
CONTINUOUS
 62
     1
  2
_OPEN30
 10
99.3212305820216
 20
1184.493144885878
 30
0.0
 41
12.0
 42
12.0
 43
12.0
 50
270.0
  0
TEXT
  5
15AB
  8
寸法
  6
CONTINUOUS
 62
     1
 10
98.82123058202137
 20
1189.493144885878
 30
0.0
 40
20.0
  1
40
 50
90.0
  7
TEXTSTYLE01
  0
POINT
  5
15AC
  8
DEFPOINTS
  6
CONTINUOUS
 62
     0
 10
199.3463750000001
 20
1224.493144885878
 30
0.0
  0
POINT
  5
15AD
  8
DEFPOINTS
  6
CONTINUOUS
 62
     0
 10
199.3463750000001
 20
1184.493144885878
 30
0.0
  0
POINT
  5
15AE
  8
DEFPOINTS
  6
CONTINUOUS
 62
     0
 10
99.3212305820216
 20
1184.493144885878
 30
0.0
  0
ENDBLK
  8
0
  0
BLOCK
  8
0
  2
*D27
 70
     1
 10
0.0
 20
0.0
 30
0.0
  0
LINE
  5
15B3
  8
寸法
  6
CONTINUOUS
 62
     1
 10
198.8463750000001
 20
1184.493144885878
 30
0.0
 11
98.82123058202164
 21
1184.493144885878
 31
0.0
  0
LINE
  5
15B4
  8
寸法
  6
CONTINUOUS
 62
     1
 10
198.8463750000001
 20
999.4931448858779
 30
0.0
 11
98.8212305820216
 21
999.4931448858779
 31
0.0
  0
LINE
  5
15B5
  8
寸法
  6
CONTINUOUS
 62
     1
 10
99.32123058202163
 20
1172.493144885878
 30
0.0
 11
99.3212305820216
 21
1011.493144885878
 31
0.0
  0
INSERT
  5
15B6
  8
寸法
  6
CONTINUOUS
 62
     1
  2
_OPEN30
 10
99.32123058202164
 20
1184.493144885878
 30
0.0
 41
12.0
 42
12.0
 43
12.0
 50
90.0
  0
INSERT
  5
15B7
  8
寸法
  6
CONTINUOUS
 62
     1
  2
_OPEN30
 10
99.3212305820216
 20
999.4931448858779
 30
0.0
 41
12.0
 42
12.0
 43
12.0
 50
270.0
  0
TEXT
  5
15B8
  8
寸法
  6
CONTINUOUS
 62
     1
 10
98.82123058202137
 20
1068.659811552545
 30
0.0
 40
20.0
  1
185
 50
90.0
  7
TEXTSTYLE01
  0
POINT
  5
15B9
  8
DEFPOINTS
  6
CONTINUOUS
 62
     0
 10
199.3463750000001
 20
1184.493144885878
 30
0.0
  0
POINT
  5
15BA
  8
DEFPOINTS
  6
CONTINUOUS
 62
     0
 10
199.3463750000001
 20
999.4931448858779
 30
0.0
  0
POINT
  5
15BB
  8
DEFPOINTS
  6
CONTINUOUS
 62
     0
 10
99.3212305820216
 20
999.4931448858779
 30
0.0
  0
ENDBLK
  8
0
  0
BLOCK
  8
0
  2
*D28
 70
     1
 10
0.0
 20
0.0
 30
0.0
  0
LINE
  5
15C0
  8
寸法
  6
CONTINUOUS
 62
     1
 10
198.3463750000001
 20
999.4931448858779
 30
0.0
 11
98.82123058202164
 21
999.4931448858779
 31
0.0
  0
LINE
  5
15C1
  8
寸法
  6
CONTINUOUS
 62
     1
 10
198.8463775000001
 20
814.4931498858779
 30
0.0
 11
98.8212305820216
 21
814.4931498858779
 31
0.0
  0
LINE
  5
15C2
  8
寸法
  6
CONTINUOUS
 62
     1
 10
99.32123058202163
 20
987.4931448858779
 30
0.0
 11
99.3212305820216
 21
826.4931498858779
 31
0.0
  0
INSERT
  5
15C3
  8
寸法
  6
CONTINUOUS
 62
     1
  2
_OPEN30
 10
99.32123058202164
 20
999.4931448858779
 30
0.0
 41
12.0
 42
12.0
 43
12.0
 50
90.0
  0
INSERT
  5
15C4
  8
寸法
  6
CONTINUOUS
 62
     1
  2
_OPEN30
 10
99.3212305820216
 20
814.4931498858779
 30
0.0
 41
12.0
 42
12.0
 43
12.0
 50
270.0
  0
TEXT
  5
15C5
  8
寸法
  6
CONTINUOUS
 62
     1
 10
98.82123058202149
 20
883.6598140525446
 30
0.0
 40
20.0
  1
185
 50
90.0
  7
TEXTSTYLE01
  0
POINT
  5
15C6
  8
DEFPOINTS
  6
CONTINUOUS
 62
     0
 10
198.8463750000001
 20
999.4931448858779
 30
0.0
  0
POINT
  5
15C7
  8
DEFPOINTS
  6
CONTINUOUS
 62
     0
 10
199.3463775000001
 20
814.4931498858779
 30
0.0
  0
POINT
  5
15C8
  8
DEFPOINTS
  6
CONTINUOUS
 62
     0
 10
99.3212305820216
 20
814.4931498858779
 30
0.0
  0
ENDBLK
  8
0
  0
BLOCK
  8
0
  2
*D29
 70
     1
 10
0.0
 20
0.0
 30
0.0
  0
LINE
  5
15CD
  8
寸法
  6
CONTINUOUS
 62
     1
 10
198.3463775000001
 20
814.4931498858779
 30
0.0
 11
98.82123192176755
 21
814.4931498858779
 31
0.0
  0
LINE
  5
15CE
  8
寸法
  6
CONTINUOUS
 62
     1
 10
198.8463750000001
 20
774.4931448858779
 30
0.0
 11
98.82123192176753
 21
774.4931448858779
 31
0.0
  0
LINE
  5
15CF
  8
寸法
  6
CONTINUOUS
 62
     1
 10
99.32123192176755
 20
802.4931498858779
 30
0.0
 11
99.32123192176753
 21
786.4931448858779
 31
0.0
  0
INSERT
  5
15D0
  8
寸法
  6
CONTINUOUS
 62
     1
  2
_OPEN30
 10
99.32123192176755
 20
814.4931498858779
 30
0.0
 41
12.0
 42
12.0
 43
12.0
 50
90.0
  0
INSERT
  5
15D1
  8
寸法
  6
CONTINUOUS
 62
     1
  2
_OPEN30
 10
99.32123192176753
 20
774.4931448858779
 30
0.0
 41
12.0
 42
12.0
 43
12.0
 50
270.0
  0
TEXT
  5
15D2
  8
寸法
  6
CONTINUOUS
 62
     1
 10
98.82123192176743
 20
779.4931473858778
 30
0.0
 40
20.0
  1
40
 50
90.0
  7
TEXTSTYLE01
  0
POINT
  5
15D3
  8
DEFPOINTS
  6
CONTINUOUS
 62
     0
 10
198.8463775000001
 20
814.4931498858779
 30
0.0
  0
POINT
  5
15D4
  8
DEFPOINTS
  6
CONTINUOUS
 62
     0
 10
199.3463750000001
 20
774.4931448858779
 30
0.0
  0
POINT
  5
15D5
  8
DEFPOINTS
  6
CONTINUOUS
 62
     0
 10
99.32123192176753
 20
774.4931448858779
 30
0.0
  0
ENDBLK
  8
0
  0
BLOCK
  8
0
  2
*D30
 70
     1
 10
0.0
 20
0.0
 30
0.0
  0
LINE
  5
1613
  8
寸法
  6
CONTINUOUS
 62
     1
 10
759.56286
 20
888.9931448858778
 30
0.0
 11
759.56286
 21
687.4561347828308
 31
0.0
  0
LINE
  5
1614
  8
寸法
  6
CONTINUOUS
 62
     1
 10
734.562855
 20
888.9931448858778
 30
0.0
 11
734.562855
 21
687.4561347828308
 31
0.0
  0
LINE
  5
1615
  8
寸法
  6
CONTINUOUS
 62
     1
 10
747.56286
 20
687.9561347828308
 30
0.0
 11
746.562855
 21
687.9561347828308
 31
0.0
  0
TEXT
  5
1616
  8
寸法
  6
CONTINUOUS
 62
     1
 10
742.8961933333334
 20
689.3773826911374
 30
0.0
 40
20.0
  1
25
  7
TEXTSTYLE01
  0
INSERT
  5
1617
  8
寸法
  6
CONTINUOUS
 62
     1
  2
_OPEN30
 10
759.56286
 20
687.9561347828308
 30
0.0
 41
12.0
 42
12.0
 43
12.0
  0
INSERT
  5
1618
  8
寸法
  6
CONTINUOUS
 62
     1
  2
_OPEN30
 10
734.562855
 20
687.9561347828308
 30
0.0
 41
12.0
 42
12.0
 43
12.0
 50
180.0
  0
POINT
  5
1619
  8
DEFPOINTS
  6
CONTINUOUS
 62
     0
 10
759.56286
 20
889.4931448858778
 30
0.0
  0
POINT
  5
161A
  8
DEFPOINTS
  6
CONTINUOUS
 62
     0
 10
734.562855
 20
889.4931448858778
 30
0.0
  0
POINT
  5
161B
  8
DEFPOINTS
  6
CONTINUOUS
 62
     0
 10
734.562855
 20
687.9561347828308
 30
0.0
  0
ENDBLK
  8
0
  0
BLOCK
  8
0
  2
*D31
 70
     1
 10
0.0
 20
0.0
 30
0.0
  0
LINE
  5
162C
  8
寸法
  6
CONTINUOUS
 62
     1
 10
459.7046175
 20
773.9931448858779
 30
0.0
 11
459.7046175
 21
687.4561347828308
 31
0.0
  0
LINE
  5
162D
  8
寸法
  6
CONTINUOUS
 62
     1
 10
514.56286
 20
888.9931448858779
 30
0.0
 11
514.56286
 21
687.4561347828308
 31
0.0
  0
LINE
  5
162E
  8
寸法
  6
CONTINUOUS
 62
     1
 10
471.7046175
 20
687.9561347828308
 30
0.0
 11
502.56286
 21
687.9561347828308
 31
0.0
  0
INSERT
  5
162F
  8
寸法
  6
CONTINUOUS
 62
     1
  2
_OPEN30
 10
459.7046175
 20
687.9561347828308
 30
0.0
 41
12.0
 42
12.0
 43
12.0
 50
180.0
  0
INSERT
  5
1630
  8
寸法
  6
CONTINUOUS
 62
     1
  2
_OPEN30
 10
514.56286
 20
687.9561347828308
 30
0.0
 41
12.0
 42
12.0
 43
12.0
  0
TEXT
  5
1631
  8
寸法
  6
CONTINUOUS
 62
     1
 10
470.4670720833333
 20
688.4561347828308
 30
0.0
 40
20.0
  1
55
  7
TEXTSTYLE01
  0
POINT
  5
1632
  8
DEFPOINTS
  6
CONTINUOUS
 62
     0
 10
459.7046175
 20
774.4931448858779
 30
0.0
  0
POINT
  5
1633
  8
DEFPOINTS
  6
CONTINUOUS
 62
     0
 10
514.56286
 20
889.4931448858779
 30
0.0
  0
POINT
  5
1634
  8
DEFPOINTS
  6
CONTINUOUS
 62
     0
 10
514.56286
 20
687.9561347828308
 30
0.0
  0
ENDBLK
  8
0
  0
BLOCK
  8
0
  2
*D32
 70
     1
 10
0.0
 20
0.0
 30
0.0
  0
LINE
  5
163A
  8
寸法
  6
CONTINUOUS
 62
     1
 10
514.56286
 20
888.9931498858779
 30
0.0
 11
514.56286
 21
687.4561347828308
 31
0.0
  0
LINE
  5
163B
  8
寸法
  6
CONTINUOUS
 62
     1
 10
659.3517591882166
 20
888.8672940314354
 30
0.0
 11
659.3517591882166
 21
687.4561347828308
 31
0.0
  0
LINE
  5
163C
  8
寸法
  6
CONTINUOUS
 62
     1
 10
526.56286
 20
687.9561347828308
 30
0.0
 11
647.3517591882166
 21
687.9561347828308
 31
0.0
  0
INSERT
  5
163D
  8
寸法
  6
CONTINUOUS
 62
     1
  2
_OPEN30
 10
514.56286
 20
687.9561347828308
 30
0.0
 41
12.0
 42
12.0
 43
12.0
 50
180.0
  0
INSERT
  5
163E
  8
寸法
  6
CONTINUOUS
 62
     1
  2
_OPEN30
 10
659.3517591882166
 20
687.9561347828308
 30
0.0
 41
12.0
 42
12.0
 43
12.0
  0
TEXT
  5
163F
  8
寸法
  6
CONTINUOUS
 62
     1
 10
563.623976260775
 20
688.4561347828308
 30
0.0
 40
20.0
  1
145
  7
TEXTSTYLE01
  0
POINT
  5
1640
  8
DEFPOINTS
  6
CONTINUOUS
 62
     0
 10
514.56286
 20
889.4931498858779
 30
0.0
  0
POINT
  5
1641
  8
DEFPOINTS
  6
CONTINUOUS
 62
     0
 10
659.3517591882166
 20
889.3672940314354
 30
0.0
  0
POINT
  5
1642
  8
DEFPOINTS
  6
CONTINUOUS
 62
     0
 10
659.3517591882166
 20
687.9561347828308
 30
0.0
  0
ENDBLK
  8
0
  0
BLOCK
  8
0
  2
*D33
 70
     1
 10
0.0
 20
0.0
 30
0.0
  0
LINE
  5
1647
  8
寸法
  6
CONTINUOUS
 62
     1
 10
659.3517591882166
 20
888.3672940314354
 30
0.0
 11
659.3517591882166
 21
687.4561347828308
 31
0.0
  0
LINE
  5
1648
  8
寸法
  6
CONTINUOUS
 62
     1
 10
734.562855
 20
888.4931448858778
 30
0.0
 11
734.562855
 21
687.4561347828308
 31
0.0
  0
LINE
  5
1649
  8
寸法
  6
CONTINUOUS
 62
     1
 10
671.3517591882166
 20
687.9561347828308
 30
0.0
 11
722.562855
 21
687.9561347828308
 31
0.0
  0
INSERT
  5
164A
  8
寸法
  6
CONTINUOUS
 62
     1
  2
_OPEN30
 10
659.3517591882166
 20
687.9561347828308
 30
0.0
 41
12.0
 42
12.0
 43
12.0
 50
180.0
  0
INSERT
  5
164B
  8
寸法
  6
CONTINUOUS
 62
     1
  2
_OPEN30
 10
734.562855
 20
687.9561347828308
 30
0.0
 41
12.0
 42
12.0
 43
12.0
  0
TEXT
  5
164C
  8
寸法
  6
CONTINUOUS
 62
     1
 10
680.2906404274416
 20
688.4561347828308
 30
0.0
 40
20.0
  1
75
  7
TEXTSTYLE01
  0
POINT
  5
164D
  8
DEFPOINTS
  6
CONTINUOUS
 62
     0
 10
659.3517591882166
 20
888.8672940314354
 30
0.0
  0
POINT
  5
164E
  8
DEFPOINTS
  6
CONTINUOUS
 62
     0
 10
734.562855
 20
888.9931448858778
 30
0.0
  0
POINT
  5
164F
  8
DEFPOINTS
  6
CONTINUOUS
 62
     0
 10
734.562855
 20
687.9561347828308
 30
0.0
  0
ENDBLK
  8
0
  0
BLOCK
  8
0
  2
*D34
 70
     1
 10
0.0
 20
0.0
 30
0.0
  0
LINE
  5
1655
  8
寸法
  6
CONTINUOUS
 62
     1
 10
459.7046175
 20
773.4931448858779
 30
0.0
 11
459.7046175
 21
687.4561347828308
 31
0.0
  0
LINE
  5
1656
  8
寸法
  6
CONTINUOUS
 62
     1
 10
404.562865
 20
888.9931448858779
 30
0.0
 11
404.562865
 21
687.4561347828308
 31
0.0
  0
LINE
  5
1657
  8
寸法
  6
CONTINUOUS
 62
     1
 10
447.7046175
 20
687.9561347828308
 30
0.0
 11
416.562865
 21
687.9561347828308
 31
0.0
  0
INSERT
  5
1658
  8
寸法
  6
CONTINUOUS
 62
     1
  2
_OPEN30
 10
459.7046175
 20
687.9561347828308
 30
0.0
 41
12.0
 42
12.0
 43
12.0
  0
INSERT
  5
1659
  8
寸法
  6
CONTINUOUS
 62
     1
  2
_OPEN30
 10
404.562865
 20
687.9561347828308
 30
0.0
 41
12.0
 42
12.0
 43
12.0
 50
180.0
  0
TEXT
  5
165A
  8
寸法
  6
CONTINUOUS
 62
     1
 10
415.4670745833333
 20
688.4561347828308
 30
0.0
 40
20.0
  1
55
  7
TEXTSTYLE01
  0
POINT
  5
165B
  8
DEFPOINTS
  6
CONTINUOUS
 62
     0
 10
459.7046175
 20
773.9931448858779
 30
0.0
  0
POINT
  5
165C
  8
DEFPOINTS
  6
CONTINUOUS
 62
     0
 10
404.562865
 20
889.4931448858779
 30
0.0
  0
POINT
  5
165D
  8
DEFPOINTS
  6
CONTINUOUS
 62
     0
 10
404.562865
 20
687.9561347828308
 30
0.0
  0
ENDBLK
  8
0
  0
BLOCK
  8
0
  2
*D35
 70
     1
 10
0.0
 20
0.0
 30
0.0
  0
LINE
  5
1662
  8
寸法
  6
CONTINUOUS
 62
     1
 10
404.562865
 20
888.9931448858779
 30
0.0
 11
404.562865
 21
687.4561347828308
 31
0.0
  0
LINE
  5
1663
  8
寸法
  6
CONTINUOUS
 62
     1
 10
259.8463800000001
 20
888.9931498858778
 30
0.0
 11
259.8463800000001
 21
687.4561347828308
 31
0.0
  0
LINE
  5
1664
  8
寸法
  6
CONTINUOUS
 62
     1
 10
392.562865
 20
687.9561347828308
 30
0.0
 11
271.8463800000001
 21
687.9561347828308
 31
0.0
  0
INSERT
  5
1665
  8
寸法
  6
CONTINUOUS
 62
     1
  2
_OPEN30
 10
404.562865
 20
687.9561347828308
 30
0.0
 41
12.0
 42
12.0
 43
12.0
  0
INSERT
  5
1666
  8
寸法
  6
CONTINUOUS
 62
     1
  2
_OPEN30
 10
259.8463800000001
 20
687.9561347828308
 30
0.0
 41
12.0
 42
12.0
 43
12.0
 50
180.0
  0
TEXT
  5
1667
  8
寸法
  6
CONTINUOUS
 62
     1
 10
308.8712891666667
 20
688.4561347828308
 30
0.0
 40
20.0
  1
145
  7
TEXTSTYLE01
  0
POINT
  5
1668
  8
DEFPOINTS
  6
CONTINUOUS
 62
     0
 10
404.562865
 20
889.4931448858779
 30
0.0
  0
POINT
  5
1669
  8
DEFPOINTS
  6
CONTINUOUS
 62
     0
 10
259.8463800000001
 20
889.4931498858778
 30
0.0
  0
POINT
  5
166A
  8
DEFPOINTS
  6
CONTINUOUS
 62
     0
 10
259.8463800000001
 20
687.9561347828308
 30
0.0
  0
ENDBLK
  8
0
  0
BLOCK
  8
0
  2
*D36
 70
     1
 10
0.0
 20
0.0
 30
0.0
  0
LINE
  5
166F
  8
寸法
  6
CONTINUOUS
 62
     1
 10
259.8463700000001
 20
888.9931498858778
 30
0.0
 11
259.8463700000001
 21
687.4561347828308
 31
0.0
  0
LINE
  5
1670
  8
寸法
  6
CONTINUOUS
 62
     1
 10
184.8463750000001
 20
888.9931498858773
 30
0.0
 11
184.8463750000001
 21
687.4561347828308
 31
0.0
  0
LINE
  5
1671
  8
寸法
  6
CONTINUOUS
 62
     1
 10
247.8463700000001
 20
687.9561347828308
 30
0.0
 11
196.8463750000001
 21
687.9561347828308
 31
0.0
  0
INSERT
  5
1672
  8
寸法
  6
CONTINUOUS
 62
     1
  2
_OPEN30
 10
259.8463700000001
 20
687.9561347828308
 30
0.0
 41
12.0
 42
12.0
 43
12.0
  0
INSERT
  5
1673
  8
寸法
  6
CONTINUOUS
 62
     1
  2
_OPEN30
 10
184.8463750000001
 20
687.9561347828308
 30
0.0
 41
12.0
 42
12.0
 43
12.0
 50
180.0
  0
TEXT
  5
1674
  8
寸法
  6
CONTINUOUS
 62
     1
 10
205.6797058333334
 20
688.4561347828308
 30
0.0
 40
20.0
  1
75
  7
TEXTSTYLE01
  0
POINT
  5
1675
  8
DEFPOINTS
  6
CONTINUOUS
 62
     0
 10
259.8463700000001
 20
889.4931498858778
 30
0.0
  0
POINT
  5
1676
  8
DEFPOINTS
  6
CONTINUOUS
 62
     0
 10
184.8463750000001
 20
889.4931498858773
 30
0.0
  0
POINT
  5
1677
  8
DEFPOINTS
  6
CONTINUOUS
 62
     0
 10
184.8463750000001
 20
687.9561347828308
 30
0.0
  0
ENDBLK
  8
0
  0
BLOCK
  8
0
  2
*D37
 70
     1
 10
0.0
 20
0.0
 30
0.0
  0
LINE
  5
16EE
  8
寸法
  6
CONTINUOUS
 62
     1
 10
184.8463750000001
 20
888.4931498858773
 30
0.0
 11
184.8463750000001
 21
687.4561347828308
 31
0.0
  0
LINE
  5
16EF
  8
寸法
  6
CONTINUOUS
 62
     1
 10
159.8463750000001
 20
813.9931448858779
 30
0.0
 11
159.8463750000001
 21
687.4561347828308
 31
0.0
  0
LINE
  5
16F0
  8
寸法
  6
CONTINUOUS
 62
     1
 10
172.8463750000001
 20
687.9561347828308
 30
0.0
 11
171.8463750000001
 21
687.9561347828308
 31
0.0
  0
TEXT
  5
16F1
  8
寸法
  6
CONTINUOUS
 62
     1
 10
146.5906857262101
 20
688.5000366268218
 30
0.0
 40
20.0
  1
25
  7
TEXTSTYLE01
  0
INSERT
  5
16F2
  8
寸法
  6
CONTINUOUS
 62
     1
  2
_OPEN30
 10
184.8463750000001
 20
687.9561347828308
 30
0.0
 41
12.0
 42
12.0
 43
12.0
  0
INSERT
  5
16F3
  8
寸法
  6
CONTINUOUS
 62
     1
  2
_OPEN30
 10
159.8463750000001
 20
687.9561347828308
 30
0.0
 41
12.0
 42
12.0
 43
12.0
 50
180.0
  0
POINT
  5
16F4
  8
DEFPOINTS
  6
CONTINUOUS
 62
     0
 10
184.8463750000001
 20
888.9931498858773
 30
0.0
  0
POINT
  5
16F5
  8
DEFPOINTS
  6
CONTINUOUS
 62
     0
 10
159.8463750000001
 20
814.4931448858779
 30
0.0
  0
POINT
  5
16F6
  8
DEFPOINTS
  6
CONTINUOUS
 62
     0
 10
159.8463750000001
 20
687.9561347828308
 30
0.0
  0
ENDBLK
  8
0
  0
BLOCK
  8
0
  2
*D38
 70
     1
 10
0.0
 20
0.0
 30
0.0
  0
LINE
  5
168A
  8
寸法
  6
CONTINUOUS
 62
     1
 10
459.7046175
 20
773.9931448858779
 30
0.0
 11
459.7046175
 21
724.852944648921
 31
0.0
  0
LINE
  5
168B
  8
寸法
  6
CONTINUOUS
 62
     1
 10
359.8463750000001
 20
898.993144885878
 30
0.0
 11
359.8463750000001
 21
724.852944648921
 31
0.0
  0
LINE
  5
168C
  8
寸法
  6
CONTINUOUS
 62
     1
 10
447.7046175
 20
725.352944648921
 30
0.0
 11
371.8463750000001
 21
725.352944648921
 31
0.0
  0
INSERT
  5
168D
  8
寸法
  6
CONTINUOUS
 62
     1
  2
_OPEN30
 10
459.7046175
 20
725.352944648921
 30
0.0
 41
12.0
 42
12.0
 43
12.0
  0
INSERT
  5
168E
  8
寸法
  6
CONTINUOUS
 62
     1
  2
_OPEN30
 10
359.8463750000001
 20
725.352944648921
 30
0.0
 41
12.0
 42
12.0
 43
12.0
 50
180.0
  0
TEXT
  5
168F
  8
寸法
  6
CONTINUOUS
 62
     1
 10
389.7754962500001
 20
725.852944648921
 30
0.0
 40
20.0
  1
100
  7
TEXTSTYLE01
  0
POINT
  5
1690
  8
DEFPOINTS
  6
CONTINUOUS
 62
     0
 10
459.7046175
 20
774.4931448858779
 30
0.0
  0
POINT
  5
1691
  8
DEFPOINTS
  6
CONTINUOUS
 62
     0
 10
359.8463750000001
 20
899.493144885878
 30
0.0
  0
POINT
  5
1692
  8
DEFPOINTS
  6
CONTINUOUS
 62
     0
 10
359.8463750000001
 20
725.352944648921
 30
0.0
  0
ENDBLK
  8
0
  0
BLOCK
  8
0
  2
*D39
 70
     1
 10
0.0
 20
0.0
 30
0.0
  0
LINE
  5
1697
  8
寸法
  6
CONTINUOUS
 62
     1
 10
359.8463800000001
 20
898.993139885878
 30
0.0
 11
359.8463800000001
 21
724.852944648921
 31
0.0
  0
LINE
  5
1698
  8
寸法
  6
CONTINUOUS
 62
     1
 10
259.8463700000001
 20
898.9931398858779
 30
0.0
 11
259.8463700000001
 21
724.852944648921
 31
0.0
  0
LINE
  5
1699
  8
寸法
  6
CONTINUOUS
 62
     1
 10
347.8463800000001
 20
725.352944648921
 30
0.0
 11
271.8463700000001
 21
725.352944648921
 31
0.0
  0
INSERT
  5
169A
  8
寸法
  6
CONTINUOUS
 62
     1
  2
_OPEN30
 10
359.8463800000001
 20
725.352944648921
 30
0.0
 41
12.0
 42
12.0
 43
12.0
  0
INSERT
  5
169B
  8
寸法
  6
CONTINUOUS
 62
     1
  2
_OPEN30
 10
259.8463700000001
 20
725.352944648921
 30
0.0
 41
12.0
 42
12.0
 43
12.0
 50
180.0
  0
TEXT
  5
169C
  8
寸法
  6
CONTINUOUS
 62
     1
 10
289.8463750000001
 20
725.852944648921
 30
0.0
 40
20.0
  1
100
  7
TEXTSTYLE01
  0
POINT
  5
169D
  8
DEFPOINTS
  6
CONTINUOUS
 62
     0
 10
359.8463800000001
 20
899.493139885878
 30
0.0
  0
POINT
  5
169E
  8
DEFPOINTS
  6
CONTINUOUS
 62
     0
 10
259.8463700000001
 20
899.4931398858779
 30
0.0
  0
POINT
  5
169F
  8
DEFPOINTS
  6
CONTINUOUS
 62
     0
 10
259.8463700000001
 20
725.352944648921
 30
0.0
  0
ENDBLK
  8
0
  0
BLOCK
  8
0
  2
*D40
 70
     1
 10
0.0
 20
0.0
 30
0.0
  0
LINE
  5
16A4
  8
寸法
  6
CONTINUOUS
 62
     1
 10
259.8463750000001
 20
898.9931498858779
 30
0.0
 11
259.8463750000001
 21
724.852944648921
 31
0.0
  0
LINE
  5
16A5
  8
寸法
  6
CONTINUOUS
 62
     1
 10
159.8463750000001
 20
813.4931448858779
 30
0.0
 11
159.8463750000001
 21
724.852944648921
 31
0.0
  0
LINE
  5
16A6
  8
寸法
  6
CONTINUOUS
 62
     1
 10
247.8463750000001
 20
725.352944648921
 30
0.0
 11
171.8463750000001
 21
725.352944648921
 31
0.0
  0
INSERT
  5
16A7
  8
寸法
  6
CONTINUOUS
 62
     1
  2
_OPEN30
 10
259.8463750000001
 20
725.352944648921
 30
0.0
 41
12.0
 42
12.0
 43
12.0
  0
INSERT
  5
16A8
  8
寸法
  6
CONTINUOUS
 62
     1
  2
_OPEN30
 10
159.8463750000001
 20
725.352944648921
 30
0.0
 41
12.0
 42
12.0
 43
12.0
 50
180.0
  0
TEXT
  5
16A9
  8
寸法
  6
CONTINUOUS
 62
     1
 10
189.8463750000001
 20
725.852944648921
 30
0.0
 40
20.0
  1
100
  7
TEXTSTYLE01
  0
POINT
  5
16AA
  8
DEFPOINTS
  6
CONTINUOUS
 62
     0
 10
259.8463750000001
 20
899.4931498858779
 30
0.0
  0
POINT
  5
16AB
  8
DEFPOINTS
  6
CONTINUOUS
 62
     0
 10
159.8463750000001
 20
813.9931448858779
 30
0.0
  0
POINT
  5
16AC
  8
DEFPOINTS
  6
CONTINUOUS
 62
     0
 10
159.8463750000001
 20
725.352944648921
 30
0.0
  0
ENDBLK
  8
0
  0
BLOCK
  8
0
  2
*D41
 70
     1
 10
0.0
 20
0.0
 30
0.0
  0
LINE
  5
16B1
  8
寸法
  6
CONTINUOUS
 62
     1
 10
199.3463750000001
 20
1184.993144885878
 30
0.0
 11
199.3463750000001
 21
1244.431990861598
 31
0.0
  0
LINE
  5
16B2
  8
寸法
  6
CONTINUOUS
 62
     1
 10
159.8463750000001
 20
1184.993144885878
 30
0.0
 11
159.8463750000001
 21
1244.431990861598
 31
0.0
  0
LINE
  5
16B3
  8
寸法
  6
CONTINUOUS
 62
     1
 10
187.3463750000001
 20
1243.931990861598
 30
0.0
 11
171.8463750000001
 21
1243.931990861598
 31
0.0
  0
INSERT
  5
16B4
  8
寸法
  6
CONTINUOUS
 62
     1
  2
_OPEN30
 10
199.3463750000001
 20
1243.931990861598
 30
0.0
 41
12.0
 42
12.0
 43
12.0
  0
INSERT
  5
16B5
  8
寸法
  6
CONTINUOUS
 62
     1
  2
_OPEN30
 10
159.8463750000001
 20
1243.931990861598
 30
0.0
 41
12.0
 42
12.0
 43
12.0
 50
180.0
  0
TEXT
  5
16B6
  8
寸法
  6
CONTINUOUS
 62
     1
 10
164.5963750000001
 20
1244.431990861598
 30
0.0
 40
20.0
  1
40
  7
TEXTSTYLE01
  0
POINT
  5
16B7
  8
DEFPOINTS
  6
CONTINUOUS
 62
     0
 10
199.3463750000001
 20
1184.493144885878
 30
0.0
  0
POINT
  5
16B8
  8
DEFPOINTS
  6
CONTINUOUS
 62
     0
 10
159.8463750000001
 20
1184.493144885878
 30
0.0
  0
POINT
  5
16B9
  8
DEFPOINTS
  6
CONTINUOUS
 62
     0
 10
159.8463750000001
 20
1243.931990861598
 30
0.0
  0
ENDBLK
  8
0
  0
BLOCK
  8
0
  2
*D42
 70
     1
 10
0.0
 20
0.0
 30
0.0
  0
LINE
  5
16BE
  8
寸法
  6
CONTINUOUS
 62
     1
 10
459.7046175
 20
773.9931448858779
 30
0.0
 11
459.7046175
 21
724.852944648921
 31
0.0
  0
LINE
  5
16BF
  8
寸法
  6
CONTINUOUS
 62
     1
 10
560.062865
 20
898.9931448858779
 30
0.0
 11
560.062865
 21
724.852944648921
 31
0.0
  0
LINE
  5
16C0
  8
寸法
  6
CONTINUOUS
 62
     1
 10
471.7046175
 20
725.352944648921
 30
0.0
 11
548.062865
 21
725.352944648921
 31
0.0
  0
INSERT
  5
16C1
  8
寸法
  6
CONTINUOUS
 62
     1
  2
_OPEN30
 10
459.7046175
 20
725.352944648921
 30
0.0
 41
12.0
 42
12.0
 43
12.0
 50
180.0
  0
INSERT
  5
16C2
  8
寸法
  6
CONTINUOUS
 62
     1
  2
_OPEN30
 10
560.062865
 20
725.352944648921
 30
0.0
 41
12.0
 42
12.0
 43
12.0
  0
TEXT
  5
16C3
  8
寸法
  6
CONTINUOUS
 62
     1
 10
489.88374125
 20
725.852944648921
 30
0.0
 40
20.0
  1
100
  7
TEXTSTYLE01
  0
POINT
  5
16C4
  8
DEFPOINTS
  6
CONTINUOUS
 62
     0
 10
459.7046175
 20
774.4931448858779
 30
0.0
  0
POINT
  5
16C5
  8
DEFPOINTS
  6
CONTINUOUS
 62
     0
 10
560.062865
 20
899.4931448858779
 30
0.0
  0
POINT
  5
16C6
  8
DEFPOINTS
  6
CONTINUOUS
 62
     0
 10
560.062865
 20
725.352944648921
 30
0.0
  0
ENDBLK
  8
0
  0
BLOCK
  8
0
  2
*D43
 70
     1
 10
0.0
 20
0.0
 30
0.0
  0
LINE
  5
16CB
  8
寸法
  6
CONTINUOUS
 62
     1
 10
559.56286
 20
898.9931498858779
 30
0.0
 11
559.56286
 21
724.852944648921
 31
0.0
  0
LINE
  5
16CC
  8
寸法
  6
CONTINUOUS
 62
     1
 10
659.562865
 20
898.993139885878
 30
0.0
 11
659.562865
 21
724.852944648921
 31
0.0
  0
LINE
  5
16CD
  8
寸法
  6
CONTINUOUS
 62
     1
 10
571.56286
 20
725.352944648921
 30
0.0
 11
647.562865
 21
725.352944648921
 31
0.0
  0
INSERT
  5
16CE
  8
寸法
  6
CONTINUOUS
 62
     1
  2
_OPEN30
 10
559.56286
 20
725.352944648921
 30
0.0
 41
12.0
 42
12.0
 43
12.0
 50
180.0
  0
INSERT
  5
16CF
  8
寸法
  6
CONTINUOUS
 62
     1
  2
_OPEN30
 10
659.562865
 20
725.352944648921
 30
0.0
 41
12.0
 42
12.0
 43
12.0
  0
TEXT
  5
16D0
  8
寸法
  6
CONTINUOUS
 62
     1
 10
589.5628624999999
 20
725.852944648921
 30
0.0
 40
20.0
  1
100
  7
TEXTSTYLE01
  0
POINT
  5
16D1
  8
DEFPOINTS
  6
CONTINUOUS
 62
     0
 10
559.56286
 20
899.4931498858779
 30
0.0
  0
POINT
  5
16D2
  8
DEFPOINTS
  6
CONTINUOUS
 62
     0
 10
659.562865
 20
899.493139885878
 30
0.0
  0
POINT
  5
16D3
  8
DEFPOINTS
  6
CONTINUOUS
 62
     0
 10
659.562865
 20
725.352944648921
 30
0.0
  0
ENDBLK
  8
0
  0
BLOCK
  8
0
  2
*D44
 70
     1
 10
0.0
 20
0.0
 30
0.0
  0
LINE
  5
16D9
  8
寸法
  6
CONTINUOUS
 62
     1
 10
659.562865
 20
898.493139885878
 30
0.0
 11
659.562865
 21
724.852944648921
 31
0.0
  0
LINE
  5
16DA
  8
寸法
  6
CONTINUOUS
 62
     1
 10
759.56286
 20
773.9931448858779
 30
0.0
 11
759.56286
 21
724.852944648921
 31
0.0
  0
LINE
  5
16DB
  8
寸法
  6
CONTINUOUS
 62
     1
 10
671.562865
 20
725.352944648921
 30
0.0
 11
747.56286
 21
725.352944648921
 31
0.0
  0
INSERT
  5
16DC
  8
寸法
  6
CONTINUOUS
 62
     1
  2
_OPEN30
 10
659.562865
 20
725.352944648921
 30
0.0
 41
12.0
 42
12.0
 43
12.0
 50
180.0
  0
INSERT
  5
16DD
  8
寸法
  6
CONTINUOUS
 62
     1
  2
_OPEN30
 10
759.56286
 20
725.352944648921
 30
0.0
 41
12.0
 42
12.0
 43
12.0
  0
TEXT
  5
16DE
  8
寸法
  6
CONTINUOUS
 62
     1
 10
689.5628624999999
 20
725.852944648921
 30
0.0
 40
20.0
  1
100
  7
TEXTSTYLE01
  0
POINT
  5
16DF
  8
DEFPOINTS
  6
CONTINUOUS
 62
     0
 10
659.562865
 20
898.993139885878
 30
0.0
  0
POINT
  5
16E0
  8
DEFPOINTS
  6
CONTINUOUS
 62
     0
 10
759.56286
 20
774.4931448858779
 30
0.0
  0
POINT
  5
16E1
  8
DEFPOINTS
  6
CONTINUOUS
 62
     0
 10
759.56286
 20
725.352944648921
 30
0.0
  0
ENDBLK
  8
0
  0
BLOCK
  8
0
  2
*D45
 70
     1
 10
0.0
 20
0.0
 30
0.0
  0
LINE
  5
16F9
  8
寸法
  6
CONTINUOUS
 62
     1
 10
560.562865
 20
899.4931448858779
 30
0.0
 11
811.7948125039338
 21
899.4931448858778
 31
0.0
  0
LINE
  5
16FA
  8
寸法
  6
CONTINUOUS
 62
     1
 10
589.721635
 20
774.4931448858779
 30
0.0
 11
811.7948125039338
 21
774.4931448858778
 31
0.0
  0
LINE
  5
16FB
  8
寸法
  6
CONTINUOUS
 62
     1
 10
811.2948125039338
 20
887.4931448858778
 30
0.0
 11
811.2948125039338
 21
786.4931448858778
 31
0.0
  0
INSERT
  5
16FC
  8
寸法
  6
CONTINUOUS
 62
     1
  2
_OPEN30
 10
811.2948125039338
 20
899.4931448858778
 30
0.0
 41
12.0
 42
12.0
 43
12.0
 50
90.0
  0
INSERT
  5
16FD
  8
寸法
  6
CONTINUOUS
 62
     1
  2
_OPEN30
 10
811.2948125039338
 20
774.4931448858778
 30
0.0
 41
12.0
 42
12.0
 43
12.0
 50
270.0
  0
TEXT
  5
16FE
  8
寸法
  6
CONTINUOUS
 62
     1
 10
810.7948125039337
 20
813.6598115525446
 30
0.0
 40
20.0
  1
125
 50
90.0
  7
TEXTSTYLE01
  0
POINT
  5
16FF
  8
DEFPOINTS
  6
CONTINUOUS
 62
     0
 10
560.062865
 20
899.4931448858779
 30
0.0
  0
POINT
  5
1700
  8
DEFPOINTS
  6
CONTINUOUS
 62
     0
 10
589.221635
 20
774.4931448858779
 30
0.0
  0
POINT
  5
1701
  8
DEFPOINTS
  6
CONTINUOUS
 62
     0
 10
811.2948125039338
 20
774.4931448858778
 30
0.0
  0
ENDBLK
  8
0
  0
BLOCK
  8
0
  2
*D46
 70
     1
 10
0.0
 20
0.0
 30
0.0
  0
LINE
  5
1707
  8
寸法
  6
CONTINUOUS
 62
     1
 10
207.5851571276617
 20
227.7251191464908
 30
0.0
 11
207.5851571276617
 21
165.4905609062321
 31
0.0
  0
LINE
  5
1708
  8
寸法
  6
CONTINUOUS
 62
     1
 10
707.3489371276617
 20
227.7251191464908
 30
0.0
 11
707.3489371276617
 21
165.4905609062321
 31
0.0
  0
LINE
  5
1709
  8
寸法
  6
CONTINUOUS
 62
     1
 10
219.5851571276617
 20
165.9905609062321
 30
0.0
 11
695.3489371276617
 21
165.9905609062321
 31
0.0
  0
INSERT
  5
170A
  8
寸法
  6
CONTINUOUS
 62
     1
  2
_OPEN30
 10
207.5851571276617
 20
165.9905609062321
 30
0.0
 41
12.0
 42
12.0
 43
12.0
 50
180.0
  0
INSERT
  5
170B
  8
寸法
  6
CONTINUOUS
 62
     1
  2
_OPEN30
 10
707.3489371276617
 20
165.9905609062321
 30
0.0
 41
12.0
 42
12.0
 43
12.0
  0
TEXT
  5
170C
  8
寸法
  6
CONTINUOUS
 62
     1
 10
434.1337137943283
 20
166.4905609062321
 30
0.0
 40
20.0
  1
500
  7
TEXTSTYLE01
  0
POINT
  5
170D
  8
DEFPOINTS
  6
CONTINUOUS
 62
     0
 10
207.5851571276617
 20
228.2251191464908
 30
0.0
  0
POINT
  5
170E
  8
DEFPOINTS
  6
CONTINUOUS
 62
     0
 10
707.3489371276617
 20
228.2251191464908
 30
0.0
  0
POINT
  5
170F
  8
DEFPOINTS
  6
CONTINUOUS
 62
     0
 10
707.3489371276617
 20
165.9905609062321
 30
0.0
  0
ENDBLK
  8
0
  0
BLOCK
  8
0
  2
*X47
 70
     1
 10
0.0
 20
0.0
 30
0.0
  0
INSERT
  5
177E
  8
寸法
  6
CONTINUOUS
 62
     1
  2
_OPEN30
 10
727.5800006375425
 20
806.7995742072986
 30
0.0
 41
12.0
 42
12.0
 43
12.0
 50
122.2869206599381
  0
LINE
  5
177F
  8
寸法
  6
CONTINUOUS
 62
     1
 10
733.9899132115827
 20
796.6549687052024
 30
0.0
 11
771.141845810504
 21
737.8567096801236
 31
0.0
  0
LINE
  5
1780
  8
寸法
  6
CONTINUOUS
 62
     1
 10
771.141845810504
 20
737.8567096801236
 30
0.0
 11
833.641845810504
 21
737.8567096801236
 31
0.0
  0
ENDBLK
  8
0
  0
ENDSEC
  0
SECTION
  2
ENTITIES
  0
POLYLINE
  5
49
  8
ﾚｲﾔ1
  6
CONTINUOUS
 62
     9
 66
     1
 10
0.0
 20
0.0
 30
0.0
 70
     1
  0
VERTEX
  5
1779
  8
ﾚｲﾔ1
  6
CONTINUOUS
 62
     9
 10
-210.0
 20
-148.5
 30
0.0
  0
VERTEX
  5
177A
  8
ﾚｲﾔ1
  6
CONTINUOUS
 62
     9
 10
1890.0
 20
-148.5
 30
0.0
  0
VERTEX
  5
177B
  8
ﾚｲﾔ1
  6
CONTINUOUS
 62
     9
 10
1890.0
 20
1336.5
 30
0.0
  0
VERTEX
  5
177C
  8
ﾚｲﾔ1
  6
CONTINUOUS
 62
     9
 10
-210.0
 20
1336.5
 30
0.0
  0
SEQEND
  5
1783
  8
ﾚｲﾔ1
  6
CONTINUOUS
 62
     9
  0
LINE
  5
127
  8
ﾚｲﾔ1
  6
CONTINUOUS
 62
    38
 10
1011.144862127662
 20
198.168404146491
 30
0.0
 11
1011.144862127662
 21
238.1495041464909
 31
0.0
  0
LINE
  5
128
  8
ﾚｲﾔ1
  6
CONTINUOUS
 62
    38
 10
973.1486321276618
 20
226.0985141464909
 30
0.0
 11
1011.144862127662
 21
198.168404146491
 31
0.0
  0
LINE
  5
129
  8
ﾚｲﾔ1
  6
CONTINUOUS
 62
    38
 10
1011.144862127662
 20
198.168404146491
 30
0.0
 11
1027.165612127661
 21
198.168404146491
 31
0.0
  0
LINE
  5
12A
  8
ﾚｲﾔ1
  6
CONTINUOUS
 62
    38
 10
1027.165612127661
 20
210.2194441464909
 30
0.0
 11
1027.165612127661
 21
198.168404146491
 31
0.0
  0
LINE
  5
12B
  8
ﾚｲﾔ1
  6
CONTINUOUS
 62
    38
 10
1506.985972127662
 20
198.168404146491
 30
0.0
 11
1506.985972127662
 21
238.1495041464909
 31
0.0
  0
LINE
  5
12C
  8
ﾚｲﾔ1
  6
CONTINUOUS
 62
    38
 10
1544.982197127661
 20
226.0985141464909
 30
0.0
 11
1506.985972127662
 21
198.168404146491
 31
0.0
  0
LINE
  5
12D
  8
ﾚｲﾔ1
  6
CONTINUOUS
 62
    38
 10
1506.985972127662
 20
198.168404146491
 30
0.0
 11
1490.965247127661
 21
198.168404146491
 31
0.0
  0
LINE
  5
12E
  8
ﾚｲﾔ1
  6
CONTINUOUS
 62
    38
 10
1490.965247127661
 20
210.2194441464909
 30
0.0
 11
1490.965247127661
 21
198.168404146491
 31
0.0
  0
LINE
  5
12F
  8
ﾚｲﾔ1
  6
CONTINUOUS
 10
113.5870971276618
 20
238.1495041464909
 30
0.0
 11
113.5870971276618
 21
198.168404146491
 31
0.0
  0
LINE
  5
130
  8
ﾚｲﾔ1
  6
CONTINUOUS
 10
801.3469871276617
 20
198.168404146491
 30
0.0
 11
801.3469871276617
 21
238.1495041464909
 31
0.0
  0
LINE
  5
131
  8
ﾚｲﾔ1
  6
CONTINUOUS
 10
107.6324721276617
 20
238.1495041464909
 30
0.0
 11
107.6324721276617
 21
204.2648691464909
 31
0.0
  0
LINE
  5
132
  8
ﾚｲﾔ1
  6
CONTINUOUS
 10
107.6324721276617
 20
204.2648691464909
 30
0.0
 11
113.5870971276618
 21
198.168404146491
 31
0.0
  0
LINE
  5
133
  8
ﾚｲﾔ1
  6
CONTINUOUS
 10
113.5870971276618
 20
198.168404146491
 30
0.0
 11
801.3469871276617
 21
198.168404146491
 31
0.0
  0
LINE
  5
134
  8
ﾚｲﾔ1
  6
CONTINUOUS
 10
801.3469871276617
 20
198.168404146491
 30
0.0
 11
807.3016221276616
 21
204.2648691464909
 31
0.0
  0
LINE
  5
135
  8
ﾚｲﾔ1
  6
CONTINUOUS
 10
807.3016221276616
 20
204.2648691464909
 30
0.0
 11
807.3016221276616
 21
238.1495041464909
 31
0.0
  0
LINE
  5
162
  8
ﾚｲﾔ1
  6
CONTINUOUS
 10
265.0048721276618
 20
306.6278291464909
 30
0.0
 11
276.3469721276617
 21
315.276154146491
 31
0.0
  0
LINE
  5
163
  8
ﾚｲﾔ1
  6
CONTINUOUS
 10
276.3469721276617
 20
315.276154146491
 30
0.0
 11
285.1371471276616
 21
326.6183641464909
 31
0.0
  0
LINE
  5
196
  8
ﾚｲﾔ1
  6
CONTINUOUS
 10
157.5379471276617
 20
472.0815291464909
 30
0.0
 11
757.2544221276617
 21
472.0815291464909
 31
0.0
  0
LINE
  5
197
  8
ﾚｲﾔ1
  6
CONTINUOUS
 10
757.2544221276617
 20
472.0815291464909
 30
0.0
 11
757.2544221276617
 21
254.1703041464909
 31
0.0
  0
LINE
  5
198
  8
ﾚｲﾔ1
  6
CONTINUOUS
 10
757.2544221276617
 20
254.1703041464909
 30
0.0
 11
157.5379471276617
 21
254.1703041464909
 31
0.0
  0
LINE
  5
199
  8
ﾚｲﾔ1
  6
CONTINUOUS
 10
157.5379471276617
 20
254.1703041464909
 30
0.0
 11
157.5379471276617
 21
472.0815291464909
 31
0.0
  0
LINE
  5
19A
  8
ﾚｲﾔ1
  6
CONTINUOUS
 10
157.5379471276617
 20
472.0815291464909
 30
0.0
 11
157.5379471276617
 21
488.1023041464908
 31
0.0
  0
LINE
  5
19B
  8
ﾚｲﾔ1
  6
CONTINUOUS
 10
157.5379471276617
 20
488.1023041464908
 30
0.0
 11
757.2544221276617
 21
488.1023041464908
 31
0.0
  0
LINE
  5
19C
  8
ﾚｲﾔ1
  6
CONTINUOUS
 10
757.2544221276617
 20
488.1023041464908
 30
0.0
 11
757.2544221276617
 21
472.0815291464909
 31
0.0
  0
LINE
  5
19D
  8
ﾚｲﾔ1
  6
CONTINUOUS
 10
157.5379471276617
 20
238.1495041464909
 30
0.0
 11
157.5379471276617
 21
198.168404146491
 31
0.0
  0
LINE
  5
19E
  8
ﾚｲﾔ1
  6
CONTINUOUS
 10
135.5625071276618
 20
233.1873191464909
 30
0.0
 11
157.5379471276617
 21
233.1873191464909
 31
0.0
  0
LINE
  5
19F
  8
ﾚｲﾔ1
  6
CONTINUOUS
 10
135.5625071276618
 20
238.1495041464909
 30
0.0
 11
135.5625071276618
 21
198.168404146491
 31
0.0
  0
LINE
  5
1A0
  8
ﾚｲﾔ1
  6
CONTINUOUS
 10
779.3716221276617
 20
238.1495041464909
 30
0.0
 11
779.3716221276617
 21
198.168404146491
 31
0.0
  0
LINE
  5
1A1
  8
ﾚｲﾔ1
  6
CONTINUOUS
 10
757.2544221276617
 20
233.1873191464909
 30
0.0
 11
779.3716221276617
 21
233.1873191464909
 31
0.0
  0
LINE
  5
1A2
  8
ﾚｲﾔ1
  6
CONTINUOUS
 10
757.2544221276617
 20
238.1495041464909
 30
0.0
 11
757.2544221276617
 21
198.168404146491
 31
0.0
  0
LINE
  5
1A3
  8
ﾚｲﾔ1
  6
CONTINUOUS
 10
609.3810721276617
 20
238.1495041464909
 30
0.0
 11
609.3810721276617
 21
198.168404146491
 31
0.0
  0
LINE
  5
1A4
  8
ﾚｲﾔ1
  6
CONTINUOUS
 10
586.4131971276616
 20
233.1873191464909
 30
0.0
 11
609.3810721276617
 21
233.1873191464909
 31
0.0
  0
LINE
  5
1A5
  8
ﾚｲﾔ1
  6
CONTINUOUS
 10
586.4131971276616
 20
238.1495041464909
 30
0.0
 11
586.4131971276616
 21
198.168404146491
 31
0.0
  0
LINE
  5
1A6
  8
ﾚｲﾔ1
  6
CONTINUOUS
 10
586.4131971276616
 20
254.1703041464909
 30
0.0
 11
586.4131971276616
 21
472.0815291464909
 31
0.0
  0
LINE
  5
1A7
  8
ﾚｲﾔ1
  6
CONTINUOUS
 10
608.3886321276617
 20
254.1703041464909
 30
0.0
 11
608.3886321276617
 21
472.0815291464909
 31
0.0
  0
LINE
  5
1A8
  8
ﾚｲﾔ1
  6
CONTINUOUS
 10
468.4547821276617
 20
254.1703041464909
 30
0.0
 11
468.4547821276617
 21
472.0815291464909
 31
0.0
  0
LINE
  5
1A9
  8
ﾚｲﾔ1
  6
CONTINUOUS
 10
446.4793571276616
 20
254.1703041464909
 30
0.0
 11
446.4793571276616
 21
472.0815291464909
 31
0.0
  0
LINE
  5
1AA
  8
ﾚｲﾔ1
  6
CONTINUOUS
 10
107.6324721276617
 20
254.1703041464909
 30
0.0
 11
807.3016221276616
 21
254.1703041464909
 31
0.0
  0
LINE
  5
1AB
  8
ﾚｲﾔ1
  6
CONTINUOUS
 10
807.3016221276616
 20
254.1703041464909
 30
0.0
 11
807.3016221276616
 21
238.1495041464909
 31
0.0
  0
LINE
  5
1AC
  8
ﾚｲﾔ1
  6
CONTINUOUS
 10
807.3016221276616
 20
238.1495041464909
 30
0.0
 11
107.6324721276617
 21
238.1495041464909
 31
0.0
  0
LINE
  5
1AD
  8
ﾚｲﾔ1
  6
CONTINUOUS
 10
107.6324721276617
 20
238.1495041464909
 30
0.0
 11
107.6324721276617
 21
254.1703041464909
 31
0.0
  0
LINE
  5
1AE
  8
ﾚｲﾔ1
  6
CONTINUOUS
 10
468.4547821276617
 20
238.1495041464909
 30
0.0
 11
468.4547821276617
 21
198.168404146491
 31
0.0
  0
LINE
  5
1AF
  8
ﾚｲﾔ1
  6
CONTINUOUS
 10
446.4793571276616
 20
233.1873191464909
 30
0.0
 11
468.4547821276617
 21
233.1873191464909
 31
0.0
  0
LINE
  5
1B0
  8
ﾚｲﾔ1
  6
CONTINUOUS
 10
446.4793571276616
 20
238.1495041464909
 30
0.0
 11
446.4793571276616
 21
198.168404146491
 31
0.0
  0
LINE
  5
1B1
  8
ﾚｲﾔ1
  6
CONTINUOUS
 10
329.5133221276617
 20
238.1495041464909
 30
0.0
 11
329.5133221276617
 21
198.168404146491
 31
0.0
  0
LINE
  5
1B2
  8
ﾚｲﾔ1
  6
CONTINUOUS
 10
306.5454471276616
 20
233.1873191464909
 30
0.0
 11
329.5133221276617
 21
233.1873191464909
 31
0.0
  0
LINE
  5
1B3
  8
ﾚｲﾔ1
  6
CONTINUOUS
 10
306.5454471276616
 20
238.1495041464909
 30
0.0
 11
306.5454471276616
 21
198.168404146491
 31
0.0
  0
LINE
  5
1B4
  8
ﾚｲﾔ1
  6
CONTINUOUS
 10
306.5454471276616
 20
254.1703041464909
 30
0.0
 11
306.5454471276616
 21
472.0815291464909
 31
0.0
  0
LINE
  5
1B5
  8
ﾚｲﾔ1
  6
CONTINUOUS
 10
328.5208821276617
 20
254.1703041464909
 30
0.0
 11
328.5208821276617
 21
472.0815291464909
 31
0.0
  0
LINE
  5
20B
  8
ﾚｲﾔ1
  6
CONTINUOUS
 10
159.8463750000001
 20
1224.493144885878
 30
0.0
 11
759.56286
 21
1224.493144885878
 31
0.0
  0
LINE
  5
20C
  8
ﾚｲﾔ1
  6
CONTINUOUS
 10
759.56286
 20
1224.493144885878
 30
0.0
 11
759.56286
 21
774.4931448858779
 31
0.0
  0
LINE
  5
20D
  8
ﾚｲﾔ1
  6
CONTINUOUS
 10
159.8463750000001
 20
774.4931448858779
 30
0.0
 11
159.8463750000001
 21
1224.493144885878
 31
0.0
  0
LINE
  5
24A
  8
ﾚｲﾔ1
  6
CONTINUOUS
 62
     7
 10
1034.065392127662
 20
254.1703041464909
 30
0.0
 11
1034.065392127662
 21
472.0815291464909
 31
0.0
  0
LINE
  5
24B
  8
ﾚｲﾔ1
  6
CONTINUOUS
 62
     7
 10
1206.040787127662
 20
254.1703041464909
 30
0.0
 11
1206.040787127662
 21
472.0815291464909
 31
0.0
  0
LINE
  5
24C
  8
ﾚｲﾔ1
  6
CONTINUOUS
 62
     7
 10
1289.972747127661
 20
254.1703041464909
 30
0.0
 11
1289.972747127661
 21
472.0815291464909
 31
0.0
  0
LINE
  5
24D
  8
ﾚｲﾔ1
  6
CONTINUOUS
 62
     7
 10
1312.089997127662
 20
254.1703041464909
 30
0.0
 11
1312.089997127662
 21
472.0815291464909
 31
0.0
  0
LINE
  5
24E
  8
ﾚｲﾔ1
  6
CONTINUOUS
 62
     7
 10
1034.065392127662
 20
488.1023041464908
 30
0.0
 11
1484.065392127662
 21
488.1023041464908
 31
0.0
  0
LINE
  5
250
  8
ﾚｲﾔ1
  6
CONTINUOUS
 62
     7
 10
1484.065392127662
 20
472.0815291464909
 30
0.0
 11
1034.065392127662
 21
472.0815291464909
 31
0.0
  0
LINE
  5
251
  8
ﾚｲﾔ1
  6
CONTINUOUS
 62
     7
 10
1034.065392127662
 20
472.0815291464909
 30
0.0
 11
1034.065392127662
 21
488.1023041464908
 31
0.0
  0
LINE
  5
283
  8
ﾚｲﾔ1
  6
CONTINUOUS
 62
     7
 10
1312.089997127662
 20
409.1325541464909
 30
0.0
 11
1321.021947127661
 21
409.1325541464909
 31
0.0
  0
LINE
  5
284
  8
ﾚｲﾔ1
  6
CONTINUOUS
 62
     7
 10
1321.021947127661
 20
409.1325541464909
 30
0.0
 11
1321.021947127661
 21
299.113594146491
 31
0.0
  0
LINE
  5
285
  8
ﾚｲﾔ1
  6
CONTINUOUS
 62
     7
 10
1289.972747127661
 20
384.0379791464909
 30
0.0
 11
1321.021947127661
 21
384.0379791464909
 31
0.0
  0
LINE
  5
286
  8
ﾚｲﾔ1
  6
CONTINUOUS
 62
     7
 10
1312.089997127662
 20
414.094694146491
 30
0.0
 11
1317.052182127662
 21
409.1325541464909
 31
0.0
  0
LINE
  5
287
  8
ﾚｲﾔ1
  6
CONTINUOUS
 62
     7
 10
1289.972747127661
 20
324.2081691464909
 30
0.0
 11
1321.021947127661
 21
324.2081691464909
 31
0.0
  0
LINE
  5
288
  8
ﾚｲﾔ1
  6
CONTINUOUS
 62
     7
 10
1321.021947127661
 20
299.113594146491
 30
0.0
 11
1312.089997127662
 21
299.113594146491
 31
0.0
  0
LINE
  5
289
  8
ﾚｲﾔ1
  6
CONTINUOUS
 62
     7
 10
1312.089997127662
 20
294.1513941464909
 30
0.0
 11
1318.044637127662
 21
299.113594146491
 31
0.0
  0
LINE
  5
28A
  8
ﾚｲﾔ1
  6
CONTINUOUS
 62
     7
 10
1197.108897127662
 20
299.113594146491
 30
0.0
 11
1206.040787127662
 21
299.113594146491
 31
0.0
  0
LINE
  5
28B
  8
ﾚｲﾔ1
  6
CONTINUOUS
 62
     7
 10
1197.108897127662
 20
409.1325541464909
 30
0.0
 11
1197.108897127662
 21
299.113594146491
 31
0.0
  0
LINE
  5
28C
  8
ﾚｲﾔ1
  6
CONTINUOUS
 62
     7
 10
1206.040787127662
 20
294.1513941464909
 30
0.0
 11
1201.078647127661
 21
299.113594146491
 31
0.0
  0
LINE
  5
28D
  8
ﾚｲﾔ1
  6
CONTINUOUS
 62
     7
 10
1228.016337127662
 20
324.2081691464909
 30
0.0
 11
1197.108897127662
 21
324.2081691464909
 31
0.0
  0
LINE
  5
28E
  8
ﾚｲﾔ1
  6
CONTINUOUS
 62
     7
 10
1206.040787127662
 20
409.1325541464909
 30
0.0
 11
1197.108897127662
 21
409.1325541464909
 31
0.0
  0
LINE
  5
28F
  8
ﾚｲﾔ1
  6
CONTINUOUS
 62
     7
 10
1206.040787127662
 20
414.094694146491
 30
0.0
 11
1201.078647127661
 21
409.1325541464909
 31
0.0
  0
LINE
  5
290
  8
ﾚｲﾔ1
  6
CONTINUOUS
 62
     7
 10
1197.108897127662
 20
384.0379791464909
 30
0.0
 11
1228.016337127662
 21
384.0379791464909
 31
0.0
  0
LINE
  5
291
  8
ﾚｲﾔ1
  6
CONTINUOUS
 62
     7
 10
1228.016337127662
 20
254.1703041464909
 30
0.0
 11
1228.016337127662
 21
472.0815291464909
 31
0.0
  0
LINE
  5
292
  8
ﾚｲﾔ1
  6
DASHDOT
 62
     7
 10
1184.065472127661
 20
354.1230391464909
 30
0.0
 11
1334.065372127662
 21
354.1230391464909
 31
0.0
  0
LINE
  5
293
  8
ﾚｲﾔ1
  6
CONTINUOUS
 62
     7
 10
1027.165612127661
 20
238.1495041464909
 30
0.0
 11
1027.165612127661
 21
210.2194441464909
 31
0.0
  0
LINE
  5
294
  8
ﾚｲﾔ1
  6
CONTINUOUS
 62
     7
 10
1039.074812127662
 20
210.2194441464909
 30
0.0
 11
1039.074812127662
 21
238.1495041464909
 31
0.0
  0
LINE
  5
295
  8
ﾚｲﾔ1
  6
CONTINUOUS
 62
     7
 10
1027.165612127661
 20
210.2194441464909
 30
0.0
 11
1039.074812127662
 21
210.2194441464909
 31
0.0
  0
LINE
  5
296
  8
ﾚｲﾔ1
  6
CONTINUOUS
 62
     7
 10
1490.965247127661
 20
238.1495041464909
 30
0.0
 11
1490.965247127661
 21
210.2194441464909
 31
0.0
  0
LINE
  5
297
  8
ﾚｲﾔ1
  6
CONTINUOUS
 62
     7
 10
1478.914087127662
 20
210.2194441464909
 30
0.0
 11
1478.914087127662
 21
238.1495041464909
 31
0.0
  0
LINE
  5
298
  8
ﾚｲﾔ1
  6
CONTINUOUS
 62
     7
 10
1478.914087127662
 20
210.2194441464909
 30
0.0
 11
1490.965247127661
 21
210.2194441464909
 31
0.0
  0
LINE
  5
299
  8
ﾚｲﾔ1
  6
CONTINUOUS
 62
     7
 10
961.0974871276617
 20
238.1495041464909
 30
0.0
 11
961.0974871276617
 21
254.1703041464909
 31
0.0
  0
LINE
  5
29A
  8
ﾚｲﾔ1
  6
CONTINUOUS
 62
     7
 10
1556.891397127662
 20
254.1703041464909
 30
0.0
 11
961.0974871276617
 21
254.1703041464909
 31
0.0
  0
LINE
  5
29B
  8
ﾚｲﾔ1
  6
CONTINUOUS
 62
     7
 10
1556.891397127662
 20
238.1495041464909
 30
0.0
 11
961.0974871276617
 21
238.1495041464909
 31
0.0
  0
LINE
  5
29C
  8
ﾚｲﾔ1
  6
CONTINUOUS
 62
     7
 10
1134.018097127662
 20
238.1495041464909
 30
0.0
 11
1383.970797127662
 21
238.1495041464909
 31
0.0
  0
LINE
  5
2CD
  8
ﾚｲﾔ1
  6
CONTINUOUS
 62
     7
 10
1027.165612127661
 20
226.0985141464909
 30
0.0
 11
1027.165612127661
 21
238.1495041464909
 31
0.0
  0
LINE
  5
2CE
  8
ﾚｲﾔ1
  6
CONTINUOUS
 62
     7
 10
1039.074812127662
 20
238.1495041464909
 30
0.0
 11
1027.165612127661
 21
238.1495041464909
 31
0.0
  0
LINE
  5
2CF
  8
ﾚｲﾔ1
  6
CONTINUOUS
 62
     7
 10
973.1486321276618
 20
238.1495041464909
 30
0.0
 11
973.1486321276618
 21
226.0985141464909
 31
0.0
  0
LINE
  5
2D0
  8
ﾚｲﾔ1
  6
CONTINUOUS
 62
     7
 10
1556.891397127662
 20
254.1703041464909
 30
0.0
 11
1556.891397127662
 21
238.1495041464909
 31
0.0
  0
LINE
  5
2D1
  8
ﾚｲﾔ1
  6
CONTINUOUS
 62
     7
 10
1490.965247127661
 20
226.0985141464909
 30
0.0
 11
1490.965247127661
 21
238.1495041464909
 31
0.0
  0
LINE
  5
2D2
  8
ﾚｲﾔ1
  6
CONTINUOUS
 62
     7
 10
1478.914087127662
 20
238.1495041464909
 30
0.0
 11
1490.965247127661
 21
238.1495041464909
 31
0.0
  0
LINE
  5
2D3
  8
ﾚｲﾔ1
  6
CONTINUOUS
 62
     7
 10
1544.982197127661
 20
238.1495041464909
 30
0.0
 11
1544.982197127661
 21
226.0985141464909
 31
0.0
  0
LINE
  5
2D4
  8
ﾚｲﾔ1
  6
CONTINUOUS
 62
     7
 10
1054.103272127662
 20
233.1873191464909
 30
0.0
 11
1054.103272127662
 21
238.1495041464909
 31
0.0
  0
LINE
  5
2D5
  8
ﾚｲﾔ1
  6
CONTINUOUS
 62
     7
 10
1084.018097127662
 20
233.1873191464909
 30
0.0
 11
1054.103272127662
 21
233.1873191464909
 31
0.0
  0
LINE
  5
2D6
  8
ﾚｲﾔ1
  6
CONTINUOUS
 62
     7
 10
1084.018097127662
 20
226.0985141464909
 30
0.0
 11
1084.018097127662
 21
238.1495041464909
 31
0.0
  0
LINE
  5
2D7
  8
ﾚｲﾔ1
  6
CONTINUOUS
 62
     7
 10
1051.125962127661
 20
238.1495041464909
 30
0.0
 11
1054.103272127662
 21
235.1721941464909
 31
0.0
  0
LINE
  5
2D8
  8
ﾚｲﾔ1
  6
CONTINUOUS
 62
     7
 10
1052.118412127661
 20
238.1495041464909
 30
0.0
 11
1052.118412127661
 21
237.1570641464909
 31
0.0
  0
LINE
  5
2D9
  8
ﾚｲﾔ1
  6
CONTINUOUS
 62
     7
 10
1053.110847127662
 20
238.1495041464909
 30
0.0
 11
1053.110847127662
 21
236.1646291464909
 31
0.0
  0
LINE
  5
2DA
  8
ﾚｲﾔ1
  6
CONTINUOUS
 62
     7
 10
1052.118412127661
 20
237.1570641464909
 30
0.0
 11
1054.103272127662
 21
237.1570641464909
 31
0.0
  0
LINE
  5
2DB
  8
ﾚｲﾔ1
  6
CONTINUOUS
 62
     7
 10
1053.110847127662
 20
236.1646291464909
 30
0.0
 11
1054.103272127662
 21
236.1646291464909
 31
0.0
  0
LINE
  5
2DC
  8
ﾚｲﾔ1
  6
CONTINUOUS
 62
     7
 10
1433.970797127662
 20
233.1873191464909
 30
0.0
 11
1464.027572127662
 21
233.1873191464909
 31
0.0
  0
LINE
  5
2DD
  8
ﾚｲﾔ1
  6
CONTINUOUS
 62
     7
 10
1464.027572127662
 20
233.1873191464909
 30
0.0
 11
1464.027572127662
 21
238.1495041464909
 31
0.0
  0
LINE
  5
2DE
  8
ﾚｲﾔ1
  6
CONTINUOUS
 62
     7
 10
1433.970797127662
 20
238.1495041464909
 30
0.0
 11
1433.970797127662
 21
226.0985141464909
 31
0.0
  0
LINE
  5
2DF
  8
ﾚｲﾔ1
  6
CONTINUOUS
 62
     7
 10
1464.027572127662
 20
235.1721941464909
 30
0.0
 11
1467.004872127662
 21
238.1495041464909
 31
0.0
  0
LINE
  5
2E0
  8
ﾚｲﾔ1
  6
CONTINUOUS
 62
     7
 10
1464.027572127662
 20
237.1570641464909
 30
0.0
 11
1466.012447127662
 21
237.1570641464909
 31
0.0
  0
LINE
  5
2E1
  8
ﾚｲﾔ1
  6
CONTINUOUS
 62
     7
 10
1464.027572127662
 20
236.1646291464909
 30
0.0
 11
1465.020012127662
 21
236.1646291464909
 31
0.0
  0
LINE
  5
2E2
  8
ﾚｲﾔ1
  6
CONTINUOUS
 62
     7
 10
1465.020012127662
 20
236.1646291464909
 30
0.0
 11
1465.020012127662
 21
238.1495041464909
 31
0.0
  0
LINE
  5
2E3
  8
ﾚｲﾔ1
  6
CONTINUOUS
 62
     7
 10
1466.012447127662
 20
238.1495041464909
 30
0.0
 11
1466.012447127662
 21
237.1570641464909
 31
0.0
  0
LINE
  5
2E4
  8
ﾚｲﾔ1
  6
CONTINUOUS
 62
     7
 10
1084.018097127662
 20
233.1873191464909
 30
0.0
 11
1433.970797127662
 21
233.1873191464909
 31
0.0
  0
LINE
  5
2E5
  8
ﾚｲﾔ1
  6
CONTINUOUS
 62
     7
 10
1084.018097127662
 20
226.0985141464909
 30
0.0
 11
1433.970797127662
 21
226.0985141464909
 31
0.0
  0
LINE
  5
2E6
  8
ﾚｲﾔ1
  6
DASHDOT
 10
617.4622971276617
 20
354.1230391464909
 30
0.0
 11
737.4055971276617
 21
354.1230391464909
 31
0.0
  0
LINE
  5
2E7
  8
ﾚｲﾔ1
  6
DASHDOT
 10
677.2921721276617
 20
414.094694146491
 30
0.0
 11
677.2921721276617
 21
294.1513941464909
 31
0.0
  0
LINE
  5
2E8
  8
ﾚｲﾔ1
  6
DASHDOT
 10
237.5000821276617
 20
414.094694146491
 30
0.0
 11
237.5000821276617
 21
294.1513941464909
 31
0.0
  0
LINE
  5
2E9
  8
ﾚｲﾔ1
  6
DASHDOT
 10
177.5284321276615
 20
354.1230391464909
 30
0.0
 11
297.4717321276617
 21
354.1230391464909
 31
0.0
  0
LINE
  5
2EA
  8
ﾚｲﾔ1
  6
DASHDOT
 10
179.3558150000001
 20
999.4931448858779
 30
0.0
 11
219.33694
 21
999.4931448858779
 31
0.0
  0
LINE
  5
2EB
  8
ﾚｲﾔ1
  6
DASHDOT
 10
199.3463750000001
 20
1019.483679885878
 30
0.0
 11
199.3463750000001
 21
979.5025948858779
 31
0.0
  0
LINE
  5
2EC
  8
ﾚｲﾔ1
  6
DASHDOT
 10
179.3558125000001
 20
1184.493144885878
 30
0.0
 11
219.3369375
 21
1184.493144885878
 31
0.0
  0
LINE
  5
2ED
  8
ﾚｲﾔ1
  6
DASHDOT
 10
199.3463725000001
 20
1204.483704885878
 30
0.0
 11
199.3463725000001
 21
1164.502594885878
 31
0.0
  0
LINE
  5
2F0
  8
ﾚｲﾔ1
  6
DASHDOT
 10
699.3558300000001
 20
999.4931448858779
 30
0.0
 11
739.3369200000001
 21
999.4931448858779
 31
0.0
  0
LINE
  5
2F1
  8
ﾚｲﾔ1
  6
DASHDOT
 10
719.3463700000001
 20
1019.483679885878
 30
0.0
 11
719.3463700000001
 21
979.5025948858779
 31
0.0
  0
LINE
  5
2F2
  8
ﾚｲﾔ1
  6
DASHDOT
 10
109.9409150000001
 20
999.4931448858779
 30
0.0
 11
809.61006
 21
999.4931448858779
 31
0.0
  0
LINE
  5
2F5
  8
ﾚｲﾔ1
  6
DASHDOT
 10
699.3558300000001
 20
1184.493144885878
 30
0.0
 11
739.3369200000001
 21
1184.493144885878
 31
0.0
  0
LINE
  5
2F6
  8
ﾚｲﾔ1
  6
DASHDOT
 10
719.3463700000001
 20
1204.483704885878
 30
0.0
 11
719.3463700000001
 21
1164.502594885878
 31
0.0
  0
LINE
  5
65B
  8
ﾚｲﾔ1
  6
DASHED
 10
707.3489371276617
 20
228.2251191464908
 30
0.0
 11
707.3489371276617
 21
238.1495041464909
 31
0.0
  0
LINE
  5
65C
  8
ﾚｲﾔ1
  6
DASHED
 10
707.3489371276617
 20
233.1873191464909
 30
0.0
 11
737.4055971276617
 21
233.1873191464909
 31
0.0
  0
LINE
  5
65D
  8
ﾚｲﾔ1
  6
DASHED
 10
737.4055971276617
 20
233.1873191464909
 30
0.0
 11
737.4055971276617
 21
238.1495041464909
 31
0.0
  0
LINE
  5
65E
  8
ﾚｲﾔ1
  6
DASHED
 10
207.5851571276617
 20
238.1495041464909
 30
0.0
 11
207.5851571276617
 21
228.2251191464908
 31
0.0
  0
LINE
  5
65F
  8
ﾚｲﾔ1
  6
DASHED
 10
207.5851571276617
 20
233.1873191464909
 30
0.0
 11
177.5284321276615
 21
233.1873191464909
 31
0.0
  0
LINE
  5
660
  8
ﾚｲﾔ1
  6
DASHED
 10
177.5284321276615
 20
233.1873191464909
 30
0.0
 11
177.5284321276615
 21
238.1495041464909
 31
0.0
  0
LINE
  5
661
  8
ﾚｲﾔ1
  6
DASHED
 10
207.5851571276617
 20
228.2251191464908
 30
0.0
 11
707.3489371276617
 21
228.2251191464908
 31
0.0
  0
LINE
  5
662
  8
ﾚｲﾔ1
  6
DASHED
 10
707.3489371276617
 20
233.1873191464909
 30
0.0
 11
207.5851571276617
 21
233.1873191464909
 31
0.0
  0
LINE
  5
663
  8
ﾚｲﾔ1
  6
DASHED
 10
159.8463750000001
 20
1052.375944885878
 30
0.0
 11
759.56286
 21
1052.375944885878
 31
0.0
  0
LINE
  5
664
  8
ﾚｲﾔ1
  6
DASHED
 10
159.8463750000001
 20
1030.400519885878
 30
0.0
 11
759.56286
 21
1030.400519885878
 31
0.0
  0
LINE
  5
665
  8
ﾚｲﾔ1
  6
DASHED
 10
308.853885
 20
1224.493144885878
 30
0.0
 11
308.853885
 21
1054.360819885878
 31
0.0
  0
LINE
  5
666
  8
ﾚｲﾔ1
  6
DASHED
 10
330.8293100000001
 20
1224.493144885878
 30
0.0
 11
330.8293100000001
 21
1054.360819885878
 31
0.0
  0
LINE
  5
667
  8
ﾚｲﾔ1
  6
DASHED
 10
448.7878000000001
 20
1224.493144885878
 30
0.0
 11
448.7878000000001
 21
1054.360819885878
 31
0.0
  0
LINE
  5
668
  8
ﾚｲﾔ1
  6
DASHED
 10
470.76321
 20
1224.493144885878
 30
0.0
 11
470.7632100000001
 21
1054.360819885878
 31
0.0
  0
LINE
  5
669
  8
ﾚｲﾔ1
  6
DASHED
 10
588.721635
 20
1224.493144885878
 30
0.0
 11
588.721635
 21
1054.360819885878
 31
0.0
  0
LINE
  5
66A
  8
ﾚｲﾔ1
  6
DASHED
 10
610.6970600000001
 20
1224.493144885878
 30
0.0
 11
610.69706
 21
1054.360819885878
 31
0.0
  0
LINE
  5
673
  8
ﾚｲﾔ1
  6
DASHED
 10
308.853885
 20
1029.408084885878
 30
0.0
 11
308.853885
 21
969.436434885878
 31
0.0
  0
LINE
  5
674
  8
ﾚｲﾔ1
  6
DASHED
 10
330.8293100000001
 20
1029.408084885878
 30
0.0
 11
330.8293100000001
 21
969.436434885878
 31
0.0
  0
LINE
  5
675
  8
ﾚｲﾔ1
  6
DASHED
 10
448.7878000000001
 20
1029.408084885878
 30
0.0
 11
448.7878000000001
 21
969.436434885878
 31
0.0
  0
LINE
  5
676
  8
ﾚｲﾔ1
  6
DASHED
 10
470.7632100000001
 20
1029.408084885878
 30
0.0
 11
470.7632100000001
 21
969.436434885878
 31
0.0
  0
LINE
  5
677
  8
ﾚｲﾔ1
  6
DASHED
 10
588.721635
 20
1029.408084885878
 30
0.0
 11
588.721635
 21
969.436434885878
 31
0.0
  0
LINE
  5
678
  8
ﾚｲﾔ1
  6
DASHED
 10
610.69706
 20
1029.408084885878
 30
0.0
 11
610.69706
 21
969.436434885878
 31
0.0
  0
TEXT
  5
B02
  8
図面枠
  6
CONTINUOUS
 10
1470.765551133753
 20
-103.6821904838705
 30
0.0
 40
22.0
  1
株式会社　関東油機サービス
  0
TEXT
  5
B03
  8
図面枠
 10
1454.290524910919
 20
-53.74248341585132
 30
0.0
 40
15.0
  1
重  量
  0
TEXT
  5
B05
  8
図面枠
 10
1447.750000000001
 20
-28.89892998841316
 30
0.0
 40
15.0
  1
設計年月日
 41
0.75
  0
LINE
  5
B06
  8
図面枠
  6
CONTINUOUS
 10
1485.0
 20
25.99999999999997
 30
0.0
 11
1784.0
 21
25.99999999999997
 31
0.0
  0
LINE
  5
B07
  8
図面枠
  6
CONTINUOUS
 10
1375.0
 20
-33.5
 30
0.0
 11
1570.0
 21
-33.5
 31
0.0
  0
LINE
  5
B0B
  8
図面枠
  6
CONTINUOUS
 10
1800.0
 20
66.5
 30
0.0
 11
1445.0
 21
66.5
 31
0.0
  0
LINE
  5
B0D
  8
図面枠
  6
CONTINUOUS
 10
1800.0
 20
-8.5
 30
0.0
 11
1470.0
 21
-8.5
 31
0.0
  0
LINE
  5
B0E
  8
図面枠
  6
CONTINUOUS
 10
1470.0
 20
66.5
 30
0.0
 11
1800.0
 21
66.5
 31
0.0
  0
LINE
  5
B0F
  8
図面枠
  6
CONTINUOUS
 10
1515.0
 20
-8.5
 30
0.0
 11
1445.0
 21
-8.5
 31
0.0
  0
LINE
  5
B10
  8
図面枠
  6
CONTINUOUS
 10
1445.0
 20
-58.5
 30
0.0
 11
1515.0
 21
-58.5
 31
0.0
  0
TEXT
  5
B18
  8
図面枠
 10
1329.0
 20
-6.500000000000028
 30
0.0
 40
20.0
  1
製図
  0
LINE
  5
B1B
  8
図面枠
  6
CONTINUOUS
 10
1445.0
 20
16.5
 30
0.0
 11
1175.0
 21
16.5
 31
0.0
  0
LINE
  5
B1D
  8
図面枠
  6
CONTINUOUS
 10
1445.0
 20
-8.5
 30
0.0
 11
1175.0
 21
-8.5
 31
0.0
  0
LINE
  5
B1E
  8
図面枠
  6
CONTINUOUS
 10
1175.0
 20
16.5
 30
0.0
 11
1445.0
 21
16.5
 31
0.0
  0
LINE
  5
B1F
  8
図面枠
  6
CONTINUOUS
 10
1375.0
 20
-8.5
 30
0.0
 11
1325.0
 21
-8.5
 31
0.0
  0
LINE
  5
B20
  8
図面枠
  6
CONTINUOUS
 10
1325.0
 20
-58.5
 30
0.0
 11
1375.0
 21
-58.5
 31
0.0
  0
TEXT
  5
B21
  8
図面枠
 10
1278.0
 20
-6.0
 30
0.0
 40
20.0
  1
設計
  0
LINE
  5
B22
  8
図面枠
  6
CONTINUOUS
 10
1325.0
 20
16.5
 30
0.0
 11
1325.0
 21
-58.5
 31
0.0
  0
LINE
  5
B23
  8
図面枠
  6
CONTINUOUS
 10
1275.0
 20
16.5
 30
0.0
 11
1275.0
 21
-58.5
 31
0.0
  0
LINE
  5
B24
  8
図面枠
  6
CONTINUOUS
 10
1225.0
 20
16.5
 30
0.0
 11
1225.0
 21
-58.5
 31
0.0
  0
LINE
  5
B25
  8
図面枠
  6
CONTINUOUS
 10
1175.0
 20
-8.5
 30
0.0
 11
1175.0
 21
16.5
 31
0.0
  0
TEXT
  5
B26
  8
図面枠
 10
1227.0
 20
-6.500000000000028
 30
0.0
 40
20.0
  1
検図
  0
LINE
  5
B27
  8
図面枠
  6
CONTINUOUS
 10
1275.0
 20
-8.5
 30
0.0
 11
1225.0
 21
-8.5
 31
0.0
  0
LINE
  5
B28
  8
図面枠
  6
CONTINUOUS
 10
1225.0
 20
-58.5
 30
0.0
 11
1275.0
 21
-58.5
 31
0.0
  0
LINE
  5
B29
  8
図面枠
  6
CONTINUOUS
 10
1175.0
 20
-8.5
 30
0.0
 11
1175.0
 21
-58.5
 31
0.0
  0
LINE
  5
B2A
  8
図面枠
  6
CONTINUOUS
 10
1225.0
 20
-8.5
 30
0.0
 11
1225.0
 21
-58.5
 31
0.0
  0
LINE
  5
B2B
  8
図面枠
  6
CONTINUOUS
 10
1225.0
 20
-58.5
 30
0.0
 11
1225.0
 21
-8.5
 31
0.0
  0
LINE
  5
B2C
  8
図面枠
  6
CONTINUOUS
 10
1175.0
 20
-58.5
 30
0.0
 11
1225.0
 21
-58.5
 31
0.0
  0
TEXT
  5
B2D
  8
図面枠
 10
1179.0
 20
-6.500000000000028
 30
0.0
 40
20.0
  1
審査
  0
LINE
  5
B2E
  8
図面枠
  6
CONTINUOUS
 10
1225.0
 20
-8.5
 30
0.0
 11
1175.0
 21
-8.5
 31
0.0
  0
LINE
  5
B2F
  8
図面枠
  6
CONTINUOUS
 10
1325.0
 20
-8.5
 30
0.0
 11
1325.0
 21
-58.5
 31
0.0
  0
LINE
  5
B30
  8
図面枠
  6
CONTINUOUS
 10
1325.0
 20
-58.5
 30
0.0
 11
1325.0
 21
-8.5
 31
0.0
  0
LINE
  5
B31
  8
図面枠
  6
CONTINUOUS
 10
1275.0
 20
-8.5
 30
0.0
 11
1275.0
 21
-58.5
 31
0.0
  0
LINE
  5
B32
  8
図面枠
  6
CONTINUOUS
 10
1275.0
 20
-58.5
 30
0.0
 11
1275.0
 21
-8.5
 31
0.0
  0
LINE
  5
B33
  8
図面枠
  6
CONTINUOUS
 10
1275.0
 20
-58.5
 30
0.0
 11
1325.0
 21
-58.5
 31
0.0
  0
LINE
  5
B34
  8
図面枠
  6
CONTINUOUS
 10
1325.0
 20
-8.5
 30
0.0
 11
1275.0
 21
-8.5
 31
0.0
  0
TEXT
  5
B39
  8
図面枠
 10
1446.6477763502
 20
56.81125720589765
 30
0.0
 40
20.0
  1
名 称
 50
270.0
  0
LINE
  5
B3A
  8
図面枠
  6
CONTINUOUS
 10
1375.0
 20
16.5
 30
0.0
 11
1375.0
 21
-58.5
 31
0.0
  0
LINE
  5
B3B
  8
図面枠
  6
CONTINUOUS
 10
1470.0
 20
-8.5
 30
0.0
 11
1470.0
 21
66.5
 31
0.0
  0
LINE
  5
B3C
  8
図面枠
  6
CONTINUOUS
 10
1470.0
 20
-8.5
 30
0.0
 11
1470.0
 21
66.5
 31
0.0
  0
LINE
  5
B3D
  8
図面枠
  6
CONTINUOUS
 10
1445.0
 20
66.5
 30
0.0
 11
1445.0
 21
-8.5
 31
0.0
  0
LINE
  5
B3E
  8
図面枠
  6
CONTINUOUS
 10
1445.0
 20
16.5
 30
0.0
 11
1445.0
 21
-8.5
 31
0.0
  0
TEXT
  5
B3F
  8
図面枠
 10
1387.305108958047
 20
-30.80630461687559
 30
0.0
 40
15.0
  1
１：５
  0
TEXT
  5
B40
  8
図面枠
 10
1383.846664525299
 20
-6.202143703879869
 30
0.0
 40
20.0
  1
尺度
 41
1.125
  0
LINE
  5
B41
  8
図面枠
  6
CONTINUOUS
 10
1445.0
 20
-8.5
 30
0.0
 11
1375.0
 21
-8.5
 31
0.0
  0
LINE
  5
B42
  8
図面枠
  6
CONTINUOUS
 10
1375.0
 20
-58.5
 30
0.0
 11
1445.0
 21
-58.5
 31
0.0
  0
LINE
  5
B43
  8
図面枠
  6
CONTINUOUS
 10
1375.0
 20
-8.5
 30
0.0
 11
1375.0
 21
-58.5
 31
0.0
  0
LINE
  5
B44
  8
図面枠
  6
CONTINUOUS
 10
1375.0
 20
-58.5
 30
0.0
 11
1375.0
 21
-8.5
 31
0.0
  0
LINE
  5
B45
  8
図面枠
  6
CONTINUOUS
 10
1445.0
 20
-8.5
 30
0.0
 11
1445.0
 21
-58.5
 31
0.0
  0
LINE
  5
B46
  8
図面枠
  6
CONTINUOUS
 10
1445.0
 20
-58.5
 30
0.0
 11
1445.0
 21
-8.5
 31
0.0
  0
LINE
  5
B47
  8
図面枠
  6
CONTINUOUS
 10
1445.0
 20
-8.5
 30
0.0
 11
1470.0
 21
-8.5
 31
0.0
  0
LINE
  5
B4A
  8
図面枠
  6
CONTINUOUS
 10
1470.0
 20
66.5
 30
0.0
 11
1445.0
 21
66.5
 31
0.0
  0
LINE
  5
B4B
  8
図面枠
  6
CONTINUOUS
 10
1445.0
 20
66.5
 30
0.0
 11
1445.0
 21
41.5
 31
0.0
  0
LINE
  5
B4C
  8
図面枠
  6
CONTINUOUS
 10
1445.0
 20
41.5
 30
0.0
 11
1445.0
 21
16.5
 31
0.0
  0
LINE
  5
B50
  8
図面枠
  6
CONTINUOUS
 10
1800.0
 20
166.5
 30
0.0
 11
1800.0
 21
66.5
 31
0.0
  0
LINE
  5
B51
  8
図面枠
  6
CONTINUOUS
 10
1800.0
 20
-8.5
 30
0.0
 11
1590.0
 21
-8.5
 31
0.0
  0
LINE
  5
B52
  8
図面枠
  6
CONTINUOUS
 10
1590.0
 20
-58.5
 30
0.0
 11
1800.0
 21
-58.5
 31
0.0
  0
TEXT
  5
B53
  8
図面枠
 10
1573.25
 20
-28.38294932610336
 30
0.0
 40
15.0
  1
図
  0
TEXT
  5
B54
  8
図面枠
 10
1573.25
 20
-51.99999999999994
 30
0.0
 40
15.0
  1
番
  0
LINE
  5
B55
  8
図面枠
  6
CONTINUOUS
 10
1590.0
 20
-8.5
 30
0.0
 11
1570.0
 21
-8.5
 31
0.0
  0
LINE
  5
B56
  8
図面枠
  6
CONTINUOUS
 10
1570.0
 20
-58.5
 30
0.0
 11
1590.0
 21
-58.5
 31
0.0
  0
LINE
  5
B57
  8
図面枠
  6
CONTINUOUS
 10
1570.0
 20
-8.5
 30
0.0
 11
1570.0
 21
-58.5
 31
0.0
  0
LINE
  5
B58
  8
図面枠
  6
CONTINUOUS
 10
1570.0
 20
-58.5
 30
0.0
 11
1570.0
 21
-8.5
 31
0.0
  0
LINE
  5
B59
  8
図面枠
  6
CONTINUOUS
 10
1515.0
 20
-8.5
 30
0.0
 11
1515.0
 21
-58.5
 31
0.0
  0
LINE
  5
B5A
  8
図面枠
  6
CONTINUOUS
 10
1515.0
 20
-58.5
 30
0.0
 11
1515.0
 21
-8.5
 31
0.0
  0
LINE
  5
B5B
  8
図面枠
  6
CONTINUOUS
 10
1515.0
 20
-58.5
 30
0.0
 11
1570.0
 21
-58.5
 31
0.0
  0
LINE
  5
B5C
  8
図面枠
  6
CONTINUOUS
 10
1570.0
 20
-8.5
 30
0.0
 11
1515.0
 21
-8.5
 31
0.0
  0
LINE
  5
B5D
  8
図面枠
  6
CONTINUOUS
 10
1590.0
 20
-8.5
 30
0.0
 11
1590.0
 21
-58.5
 31
0.0
  0
LINE
  5
B5E
  8
図面枠
  6
CONTINUOUS
 10
1590.0
 20
-58.5
 30
0.0
 11
1590.0
 21
-8.5
 31
0.0
  0
LINE
  5
B61
  8
図面枠
  6
CONTINUOUS
 10
1800.0
 20
66.5
 30
0.0
 11
1800.0
 21
-8.5
 31
0.0
  0
LINE
  5
B62
  8
図面枠
  6
CONTINUOUS
 10
1800.0
 20
-58.5
 30
0.0
 11
1800.0
 21
-8.5
 31
0.0
  0
TEXT
  5
B64
  8
図面枠
  6
CONTINUOUS
 10
1325.0
 20
-53.5
 30
0.0
 40
20.0
  1
N,K
  0
TEXT
  5
B65
  8
図面枠
  6
CONTINUOUS
 10
1517.56097927585
 20
-26.31335093952146
 30
0.0
 40
10.0
  1
98,3,5
  7
TEXTSTYLE01
  0
CIRCLE
  5
B69
  8
ﾚｲﾔ1
  6
CONTINUOUS
 10
237.5000821276617
 20
354.1230391464909
 30
0.0
 40
30.5
  0
CIRCLE
  5
B6A
  8
ﾚｲﾔ1
  6
CONTINUOUS
 10
237.5000821276617
 20
354.1230391464909
 30
0.0
 40
55.0
  0
CIRCLE
  5
B6B
  8
ﾚｲﾔ1
  6
CONTINUOUS
 10
677.8593500000002
 20
354.1230391464909
 30
0.0
 40
30.5
  0
CIRCLE
  5
B6C
  8
ﾚｲﾔ1
  6
CONTINUOUS
 10
677.2921721276617
 20
354.0804668821132
 30
0.0
 40
55.0
  0
DIMENSION
  5
B6D
  8
寸法
  6
CONTINUOUS
  2
*D1
 10
237.5000821276617
 20
553.3163791464909
 30
0.0
 11
197.5190146276617
 21
563.8163791464909
 31
0.0
 70
    32
 13
157.5379471276617
 23
488.1023041464908
 33
0.0
 14
237.5000821276617
 24
414.094694146491
 34
0.0
  0
DIMENSION
  5
B87
  8
寸法
  6
CONTINUOUS
  2
*D2
 10
677.2921721276617
 20
553.3163791464909
 30
0.0
 11
457.3961271276617
 21
563.8163791464909
 31
0.0
 70
    32
 13
237.5000821276617
 23
424.094694146491
 33
0.0
 14
677.2921721276617
 24
414.094694146491
 34
0.0
  0
DIMENSION
  5
B94
  8
寸法
  6
CONTINUOUS
  2
*D3
 10
757.2544221276617
 20
553.3163791464909
 30
0.0
 11
717.2732971276617
 21
563.8163791464909
 31
0.0
 70
    32
 13
677.2921721276618
 23
472.0815291464909
 33
0.0
 14
757.2544221276617
 24
488.1023041464908
 34
0.0
  0
DIMENSION
  5
BA9
  8
寸法
  6
CONTINUOUS
  2
*D4
 10
757.2544221276617
 20
590.4008957107368
 30
0.0
 11
457.3961846276617
 21
600.9008957107368
 31
0.0
 70
    32
 13
157.5379471276617
 23
553.8163791464909
 33
0.0
 14
757.2544221276617
 24
553.8163791464909
 34
0.0
  0
DIMENSION
  5
BB6
  8
寸法
  6
CONTINUOUS
  2
*D5
 10
54.09585712766171
 20
254.170304146491
 30
0.0
 11
43.59585712766167
 21
226.169354146491
 31
0.0
 70
    32
 13
103.5870971276617
 23
198.168404146491
 33
0.0
 14
107.6324721276617
 24
254.1703041464909
 34
0.0
 50
90.0
  0
DIMENSION
  5
BC3
  8
寸法
  6
CONTINUOUS
  2
*D6
 10
54.09585712766171
 20
354.123039146491
 30
0.0
 11
43.59585712766165
 21
304.146671646491
 31
0.0
 70
    32
 13
107.6324721276617
 23
254.1703041464909
 33
0.0
 14
157.5379471276617
 24
354.1230391464909
 34
0.0
 50
90.0
  0
DIMENSION
  5
BD0
  8
寸法
  6
CONTINUOUS
  2
*D7
 10
54.09585712766169
 20
354.1230391464909
 30
0.0
 11
43.59585712766164
 21
421.3626716464909
 31
0.0
 70
    32
 13
157.5379471276617
 23
488.6023041464908
 33
0.0
 14
54.09585712766171
 24
354.1230391464909
 34
0.0
 50
90.0
  0
DIMENSION
  5
BDC
  8
寸法
  6
CONTINUOUS
  2
*D8
 10
13.05525595873928
 20
198.168404146491
 30
0.0
 11
2.555255958739252
 21
343.3853541464909
 31
0.0
 70
    32
 13
53.59585712766172
 23
488.6023041464908
 33
0.0
 14
53.5958571276617
 24
198.168404146491
 34
0.0
 50
90.0
  0
DIMENSION
  5
BE9
  8
寸法
  6
CONTINUOUS
  2
*D9
 10
807.3016221276616
 20
139.955321734126
 30
0.0
 11
457.4670471276617
 21
150.455321734126
 31
0.0
 70
    32
 13
107.6324721276617
 23
204.2648691464909
 33
0.0
 14
807.3016221276616
 24
204.2648691464909
 34
0.0
  0
DIMENSION
  5
BF6
  8
寸法
  6
CONTINUOUS
  2
*D10
 10
652.2572525678939
 20
337.5464711338724
 30
0.0
 11
789.8630896276609
 21
426.6420041464916
 31
0.0
 70
   163
 15
703.4614474321062
 25
370.699607159109
 35
0.0
 40
0.0
  0
DIMENSION
  5
C01
  8
寸法
  6
CONTINUOUS
  2
*D11
 10
625.6967172132885
 20
373.1306383296059
 30
0.0
 11
805.8129921276616
 21
306.6277666464908
 31
0.0
 70
   163
 15
728.8876270420351
 25
335.0302954346207
 35
0.0
 40
0.0
  0
CIRCLE
  5
C13
  8
ﾚｲﾔ1
  6
CONTINUOUS
 10
199.3463725000001
 20
1184.493149885878
 30
0.0
 40
11.90926999999994
  0
CIRCLE
  5
C14
  8
ﾚｲﾔ1
  6
CONTINUOUS
 10
199.3463750000001
 20
999.4931373858781
 30
0.0
 40
11.90926999999994
  0
CIRCLE
  5
C17
  8
ﾚｲﾔ1
  6
CONTINUOUS
 10
719.3463700000001
 20
999.4931373858781
 30
0.0
 40
11.90926999999994
  0
CIRCLE
  5
C18
  8
ﾚｲﾔ1
  6
CONTINUOUS
 10
719.3463700000001
 20
1184.493149885878
 30
0.0
 40
11.90926999999994
  0
CIRCLE
  5
C19
  8
ﾚｲﾔ1
  6
CONTINUOUS
 10
719.3463700000001
 20
1184.493144885878
 30
0.0
 40
11.90926999999994
  0
ARC
  5
C97
  8
ﾚｲﾔ1
  6
CONTINUOUS
 10
1206.040787127662
 20
472.0815291464909
 30
0.0
 40
11.90921500000013
 50
180.0
 51
270.0
  0
ARC
  5
C98
  8
ﾚｲﾔ1
  6
CONTINUOUS
 10
1312.089997127662
 20
472.0815291464909
 30
0.0
 40
11.96315589192629
 50
275.4399545817969
 51
0.0
  0
ARC
  5
C99
  8
ﾚｲﾔ1
  6
CONTINUOUS
 10
1206.040787127662
 20
254.1703041464909
 30
0.0
 40
11.90930999999989
 50
89.9999999999999
 51
174.2217339521362
  0
ARC
  5
C9A
  8
ﾚｲﾔ1
  6
CONTINUOUS
 10
1312.089997127662
 20
254.1703041464909
 30
0.0
 40
11.9092599999999
 50
0.0
 51
90.0
  0
DIMENSION
  5
CA8
  8
寸法
  6
CONTINUOUS
  2
*D12
 10
1289.972747127661
 20
553.3163791464909
 30
0.0
 11
1258.994542127662
 21
563.8163791464909
 31
0.0
 70
    32
 13
1228.016337127662
 23
488.1023041464908
 33
0.0
 14
1289.972747127661
 24
472.0815291464909
 34
0.0
  0
DIMENSION
  5
CCF
  8
寸法
  6
CONTINUOUS
  2
*D13
 10
1197.108897127662
 20
399.0157891464909
 30
0.0
 11
1165.942230460995
 21
409.5157891464909
 31
0.0
 70
    32
 13
1206.040787127662
 23
384.0379791464909
 33
0.0
 14
1197.108897127662
 24
384.0379791464909
 34
0.0
  0
DIMENSION
  5
CDD
  8
寸法
  6
CONTINUOUS
  2
*D14
 10
1228.016337127662
 20
399.0157891464909
 30
0.0
 11
1269.183003794328
 21
409.5157891464909
 31
0.0
 70
    32
 13
1206.040787127662
 23
384.0379791464909
 33
0.0
 14
1228.016337127662
 24
384.0379791464909
 34
0.0
  0
DIMENSION
  5
D0D
  8
寸法
  6
CONTINUOUS
  2
*D15
 10
1433.970797127662
 20
154.5352949139234
 30
0.0
 11
1258.994447127662
 21
165.0352949139234
 31
0.0
 70
    32
 13
1084.018097127662
 23
226.0985141464909
 33
0.0
 14
1433.970797127662
 24
226.0985141464909
 34
0.0
  0
DIMENSION
  5
D1A
  8
寸法
  6
CONTINUOUS
  2
*D16
 10
1478.914087127662
 20
123.9770041464909
 30
0.0
 11
1258.994449627662
 21
134.4770041464909
 31
0.0
 70
    32
  1
470
 13
1039.074812127662
 23
210.2194441464909
 33
0.0
 14
1478.914087127662
 24
210.2194441464909
 34
0.0
  0
DIMENSION
  5
D3D
  8
寸法
  6
CONTINUOUS
  2
*D17
 10
1605.151169211534
 20
226.0985141464908
 30
0.0
 11
1594.651169211534
 21
357.1004091464911
 31
0.0
 70
    32
 13
1484.065392127662
 23
488.1023041464908
 33
0.0
 14
1433.970797127662
 24
226.0985141464909
 34
0.0
 50
90.0
  0
DIMENSION
  5
E91
  8
寸法
  6
CONTINUOUS
  2
*D18
 10
1556.891397127662
 20
94.66123740337537
 30
0.0
 11
1258.994442127662
 21
105.1612374033754
 31
0.0
 70
    32
  1
600
 13
961.0974871276617
 23
238.1495041464909
 33
0.0
 14
1556.891397127662
 24
238.1495041464909
 34
0.0
  0
LINE
  5
FA5
  8
ﾚｲﾔ1
  6
DASHDOT
 10
1259.065392127662
 20
197.0787476705933
 30
0.0
 11
1259.065392127662
 21
520.1531222371751
 31
0.0
  0
LINE
  5
FB3
  8
図面枠
  6
CONTINUOUS
 10
-95.0
 20
-58.5
 30
0.0
 11
-95.0
 21
1271.5
 31
0.0
  0
LINE
  5
FB4
  8
図面枠
  6
CONTINUOUS
 10
-110.0
 20
1286.5
 30
0.0
 11
-110.0
 21
-73.5
 31
0.0
  0
LINE
  5
FB5
  8
図面枠
  6
CONTINUOUS
 10
-95.0
 20
1271.5
 30
0.0
 11
1800.0
 21
1271.5
 31
0.0
  0
LINE
  5
FB6
  8
図面枠
  6
CONTINUOUS
 10
1815.0
 20
1286.5
 30
0.0
 11
-110.0
 21
1286.5
 31
0.0
  0
LINE
  5
FB7
  8
図面枠
  6
CONTINUOUS
 10
1815.0
 20
1286.5
 30
0.0
 11
1815.0
 21
-73.5
 31
0.0
  0
LINE
  5
FB8
  8
図面枠
  6
CONTINUOUS
 10
1800.0
 20
1271.5
 30
0.0
 11
1800.0
 21
-58.5
 31
0.0
  0
LINE
  5
FB9
  8
図面枠
  6
CONTINUOUS
 10
1815.0
 20
-73.5
 30
0.0
 11
-110.0
 21
-73.5
 31
0.0
  0
LINE
  5
FBA
  8
図面枠
  6
CONTINUOUS
 10
1800.0
 20
-58.5
 30
0.0
 11
-95.0
 21
-58.5
 31
0.0
  0
LINE
  5
FBB
  8
ﾚｲﾔ1
  6
CONTINUOUS
 62
     7
 10
1484.065392127662
 20
472.0815291464909
 30
0.0
 11
1484.065392127662
 21
488.1023041464908
 31
0.0
  0
LINE
  5
FBC
  8
ﾚｲﾔ1
  6
CONTINUOUS
 62
     7
 10
1484.065392127662
 20
254.1703041464909
 30
0.0
 11
1484.065392127662
 21
472.0815291464909
 31
0.0
  0
DIMENSION
  5
FC6
  8
寸法
  6
CONTINUOUS
  2
*D19
 10
1228.016337127662
 20
553.8404476724755
 30
0.0
 11
1131.040864627662
 21
564.3404476724755
 31
0.0
 70
    32
 13
1034.065392127662
 23
488.1023041464908
 33
0.0
 14
1228.016337127662
 24
553.3163791464909
 34
0.0
  0
DIMENSION
  5
FD3
  8
寸法
  6
CONTINUOUS
  2
*D20
 10
1484.065392127662
 20
553.8404476724755
 30
0.0
 11
1387.019069627662
 21
564.3404476724755
 31
0.0
 70
    32
 13
1289.972747127661
 23
553.3163791464909
 33
0.0
 14
1484.065392127662
 24
488.1023041464908
 34
0.0
  0
DIMENSION
  5
FE0
  8
寸法
  6
CONTINUOUS
  2
*D21
 10
1484.065392127662
 20
591.7946447984133
 30
0.0
 11
1259.065392127662
 21
602.2946447984133
 31
0.0
 70
    32
 13
1034.065392127662
 23
554.3404476724755
 33
0.0
 14
1484.065392127662
 24
554.3404476724755
 34
0.0
  0
CIRCLE
  5
10ED
  8
ﾚｲﾔ1
  6
CONTINUOUS
 10
199.3463750000001
 20
814.493144885878
 30
0.0
 40
11.90926999999994
  0
LINE
  5
10EE
  8
ﾚｲﾔ1
  6
DASHDOT
 10
179.3558150000001
 20
814.4931498858779
 30
0.0
 11
219.33694
 21
814.4931498858779
 31
0.0
  0
LINE
  5
10EF
  8
ﾚｲﾔ1
  6
CONTINUOUS
 10
159.8463750000001
 20
774.4931448858779
 30
0.0
 11
759.56286
 21
774.4931448858779
 31
0.0
  0
LINE
  5
10F0
  8
ﾚｲﾔ1
  6
DASHED
 10
159.8463750000001
 20
946.6103448858778
 30
0.0
 11
759.56286
 21
946.6103448858778
 31
0.0
  0
LINE
  5
10F1
  8
ﾚｲﾔ1
  6
DASHED
 10
159.8463750000001
 20
968.5857698858777
 30
0.0
 11
759.56286
 21
968.5857698858777
 31
0.0
  0
LINE
  5
10F2
  8
ﾚｲﾔ1
  6
DASHED
 10
610.6970600000001
 20
774.4931448858779
 30
0.0
 11
610.69706
 21
944.6254698858779
 31
0.0
  0
LINE
  5
10F3
  8
ﾚｲﾔ1
  6
DASHED
 10
588.721635
 20
774.4931448858779
 30
0.0
 11
588.721635
 21
944.6254698858779
 31
0.0
  0
LINE
  5
10F4
  8
ﾚｲﾔ1
  6
DASHED
 10
470.76321
 20
774.4931448858779
 30
0.0
 11
470.7632100000001
 21
944.6254698858779
 31
0.0
  0
LINE
  5
10F5
  8
ﾚｲﾔ1
  6
DASHED
 10
448.7878000000001
 20
774.4931448858779
 30
0.0
 11
448.7878000000001
 21
944.6254698858779
 31
0.0
  0
LINE
  5
10F6
  8
ﾚｲﾔ1
  6
DASHED
 10
330.8293100000001
 20
774.4931448858779
 30
0.0
 11
330.8293100000001
 21
944.6254698858779
 31
0.0
  0
LINE
  5
10F7
  8
ﾚｲﾔ1
  6
DASHED
 10
308.853885
 20
774.4931448858779
 30
0.0
 11
308.853885
 21
944.6254698858779
 31
0.0
  0
LINE
  5
10F8
  8
ﾚｲﾔ1
  6
DASHDOT
 10
199.3463750000001
 20
794.5025898858779
 30
0.0
 11
199.3463750000001
 21
834.4836998858779
 31
0.0
  0
LINE
  5
10F9
  8
ﾚｲﾔ1
  6
DASHDOT
 10
699.3558350000001
 20
814.4931498858779
 30
0.0
 11
739.3369250000001
 21
814.4931498858779
 31
0.0
  0
LINE
  5
10FA
  8
ﾚｲﾔ1
  6
DASHDOT
 10
719.3463750000001
 20
794.5025898858779
 30
0.0
 11
719.3463750000001
 21
834.4836998858779
 31
0.0
  0
CIRCLE
  5
10FB
  8
ﾚｲﾔ1
  6
CONTINUOUS
 10
719.3463750000001
 20
814.493144885878
 30
0.0
 40
11.90926999999994
  0
CIRCLE
  5
10FC
  8
ﾚｲﾔ1
  6
CONTINUOUS
 10
719.3463750000001
 20
814.4931498858779
 30
0.0
 40
11.90926999999994
  0
DIMENSION
  5
1133
  8
寸法
  6
CONTINUOUS
  2
*D22
 10
59.3443044657706
 20
774.4931448858779
 30
0.0
 11
48.84430446577049
 21
999.4931448858779
 31
0.0
 70
    32
 13
98.5712305820216
 23
1224.493144885878
 33
0.0
 14
98.5712305820216
 24
774.4931448858779
 34
0.0
 50
90.0
  0
TEXT
  5
1140
  8
図面枠
  6
CONTINUOUS
 10
1490.429410896702
 20
32.81942298311469
 30
0.0
 40
25.0
  1
SLD-400
  0
INSERT
  5
1321
  8
寸法
  6
CONTINUOUS
  2
*X47
 10
0.0
 20
0.0
 30
0.0
  0
TEXT
  5
1322
  8
寸法
  6
CONTINUOUS
 62
     1
 10
783.641845810504
 20
738.3567096801236
 30
0.0
 40
20.0
  1
φ26
  7
TEXTSTYLE01
  0
CIRCLE
  5
1371
  8
ﾚｲﾔ1
  6
CONTINUOUS
 10
734.56286
 20
1109.493144885878
 30
0.0
 40
11.90926999999994
  0
CIRCLE
  5
1372
  8
ﾚｲﾔ1
  6
CONTINUOUS
 10
734.56286
 20
1109.493149885878
 30
0.0
 40
11.90926999999994
  0
LINE
  5
1373
  8
ﾚｲﾔ1
  6
DASHDOT
 10
734.56286
 20
1129.483704885878
 30
0.0
 11
734.56286
 21
1089.502594885878
 31
0.0
  0
LINE
  5
1374
  8
ﾚｲﾔ1
  6
DASHDOT
 10
714.57232
 20
1109.493144885878
 30
0.0
 11
754.55341
 21
1109.493144885878
 31
0.0
  0
LINE
  5
1375
  8
ﾚｲﾔ1
  6
DASHDOT
 10
714.572315
 20
889.4931448858779
 30
0.0
 11
754.553405
 21
889.4931448858779
 31
0.0
  0
LINE
  5
1376
  8
ﾚｲﾔ1
  6
DASHDOT
 10
734.562855
 20
909.4837048858778
 30
0.0
 11
734.562855
 21
869.5025948858779
 31
0.0
  0
CIRCLE
  5
1377
  8
ﾚｲﾔ1
  6
CONTINUOUS
 10
734.562855
 20
889.4931498858778
 30
0.0
 40
11.90926999999994
  0
CIRCLE
  5
1378
  8
ﾚｲﾔ1
  6
CONTINUOUS
 10
734.562855
 20
889.4931448858779
 30
0.0
 40
11.90926999999994
  0
LINE
  5
137D
  8
ﾚｲﾔ1
  6
DASHDOT
 10
164.8558350000001
 20
1109.493144885878
 30
0.0
 11
204.8369250000001
 21
1109.493144885878
 31
0.0
  0
LINE
  5
137E
  8
ﾚｲﾔ1
  6
DASHDOT
 10
184.8463750000001
 20
1129.483704885878
 30
0.0
 11
184.8463750000001
 21
1089.502594885878
 31
0.0
  0
CIRCLE
  5
137F
  8
ﾚｲﾔ1
  6
CONTINUOUS
 10
184.8463750000001
 20
1109.493149885878
 30
0.0
 40
11.90926999999994
  0
CIRCLE
  5
1380
  8
ﾚｲﾔ1
  6
CONTINUOUS
 10
184.8463750000001
 20
1109.493144885878
 30
0.0
 40
11.90926999999994
  0
LINE
  5
1381
  8
ﾚｲﾔ1
  6
DASHDOT
 10
164.8558350000001
 20
889.493139885878
 30
0.0
 11
204.8369250000001
 21
889.493139885878
 31
0.0
  0
LINE
  5
1382
  8
ﾚｲﾔ1
  6
DASHDOT
 10
184.8463750000001
 20
909.483699885878
 30
0.0
 11
184.8463750000001
 21
869.502589885878
 31
0.0
  0
CIRCLE
  5
1383
  8
ﾚｲﾔ1
  6
CONTINUOUS
 10
184.8463750000001
 20
889.4931448858779
 30
0.0
 40
11.90926999999994
  0
CIRCLE
  5
1384
  8
ﾚｲﾔ1
  6
CONTINUOUS
 10
184.8463750000001
 20
889.493139885878
 30
0.0
 40
11.90926999999994
  0
LINE
  5
1388
  8
ﾚｲﾔ1
  6
DASHDOT
 10
494.57232
 20
1109.493139885878
 30
0.0
 11
534.55341
 21
1109.493139885878
 31
0.0
  0
LINE
  5
1389
  8
ﾚｲﾔ1
  6
DASHDOT
 10
514.56286
 20
1129.483699885878
 30
0.0
 11
514.56286
 21
1089.502589885878
 31
0.0
  0
CIRCLE
  5
138A
  8
ﾚｲﾔ1
  6
CONTINUOUS
 10
514.56286
 20
1109.493144885878
 30
0.0
 40
11.90926999999994
  0
CIRCLE
  5
138B
  8
ﾚｲﾔ1
  6
CONTINUOUS
 10
514.56286
 20
1109.493139885878
 30
0.0
 40
11.90926999999994
  0
LINE
  5
138C
  8
ﾚｲﾔ1
  6
DASHDOT
 10
494.57232
 20
889.4931448858779
 30
0.0
 11
534.55341
 21
889.4931448858779
 31
0.0
  0
LINE
  5
138D
  8
ﾚｲﾔ1
  6
DASHDOT
 10
514.56286
 20
909.4837048858778
 30
0.0
 11
514.56286
 21
869.5025948858779
 31
0.0
  0
CIRCLE
  5
138E
  8
ﾚｲﾔ1
  6
CONTINUOUS
 10
514.56286
 20
889.4931498858778
 30
0.0
 40
11.90926999999994
  0
CIRCLE
  5
138F
  8
ﾚｲﾔ1
  6
CONTINUOUS
 10
514.56286
 20
889.4931448858779
 30
0.0
 40
11.90926999999994
  0
LINE
  5
1390
  8
ﾚｲﾔ1
  6
DASHDOT
 10
384.57232
 20
1109.493144885878
 30
0.0
 11
424.55341
 21
1109.493144885878
 31
0.0
  0
LINE
  5
1391
  8
ﾚｲﾔ1
  6
DASHDOT
 10
404.56286
 20
1129.483704885878
 30
0.0
 11
404.56286
 21
1089.502594885878
 31
0.0
  0
CIRCLE
  5
1392
  8
ﾚｲﾔ1
  6
CONTINUOUS
 10
404.56286
 20
1109.493149885878
 30
0.0
 40
11.90926999999994
  0
CIRCLE
  5
1393
  8
ﾚｲﾔ1
  6
CONTINUOUS
 10
404.56286
 20
1109.493144885878
 30
0.0
 40
11.90926999999994
  0
LINE
  5
1394
  8
ﾚｲﾔ1
  6
DASHDOT
 10
384.57232
 20
889.4931448858779
 30
0.0
 11
424.55341
 21
889.4931448858779
 31
0.0
  0
LINE
  5
1395
  8
ﾚｲﾔ1
  6
DASHDOT
 10
404.56286
 20
909.4837048858778
 30
0.0
 11
404.56286
 21
869.5025948858779
 31
0.0
  0
CIRCLE
  5
1396
  8
ﾚｲﾔ1
  6
CONTINUOUS
 10
404.56286
 20
889.4931498858778
 30
0.0
 40
11.90926999999994
  0
CIRCLE
  5
1397
  8
ﾚｲﾔ1
  6
CONTINUOUS
 10
404.56286
 20
889.4931448858779
 30
0.0
 40
11.90926999999994
  0
LINE
  5
139D
  8
ﾚｲﾔ1
  6
DASHDOT
 10
639.57232
 20
889.493139885878
 30
0.0
 11
679.55341
 21
889.493139885878
 31
0.0
  0
LINE
  5
139E
  8
ﾚｲﾔ1
  6
DASHDOT
 10
659.56286
 20
909.483699885878
 30
0.0
 11
659.56286
 21
869.502589885878
 31
0.0
  0
LINE
  5
13A1
  8
ﾚｲﾔ1
  6
DASHDOT
 10
239.8558350000001
 20
1109.493139885878
 30
0.0
 11
279.8369250000001
 21
1109.493139885878
 31
0.0
  0
LINE
  5
13A2
  8
ﾚｲﾔ1
  6
DASHDOT
 10
259.8463750000001
 20
1129.483699885878
 30
0.0
 11
259.8463750000001
 21
1089.502589885878
 31
0.0
  0
ARC
  5
13A4
  8
ﾚｲﾔ1
  6
CONTINUOUS
 10
259.8463750000001
 20
1109.493139885878
 30
0.0
 40
11.90926999999994
 50
0.0
 51
180.0
  0
LINE
  5
13A5
  8
ﾚｲﾔ1
  6
DASHDOT
 10
239.8558350000001
 20
889.493139885878
 30
0.0
 11
279.8369250000001
 21
889.493139885878
 31
0.0
  0
LINE
  5
13A6
  8
ﾚｲﾔ1
  6
DASHDOT
 10
259.8463750000001
 20
909.483699885878
 30
0.0
 11
259.8463750000001
 21
869.502589885878
 31
0.0
  0
LINE
  5
13A9
  8
ﾚｲﾔ1
  6
DASHDOT
 10
539.57232
 20
1099.493144885878
 30
0.0
 11
579.55341
 21
1099.493144885878
 31
0.0
  0
LINE
  5
13AA
  8
ﾚｲﾔ1
  6
DASHDOT
 10
559.56286
 20
1119.483704885878
 30
0.0
 11
559.56286
 21
1079.502594885878
 31
0.0
  0
CIRCLE
  5
13AB
  8
ﾚｲﾔ1
  6
CONTINUOUS
 10
559.56286
 20
1099.493149885878
 30
0.0
 40
11.90926999999994
  0
CIRCLE
  5
13AC
  8
ﾚｲﾔ1
  6
CONTINUOUS
 10
559.56286
 20
1099.493144885878
 30
0.0
 40
11.90926999999994
  0
LINE
  5
13AD
  8
ﾚｲﾔ1
  6
DASHDOT
 10
539.57232
 20
899.4931448858779
 30
0.0
 11
579.55341
 21
899.4931448858779
 31
0.0
  0
LINE
  5
13AE
  8
ﾚｲﾔ1
  6
DASHDOT
 10
559.56286
 20
919.4837048858778
 30
0.0
 11
559.56286
 21
879.5025948858779
 31
0.0
  0
CIRCLE
  5
13AF
  8
ﾚｲﾔ1
  6
CONTINUOUS
 10
559.56286
 20
899.4931498858778
 30
0.0
 40
11.90926999999994
  0
CIRCLE
  5
13B0
  8
ﾚｲﾔ1
  6
CONTINUOUS
 10
559.56286
 20
899.4931448858779
 30
0.0
 40
11.90926999999994
  0
LINE
  5
13B1
  8
ﾚｲﾔ1
  6
DASHDOT
 10
339.8558350000001
 20
1099.493139885878
 30
0.0
 11
379.8369250000001
 21
1099.493139885878
 31
0.0
  0
LINE
  5
13B2
  8
ﾚｲﾔ1
  6
DASHDOT
 10
359.8463750000001
 20
1119.483699885878
 30
0.0
 11
359.8463750000001
 21
1079.502589885878
 31
0.0
  0
CIRCLE
  5
13B3
  8
ﾚｲﾔ1
  6
CONTINUOUS
 10
359.8463750000001
 20
1099.493144885878
 30
0.0
 40
11.90926999999994
  0
CIRCLE
  5
13B4
  8
ﾚｲﾔ1
  6
CONTINUOUS
 10
359.8463750000001
 20
1099.493139885878
 30
0.0
 40
11.90926999999994
  0
LINE
  5
13B5
  8
ﾚｲﾔ1
  6
DASHDOT
 10
339.8558350000001
 20
899.493139885878
 30
0.0
 11
379.8369250000001
 21
899.493139885878
 31
0.0
  0
LINE
  5
13B6
  8
ﾚｲﾔ1
  6
DASHDOT
 10
359.8463750000001
 20
919.483699885878
 30
0.0
 11
359.8463750000001
 21
879.502589885878
 31
0.0
  0
CIRCLE
  5
13B7
  8
ﾚｲﾔ1
  6
CONTINUOUS
 10
359.8463750000001
 20
899.4931448858779
 30
0.0
 40
11.90926999999994
  0
CIRCLE
  5
13B8
  8
ﾚｲﾔ1
  6
CONTINUOUS
 10
359.8463750000001
 20
899.493139885878
 30
0.0
 40
11.90926999999994
  0
LINE
  5
13BD
  8
ﾚｲﾔ1
  6
DASHDOT
 10
639.57232
 20
899.493139885878
 30
0.0
 11
679.55341
 21
899.493139885878
 31
0.0
  0
LINE
  5
13BE
  8
ﾚｲﾔ1
  6
DASHDOT
 10
659.56286
 20
919.483699885878
 30
0.0
 11
659.56286
 21
879.502589885878
 31
0.0
  0
LINE
  5
13C1
  8
ﾚｲﾔ1
  6
DASHDOT
 10
239.8558300000001
 20
1099.493144885878
 30
0.0
 11
279.8369200000001
 21
1099.493144885878
 31
0.0
  0
LINE
  5
13C2
  8
ﾚｲﾔ1
  6
DASHDOT
 10
259.8463700000001
 20
1119.483704885878
 30
0.0
 11
259.8463700000001
 21
1079.502594885878
 31
0.0
  0
ARC
  5
13C4
  8
ﾚｲﾔ1
  6
CONTINUOUS
 10
259.8463700000001
 20
1099.493144885878
 30
0.0
 40
11.90926999999994
 50
180.0
 51
0.0
  0
LINE
  5
13C5
  8
ﾚｲﾔ1
  6
DASHDOT
 10
239.8558350000001
 20
899.4931448858779
 30
0.0
 11
279.8369250000001
 21
899.4931448858779
 31
0.0
  0
LINE
  5
13C6
  8
ﾚｲﾔ1
  6
DASHDOT
 10
259.8463750000001
 20
919.4837048858778
 30
0.0
 11
259.8463750000001
 21
879.5025948858779
 31
0.0
  0
LINE
  5
13C9
  8
ﾚｲﾔ1
  6
CONTINUOUS
 10
247.9371050000001
 20
1109.493139885878
 30
0.0
 11
247.9371000000002
 21
1099.493144885878
 31
0.0
  0
LINE
  5
13CA
  8
ﾚｲﾔ1
  6
CONTINUOUS
 10
271.755645
 20
1109.493139885878
 30
0.0
 11
271.7556399999991
 21
1099.493149503834
 31
0.0
  0
LINE
  5
13D7
  8
ﾚｲﾔ1
  6
CONTINUOUS
 10
647.4424915550114
 20
1109.61148750399
 30
0.0
 11
647.4487968816597
 21
1099.611499109805
 31
0.0
  0
LINE
  5
13D8
  8
ﾚｲﾔ1
  6
CONTINUOUS
 10
671.2610268277222
 20
1109.626493976652
 30
0.0
 11
671.2673321572792
 21
1099.626500964511
 31
0.0
  0
ARC
  5
13D9
  8
ﾚｲﾔ1
  6
CONTINUOUS
 10
659.3580645209238
 20
1099.61899772818
 30
0.0
 40
11.90926999999994
 50
180.0360982497585
 51
0.0360982497585002
  0
LINE
  5
13DA
  8
ﾚｲﾔ1
  6
DASHDOT
 10
659.3454698030216
 20
1119.609553760634
 30
0.0
 11
659.3706592325256
 21
1079.628451695724
 31
0.0
  0
LINE
  5
13DB
  8
ﾚｲﾔ1
  6
DASHDOT
 10
679.3486005533816
 20
1099.631592433482
 30
0.0
 11
639.3675184884678
 21
1099.606403016578
 31
0.0
  0
ARC
  5
13DC
  8
ﾚｲﾔ1
  6
CONTINUOUS
 10
659.3517591913668
 20
1109.618990740321
 30
0.0
 40
11.90926999999994
 50
0.0360982497585002
 51
180.0360982497585
  0
LINE
  5
13DD
  8
ﾚｲﾔ1
  6
DASHDOT
 10
659.3391644734646
 20
1129.609546772775
 30
0.0
 11
659.3643539029686
 21
1089.628444707865
 31
0.0
  0
LINE
  5
13DE
  8
ﾚｲﾔ1
  6
DASHDOT
 10
679.3422952238247
 20
1109.631585445623
 30
0.0
 11
639.3612131589109
 21
1109.60639602872
 31
0.0
  0
LINE
  5
13DF
  8
ﾚｲﾔ1
  6
CONTINUOUS
 10
271.755645
 20
889.4931498858778
 30
0.0
 11
271.7556399999991
 21
899.4931402679217
 31
0.0
  0
LINE
  5
13E0
  8
ﾚｲﾔ1
  6
CONTINUOUS
 10
247.9371050000001
 20
889.4931498858778
 30
0.0
 11
247.9371000000002
 21
899.4931448858779
 31
0.0
  0
ARC
  5
13E1
  8
ﾚｲﾔ1
  6
CONTINUOUS
 10
259.8463700000001
 20
899.4931448858779
 30
0.0
 40
11.90926999999994
 50
0.0
 51
180.0
  0
LINE
  5
13E2
  8
ﾚｲﾔ1
  6
DASHDOT
 10
259.8463700000001
 20
879.5025848858779
 30
0.0
 11
259.8463700000001
 21
919.4836948858779
 31
0.0
  0
LINE
  5
13E3
  8
ﾚｲﾔ1
  6
DASHDOT
 10
239.8558300000001
 20
899.4931448858779
 30
0.0
 11
279.8369200000001
 21
899.4931448858779
 31
0.0
  0
ARC
  5
13E4
  8
ﾚｲﾔ1
  6
CONTINUOUS
 10
259.8463750000001
 20
889.4931498858778
 30
0.0
 40
11.90926999999994
 50
180.0
 51
0.0
  0
LINE
  5
13E5
  8
ﾚｲﾔ1
  6
DASHDOT
 10
259.8463750000001
 20
869.5025898858778
 30
0.0
 11
259.8463750000001
 21
909.4836998858777
 31
0.0
  0
LINE
  5
13E6
  8
ﾚｲﾔ1
  6
DASHDOT
 10
239.8558350000001
 20
889.4931498858778
 30
0.0
 11
279.8369250000001
 21
889.4931498858778
 31
0.0
  0
LINE
  5
13E7
  8
ﾚｲﾔ1
  6
DASHDOT
 10
679.3422952238247
 20
889.3547043261328
 30
0.0
 11
639.3612131589109
 21
889.3798937430361
 31
0.0
  0
LINE
  5
13E8
  8
ﾚｲﾔ1
  6
DASHDOT
 10
659.3391644734646
 20
869.3767429989805
 30
0.0
 11
659.3643539029686
 21
909.3578450638904
 31
0.0
  0
ARC
  5
13E9
  8
ﾚｲﾔ1
  6
CONTINUOUS
 10
659.3517591913668
 20
889.3672990314344
 30
0.0
 40
11.90926999999994
 50
179.9639017502415
 51
359.9639017502415
  0
LINE
  5
13EA
  8
ﾚｲﾔ1
  6
DASHDOT
 10
679.3486005533816
 20
899.3546973382738
 30
0.0
 11
639.3675184884678
 21
899.3798867551773
 31
0.0
  0
LINE
  5
13EB
  8
ﾚｲﾔ1
  6
DASHDOT
 10
659.3454698030216
 20
879.3767360111217
 30
0.0
 11
659.3706592325256
 21
919.3578380760314
 31
0.0
  0
ARC
  5
13EC
  8
ﾚｲﾔ1
  6
CONTINUOUS
 10
659.3580645209238
 20
899.3672920435754
 30
0.0
 40
11.90926999999994
 50
359.9639017502415
 51
179.9639017502415
  0
LINE
  5
13ED
  8
ﾚｲﾔ1
  6
CONTINUOUS
 10
671.2610268277222
 20
889.3597957951033
 30
0.0
 11
671.2673321572792
 21
899.3597888072443
 31
0.0
  0
LINE
  5
13EE
  8
ﾚｲﾔ1
  6
CONTINUOUS
 10
647.4424915550114
 20
889.3748022677655
 30
0.0
 11
647.4487968816597
 21
899.3747906619512
 31
0.0
  0
DIMENSION
  5
13FD
  8
寸法
  6
CONTINUOUS
  2
*D23
 10
841.3315136979327
 20
1109.493144885878
 30
0.0
 11
830.8315136979326
 21
999.4931448858781
 31
0.0
 70
    32
 13
735.06286
 23
889.4931448858779
 33
0.0
 14
735.06286
 24
1109.493144885878
 34
0.0
 50
90.0
  0
DIMENSION
  5
140A
  8
寸法
  6
CONTINUOUS
  2
*D24
 10
841.3315136979327
 20
1224.493144885878
 30
0.0
 11
830.8315136979326
 21
1166.993144885878
 31
0.0
 70
    32
 13
735.56286
 23
1109.493144885878
 33
0.0
 14
759.56286
 24
1224.493144885878
 34
0.0
 50
90.0
  0
DIMENSION
  5
158E
  8
寸法
  6
CONTINUOUS
  2
*D25
 10
841.3315136979327
 20
774.4931448858778
 30
0.0
 11
830.8315136979325
 21
831.993144885878
 31
0.0
 70
    32
 13
514.562865
 23
889.4931448858779
 33
0.0
 14
588.721635
 24
774.4931448858779
 34
0.0
 50
90.0
  0
DIMENSION
  5
15A4
  8
寸法
  6
CONTINUOUS
  2
*D26
 10
99.3212305820216
 20
1184.493144885878
 30
0.0
 11
88.8212305820214
 21
1204.493144885878
 31
0.0
 70
    32
 13
199.3463750000001
 23
1224.493144885878
 33
0.0
 14
199.3463750000001
 24
1184.493144885878
 34
0.0
 50
90.0
  0
DIMENSION
  5
15B1
  8
寸法
  6
CONTINUOUS
  2
*D27
 10
99.3212305820216
 20
999.4931448858779
 30
0.0
 11
88.82123058202144
 21
1091.993144885878
 31
0.0
 70
    32
 13
199.3463750000001
 23
1184.493144885878
 33
0.0
 14
199.3463750000001
 24
999.4931448858779
 34
0.0
 50
90.0
  0
DIMENSION
  5
15BE
  8
寸法
  6
CONTINUOUS
  2
*D28
 10
99.3212305820216
 20
814.4931498858779
 30
0.0
 11
88.82123058202147
 21
906.9931473858778
 31
0.0
 70
    32
 13
198.8463750000001
 23
999.4931448858779
 33
0.0
 14
199.3463775000001
 24
814.4931498858779
 34
0.0
 50
90.0
  0
DIMENSION
  5
15CB
  8
寸法
  6
CONTINUOUS
  2
*D29
 10
99.32123192176753
 20
774.4931448858779
 30
0.0
 11
88.8212319217674
 21
794.4931473858778
 31
0.0
 70
    32
 13
198.8463775000001
 23
814.4931498858779
 33
0.0
 14
199.3463750000001
 24
774.4931448858779
 34
0.0
 50
90.0
  0
DIMENSION
  5
15FB
  8
寸法
  6
CONTINUOUS
  2
*D30
 10
734.562855
 20
687.9561347828308
 30
0.0
 11
759.56286
 21
699.3773826911374
 31
0.0
 70
   160
 13
759.56286
 23
889.4931448858778
 33
0.0
 14
734.562855
 24
889.4931448858778
 34
0.0
  0
DIMENSION
  5
162A
  8
寸法
  6
CONTINUOUS
  2
*D31
 10
514.56286
 20
687.9561347828308
 30
0.0
 11
487.13373875
 21
698.4561347828308
 31
0.0
 70
    32
 13
459.7046175
 23
774.4931448858779
 33
0.0
 14
514.56286
 24
889.4931448858779
 34
0.0
  0
DIMENSION
  5
1638
  8
寸法
  6
CONTINUOUS
  2
*D32
 10
659.3517591882166
 20
687.9561347828308
 30
0.0
 11
586.9573095941083
 21
698.4561347828308
 31
0.0
 70
    32
 13
514.56286
 23
889.4931498858779
 33
0.0
 14
659.3517591882166
 24
889.3672940314354
 34
0.0
  0
DIMENSION
  5
1645
  8
寸法
  6
CONTINUOUS
  2
*D33
 10
734.562855
 20
687.9561347828308
 30
0.0
 11
696.9573070941083
 21
698.4561347828308
 31
0.0
 70
    32
 13
659.3517591882166
 23
888.8672940314354
 33
0.0
 14
734.562855
 24
888.9931448858778
 34
0.0
  0
DIMENSION
  5
1653
  8
寸法
  6
CONTINUOUS
  2
*D34
 10
404.562865
 20
687.9561347828308
 30
0.0
 11
432.13374125
 21
698.4561347828308
 31
0.0
 70
    32
 13
459.7046175
 23
773.9931448858779
 33
0.0
 14
404.562865
 24
889.4931448858779
 34
0.0
  0
DIMENSION
  5
1660
  8
寸法
  6
CONTINUOUS
  2
*D35
 10
259.8463800000001
 20
687.9561347828308
 30
0.0
 11
332.2046225
 21
698.4561347828308
 31
0.0
 70
    32
 13
404.562865
 23
889.4931448858779
 33
0.0
 14
259.8463800000001
 24
889.4931498858778
 34
0.0
  0
DIMENSION
  5
166D
  8
寸法
  6
CONTINUOUS
  2
*D36
 10
184.8463750000001
 20
687.9561347828308
 30
0.0
 11
222.3463725000001
 21
698.4561347828308
 31
0.0
 70
    32
 13
259.8463700000001
 23
889.4931498858778
 33
0.0
 14
184.8463750000001
 24
889.4931498858773
 34
0.0
  0
DIMENSION
  5
167A
  8
寸法
  6
CONTINUOUS
  2
*D37
 10
159.8463750000001
 20
687.9561347828308
 30
0.0
 11
163.2573523928768
 21
698.5000366268218
 31
0.0
 70
   160
 13
184.8463750000001
 23
888.9931498858773
 33
0.0
 14
159.8463750000001
 24
814.4931448858779
 34
0.0
  0
DIMENSION
  5
1688
  8
寸法
  6
CONTINUOUS
  2
*D38
 10
359.8463750000001
 20
725.352944648921
 30
0.0
 11
409.7754962500001
 21
735.852944648921
 31
0.0
 70
    32
 13
459.7046175
 23
774.4931448858779
 33
0.0
 14
359.8463750000001
 24
899.493144885878
 34
0.0
  0
DIMENSION
  5
1695
  8
寸法
  6
CONTINUOUS
  2
*D39
 10
259.8463700000001
 20
725.352944648921
 30
0.0
 11
309.8463750000001
 21
735.852944648921
 31
0.0
 70
    32
 13
359.8463800000001
 23
899.493139885878
 33
0.0
 14
259.8463700000001
 24
899.4931398858779
 34
0.0
  0
DIMENSION
  5
16A2
  8
寸法
  6
CONTINUOUS
  2
*D40
 10
159.8463750000001
 20
725.352944648921
 30
0.0
 11
209.8463750000001
 21
735.852944648921
 31
0.0
 70
    32
 13
259.8463750000001
 23
899.4931498858779
 33
0.0
 14
159.8463750000001
 24
813.9931448858779
 34
0.0
  0
DIMENSION
  5
16AF
  8
寸法
  6
CONTINUOUS
  2
*D41
 10
159.8463750000001
 20
1243.931990861598
 30
0.0
 11
179.5963750000001
 21
1254.431990861598
 31
0.0
 70
    32
 13
199.3463750000001
 23
1184.493144885878
 33
0.0
 14
159.8463750000001
 24
1184.493144885878
 34
0.0
  0
DIMENSION
  5
16BC
  8
寸法
  6
CONTINUOUS
  2
*D42
 10
560.062865
 20
725.352944648921
 30
0.0
 11
509.88374125
 21
735.852944648921
 31
0.0
 70
    32
 13
459.7046175
 23
774.4931448858779
 33
0.0
 14
560.062865
 24
899.4931448858779
 34
0.0
  0
DIMENSION
  5
16C9
  8
寸法
  6
CONTINUOUS
  2
*D43
 10
659.562865
 20
725.352944648921
 30
0.0
 11
609.5628624999999
 21
735.852944648921
 31
0.0
 70
    32
 13
559.56286
 23
899.4931498858779
 33
0.0
 14
659.562865
 24
899.493139885878
 34
0.0
  0
DIMENSION
  5
16D7
  8
寸法
  6
CONTINUOUS
  2
*D44
 10
759.56286
 20
725.352944648921
 30
0.0
 11
709.5628624999999
 21
735.852944648921
 31
0.0
 70
    32
 13
659.562865
 23
898.993139885878
 33
0.0
 14
759.56286
 24
774.4931448858779
 34
0.0
  0
DIMENSION
  5
16F7
  8
寸法
  6
CONTINUOUS
  2
*D45
 10
811.2948125039338
 20
774.4931448858778
 30
0.0
 11
800.7948125039336
 21
836.993144885878
 31
0.0
 70
    32
 13
560.062865
 23
899.4931448858779
 33
0.0
 14
589.221635
 24
774.4931448858779
 34
0.0
 50
90.0
  0
DIMENSION
  5
1705
  8
寸法
  6
CONTINUOUS
  2
*D46
 10
707.3489371276617
 20
165.9905609062321
 30
0.0
 11
457.4670471276617
 21
176.4905609062321
 31
0.0
 70
    32
 13
207.5851571276617
 23
228.2251191464908
 33
0.0
 14
707.3489371276617
 24
228.2251191464908
 34
0.0
  0
ENDSEC
  0
EOF
