  0
SECTION
  2
HEADER
  9
$ACADVER
  1
AC1006
  9
$DWGCODEPAGE
  3
ansi_932
  9
$INSBASE
 10
0.0
 20
0.0
 30
0.0
  9
$EXTMIN
 10
-210.0640820246936
 20
-148.5453151460338
  9
$EXTMAX
 10
1890.064091803581
 20
1336.545322061103
  9
$LIMMIN
 10
-210.0
 20
-148.5
  9
$LIMMAX
 10
1890.0
 20
1336.5
  9
$ORTHOMODE
 70
     1
  9
$REGENMODE
 70
     1
  9
$FILLMODE
 70
     1
  9
$QTEXTMODE
 70
     0
  9
$MIRRTEXT
 70
     1
  9
$DRAGMODE
 70
     2
  9
$LTSCALE
 40
5.0
  9
$OSMODE
 70
    37
  9
$ATTMODE
 70
     1
  9
$TEXTSIZE
 40
1.0
  9
$TRACEWID
 40
0.05
  9
$TEXTSTYLE
  7
STANDARD
  9
$CLAYER
  8
寸法
  9
$CELTYPE
  6
CONTINUOUS
  9
$CECOLOR
 62
   256
  9
$DIMSCALE
 40
1.0
  9
$DIMASZ
 40
12.0
  9
$DIMEXO
 40
0.5
  9
$DIMDLI
 40
0.5
  9
$DIMRND
 40
0.0
  9
$DIMDLE
 40
0.0
  9
$DIMEXE
 40
0.5
  9
$DIMTP
 40
0.0
  9
$DIMTM
 40
0.0
  9
$DIMTXT
 40
20.0
  9
$DIMCEN
 40
0.5
  9
$DIMTSZ
 40
0.0
  9
$DIMTOL
 70
     0
  9
$DIMLIM
 70
     0
  9
$DIMTIH
 70
     0
  9
$DIMTOH
 70
     0
  9
$DIMSE1
 70
     0
  9
$DIMSE2
 70
     0
  9
$DIMTAD
 70
     1
  9
$DIMZIN
 70
     0
  9
$DIMBLK
  1
OPEN30
  9
$DIMASO
 70
     1
  9
$DIMSHO
 70
     1
  9
$DIMPOST
  1

  9
$DIMAPOST
  1

  9
$DIMALT
 70
     0
  9
$DIMALTD
 70
     2
  9
$DIMALTF
 40
25.4
  9
$DIMLFAC
 40
1.0
  9
$DIMTOFL
 70
     0
  9
$DIMTVP
 40
0.0
  9
$DIMTIX
 70
     0
  9
$DIMSOXD
 70
     0
  9
$DIMSAH
 70
     0
  9
$DIMBLK1
  1

  9
$DIMBLK2
  1

  9
$LUNITS
 70
     2
  9
$LUPREC
 70
     4
  9
$SKETCHINC
 40
0.1
  9
$FILLETRAD
 40
0.0
  9
$AUNITS
 70
     0
  9
$AUPREC
 70
     0
  9
$MENU
  1
.
  9
$ELEVATION
 40
0.0
  9
$THICKNESS
 40
0.0
  9
$LIMCHECK
 70
     0
  9
$CHAMFERA
 40
0.0
  9
$CHAMFERB
 40
0.0
  9
$SKPOLY
 70
     0
  9
$TDCREATE
 40
2452454.328385162
  9
$TDUPDATE
 40
2459969.435348357
  9
$TDINDWG
 40
0.4353095139
  9
$TDUSRTIMER
 40
0.4353095139
  9
$USRTIMER
 70
     1
  9
$ANGBASE
 50
0.0
  9
$ANGDIR
 70
     0
  9
$PDMODE
 70
     0
  9
$PDSIZE
 40
1.5
  9
$PLINEWID
 40
0.0
  9
$COORDS
 70
     1
  9
$SPLFRAME
 70
     0
  9
$SPLINETYPE
 70
     6
  9
$SPLINESEGS
 70
     8
  9
$ATTDIA
 70
     0
  9
$ATTREQ
 70
     1
  9
$HANDLING
 70
     1
  9
$HANDSEED
  5
18B3
  9
$SURFTAB1
 70
     6
  9
$SURFTAB2
 70
     6
  9
$SURFTYPE
 70
     6
  9
$SURFU
 70
     6
  9
$SURFV
 70
     6
  9
$UCSNAME
  2

  9
$UCSORG
 10
0.0
 20
0.0
 30
0.0
  9
$UCSXDIR
 10
1.0
 20
0.0
 30
0.0
  9
$UCSYDIR
 10
0.0
 20
1.0
 30
0.0
  9
$USERI1
 70
     0
  9
$USERI2
 70
     0
  9
$USERI3
 70
     0
  9
$USERI4
 70
     0
  9
$USERI5
 70
     0
  9
$USERR1
 40
0.0
  9
$USERR2
 40
0.0
  9
$USERR3
 40
0.0
  9
$USERR4
 40
0.0
  9
$USERR5
 40
0.0
  9
$WORLDVIEW
 70
     1
  0
ENDSEC
  0
SECTION
  2
TABLES
  0
TABLE
  2
VPORT
 70
     1
  0
VPORT
  2
*ACTIVE
 70
     0
 10
0.0
 20
0.0
 11
1.0
 21
1.0
 12
960.2235775101105
 22
514.7701019163769
 13
0.0
 23
0.0
 14
1.0
 24
1.0
 15
0.0
 25
0.0
 16
0.0
 26
0.0
 36
1.0
 17
0.0
 27
0.0
 37
0.0
 40
2068.877349649447
 41
1.70990990990991
 42
50.0
 43
0.0
 44
0.0
 50
0.0
 51
0.0
 71
     0
 72
   100
 73
     1
 74
     1
 75
     1
 76
     0
 77
     0
 78
     0
  0
ENDTAB
  0
TABLE
  2
LTYPE
 70
     9
  0
LTYPE
  2
CONTINUOUS
 70
     0
  3
実線
 72
    65
 73
     0
 40
0.0
  0
LTYPE
  2
DASHED
 70
     0
  3
破線A
 72
    65
 73
     2
 40
7.5
 49
5.0
 49
-2.5
  0
LTYPE
  2
DASHEDX2
 70
     0
  3
破線B
 72
    65
 73
     2
 40
15.0
 49
10.0
 49
-5.0
  0
LTYPE
  2
DASHDOT
 70
     0
  3
１点鎖線A
 72
    65
 73
     4
 40
10.0
 49
5.0
 49
-2.5
 49
0.0
 49
-2.5
  0
LTYPE
  2
DASHDOTX2
 70
     0
  3
１点鎖線B
 72
    65
 73
     4
 40
20.0
 49
10.0
 49
-5.0
 49
0.0
 49
-5.0
  0
LTYPE
  2
DIVIDE2
 70
     0
  3
２点鎖線A
 72
    65
 73
     6
 40
6.25
 49
2.5
 49
-1.25
 49
0.0
 49
-1.25
 49
0.0
 49
-1.25
  0
LTYPE
  2
DIVIDE
 70
     0
  3
２点鎖線B
 72
    65
 73
     6
 40
12.5
 49
5.0
 49
-2.5
 49
0.0
 49
-2.5
 49
0.0
 49
-2.5
  0
LTYPE
  2
DOT
 70
     0
  3
点線A
 72
    65
 73
     2
 40
2.5
 49
0.0
 49
-2.5
  0
LTYPE
  2
DOTX2
 70
     0
  3
点線B
 72
    65
 73
     2
 40
5.0
 49
0.0
 49
-5.0
  0
ENDTAB
  0
TABLE
  2
LAYER
 70
     6
  0
LAYER
  2
0
 70
     0
 62
     7
  6
CONTINUOUS
  0
LAYER
  2
ﾚｲﾔ1
 70
     0
 62
     7
  6
CONTINUOUS
  0
LAYER
  2
寸法
 70
     0
 62
     1
  6
CONTINUOUS
  0
LAYER
  2
図面枠
 70
     0
 62
     5
  6
CONTINUOUS
  0
LAYER
  2
下図
 70
     0
 62
     8
  6
CONTINUOUS
  0
LAYER
  2
DEFPOINTS
 70
     0
 62
     7
  6
CONTINUOUS
  0
ENDTAB
  0
TABLE
  2
STYLE
 70
    13
  0
STYLE
  2
STANDARD
 70
     0
 40
1.0
 41
1.0
 50
0.0
 71
     0
 42
1.0
  3
TXT
  4
BIGFONT
  0
STYLE
  2
TATE
 70
     4
 40
1.0
 41
1.0
 50
0.0
 71
     0
 42
1.0
  3
TXT
  4
BIGFONT
  0
STYLE
  2
TEXTSTYLE01
 70
     0
 40
0.0
 41
1.0
 50
0.0
 71
     0
 42
0.2
  3
TXT
  4
BIGFONT
  0
STYLE
  2
TEXTSTYLE02
 70
     0
 40
0.0
 41
1.0
 50
0.0
 71
     0
 42
0.2
  3
TXT
  4
BIGFONT
  0
STYLE
  2
TEXTSTYLE03
 70
     0
 40
0.0
 41
1.0
 50
0.0
 71
     0
 42
0.2
  3
TXT
  4
BIGFONT
  0
STYLE
  2
TEXTSTYLE04
 70
     0
 40
0.0
 41
1.0
 50
0.0
 71
     0
 42
0.2
  3
TXT
  4
BIGFONT
  0
STYLE
  2
TEXTSTYLE05
 70
     0
 40
0.0
 41
1.0
 50
0.0
 71
     0
 42
0.2
  3
TXT
  4
BIGFONT
  0
STYLE
  2
TEXTSTYLE06
 70
     0
 40
0.0
 41
1.0
 50
0.0
 71
     0
 42
0.2
  3

  4

  0
STYLE
  2
TEXTSTYLE07
 70
     0
 40
0.0
 41
1.0
 50
0.0
 71
     0
 42
0.2
  3

  4

  0
STYLE
  2
TEXTSTYLE08
 70
     0
 40
0.0
 41
1.0
 50
0.0
 71
     0
 42
0.2
  3

  4

  0
STYLE
  2
TEXTSTYLE09
 70
     0
 40
0.0
 41
1.0
 50
0.0
 71
     0
 42
0.2
  3

  4

  0
STYLE
  2
TEXTSTYLE10
 70
     0
 40
0.0
 41
1.0
 50
0.0
 71
     0
 42
0.2
  3

  4

  0
STYLE
  2

 70
     1
 40
0.0
 41
1.0
 50
0.0
 71
     0
 42
1.0
  3
ltypeshp.shx
  4

  0
ENDTAB
  0
TABLE
  2
VIEW
 70
     0
  0
ENDTAB
  0
TABLE
  2
UCS
 70
     0
  0
ENDTAB
  0
ENDSEC
  0
SECTION
  2
BLOCKS
  0
BLOCK
  8
0
  2
_OPEN30
 70
     0
 10
0.0
 20
0.0
 30
0.0
  0
LINE
  5
A95
  8
下図
 62
     0
 10
-1.0
 20
0.26794919
 30
0.0
 11
0.0
 21
0.0
 31
0.0
  0
LINE
  5
A96
  8
下図
 62
     0
 10
0.0
 20
0.0
 30
0.0
 11
-1.0
 21
-0.26794919
 31
0.0
  0
LINE
  5
A97
  8
下図
 62
     0
 10
0.0
 20
0.0
 30
0.0
 11
-1.0
 21
0.0
 31
0.0
  0
ENDBLK
  8
0
  0
BLOCK
  8
0
  2
*D1
 70
     1
 10
0.0
 20
0.0
 30
0.0
  0
LINE
  5
17B9
  8
寸法
  6
CONTINUOUS
 62
     1
 10
157.5379471276617
 20
775.6023041464908
 30
0.0
 11
157.5379471276617
 21
840.8163791464909
 31
0.0
  0
LINE
  5
17BA
  8
寸法
  6
CONTINUOUS
 62
     1
 10
169.5379471276617
 20
840.3163791464909
 30
0.0
 11
225.5000821276617
 21
840.3163791464909
 31
0.0
  0
INSERT
  5
17BB
  8
寸法
  6
CONTINUOUS
 62
     1
  2
_OPEN30
 10
157.5379471276617
 20
840.3163791464909
 30
0.0
 41
12.0
 42
12.0
 43
12.0
 50
180.0
  0
INSERT
  5
17BC
  8
寸法
  6
CONTINUOUS
 62
     1
  2
_OPEN30
 10
237.5000821276617
 20
840.3163791464909
 30
0.0
 41
12.0
 42
12.0
 43
12.0
  0
TEXT
  5
17BD
  8
寸法
  6
CONTINUOUS
 62
     1
 10
182.5190146276617
 20
840.8163791464909
 30
0.0
 40
20.0
  1
80
  7
TEXTSTYLE01
  0
POINT
  5
17BE
  8
DEFPOINTS
  6
CONTINUOUS
 62
     0
 10
157.5379471276617
 20
775.1023041464908
 30
0.0
  0
POINT
  5
17BF
  8
DEFPOINTS
  6
CONTINUOUS
 62
     0
 10
237.5000821276617
 20
701.094694146491
 30
0.0
  0
POINT
  5
17C0
  8
DEFPOINTS
  6
CONTINUOUS
 62
     0
 10
237.5000821276617
 20
840.3163791464909
 30
0.0
  0
ENDBLK
  8
0
  0
BLOCK
  8
0
  2
*D2
 70
     1
 10
0.0
 20
0.0
 30
0.0
  0
LINE
  5
17ED
  8
寸法
  6
CONTINUOUS
 62
     1
 10
237.5000821276617
 20
711.594694146491
 30
0.0
 11
237.5000821276617
 21
840.8163791464909
 31
0.0
  0
LINE
  5
17EE
  8
寸法
  6
CONTINUOUS
 62
     1
 10
677.2921721276617
 20
701.594694146491
 30
0.0
 11
677.2921721276617
 21
840.8163791464909
 31
0.0
  0
LINE
  5
17EF
  8
寸法
  6
CONTINUOUS
 62
     1
 10
249.5000821276617
 20
840.3163791464909
 30
0.0
 11
665.2921721276617
 21
840.3163791464909
 31
0.0
  0
INSERT
  5
17F0
  8
寸法
  6
CONTINUOUS
 62
     1
  2
_OPEN30
 10
237.5000821276617
 20
840.3163791464909
 30
0.0
 41
12.0
 42
12.0
 43
12.0
 50
180.0
  0
INSERT
  5
17F1
  8
寸法
  6
CONTINUOUS
 62
     1
  2
_OPEN30
 10
677.2921721276617
 20
840.3163791464909
 30
0.0
 41
12.0
 42
12.0
 43
12.0
  0
TEXT
  5
17F2
  8
寸法
  6
CONTINUOUS
 62
     1
 10
432.3961271276617
 20
840.8163791464909
 30
0.0
 40
20.0
  1
440
  7
TEXTSTYLE01
  0
POINT
  5
17F3
  8
DEFPOINTS
  6
CONTINUOUS
 62
     0
 10
237.5000821276617
 20
711.094694146491
 30
0.0
  0
POINT
  5
17F4
  8
DEFPOINTS
  6
CONTINUOUS
 62
     0
 10
677.2921721276617
 20
701.094694146491
 30
0.0
  0
POINT
  5
17F5
  8
DEFPOINTS
  6
CONTINUOUS
 62
     0
 10
677.2921721276617
 20
840.3163791464909
 30
0.0
  0
ENDBLK
  8
0
  0
BLOCK
  8
0
  2
*D3
 70
     1
 10
0.0
 20
0.0
 30
0.0
  0
LINE
  5
1804
  8
寸法
  6
CONTINUOUS
 62
     1
 10
677.2921721276618
 20
759.5815291464909
 30
0.0
 11
677.2921721276618
 21
840.8163791464909
 31
0.0
  0
LINE
  5
1805
  8
寸法
  6
CONTINUOUS
 62
     1
 10
757.2544221276617
 20
775.6023041464908
 30
0.0
 11
757.2544221276617
 21
840.8163791464909
 31
0.0
  0
LINE
  5
1806
  8
寸法
  6
CONTINUOUS
 62
     1
 10
689.2921721276618
 20
840.3163791464909
 30
0.0
 11
745.2544221276617
 21
840.3163791464909
 31
0.0
  0
INSERT
  5
1807
  8
寸法
  6
CONTINUOUS
 62
     1
  2
_OPEN30
 10
677.2921721276618
 20
840.3163791464909
 30
0.0
 41
12.0
 42
12.0
 43
12.0
 50
180.0
  0
INSERT
  5
1808
  8
寸法
  6
CONTINUOUS
 62
     1
  2
_OPEN30
 10
757.2544221276617
 20
840.3163791464909
 30
0.0
 41
12.0
 42
12.0
 43
12.0
  0
TEXT
  5
1809
  8
寸法
  6
CONTINUOUS
 62
     1
 10
702.2732971276617
 20
840.8163791464909
 30
0.0
 40
20.0
  1
80
  7
TEXTSTYLE01
  0
POINT
  5
180A
  8
DEFPOINTS
  6
CONTINUOUS
 62
     0
 10
677.2921721276618
 20
759.0815291464909
 30
0.0
  0
POINT
  5
180B
  8
DEFPOINTS
  6
CONTINUOUS
 62
     0
 10
757.2544221276617
 20
775.1023041464908
 30
0.0
  0
POINT
  5
180C
  8
DEFPOINTS
  6
CONTINUOUS
 62
     0
 10
757.2544221276617
 20
840.3163791464909
 30
0.0
  0
ENDBLK
  8
0
  0
BLOCK
  8
0
  2
*D4
 70
     1
 10
0.0
 20
0.0
 30
0.0
  0
LINE
  5
17A7
  8
寸法
  6
CONTINUOUS
 62
     1
 10
157.5379471276617
 20
841.3163791464909
 30
0.0
 11
157.5379471276617
 21
877.9008957107368
 31
0.0
  0
LINE
  5
17A8
  8
寸法
  6
CONTINUOUS
 62
     1
 10
757.2544221276617
 20
841.3163791464909
 30
0.0
 11
757.2544221276617
 21
877.9008957107368
 31
0.0
  0
LINE
  5
17A9
  8
寸法
  6
CONTINUOUS
 62
     1
 10
169.5379471276617
 20
877.4008957107368
 30
0.0
 11
745.2544221276617
 21
877.4008957107368
 31
0.0
  0
INSERT
  5
17AA
  8
寸法
  6
CONTINUOUS
 62
     1
  2
_OPEN30
 10
157.5379471276617
 20
877.4008957107368
 30
0.0
 41
12.0
 42
12.0
 43
12.0
 50
180.0
  0
INSERT
  5
17AB
  8
寸法
  6
CONTINUOUS
 62
     1
  2
_OPEN30
 10
757.2544221276617
 20
877.4008957107368
 30
0.0
 41
12.0
 42
12.0
 43
12.0
  0
TEXT
  5
17AC
  8
寸法
  6
CONTINUOUS
 62
     1
 10
434.0628512943284
 20
877.9008957107368
 30
0.0
 40
20.0
  1
600
  7
TEXTSTYLE01
  0
POINT
  5
17AD
  8
DEFPOINTS
  6
CONTINUOUS
 62
     0
 10
157.5379471276617
 20
840.8163791464909
 30
0.0
  0
POINT
  5
17AE
  8
DEFPOINTS
  6
CONTINUOUS
 62
     0
 10
757.2544221276617
 20
840.8163791464909
 30
0.0
  0
POINT
  5
17AF
  8
DEFPOINTS
  6
CONTINUOUS
 62
     0
 10
757.2544221276617
 20
877.4008957107368
 30
0.0
  0
ENDBLK
  8
0
  0
BLOCK
  8
0
  2
*D5
 70
     1
 10
0.0
 20
0.0
 30
0.0
  0
LINE
  5
17D2
  8
寸法
  6
CONTINUOUS
 62
     1
 10
103.0870971276617
 20
485.168404146491
 30
0.0
 11
53.5958571276617
 21
485.168404146491
 31
0.0
  0
LINE
  5
17D3
  8
寸法
  6
CONTINUOUS
 62
     1
 10
107.1324721276617
 20
541.1703041464909
 30
0.0
 11
53.59585712766171
 21
541.1703041464909
 31
0.0
  0
LINE
  5
17D4
  8
寸法
  6
CONTINUOUS
 62
     1
 10
54.0958571276617
 20
497.168404146491
 30
0.0
 11
54.09585712766171
 21
529.1703041464909
 31
0.0
  0
INSERT
  5
17D5
  8
寸法
  6
CONTINUOUS
 62
     1
  2
_OPEN30
 10
54.0958571276617
 20
485.168404146491
 30
0.0
 41
12.0
 42
12.0
 43
12.0
 50
270.0
  0
INSERT
  5
17D6
  8
寸法
  6
CONTINUOUS
 62
     1
  2
_OPEN30
 10
54.09585712766171
 20
541.1703041464909
 30
0.0
 41
12.0
 42
12.0
 43
12.0
 50
90.0
  0
TEXT
  5
17D7
  8
寸法
  6
CONTINUOUS
 62
     1
 10
53.59585712766159
 20
496.5026874798243
 30
0.0
 40
20.0
  1
56
 50
90.0
  7
TEXTSTYLE01
  0
POINT
  5
17D8
  8
DEFPOINTS
  6
CONTINUOUS
 62
     0
 10
103.5870971276617
 20
485.168404146491
 30
0.0
  0
POINT
  5
17D9
  8
DEFPOINTS
  6
CONTINUOUS
 62
     0
 10
107.6324721276617
 20
541.1703041464909
 30
0.0
  0
POINT
  5
17DA
  8
DEFPOINTS
  6
CONTINUOUS
 62
     0
 10
54.09585712766171
 20
541.1703041464909
 30
0.0
  0
ENDBLK
  8
0
  0
BLOCK
  8
0
  2
*D6
 70
     1
 10
0.0
 20
0.0
 30
0.0
  0
LINE
  5
17DB
  8
寸法
  6
CONTINUOUS
 62
     1
 10
107.1324721276617
 20
541.1703041464909
 30
0.0
 11
53.59585712766169
 21
541.1703041464909
 31
0.0
  0
LINE
  5
17DC
  8
寸法
  6
CONTINUOUS
 62
     1
 10
157.0379471276617
 20
641.1230391464909
 30
0.0
 11
53.5958571276617
 21
641.1230391464909
 31
0.0
  0
LINE
  5
17DD
  8
寸法
  6
CONTINUOUS
 62
     1
 10
54.09585712766169
 20
553.1703041464909
 30
0.0
 11
54.09585712766171
 21
629.1230391464909
 31
0.0
  0
INSERT
  5
17DE
  8
寸法
  6
CONTINUOUS
 62
     1
  2
_OPEN30
 10
54.09585712766169
 20
541.1703041464909
 30
0.0
 41
12.0
 42
12.0
 43
12.0
 50
270.0
  0
INSERT
  5
17DF
  8
寸法
  6
CONTINUOUS
 62
     1
  2
_OPEN30
 10
54.09585712766171
 20
641.1230391464909
 30
0.0
 41
12.0
 42
12.0
 43
12.0
 50
90.0
  0
TEXT
  5
17E0
  8
寸法
  6
CONTINUOUS
 62
     1
 10
53.59585712766159
 20
571.1466716464909
 30
0.0
 40
20.0
  1
100
 50
90.0
  7
TEXTSTYLE01
  0
POINT
  5
17E1
  8
DEFPOINTS
  6
CONTINUOUS
 62
     0
 10
107.6324721276617
 20
541.1703041464909
 30
0.0
  0
POINT
  5
17E2
  8
DEFPOINTS
  6
CONTINUOUS
 62
     0
 10
157.5379471276617
 20
641.1230391464909
 30
0.0
  0
POINT
  5
17E3
  8
DEFPOINTS
  6
CONTINUOUS
 62
     0
 10
54.09585712766171
 20
641.1230391464909
 30
0.0
  0
ENDBLK
  8
0
  0
BLOCK
  8
0
  2
*D7
 70
     1
 10
0.0
 20
0.0
 30
0.0
  0
LINE
  5
17CA
  8
寸法
  6
CONTINUOUS
 62
     1
 10
157.0379471276617
 20
775.6023041464908
 30
0.0
 11
53.59585712766172
 21
775.6023041464908
 31
0.0
  0
LINE
  5
17CB
  8
寸法
  6
CONTINUOUS
 62
     1
 10
54.09585712766172
 20
763.6023041464908
 30
0.0
 11
54.09585712766169
 21
653.1230391464909
 31
0.0
  0
INSERT
  5
17CC
  8
寸法
  6
CONTINUOUS
 62
     1
  2
_OPEN30
 10
54.09585712766172
 20
775.6023041464908
 30
0.0
 41
12.0
 42
12.0
 43
12.0
 50
90.0
  0
INSERT
  5
17CD
  8
寸法
  6
CONTINUOUS
 62
     1
  2
_OPEN30
 10
54.09585712766169
 20
641.1230391464909
 30
0.0
 41
12.0
 42
12.0
 43
12.0
 50
270.0
  0
TEXT
  5
17CE
  8
寸法
  6
CONTINUOUS
 62
     1
 10
53.59585712766159
 20
685.0293383131576
 30
0.0
 40
20.0
  1
134
 50
90.0
  7
TEXTSTYLE01
  0
POINT
  5
17CF
  8
DEFPOINTS
  6
CONTINUOUS
 62
     0
 10
157.5379471276617
 20
775.6023041464908
 30
0.0
  0
POINT
  5
17D0
  8
DEFPOINTS
  6
CONTINUOUS
 62
     0
 10
54.09585712766171
 20
641.1230391464909
 30
0.0
  0
POINT
  5
17D1
  8
DEFPOINTS
  6
CONTINUOUS
 62
     0
 10
54.09585712766169
 20
641.1230391464909
 30
0.0
  0
ENDBLK
  8
0
  0
BLOCK
  8
0
  2
*D8
 70
     1
 10
0.0
 20
0.0
 30
0.0
  0
LINE
  5
17C1
  8
寸法
  6
CONTINUOUS
 62
     1
 10
53.09585712766172
 20
775.6023041464908
 30
0.0
 11
12.55525595873934
 21
775.6023041464908
 31
0.0
  0
LINE
  5
17C2
  8
寸法
  6
CONTINUOUS
 62
     1
 10
53.0958571276617
 20
485.168404146491
 30
0.0
 11
12.55525595873928
 21
485.168404146491
 31
0.0
  0
LINE
  5
17C3
  8
寸法
  6
CONTINUOUS
 62
     1
 10
13.05525595873934
 20
763.6023041464908
 30
0.0
 11
13.05525595873928
 21
497.168404146491
 31
0.0
  0
INSERT
  5
17C4
  8
寸法
  6
CONTINUOUS
 62
     1
  2
_OPEN30
 10
13.05525595873934
 20
775.6023041464908
 30
0.0
 41
12.0
 42
12.0
 43
12.0
 50
90.0
  0
INSERT
  5
17C5
  8
寸法
  6
CONTINUOUS
 62
     1
  2
_OPEN30
 10
13.05525595873928
 20
485.168404146491
 30
0.0
 41
12.0
 42
12.0
 43
12.0
 50
270.0
  0
TEXT
  5
17C6
  8
寸法
  6
CONTINUOUS
 62
     1
 10
12.55525595873917
 20
605.385354146491
 30
0.0
 40
20.0
  1
290
 50
90.0
  7
TEXTSTYLE01
  0
POINT
  5
17C7
  8
DEFPOINTS
  6
CONTINUOUS
 62
     0
 10
53.59585712766172
 20
775.6023041464908
 30
0.0
  0
POINT
  5
17C8
  8
DEFPOINTS
  6
CONTINUOUS
 62
     0
 10
53.5958571276617
 20
485.168404146491
 30
0.0
  0
POINT
  5
17C9
  8
DEFPOINTS
  6
CONTINUOUS
 62
     0
 10
13.05525595873928
 20
485.168404146491
 30
0.0
  0
ENDBLK
  8
0
  0
BLOCK
  8
0
  2
*D9
 70
     1
 10
0.0
 20
0.0
 30
0.0
  0
LINE
  5
17B0
  8
寸法
  6
CONTINUOUS
 62
     1
 10
107.6324721276617
 20
490.7648691464909
 30
0.0
 11
107.6324721276617
 21
426.455321734126
 31
0.0
  0
LINE
  5
17B1
  8
寸法
  6
CONTINUOUS
 62
     1
 10
807.3016221276616
 20
490.7648691464909
 30
0.0
 11
807.3016221276616
 21
426.455321734126
 31
0.0
  0
LINE
  5
17B2
  8
寸法
  6
CONTINUOUS
 62
     1
 10
119.6324721276617
 20
426.955321734126
 30
0.0
 11
795.3016221276616
 21
426.955321734126
 31
0.0
  0
INSERT
  5
17B3
  8
寸法
  6
CONTINUOUS
 62
     1
  2
_OPEN30
 10
107.6324721276617
 20
426.955321734126
 30
0.0
 41
12.0
 42
12.0
 43
12.0
 50
180.0
  0
INSERT
  5
17B4
  8
寸法
  6
CONTINUOUS
 62
     1
  2
_OPEN30
 10
807.3016221276616
 20
426.955321734126
 30
0.0
 41
12.0
 42
12.0
 43
12.0
  0
TEXT
  5
17B5
  8
寸法
  6
CONTINUOUS
 62
     1
 10
434.1337137943283
 20
427.455321734126
 30
0.0
 40
20.0
  1
700
  7
TEXTSTYLE01
  0
POINT
  5
17B6
  8
DEFPOINTS
  6
CONTINUOUS
 62
     0
 10
107.6324721276617
 20
491.2648691464909
 30
0.0
  0
POINT
  5
17B7
  8
DEFPOINTS
  6
CONTINUOUS
 62
     0
 10
807.3016221276616
 20
491.2648691464909
 30
0.0
  0
POINT
  5
17B8
  8
DEFPOINTS
  6
CONTINUOUS
 62
     0
 10
807.3016221276616
 20
426.955321734126
 30
0.0
  0
ENDBLK
  8
0
  0
BLOCK
  8
0
  2
*D10
 70
     1
 10
0.0
 20
0.0
 30
0.0
  0
LINE
  5
17FD
  8
寸法
  6
CONTINUOUS
 62
     1
 10
809.869100189361
 20
726.595278604439
 30
0.0
 11
713.5344037988365
 21
664.2215355575162
 31
0.0
  0
TEXT
  5
17FE
  8
寸法
  6
CONTINUOUS
 62
     1
 10
770.0050385646406
 20
701.3801832204244
 30
0.0
 40
20.0
  1
\U+220561
 50
32.92181109286924
  7
TEXTSTYLE01
  0
INSERT
  5
17FF
  8
寸法
  6
CONTINUOUS
 62
     1
  2
_OPEN30
 10
703.4614474321062
 20
657.6996071591091
 30
0.0
 41
12.0
 42
12.0
 43
12.0
 50
212.9218110928692
  0
LINE
  5
1800
  8
寸法
  6
CONTINUOUS
 62
     1
 10
677.3593500000001
 20
641.1230391464906
 30
0.0
 11
678.35935
 21
641.1230391464906
 31
0.0
  0
LINE
  5
1801
  8
寸法
  6
CONTINUOUS
 62
     1
 10
677.8593499999998
 20
640.6230391464906
 30
0.0
 11
677.8593499999998
 21
641.6230391464906
 31
0.0
  0
POINT
  5
1802
  8
DEFPOINTS
  6
CONTINUOUS
 62
     0
 10
703.4614474321062
 20
657.6996071591091
 30
0.0
  0
POINT
  5
1803
  8
DEFPOINTS
  6
CONTINUOUS
 62
     0
 10
652.2572525678938
 20
624.5464711338725
 30
0.0
  0
ENDBLK
  8
0
  0
BLOCK
  8
0
  2
*D11
 70
     1
 10
0.0
 20
0.0
 30
0.0
  0
LINE
  5
17F6
  8
寸法
  6
CONTINUOUS
 62
     1
 10
832.8615184918635
 20
583.6408585846234
 30
0.0
 11
740.1448172051711
 21
617.8738943915313
 31
0.0
  0
TEXT
  5
17F7
  8
寸法
  6
CONTINUOUS
 62
     1
 10
779.406698730386
 20
603.9105409216935
 30
0.0
 40
20.0
  1
\U+2205110
 50
339.7347501693769
  7
TEXTSTYLE01
  0
INSERT
  5
17F8
  8
寸法
  6
CONTINUOUS
 62
     1
  2
_OPEN30
 10
728.8876270420351
 20
622.0302954346206
 30
0.0
 41
12.0
 42
12.0
 43
12.0
 50
159.734750169377
  0
LINE
  5
17F9
  8
寸法
  6
CONTINUOUS
 62
     1
 10
676.7921721276617
 20
641.0804668821131
 30
0.0
 11
677.7921721276618
 21
641.0804668821131
 31
0.0
  0
LINE
  5
17FA
  8
寸法
  6
CONTINUOUS
 62
     1
 10
677.2921721276618
 20
640.5804668821131
 30
0.0
 11
677.2921721276618
 21
641.5804668821131
 31
0.0
  0
POINT
  5
17FB
  8
DEFPOINTS
  6
CONTINUOUS
 62
     0
 10
728.8876270420351
 20
622.0302954346206
 30
0.0
  0
POINT
  5
17FC
  8
DEFPOINTS
  6
CONTINUOUS
 62
     0
 10
625.6967172132885
 20
660.1306383296057
 30
0.0
  0
ENDBLK
  8
0
  0
BLOCK
  8
0
  2
*D12
 70
     1
 10
0.0
 20
0.0
 30
0.0
  0
LINE
  5
184B
  8
寸法
  6
CONTINUOUS
 62
     1
 10
1228.016337127662
 20
775.6023041464908
 30
0.0
 11
1228.016337127662
 21
840.8163791464909
 31
0.0
  0
LINE
  5
184C
  8
寸法
  6
CONTINUOUS
 62
     1
 10
1289.972747127661
 20
759.5815291464909
 30
0.0
 11
1289.972747127661
 21
840.8163791464909
 31
0.0
  0
LINE
  5
184D
  8
寸法
  6
CONTINUOUS
 62
     1
 10
1240.016337127662
 20
840.3163791464909
 30
0.0
 11
1277.972747127661
 21
840.3163791464909
 31
0.0
  0
INSERT
  5
184E
  8
寸法
  6
CONTINUOUS
 62
     1
  2
_OPEN30
 10
1228.016337127662
 20
840.3163791464909
 30
0.0
 41
12.0
 42
12.0
 43
12.0
 50
180.0
  0
INSERT
  5
184F
  8
寸法
  6
CONTINUOUS
 62
     1
  2
_OPEN30
 10
1289.972747127661
 20
840.3163791464909
 30
0.0
 41
12.0
 42
12.0
 43
12.0
  0
TEXT
  5
1850
  8
寸法
  6
CONTINUOUS
 62
     1
 10
1242.327875460995
 20
840.8163791464909
 30
0.0
 40
20.0
  1
62
  7
TEXTSTYLE01
  0
POINT
  5
1851
  8
DEFPOINTS
  6
CONTINUOUS
 62
     0
 10
1228.016337127662
 20
775.1023041464908
 30
0.0
  0
POINT
  5
1852
  8
DEFPOINTS
  6
CONTINUOUS
 62
     0
 10
1289.972747127661
 20
759.0815291464909
 30
0.0
  0
POINT
  5
1853
  8
DEFPOINTS
  6
CONTINUOUS
 62
     0
 10
1289.972747127661
 20
840.3163791464909
 30
0.0
  0
ENDBLK
  8
0
  0
BLOCK
  8
0
  2
*D13
 70
     1
 10
0.0
 20
0.0
 30
0.0
  0
LINE
  5
183A
  8
寸法
  6
CONTINUOUS
 62
     1
 10
1218.040787127662
 20
686.0157891464909
 30
0.0
 11
1230.040787127662
 21
686.0157891464909
 31
0.0
  0
LINE
  5
183B
  8
寸法
  6
CONTINUOUS
 62
     1
 10
1185.108897127662
 20
686.0157891464909
 30
0.0
 11
1158.775563794328
 21
686.0157891464909
 31
0.0
  0
INSERT
  5
183C
  8
寸法
  6
CONTINUOUS
 62
     1
  2
_OPEN30
 10
1206.040787127662
 20
686.0157891464909
 30
0.0
 41
12.0
 42
12.0
 43
12.0
 50
180.0
  0
INSERT
  5
183D
  8
寸法
  6
CONTINUOUS
 62
     1
  2
_OPEN30
 10
1197.108897127662
 20
686.0157891464909
 30
0.0
 41
12.0
 42
12.0
 43
12.0
  0
TEXT
  5
183E
  8
寸法
  6
CONTINUOUS
 62
     1
 10
1159.275563794328
 20
686.5157891464909
 30
0.0
 40
20.0
  1
9
  7
TEXTSTYLE01
  0
POINT
  5
183F
  8
DEFPOINTS
  6
CONTINUOUS
 62
     0
 10
1206.040787127662
 20
671.0379791464909
 30
0.0
  0
POINT
  5
1840
  8
DEFPOINTS
  6
CONTINUOUS
 62
     0
 10
1197.108897127662
 20
671.0379791464909
 30
0.0
  0
POINT
  5
1841
  8
DEFPOINTS
  6
CONTINUOUS
 62
     0
 10
1197.108897127662
 20
686.0157891464909
 30
0.0
  0
ENDBLK
  8
0
  0
BLOCK
  8
0
  2
*D14
 70
     1
 10
0.0
 20
0.0
 30
0.0
  0
LINE
  5
1854
  8
寸法
  6
CONTINUOUS
 62
     1
 10
1194.040787127662
 20
686.0157891464909
 30
0.0
 11
1182.040787127662
 21
686.0157891464909
 31
0.0
  0
LINE
  5
1855
  8
寸法
  6
CONTINUOUS
 62
     1
 10
1240.016337127662
 20
686.0157891464909
 30
0.0
 11
1286.349670460995
 21
686.0157891464909
 31
0.0
  0
INSERT
  5
1856
  8
寸法
  6
CONTINUOUS
 62
     1
  2
_OPEN30
 10
1206.040787127662
 20
686.0157891464909
 30
0.0
 41
12.0
 42
12.0
 43
12.0
  0
INSERT
  5
1857
  8
寸法
  6
CONTINUOUS
 62
     1
  2
_OPEN30
 10
1228.016337127662
 20
686.0157891464909
 30
0.0
 41
12.0
 42
12.0
 43
12.0
 50
180.0
  0
TEXT
  5
1858
  8
寸法
  6
CONTINUOUS
 62
     1
 10
1252.516337127662
 20
686.5157891464909
 30
0.0
 40
20.0
  1
22
  7
TEXTSTYLE01
  0
POINT
  5
1859
  8
DEFPOINTS
  6
CONTINUOUS
 62
     0
 10
1206.040787127662
 20
671.0379791464909
 30
0.0
  0
POINT
  5
185A
  8
DEFPOINTS
  6
CONTINUOUS
 62
     0
 10
1228.016337127662
 20
671.0379791464909
 30
0.0
  0
POINT
  5
185B
  8
DEFPOINTS
  6
CONTINUOUS
 62
     0
 10
1228.016337127662
 20
686.0157891464909
 30
0.0
  0
ENDBLK
  8
0
  0
BLOCK
  8
0
  2
*D17
 70
     1
 10
0.0
 20
0.0
 30
0.0
  0
LINE
  5
181F
  8
寸法
  6
CONTINUOUS
 62
     1
 10
1434.716697127662
 20
775.1023041464908
 30
0.0
 11
1555.802474211534
 21
775.1023041464908
 31
0.0
  0
LINE
  5
1820
  8
寸法
  6
CONTINUOUS
 62
     1
 10
1384.622102127661
 20
513.0985141464909
 30
0.0
 11
1555.802474211534
 21
513.0985141464909
 31
0.0
  0
LINE
  5
1821
  8
寸法
  6
CONTINUOUS
 62
     1
 10
1555.302474211534
 20
763.1023041464908
 30
0.0
 11
1555.302474211534
 21
525.0985141464909
 31
0.0
  0
INSERT
  5
1822
  8
寸法
  6
CONTINUOUS
 62
     1
  2
_OPEN30
 10
1555.302474211534
 20
775.1023041464908
 30
0.0
 41
12.0
 42
12.0
 43
12.0
 50
90.0
  0
INSERT
  5
1823
  8
寸法
  6
CONTINUOUS
 62
     1
  2
_OPEN30
 10
1555.302474211534
 20
513.0985141464909
 30
0.0
 41
12.0
 42
12.0
 43
12.0
 50
270.0
  0
TEXT
  5
1824
  8
寸法
  6
CONTINUOUS
 62
     1
 10
1554.802474211534
 20
617.4337424798243
 30
0.0
 40
20.0
  1
262
 50
90.0
  7
TEXTSTYLE01
  0
POINT
  5
1825
  8
DEFPOINTS
  6
CONTINUOUS
 62
     0
 10
1434.216697127662
 20
775.1023041464908
 30
0.0
  0
POINT
  5
1826
  8
DEFPOINTS
  6
CONTINUOUS
 62
     0
 10
1384.122102127661
 20
513.0985141464909
 30
0.0
  0
POINT
  5
1827
  8
DEFPOINTS
  6
CONTINUOUS
 62
     0
 10
1555.302474211534
 20
513.0985141464909
 30
0.0
  0
ENDBLK
  8
0
  0
BLOCK
  8
0
  2
*D46
 70
     1
 10
0.0
 20
0.0
 30
0.0
  0
LINE
  5
17E4
  8
寸法
  6
CONTINUOUS
 62
     1
 10
207.5851571276617
 20
514.7251191464908
 30
0.0
 11
207.5851571276617
 21
452.4905609062321
 31
0.0
  0
LINE
  5
17E5
  8
寸法
  6
CONTINUOUS
 62
     1
 10
707.3489371276617
 20
514.7251191464908
 30
0.0
 11
707.3489371276617
 21
452.4905609062321
 31
0.0
  0
LINE
  5
17E6
  8
寸法
  6
CONTINUOUS
 62
     1
 10
219.5851571276617
 20
452.9905609062321
 30
0.0
 11
695.3489371276617
 21
452.9905609062321
 31
0.0
  0
INSERT
  5
17E7
  8
寸法
  6
CONTINUOUS
 62
     1
  2
_OPEN30
 10
207.5851571276617
 20
452.9905609062321
 30
0.0
 41
12.0
 42
12.0
 43
12.0
 50
180.0
  0
INSERT
  5
17E8
  8
寸法
  6
CONTINUOUS
 62
     1
  2
_OPEN30
 10
707.3489371276617
 20
452.9905609062321
 30
0.0
 41
12.0
 42
12.0
 43
12.0
  0
TEXT
  5
17E9
  8
寸法
  6
CONTINUOUS
 62
     1
 10
434.1337137943283
 20
453.4905609062321
 30
0.0
 40
20.0
  1
500
  7
TEXTSTYLE01
  0
POINT
  5
17EA
  8
DEFPOINTS
  6
CONTINUOUS
 62
     0
 10
207.5851571276617
 20
515.2251191464908
 30
0.0
  0
POINT
  5
17EB
  8
DEFPOINTS
  6
CONTINUOUS
 62
     0
 10
707.3489371276617
 20
515.2251191464908
 30
0.0
  0
POINT
  5
17EC
  8
DEFPOINTS
  6
CONTINUOUS
 62
     0
 10
707.3489371276617
 20
452.9905609062321
 30
0.0
  0
ENDBLK
  8
0
  0
BLOCK
  8
0
  2
*D47
 70
     1
 10
0.0
 20
0.0
 30
0.0
  0
LINE
  5
180D
  8
寸法
  6
CONTINUOUS
 62
     1
 10
1109.040787127662
 20
775.6023041464908
 30
0.0
 11
1109.040787127662
 21
879.2946447984133
 31
0.0
  0
LINE
  5
180E
  8
寸法
  6
CONTINUOUS
 62
     1
 10
1409.040787127662
 20
775.6023041464908
 30
0.0
 11
1409.040787127662
 21
879.2946447984133
 31
0.0
  0
LINE
  5
180F
  8
寸法
  6
CONTINUOUS
 62
     1
 10
1121.040787127662
 20
878.7946447984133
 30
0.0
 11
1397.040787127662
 21
878.7946447984133
 31
0.0
  0
INSERT
  5
1810
  8
寸法
  6
CONTINUOUS
 62
     1
  2
_OPEN30
 10
1109.040787127662
 20
878.7946447984133
 30
0.0
 41
12.0
 42
12.0
 43
12.0
 50
180.0
  0
INSERT
  5
1811
  8
寸法
  6
CONTINUOUS
 62
     1
  2
_OPEN30
 10
1409.040787127662
 20
878.7946447984133
 30
0.0
 41
12.0
 42
12.0
 43
12.0
  0
TEXT
  5
1812
  8
寸法
  6
CONTINUOUS
 62
     1
 10
1235.707453794328
 20
879.2946447984133
 30
0.0
 40
20.0
  1
300
  7
TEXTSTYLE01
  0
POINT
  5
1813
  8
DEFPOINTS
  6
CONTINUOUS
 62
     0
 10
1109.040787127662
 20
775.1023041464908
 30
0.0
  0
POINT
  5
1814
  8
DEFPOINTS
  6
CONTINUOUS
 62
     0
 10
1409.040787127662
 20
775.1023041464908
 30
0.0
  0
POINT
  5
1815
  8
DEFPOINTS
  6
CONTINUOUS
 62
     0
 10
1409.040787127662
 20
878.7946447984133
 30
0.0
  0
ENDBLK
  8
0
  0
BLOCK
  8
0
  2
*D48
 70
     1
 10
0.0
 20
0.0
 30
0.0
  0
LINE
  5
1831
  8
寸法
  6
CONTINUOUS
 62
     1
 10
1109.040787127662
 20
775.6023041464908
 30
0.0
 11
1109.040787127662
 21
840.8163791464909
 31
0.0
  0
LINE
  5
1832
  8
寸法
  6
CONTINUOUS
 62
     1
 10
1228.016337127662
 20
775.6023041464908
 30
0.0
 11
1228.016337127662
 21
840.8163791464909
 31
0.0
  0
LINE
  5
1833
  8
寸法
  6
CONTINUOUS
 62
     1
 10
1121.040787127662
 20
840.3163791464909
 30
0.0
 11
1216.016337127662
 21
840.3163791464909
 31
0.0
  0
INSERT
  5
1834
  8
寸法
  6
CONTINUOUS
 62
     1
  2
_OPEN30
 10
1109.040787127662
 20
840.3163791464909
 30
0.0
 41
12.0
 42
12.0
 43
12.0
 50
180.0
  0
INSERT
  5
1835
  8
寸法
  6
CONTINUOUS
 62
     1
  2
_OPEN30
 10
1228.016337127662
 20
840.3163791464909
 30
0.0
 41
12.0
 42
12.0
 43
12.0
  0
TEXT
  5
1836
  8
寸法
  6
CONTINUOUS
 62
     1
 10
1148.528562127662
 20
840.8163791464909
 30
0.0
 40
20.0
  1
119
  7
TEXTSTYLE01
  0
POINT
  5
1837
  8
DEFPOINTS
  6
CONTINUOUS
 62
     0
 10
1109.040787127662
 20
775.1023041464908
 30
0.0
  0
POINT
  5
1838
  8
DEFPOINTS
  6
CONTINUOUS
 62
     0
 10
1228.016337127662
 20
775.1023041464908
 30
0.0
  0
POINT
  5
1839
  8
DEFPOINTS
  6
CONTINUOUS
 62
     0
 10
1228.016337127662
 20
840.3163791464909
 30
0.0
  0
ENDBLK
  8
0
  0
BLOCK
  8
0
  2
*D49
 70
     1
 10
0.0
 20
0.0
 30
0.0
  0
LINE
  5
1842
  8
寸法
  6
CONTINUOUS
 62
     1
 10
1289.972747127661
 20
775.6023041464908
 30
0.0
 11
1289.972747127661
 21
840.8163791464909
 31
0.0
  0
LINE
  5
1843
  8
寸法
  6
CONTINUOUS
 62
     1
 10
1409.040787127662
 20
775.6023041464908
 30
0.0
 11
1409.040787127662
 21
840.8163791464909
 31
0.0
  0
LINE
  5
1844
  8
寸法
  6
CONTINUOUS
 62
     1
 10
1301.972747127661
 20
840.3163791464909
 30
0.0
 11
1397.040787127662
 21
840.3163791464909
 31
0.0
  0
INSERT
  5
1845
  8
寸法
  6
CONTINUOUS
 62
     1
  2
_OPEN30
 10
1289.972747127661
 20
840.3163791464909
 30
0.0
 41
12.0
 42
12.0
 43
12.0
 50
180.0
  0
INSERT
  5
1846
  8
寸法
  6
CONTINUOUS
 62
     1
  2
_OPEN30
 10
1409.040787127662
 20
840.3163791464909
 30
0.0
 41
12.0
 42
12.0
 43
12.0
  0
TEXT
  5
1847
  8
寸法
  6
CONTINUOUS
 62
     1
 10
1329.506767127662
 20
840.8163791464909
 30
0.0
 40
20.0
  1
119
  7
TEXTSTYLE01
  0
POINT
  5
1848
  8
DEFPOINTS
  6
CONTINUOUS
 62
     0
 10
1289.972747127661
 20
775.1023041464908
 30
0.0
  0
POINT
  5
1849
  8
DEFPOINTS
  6
CONTINUOUS
 62
     0
 10
1409.040787127662
 20
775.1023041464908
 30
0.0
  0
POINT
  5
184A
  8
DEFPOINTS
  6
CONTINUOUS
 62
     0
 10
1409.040787127662
 20
840.3163791464909
 30
0.0
  0
ENDBLK
  8
0
  0
BLOCK
  8
0
  2
*D50
 70
     1
 10
0.0
 20
0.0
 30
0.0
  0
LINE
  5
1828
  8
寸法
  6
CONTINUOUS
 62
     1
 10
1089.065392127662
 20
496.7194441464909
 30
0.0
 11
1089.065392127662
 21
425.5
 31
0.0
  0
LINE
  5
1829
  8
寸法
  6
CONTINUOUS
 62
     1
 10
1429.065392127662
 20
496.7194441464909
 30
0.0
 11
1429.065392127662
 21
425.5
 31
0.0
  0
LINE
  5
182A
  8
寸法
  6
CONTINUOUS
 62
     1
 10
1101.065392127662
 20
426.0
 30
0.0
 11
1417.065392127662
 21
426.0
 31
0.0
  0
INSERT
  5
182B
  8
寸法
  6
CONTINUOUS
 62
     1
  2
_OPEN30
 10
1089.065392127662
 20
426.0
 30
0.0
 41
12.0
 42
12.0
 43
12.0
 50
180.0
  0
INSERT
  5
182C
  8
寸法
  6
CONTINUOUS
 62
     1
  2
_OPEN30
 10
1429.065392127662
 20
426.0
 30
0.0
 41
12.0
 42
12.0
 43
12.0
  0
TEXT
  5
182D
  8
寸法
  6
CONTINUOUS
 62
     1
 10
1234.065392127662
 20
426.5
 30
0.0
 40
20.0
  1
340
  7
TEXTSTYLE01
  0
POINT
  5
182E
  8
DEFPOINTS
  6
CONTINUOUS
 62
     0
 10
1089.065392127662
 20
497.2194441464909
 30
0.0
  0
POINT
  5
182F
  8
DEFPOINTS
  6
CONTINUOUS
 62
     0
 10
1429.065392127662
 20
497.2194441464909
 30
0.0
  0
POINT
  5
1830
  8
DEFPOINTS
  6
CONTINUOUS
 62
     0
 10
1429.065392127662
 20
426.0
 30
0.0
  0
ENDBLK
  8
0
  0
BLOCK
  8
0
  2
*D51
 70
     1
 10
0.0
 20
0.0
 30
0.0
  0
LINE
  5
1816
  8
寸法
  6
CONTINUOUS
 62
     1
 10
1011.088067127662
 20
524.6495041464909
 30
0.0
 11
1011.088067127662
 21
393.5
 31
0.0
  0
LINE
  5
1817
  8
寸法
  6
CONTINUOUS
 62
     1
 10
1507.042702127661
 20
524.6495041464909
 30
0.0
 11
1507.042702127661
 21
393.5
 31
0.0
  0
LINE
  5
1818
  8
寸法
  6
CONTINUOUS
 62
     1
 10
1023.088067127662
 20
394.0
 30
0.0
 11
1495.042702127661
 21
394.0
 31
0.0
  0
INSERT
  5
1819
  8
寸法
  6
CONTINUOUS
 62
     1
  2
_OPEN30
 10
1011.088067127662
 20
394.0
 30
0.0
 41
12.0
 42
12.0
 43
12.0
 50
180.0
  0
INSERT
  5
181A
  8
寸法
  6
CONTINUOUS
 62
     1
  2
_OPEN30
 10
1507.042702127661
 20
394.0
 30
0.0
 41
12.0
 42
12.0
 43
12.0
  0
TEXT
  5
181B
  8
寸法
  6
CONTINUOUS
 62
     1
 10
1232.398717960995
 20
394.5
 30
0.0
 40
20.0
  1
496
  7
TEXTSTYLE01
  0
POINT
  5
181C
  8
DEFPOINTS
  6
CONTINUOUS
 62
     0
 10
1011.088067127662
 20
525.1495041464909
 30
0.0
  0
POINT
  5
181D
  8
DEFPOINTS
  6
CONTINUOUS
 62
     0
 10
1507.042702127661
 20
525.1495041464909
 30
0.0
  0
POINT
  5
181E
  8
DEFPOINTS
  6
CONTINUOUS
 62
     0
 10
1507.042702127661
 20
394.0
 30
0.0
  0
ENDBLK
  8
0
  0
ENDSEC
  0
SECTION
  2
ENTITIES
  0
POLYLINE
  5
49
  8
ﾚｲﾔ1
  6
CONTINUOUS
 62
     9
 66
     1
 10
0.0
 20
0.0
 30
0.0
 70
     1
  0
VERTEX
  5
18AE
  8
ﾚｲﾔ1
  6
CONTINUOUS
 62
     9
 10
-210.0
 20
-148.5
 30
0.0
  0
VERTEX
  5
18AF
  8
ﾚｲﾔ1
  6
CONTINUOUS
 62
     9
 10
1890.0
 20
-148.5
 30
0.0
  0
VERTEX
  5
18B0
  8
ﾚｲﾔ1
  6
CONTINUOUS
 62
     9
 10
1890.0
 20
1336.5
 30
0.0
  0
VERTEX
  5
18B1
  8
ﾚｲﾔ1
  6
CONTINUOUS
 62
     9
 10
-210.0
 20
1336.5
 30
0.0
  0
SEQEND
  5
18B2
  8
ﾚｲﾔ1
  6
CONTINUOUS
 62
     9
  0
LINE
  5
127
  8
ﾚｲﾔ1
  6
CONTINUOUS
 62
    38
 10
1061.135442127662
 20
485.168404146491
 30
0.0
 11
1061.135442127662
 21
525.1495041464909
 31
0.0
  0
LINE
  5
128
  8
ﾚｲﾔ1
  6
CONTINUOUS
 62
    38
 10
1023.139212127662
 20
513.0985141464909
 30
0.0
 11
1061.135442127662
 21
485.168404146491
 31
0.0
  0
LINE
  5
129
  8
ﾚｲﾔ1
  6
CONTINUOUS
 62
    38
 10
1061.135442127662
 20
485.168404146491
 30
0.0
 11
1077.156192127662
 21
485.168404146491
 31
0.0
  0
LINE
  5
12A
  8
ﾚｲﾔ1
  6
CONTINUOUS
 62
    38
 10
1077.156192127662
 20
497.2194441464909
 30
0.0
 11
1077.156192127662
 21
485.168404146491
 31
0.0
  0
LINE
  5
12B
  8
ﾚｲﾔ1
  6
CONTINUOUS
 62
    38
 10
1457.137277127661
 20
485.168404146491
 30
0.0
 11
1457.137277127661
 21
525.1495041464909
 31
0.0
  0
LINE
  5
12C
  8
ﾚｲﾔ1
  6
CONTINUOUS
 62
    38
 10
1495.133502127661
 20
513.0985141464909
 30
0.0
 11
1457.137277127661
 21
485.168404146491
 31
0.0
  0
LINE
  5
12D
  8
ﾚｲﾔ1
  6
CONTINUOUS
 62
    38
 10
1457.137277127661
 20
485.168404146491
 30
0.0
 11
1441.116552127661
 21
485.168404146491
 31
0.0
  0
LINE
  5
12E
  8
ﾚｲﾔ1
  6
CONTINUOUS
 62
    38
 10
1441.116552127661
 20
497.2194441464909
 30
0.0
 11
1441.116552127661
 21
485.168404146491
 31
0.0
  0
LINE
  5
12F
  8
ﾚｲﾔ1
  6
CONTINUOUS
 10
113.5870971276618
 20
525.1495041464909
 30
0.0
 11
113.5870971276618
 21
485.168404146491
 31
0.0
  0
LINE
  5
130
  8
ﾚｲﾔ1
  6
CONTINUOUS
 10
801.3469871276617
 20
485.168404146491
 30
0.0
 11
801.3469871276617
 21
525.1495041464909
 31
0.0
  0
LINE
  5
131
  8
ﾚｲﾔ1
  6
CONTINUOUS
 10
107.6324721276617
 20
525.1495041464909
 30
0.0
 11
107.6324721276617
 21
491.2648691464909
 31
0.0
  0
LINE
  5
132
  8
ﾚｲﾔ1
  6
CONTINUOUS
 10
107.6324721276617
 20
491.2648691464909
 30
0.0
 11
113.5870971276618
 21
485.168404146491
 31
0.0
  0
LINE
  5
133
  8
ﾚｲﾔ1
  6
CONTINUOUS
 10
113.5870971276618
 20
485.168404146491
 30
0.0
 11
801.3469871276617
 21
485.168404146491
 31
0.0
  0
LINE
  5
134
  8
ﾚｲﾔ1
  6
CONTINUOUS
 10
801.3469871276617
 20
485.168404146491
 30
0.0
 11
807.3016221276616
 21
491.2648691464909
 31
0.0
  0
LINE
  5
135
  8
ﾚｲﾔ1
  6
CONTINUOUS
 10
807.3016221276616
 20
491.2648691464909
 30
0.0
 11
807.3016221276616
 21
525.1495041464909
 31
0.0
  0
LINE
  5
162
  8
ﾚｲﾔ1
  6
CONTINUOUS
 10
265.0048721276618
 20
593.6278291464909
 30
0.0
 11
276.3469721276617
 21
602.276154146491
 31
0.0
  0
LINE
  5
163
  8
ﾚｲﾔ1
  6
CONTINUOUS
 10
276.3469721276617
 20
602.276154146491
 30
0.0
 11
285.1371471276616
 21
613.6183641464909
 31
0.0
  0
LINE
  5
196
  8
ﾚｲﾔ1
  6
CONTINUOUS
 10
157.5379471276617
 20
759.0815291464909
 30
0.0
 11
757.2544221276617
 21
759.0815291464909
 31
0.0
  0
LINE
  5
197
  8
ﾚｲﾔ1
  6
CONTINUOUS
 10
757.2544221276617
 20
759.0815291464909
 30
0.0
 11
757.2544221276617
 21
541.1703041464909
 31
0.0
  0
LINE
  5
198
  8
ﾚｲﾔ1
  6
CONTINUOUS
 10
757.2544221276617
 20
541.1703041464909
 30
0.0
 11
157.5379471276617
 21
541.1703041464909
 31
0.0
  0
LINE
  5
199
  8
ﾚｲﾔ1
  6
CONTINUOUS
 10
157.5379471276617
 20
541.1703041464909
 30
0.0
 11
157.5379471276617
 21
759.0815291464909
 31
0.0
  0
LINE
  5
19A
  8
ﾚｲﾔ1
  6
CONTINUOUS
 10
157.5379471276617
 20
759.0815291464909
 30
0.0
 11
157.5379471276617
 21
775.1023041464908
 31
0.0
  0
LINE
  5
19B
  8
ﾚｲﾔ1
  6
CONTINUOUS
 10
157.5379471276617
 20
775.1023041464908
 30
0.0
 11
757.2544221276617
 21
775.1023041464908
 31
0.0
  0
LINE
  5
19C
  8
ﾚｲﾔ1
  6
CONTINUOUS
 10
757.2544221276617
 20
775.1023041464908
 30
0.0
 11
757.2544221276617
 21
759.0815291464909
 31
0.0
  0
LINE
  5
19D
  8
ﾚｲﾔ1
  6
CONTINUOUS
 10
157.5379471276617
 20
525.1495041464909
 30
0.0
 11
157.5379471276617
 21
485.168404146491
 31
0.0
  0
LINE
  5
19E
  8
ﾚｲﾔ1
  6
CONTINUOUS
 10
135.5625071276618
 20
520.187319146491
 30
0.0
 11
157.5379471276617
 21
520.187319146491
 31
0.0
  0
LINE
  5
19F
  8
ﾚｲﾔ1
  6
CONTINUOUS
 10
135.5625071276618
 20
525.1495041464909
 30
0.0
 11
135.5625071276618
 21
485.168404146491
 31
0.0
  0
LINE
  5
1A0
  8
ﾚｲﾔ1
  6
CONTINUOUS
 10
779.3716221276617
 20
525.1495041464909
 30
0.0
 11
779.3716221276617
 21
485.168404146491
 31
0.0
  0
LINE
  5
1A1
  8
ﾚｲﾔ1
  6
CONTINUOUS
 10
757.2544221276617
 20
520.187319146491
 30
0.0
 11
779.3716221276617
 21
520.187319146491
 31
0.0
  0
LINE
  5
1A2
  8
ﾚｲﾔ1
  6
CONTINUOUS
 10
757.2544221276617
 20
525.1495041464909
 30
0.0
 11
757.2544221276617
 21
485.168404146491
 31
0.0
  0
LINE
  5
1A3
  8
ﾚｲﾔ1
  6
CONTINUOUS
 10
609.3810721276617
 20
525.1495041464909
 30
0.0
 11
609.3810721276617
 21
485.168404146491
 31
0.0
  0
LINE
  5
1A4
  8
ﾚｲﾔ1
  6
CONTINUOUS
 10
586.4131971276616
 20
520.187319146491
 30
0.0
 11
609.3810721276617
 21
520.187319146491
 31
0.0
  0
LINE
  5
1A5
  8
ﾚｲﾔ1
  6
CONTINUOUS
 10
586.4131971276616
 20
525.1495041464909
 30
0.0
 11
586.4131971276616
 21
485.168404146491
 31
0.0
  0
LINE
  5
1A6
  8
ﾚｲﾔ1
  6
CONTINUOUS
 10
586.4131971276616
 20
541.1703041464909
 30
0.0
 11
586.4131971276616
 21
759.0815291464909
 31
0.0
  0
LINE
  5
1A7
  8
ﾚｲﾔ1
  6
CONTINUOUS
 10
608.3886321276617
 20
541.1703041464909
 30
0.0
 11
608.3886321276617
 21
759.0815291464909
 31
0.0
  0
LINE
  5
1A8
  8
ﾚｲﾔ1
  6
CONTINUOUS
 10
468.4547821276617
 20
541.1703041464909
 30
0.0
 11
468.4547821276617
 21
759.0815291464909
 31
0.0
  0
LINE
  5
1A9
  8
ﾚｲﾔ1
  6
CONTINUOUS
 10
446.4793571276616
 20
541.1703041464909
 30
0.0
 11
446.4793571276616
 21
759.0815291464909
 31
0.0
  0
LINE
  5
1AA
  8
ﾚｲﾔ1
  6
CONTINUOUS
 10
107.6324721276617
 20
541.1703041464909
 30
0.0
 11
807.3016221276616
 21
541.1703041464909
 31
0.0
  0
LINE
  5
1AB
  8
ﾚｲﾔ1
  6
CONTINUOUS
 10
807.3016221276616
 20
541.1703041464909
 30
0.0
 11
807.3016221276616
 21
525.1495041464909
 31
0.0
  0
LINE
  5
1AC
  8
ﾚｲﾔ1
  6
CONTINUOUS
 10
807.3016221276616
 20
525.1495041464909
 30
0.0
 11
107.6324721276617
 21
525.1495041464909
 31
0.0
  0
LINE
  5
1AD
  8
ﾚｲﾔ1
  6
CONTINUOUS
 10
107.6324721276617
 20
525.1495041464909
 30
0.0
 11
107.6324721276617
 21
541.1703041464909
 31
0.0
  0
LINE
  5
1AE
  8
ﾚｲﾔ1
  6
CONTINUOUS
 10
468.4547821276617
 20
525.1495041464909
 30
0.0
 11
468.4547821276617
 21
485.168404146491
 31
0.0
  0
LINE
  5
1AF
  8
ﾚｲﾔ1
  6
CONTINUOUS
 10
446.4793571276616
 20
520.187319146491
 30
0.0
 11
468.4547821276617
 21
520.187319146491
 31
0.0
  0
LINE
  5
1B0
  8
ﾚｲﾔ1
  6
CONTINUOUS
 10
446.4793571276616
 20
525.1495041464909
 30
0.0
 11
446.4793571276616
 21
485.168404146491
 31
0.0
  0
LINE
  5
1B1
  8
ﾚｲﾔ1
  6
CONTINUOUS
 10
329.5133221276617
 20
525.1495041464909
 30
0.0
 11
329.5133221276617
 21
485.168404146491
 31
0.0
  0
LINE
  5
1B2
  8
ﾚｲﾔ1
  6
CONTINUOUS
 10
306.5454471276616
 20
520.187319146491
 30
0.0
 11
329.5133221276617
 21
520.187319146491
 31
0.0
  0
LINE
  5
1B3
  8
ﾚｲﾔ1
  6
CONTINUOUS
 10
306.5454471276616
 20
525.1495041464909
 30
0.0
 11
306.5454471276616
 21
485.168404146491
 31
0.0
  0
LINE
  5
1B4
  8
ﾚｲﾔ1
  6
CONTINUOUS
 10
306.5454471276616
 20
541.1703041464909
 30
0.0
 11
306.5454471276616
 21
759.0815291464909
 31
0.0
  0
LINE
  5
1B5
  8
ﾚｲﾔ1
  6
CONTINUOUS
 10
328.5208821276617
 20
541.1703041464909
 30
0.0
 11
328.5208821276617
 21
759.0815291464909
 31
0.0
  0
LINE
  5
24B
  8
ﾚｲﾔ1
  6
CONTINUOUS
 62
     7
 10
1206.040787127662
 20
541.1703041464909
 30
0.0
 11
1206.040787127662
 21
759.0815291464909
 31
0.0
  0
LINE
  5
24C
  8
ﾚｲﾔ1
  6
CONTINUOUS
 62
     7
 10
1289.972747127661
 20
541.1703041464909
 30
0.0
 11
1289.972747127661
 21
759.0815291464909
 31
0.0
  0
LINE
  5
24D
  8
ﾚｲﾔ1
  6
CONTINUOUS
 62
     7
 10
1312.089997127662
 20
541.1703041464909
 30
0.0
 11
1312.089997127662
 21
759.0815291464909
 31
0.0
  0
LINE
  5
24E
  8
ﾚｲﾔ1
  6
CONTINUOUS
 62
     7
 10
1109.040787127662
 20
775.1023041464908
 30
0.0
 11
1409.040787127662
 21
775.1023041464908
 31
0.0
  0
LINE
  5
250
  8
ﾚｲﾔ1
  6
CONTINUOUS
 62
     7
 10
1409.040787127662
 20
759.0815291464909
 30
0.0
 11
1109.040787127662
 21
759.0815291464909
 31
0.0
  0
LINE
  5
283
  8
ﾚｲﾔ1
  6
CONTINUOUS
 62
     7
 10
1312.089997127662
 20
696.1325541464909
 30
0.0
 11
1321.021947127661
 21
696.1325541464909
 31
0.0
  0
LINE
  5
284
  8
ﾚｲﾔ1
  6
CONTINUOUS
 62
     7
 10
1321.021947127661
 20
696.1325541464909
 30
0.0
 11
1321.021947127661
 21
586.113594146491
 31
0.0
  0
LINE
  5
285
  8
ﾚｲﾔ1
  6
CONTINUOUS
 62
     7
 10
1289.972747127661
 20
671.0379791464909
 30
0.0
 11
1321.021947127661
 21
671.0379791464909
 31
0.0
  0
LINE
  5
286
  8
ﾚｲﾔ1
  6
CONTINUOUS
 62
     7
 10
1312.089997127662
 20
701.094694146491
 30
0.0
 11
1317.052182127662
 21
696.1325541464909
 31
0.0
  0
LINE
  5
287
  8
ﾚｲﾔ1
  6
CONTINUOUS
 62
     7
 10
1289.972747127661
 20
611.208169146491
 30
0.0
 11
1321.021947127661
 21
611.208169146491
 31
0.0
  0
LINE
  5
288
  8
ﾚｲﾔ1
  6
CONTINUOUS
 62
     7
 10
1321.021947127661
 20
586.113594146491
 30
0.0
 11
1312.089997127662
 21
586.113594146491
 31
0.0
  0
LINE
  5
289
  8
ﾚｲﾔ1
  6
CONTINUOUS
 62
     7
 10
1312.089997127662
 20
581.1513941464909
 30
0.0
 11
1318.044637127662
 21
586.113594146491
 31
0.0
  0
LINE
  5
28A
  8
ﾚｲﾔ1
  6
CONTINUOUS
 62
     7
 10
1197.108897127662
 20
586.113594146491
 30
0.0
 11
1206.040787127662
 21
586.113594146491
 31
0.0
  0
LINE
  5
28B
  8
ﾚｲﾔ1
  6
CONTINUOUS
 62
     7
 10
1197.108897127662
 20
696.1325541464909
 30
0.0
 11
1197.108897127662
 21
586.113594146491
 31
0.0
  0
LINE
  5
28C
  8
ﾚｲﾔ1
  6
CONTINUOUS
 62
     7
 10
1206.040787127662
 20
581.1513941464909
 30
0.0
 11
1201.078647127661
 21
586.113594146491
 31
0.0
  0
LINE
  5
28D
  8
ﾚｲﾔ1
  6
CONTINUOUS
 62
     7
 10
1228.016337127662
 20
611.208169146491
 30
0.0
 11
1197.108897127662
 21
611.208169146491
 31
0.0
  0
LINE
  5
28E
  8
ﾚｲﾔ1
  6
CONTINUOUS
 62
     7
 10
1206.040787127662
 20
696.1325541464909
 30
0.0
 11
1197.108897127662
 21
696.1325541464909
 31
0.0
  0
LINE
  5
28F
  8
ﾚｲﾔ1
  6
CONTINUOUS
 62
     7
 10
1206.040787127662
 20
701.094694146491
 30
0.0
 11
1201.078647127661
 21
696.1325541464909
 31
0.0
  0
LINE
  5
290
  8
ﾚｲﾔ1
  6
CONTINUOUS
 62
     7
 10
1197.108897127662
 20
671.0379791464909
 30
0.0
 11
1228.016337127662
 21
671.0379791464909
 31
0.0
  0
LINE
  5
291
  8
ﾚｲﾔ1
  6
CONTINUOUS
 62
     7
 10
1228.016337127662
 20
541.1703041464909
 30
0.0
 11
1228.016337127662
 21
759.0815291464909
 31
0.0
  0
LINE
  5
292
  8
ﾚｲﾔ1
  6
DASHDOT
 62
     7
 10
1184.065472127661
 20
641.1230391464909
 30
0.0
 11
1334.065372127662
 21
641.1230391464909
 31
0.0
  0
LINE
  5
293
  8
ﾚｲﾔ1
  6
CONTINUOUS
 62
     7
 10
1077.156192127662
 20
525.1495041464909
 30
0.0
 11
1077.156192127662
 21
497.2194441464909
 31
0.0
  0
LINE
  5
294
  8
ﾚｲﾔ1
  6
CONTINUOUS
 62
     7
 10
1089.065392127662
 20
497.2194441464909
 30
0.0
 11
1089.065392127662
 21
525.1495041464909
 31
0.0
  0
LINE
  5
295
  8
ﾚｲﾔ1
  6
CONTINUOUS
 62
     7
 10
1077.156192127662
 20
497.2194441464909
 30
0.0
 11
1089.065392127662
 21
497.2194441464909
 31
0.0
  0
LINE
  5
296
  8
ﾚｲﾔ1
  6
CONTINUOUS
 62
     7
 10
1441.116552127661
 20
525.1495041464909
 30
0.0
 11
1441.116552127661
 21
497.2194441464909
 31
0.0
  0
LINE
  5
297
  8
ﾚｲﾔ1
  6
CONTINUOUS
 62
     7
 10
1429.065392127662
 20
497.2194441464909
 30
0.0
 11
1429.065392127662
 21
525.1495041464909
 31
0.0
  0
LINE
  5
298
  8
ﾚｲﾔ1
  6
CONTINUOUS
 62
     7
 10
1429.065392127662
 20
497.2194441464909
 30
0.0
 11
1441.116552127661
 21
497.2194441464909
 31
0.0
  0
LINE
  5
299
  8
ﾚｲﾔ1
  6
CONTINUOUS
 62
     7
 10
1011.088067127662
 20
525.1495041464909
 30
0.0
 11
1011.088067127662
 21
541.1703041464909
 31
0.0
  0
LINE
  5
29A
  8
ﾚｲﾔ1
  6
CONTINUOUS
 62
     7
 10
1507.042702127661
 20
541.1703041464909
 30
0.0
 11
1011.088067127662
 21
541.1703041464909
 31
0.0
  0
LINE
  5
29B
  8
ﾚｲﾔ1
  6
CONTINUOUS
 62
     7
 10
1507.042702127661
 20
525.1495041464909
 30
0.0
 11
1011.088067127662
 21
525.1495041464909
 31
0.0
  0
LINE
  5
29C
  8
ﾚｲﾔ1
  6
CONTINUOUS
 62
     7
 10
1134.018097127662
 20
525.1495041464909
 30
0.0
 11
1383.970797127662
 21
525.1495041464909
 31
0.0
  0
LINE
  5
2CD
  8
ﾚｲﾔ1
  6
CONTINUOUS
 62
     7
 10
1077.156192127662
 20
513.0985141464909
 30
0.0
 11
1077.156192127662
 21
525.1495041464909
 31
0.0
  0
LINE
  5
2CE
  8
ﾚｲﾔ1
  6
CONTINUOUS
 62
     7
 10
1089.065392127662
 20
525.1495041464909
 30
0.0
 11
1077.156192127662
 21
525.1495041464909
 31
0.0
  0
LINE
  5
2CF
  8
ﾚｲﾔ1
  6
CONTINUOUS
 62
     7
 10
1023.139212127662
 20
525.1495041464909
 30
0.0
 11
1023.139212127662
 21
513.0985141464909
 31
0.0
  0
LINE
  5
2D0
  8
ﾚｲﾔ1
  6
CONTINUOUS
 62
     7
 10
1507.042702127661
 20
541.1703041464909
 30
0.0
 11
1507.042702127661
 21
525.1495041464909
 31
0.0
  0
LINE
  5
2D1
  8
ﾚｲﾔ1
  6
CONTINUOUS
 62
     7
 10
1441.116552127661
 20
513.0985141464909
 30
0.0
 11
1441.116552127661
 21
525.1495041464909
 31
0.0
  0
LINE
  5
2D2
  8
ﾚｲﾔ1
  6
CONTINUOUS
 62
     7
 10
1429.065392127662
 20
525.1495041464909
 30
0.0
 11
1441.116552127661
 21
525.1495041464909
 31
0.0
  0
LINE
  5
2D3
  8
ﾚｲﾔ1
  6
CONTINUOUS
 62
     7
 10
1495.133502127661
 20
525.1495041464909
 30
0.0
 11
1495.133502127661
 21
513.0985141464909
 31
0.0
  0
LINE
  5
2D4
  8
ﾚｲﾔ1
  6
CONTINUOUS
 62
     7
 10
1104.093852127662
 20
520.187319146491
 30
0.0
 11
1104.093852127662
 21
525.1495041464909
 31
0.0
  0
LINE
  5
2D5
  8
ﾚｲﾔ1
  6
CONTINUOUS
 62
     7
 10
1134.008677127662
 20
520.187319146491
 30
0.0
 11
1104.093852127662
 21
520.187319146491
 31
0.0
  0
LINE
  5
2D6
  8
ﾚｲﾔ1
  6
CONTINUOUS
 62
     7
 10
1134.008677127662
 20
513.0985141464909
 30
0.0
 11
1134.008677127662
 21
525.1495041464909
 31
0.0
  0
LINE
  5
2D7
  8
ﾚｲﾔ1
  6
CONTINUOUS
 62
     7
 10
1101.116542127661
 20
525.1495041464909
 30
0.0
 11
1104.093852127662
 21
522.1721941464909
 31
0.0
  0
LINE
  5
2D8
  8
ﾚｲﾔ1
  6
CONTINUOUS
 62
     7
 10
1102.108992127662
 20
525.1495041464909
 30
0.0
 11
1102.108992127662
 21
524.1570641464909
 31
0.0
  0
LINE
  5
2D9
  8
ﾚｲﾔ1
  6
CONTINUOUS
 62
     7
 10
1103.101427127662
 20
525.1495041464909
 30
0.0
 11
1103.101427127662
 21
523.1646291464909
 31
0.0
  0
LINE
  5
2DA
  8
ﾚｲﾔ1
  6
CONTINUOUS
 62
     7
 10
1102.108992127662
 20
524.1570641464909
 30
0.0
 11
1104.093852127662
 21
524.1570641464909
 31
0.0
  0
LINE
  5
2DB
  8
ﾚｲﾔ1
  6
CONTINUOUS
 62
     7
 10
1103.101427127662
 20
523.1646291464909
 30
0.0
 11
1104.093852127662
 21
523.1646291464909
 31
0.0
  0
LINE
  5
2DC
  8
ﾚｲﾔ1
  6
CONTINUOUS
 62
     7
 10
1384.122102127661
 20
520.187319146491
 30
0.0
 11
1414.178877127662
 21
520.187319146491
 31
0.0
  0
LINE
  5
2DD
  8
ﾚｲﾔ1
  6
CONTINUOUS
 62
     7
 10
1414.178877127662
 20
520.187319146491
 30
0.0
 11
1414.178877127662
 21
525.1495041464909
 31
0.0
  0
LINE
  5
2DE
  8
ﾚｲﾔ1
  6
CONTINUOUS
 62
     7
 10
1384.122102127661
 20
525.1495041464909
 30
0.0
 11
1384.122102127661
 21
513.0985141464909
 31
0.0
  0
LINE
  5
2DF
  8
ﾚｲﾔ1
  6
CONTINUOUS
 62
     7
 10
1414.178877127662
 20
522.1721941464909
 30
0.0
 11
1417.156177127662
 21
525.1495041464909
 31
0.0
  0
LINE
  5
2E0
  8
ﾚｲﾔ1
  6
CONTINUOUS
 62
     7
 10
1414.178877127662
 20
524.1570641464909
 30
0.0
 11
1416.163752127662
 21
524.1570641464909
 31
0.0
  0
LINE
  5
2E1
  8
ﾚｲﾔ1
  6
CONTINUOUS
 62
     7
 10
1414.178877127662
 20
523.1646291464909
 30
0.0
 11
1415.171317127661
 21
523.1646291464909
 31
0.0
  0
LINE
  5
2E2
  8
ﾚｲﾔ1
  6
CONTINUOUS
 62
     7
 10
1415.171317127661
 20
523.1646291464909
 30
0.0
 11
1415.171317127661
 21
525.1495041464909
 31
0.0
  0
LINE
  5
2E3
  8
ﾚｲﾔ1
  6
CONTINUOUS
 62
     7
 10
1416.163752127662
 20
525.1495041464909
 30
0.0
 11
1416.163752127662
 21
524.1570641464909
 31
0.0
  0
LINE
  5
2E4
  8
ﾚｲﾔ1
  6
CONTINUOUS
 62
     7
 10
1134.008677127662
 20
520.187319146491
 30
0.0
 11
1414.178877127662
 21
520.187319146491
 31
0.0
  0
LINE
  5
2E5
  8
ﾚｲﾔ1
  6
CONTINUOUS
 62
     7
 10
1134.008677127662
 20
513.0985141464909
 30
0.0
 11
1434.470797127662
 21
513.0985141464909
 31
0.0
  0
LINE
  5
2E6
  8
ﾚｲﾔ1
  6
DASHDOT
 10
617.4622971276617
 20
641.1230391464909
 30
0.0
 11
737.4055971276617
 21
641.1230391464909
 31
0.0
  0
LINE
  5
2E7
  8
ﾚｲﾔ1
  6
DASHDOT
 10
677.2921721276617
 20
701.094694146491
 30
0.0
 11
677.2921721276617
 21
581.1513941464909
 31
0.0
  0
LINE
  5
2E8
  8
ﾚｲﾔ1
  6
DASHDOT
 10
237.5000821276617
 20
701.094694146491
 30
0.0
 11
237.5000821276617
 21
581.1513941464909
 31
0.0
  0
LINE
  5
2E9
  8
ﾚｲﾔ1
  6
DASHDOT
 10
177.5284321276615
 20
641.1230391464909
 30
0.0
 11
297.4717321276617
 21
641.1230391464909
 31
0.0
  0
LINE
  5
65B
  8
ﾚｲﾔ1
  6
DASHED
 10
707.3489371276617
 20
515.2251191464908
 30
0.0
 11
707.3489371276617
 21
525.1495041464909
 31
0.0
  0
LINE
  5
65C
  8
ﾚｲﾔ1
  6
DASHED
 10
707.3489371276617
 20
520.187319146491
 30
0.0
 11
737.4055971276617
 21
520.187319146491
 31
0.0
  0
LINE
  5
65D
  8
ﾚｲﾔ1
  6
DASHED
 10
737.4055971276617
 20
520.187319146491
 30
0.0
 11
737.4055971276617
 21
525.1495041464909
 31
0.0
  0
LINE
  5
65E
  8
ﾚｲﾔ1
  6
DASHED
 10
207.5851571276617
 20
525.1495041464909
 30
0.0
 11
207.5851571276617
 21
515.2251191464908
 31
0.0
  0
LINE
  5
65F
  8
ﾚｲﾔ1
  6
DASHED
 10
207.5851571276617
 20
520.187319146491
 30
0.0
 11
177.5284321276615
 21
520.187319146491
 31
0.0
  0
LINE
  5
660
  8
ﾚｲﾔ1
  6
DASHED
 10
177.5284321276615
 20
520.187319146491
 30
0.0
 11
177.5284321276615
 21
525.1495041464909
 31
0.0
  0
LINE
  5
661
  8
ﾚｲﾔ1
  6
DASHED
 10
207.5851571276617
 20
515.2251191464908
 30
0.0
 11
707.3489371276617
 21
515.2251191464908
 31
0.0
  0
LINE
  5
662
  8
ﾚｲﾔ1
  6
DASHED
 10
707.3489371276617
 20
520.187319146491
 30
0.0
 11
207.5851571276617
 21
520.187319146491
 31
0.0
  0
TEXT
  5
B02
  8
図面枠
  6
CONTINUOUS
 10
1470.765551133753
 20
-103.6821904838705
 30
0.0
 40
22.0
  1
株式会社　関東油機サービス
  0
TEXT
  5
B03
  8
図面枠
 10
1454.290524910919
 20
-53.74248341585132
 30
0.0
 40
15.0
  1
重  量
  0
TEXT
  5
B05
  8
図面枠
 10
1447.750000000001
 20
-28.89892998841316
 30
0.0
 40
15.0
  1
設計年月日
 41
0.75
  0
LINE
  5
B06
  8
図面枠
  6
CONTINUOUS
 10
1485.0
 20
25.99999999999997
 30
0.0
 11
1784.0
 21
25.99999999999997
 31
0.0
  0
LINE
  5
B07
  8
図面枠
  6
CONTINUOUS
 10
1375.0
 20
-33.5
 30
0.0
 11
1570.0
 21
-33.5
 31
0.0
  0
LINE
  5
B0B
  8
図面枠
  6
CONTINUOUS
 10
1800.0
 20
66.5
 30
0.0
 11
1445.0
 21
66.5
 31
0.0
  0
LINE
  5
B0D
  8
図面枠
  6
CONTINUOUS
 10
1800.0
 20
-8.5
 30
0.0
 11
1470.0
 21
-8.5
 31
0.0
  0
LINE
  5
B0E
  8
図面枠
  6
CONTINUOUS
 10
1470.0
 20
66.5
 30
0.0
 11
1800.0
 21
66.5
 31
0.0
  0
LINE
  5
B0F
  8
図面枠
  6
CONTINUOUS
 10
1515.0
 20
-8.5
 30
0.0
 11
1445.0
 21
-8.5
 31
0.0
  0
LINE
  5
B10
  8
図面枠
  6
CONTINUOUS
 10
1445.0
 20
-58.5
 30
0.0
 11
1515.0
 21
-58.5
 31
0.0
  0
TEXT
  5
B18
  8
図面枠
 10
1329.0
 20
-6.500000000000028
 30
0.0
 40
20.0
  1
製図
  0
LINE
  5
B1B
  8
図面枠
  6
CONTINUOUS
 10
1445.0
 20
16.5
 30
0.0
 11
1175.0
 21
16.5
 31
0.0
  0
LINE
  5
B1D
  8
図面枠
  6
CONTINUOUS
 10
1445.0
 20
-8.5
 30
0.0
 11
1175.0
 21
-8.5
 31
0.0
  0
LINE
  5
B1E
  8
図面枠
  6
CONTINUOUS
 10
1175.0
 20
16.5
 30
0.0
 11
1445.0
 21
16.5
 31
0.0
  0
LINE
  5
B1F
  8
図面枠
  6
CONTINUOUS
 10
1375.0
 20
-8.5
 30
0.0
 11
1325.0
 21
-8.5
 31
0.0
  0
LINE
  5
B20
  8
図面枠
  6
CONTINUOUS
 10
1325.0
 20
-58.5
 30
0.0
 11
1375.0
 21
-58.5
 31
0.0
  0
TEXT
  5
B21
  8
図面枠
 10
1278.0
 20
-6.0
 30
0.0
 40
20.0
  1
設計
  0
LINE
  5
B22
  8
図面枠
  6
CONTINUOUS
 10
1325.0
 20
16.5
 30
0.0
 11
1325.0
 21
-58.5
 31
0.0
  0
LINE
  5
B23
  8
図面枠
  6
CONTINUOUS
 10
1275.0
 20
16.5
 30
0.0
 11
1275.0
 21
-58.5
 31
0.0
  0
LINE
  5
B24
  8
図面枠
  6
CONTINUOUS
 10
1225.0
 20
16.5
 30
0.0
 11
1225.0
 21
-58.5
 31
0.0
  0
LINE
  5
B25
  8
図面枠
  6
CONTINUOUS
 10
1175.0
 20
-8.5
 30
0.0
 11
1175.0
 21
16.5
 31
0.0
  0
TEXT
  5
B26
  8
図面枠
 10
1227.0
 20
-6.500000000000028
 30
0.0
 40
20.0
  1
検図
  0
LINE
  5
B27
  8
図面枠
  6
CONTINUOUS
 10
1275.0
 20
-8.5
 30
0.0
 11
1225.0
 21
-8.5
 31
0.0
  0
LINE
  5
B28
  8
図面枠
  6
CONTINUOUS
 10
1225.0
 20
-58.5
 30
0.0
 11
1275.0
 21
-58.5
 31
0.0
  0
LINE
  5
B29
  8
図面枠
  6
CONTINUOUS
 10
1175.0
 20
-8.5
 30
0.0
 11
1175.0
 21
-58.5
 31
0.0
  0
LINE
  5
B2A
  8
図面枠
  6
CONTINUOUS
 10
1225.0
 20
-8.5
 30
0.0
 11
1225.0
 21
-58.5
 31
0.0
  0
LINE
  5
B2B
  8
図面枠
  6
CONTINUOUS
 10
1225.0
 20
-58.5
 30
0.0
 11
1225.0
 21
-8.5
 31
0.0
  0
LINE
  5
B2C
  8
図面枠
  6
CONTINUOUS
 10
1175.0
 20
-58.5
 30
0.0
 11
1225.0
 21
-58.5
 31
0.0
  0
TEXT
  5
B2D
  8
図面枠
 10
1179.0
 20
-6.500000000000028
 30
0.0
 40
20.0
  1
審査
  0
LINE
  5
B2E
  8
図面枠
  6
CONTINUOUS
 10
1225.0
 20
-8.5
 30
0.0
 11
1175.0
 21
-8.5
 31
0.0
  0
LINE
  5
B2F
  8
図面枠
  6
CONTINUOUS
 10
1325.0
 20
-8.5
 30
0.0
 11
1325.0
 21
-58.5
 31
0.0
  0
LINE
  5
B30
  8
図面枠
  6
CONTINUOUS
 10
1325.0
 20
-58.5
 30
0.0
 11
1325.0
 21
-8.5
 31
0.0
  0
LINE
  5
B31
  8
図面枠
  6
CONTINUOUS
 10
1275.0
 20
-8.5
 30
0.0
 11
1275.0
 21
-58.5
 31
0.0
  0
LINE
  5
B32
  8
図面枠
  6
CONTINUOUS
 10
1275.0
 20
-58.5
 30
0.0
 11
1275.0
 21
-8.5
 31
0.0
  0
LINE
  5
B33
  8
図面枠
  6
CONTINUOUS
 10
1275.0
 20
-58.5
 30
0.0
 11
1325.0
 21
-58.5
 31
0.0
  0
LINE
  5
B34
  8
図面枠
  6
CONTINUOUS
 10
1325.0
 20
-8.5
 30
0.0
 11
1275.0
 21
-8.5
 31
0.0
  0
TEXT
  5
B39
  8
図面枠
 10
1446.6477763502
 20
56.81125720589765
 30
0.0
 40
20.0
  1
名 称
 50
270.0
  0
LINE
  5
B3A
  8
図面枠
  6
CONTINUOUS
 10
1375.0
 20
16.5
 30
0.0
 11
1375.0
 21
-58.5
 31
0.0
  0
LINE
  5
B3B
  8
図面枠
  6
CONTINUOUS
 10
1470.0
 20
-8.5
 30
0.0
 11
1470.0
 21
66.5
 31
0.0
  0
LINE
  5
B3C
  8
図面枠
  6
CONTINUOUS
 10
1470.0
 20
-8.5
 30
0.0
 11
1470.0
 21
66.5
 31
0.0
  0
LINE
  5
B3D
  8
図面枠
  6
CONTINUOUS
 10
1445.0
 20
66.5
 30
0.0
 11
1445.0
 21
-8.5
 31
0.0
  0
LINE
  5
B3E
  8
図面枠
  6
CONTINUOUS
 10
1445.0
 20
16.5
 30
0.0
 11
1445.0
 21
-8.5
 31
0.0
  0
TEXT
  5
B3F
  8
図面枠
 10
1387.305108958047
 20
-30.80630461687559
 30
0.0
 40
15.0
  1
１：５
  0
TEXT
  5
B40
  8
図面枠
 10
1383.846664525299
 20
-6.202143703879869
 30
0.0
 40
20.0
  1
尺度
 41
1.125
  0
LINE
  5
B41
  8
図面枠
  6
CONTINUOUS
 10
1445.0
 20
-8.5
 30
0.0
 11
1375.0
 21
-8.5
 31
0.0
  0
LINE
  5
B42
  8
図面枠
  6
CONTINUOUS
 10
1375.0
 20
-58.5
 30
0.0
 11
1445.0
 21
-58.5
 31
0.0
  0
LINE
  5
B43
  8
図面枠
  6
CONTINUOUS
 10
1375.0
 20
-8.5
 30
0.0
 11
1375.0
 21
-58.5
 31
0.0
  0
LINE
  5
B44
  8
図面枠
  6
CONTINUOUS
 10
1375.0
 20
-58.5
 30
0.0
 11
1375.0
 21
-8.5
 31
0.0
  0
LINE
  5
B45
  8
図面枠
  6
CONTINUOUS
 10
1445.0
 20
-8.5
 30
0.0
 11
1445.0
 21
-58.5
 31
0.0
  0
LINE
  5
B46
  8
図面枠
  6
CONTINUOUS
 10
1445.0
 20
-58.5
 30
0.0
 11
1445.0
 21
-8.5
 31
0.0
  0
LINE
  5
B47
  8
図面枠
  6
CONTINUOUS
 10
1445.0
 20
-8.5
 30
0.0
 11
1470.0
 21
-8.5
 31
0.0
  0
LINE
  5
B4A
  8
図面枠
  6
CONTINUOUS
 10
1470.0
 20
66.5
 30
0.0
 11
1445.0
 21
66.5
 31
0.0
  0
LINE
  5
B4B
  8
図面枠
  6
CONTINUOUS
 10
1445.0
 20
66.5
 30
0.0
 11
1445.0
 21
41.5
 31
0.0
  0
LINE
  5
B4C
  8
図面枠
  6
CONTINUOUS
 10
1445.0
 20
41.5
 30
0.0
 11
1445.0
 21
16.5
 31
0.0
  0
LINE
  5
B50
  8
図面枠
  6
CONTINUOUS
 10
1800.0
 20
166.5
 30
0.0
 11
1800.0
 21
66.5
 31
0.0
  0
LINE
  5
B51
  8
図面枠
  6
CONTINUOUS
 10
1800.0
 20
-8.5
 30
0.0
 11
1590.0
 21
-8.5
 31
0.0
  0
LINE
  5
B52
  8
図面枠
  6
CONTINUOUS
 10
1590.0
 20
-58.5
 30
0.0
 11
1800.0
 21
-58.5
 31
0.0
  0
TEXT
  5
B53
  8
図面枠
 10
1573.25
 20
-28.38294932610336
 30
0.0
 40
15.0
  1
図
  0
TEXT
  5
B54
  8
図面枠
 10
1573.25
 20
-51.99999999999994
 30
0.0
 40
15.0
  1
番
  0
LINE
  5
B55
  8
図面枠
  6
CONTINUOUS
 10
1590.0
 20
-8.5
 30
0.0
 11
1570.0
 21
-8.5
 31
0.0
  0
LINE
  5
B56
  8
図面枠
  6
CONTINUOUS
 10
1570.0
 20
-58.5
 30
0.0
 11
1590.0
 21
-58.5
 31
0.0
  0
LINE
  5
B57
  8
図面枠
  6
CONTINUOUS
 10
1570.0
 20
-8.5
 30
0.0
 11
1570.0
 21
-58.5
 31
0.0
  0
LINE
  5
B58
  8
図面枠
  6
CONTINUOUS
 10
1570.0
 20
-58.5
 30
0.0
 11
1570.0
 21
-8.5
 31
0.0
  0
LINE
  5
B59
  8
図面枠
  6
CONTINUOUS
 10
1515.0
 20
-8.5
 30
0.0
 11
1515.0
 21
-58.5
 31
0.0
  0
LINE
  5
B5A
  8
図面枠
  6
CONTINUOUS
 10
1515.0
 20
-58.5
 30
0.0
 11
1515.0
 21
-8.5
 31
0.0
  0
LINE
  5
B5B
  8
図面枠
  6
CONTINUOUS
 10
1515.0
 20
-58.5
 30
0.0
 11
1570.0
 21
-58.5
 31
0.0
  0
LINE
  5
B5C
  8
図面枠
  6
CONTINUOUS
 10
1570.0
 20
-8.5
 30
0.0
 11
1515.0
 21
-8.5
 31
0.0
  0
LINE
  5
B5D
  8
図面枠
  6
CONTINUOUS
 10
1590.0
 20
-8.5
 30
0.0
 11
1590.0
 21
-58.5
 31
0.0
  0
LINE
  5
B5E
  8
図面枠
  6
CONTINUOUS
 10
1590.0
 20
-58.5
 30
0.0
 11
1590.0
 21
-8.5
 31
0.0
  0
LINE
  5
B61
  8
図面枠
  6
CONTINUOUS
 10
1800.0
 20
66.5
 30
0.0
 11
1800.0
 21
-8.5
 31
0.0
  0
LINE
  5
B62
  8
図面枠
  6
CONTINUOUS
 10
1800.0
 20
-58.5
 30
0.0
 11
1800.0
 21
-8.5
 31
0.0
  0
TEXT
  5
B64
  8
図面枠
  6
CONTINUOUS
 10
1325.0
 20
-53.5
 30
0.0
 40
20.0
  1
N,K
  0
TEXT
  5
B65
  8
図面枠
  6
CONTINUOUS
 10
1517.56097927585
 20
-26.31335093952146
 30
0.0
 40
10.0
  1
98,3,5
  7
TEXTSTYLE01
  0
CIRCLE
  5
B69
  8
ﾚｲﾔ1
  6
CONTINUOUS
 10
237.5000821276617
 20
641.1230391464909
 30
0.0
 40
30.5
  0
CIRCLE
  5
B6A
  8
ﾚｲﾔ1
  6
CONTINUOUS
 10
237.5000821276617
 20
641.1230391464909
 30
0.0
 40
55.0
  0
CIRCLE
  5
B6B
  8
ﾚｲﾔ1
  6
CONTINUOUS
 10
677.8593500000002
 20
641.1230391464909
 30
0.0
 40
30.5
  0
CIRCLE
  5
B6C
  8
ﾚｲﾔ1
  6
CONTINUOUS
 10
677.2921721276617
 20
641.0804668821132
 30
0.0
 40
55.0
  0
DIMENSION
  5
B6D
  8
寸法
  6
CONTINUOUS
  2
*D1
 10
237.5000821276617
 20
840.3163791464909
 30
0.0
 11
197.5190146276617
 21
850.8163791464909
 31
0.0
 70
    32
 13
157.5379471276617
 23
775.1023041464908
 33
0.0
 14
237.5000821276617
 24
701.094694146491
 34
0.0
  0
DIMENSION
  5
B87
  8
寸法
  6
CONTINUOUS
  2
*D2
 10
677.2921721276617
 20
840.3163791464909
 30
0.0
 11
457.3961271276617
 21
850.8163791464909
 31
0.0
 70
    32
 13
237.5000821276617
 23
711.094694146491
 33
0.0
 14
677.2921721276617
 24
701.094694146491
 34
0.0
  0
DIMENSION
  5
B94
  8
寸法
  6
CONTINUOUS
  2
*D3
 10
757.2544221276617
 20
840.3163791464909
 30
0.0
 11
717.2732971276617
 21
850.8163791464909
 31
0.0
 70
    32
 13
677.2921721276618
 23
759.0815291464909
 33
0.0
 14
757.2544221276617
 24
775.1023041464908
 34
0.0
  0
DIMENSION
  5
BA9
  8
寸法
  6
CONTINUOUS
  2
*D4
 10
757.2544221276617
 20
877.4008957107368
 30
0.0
 11
457.3961846276617
 21
887.9008957107368
 31
0.0
 70
    32
 13
157.5379471276617
 23
840.8163791464909
 33
0.0
 14
757.2544221276617
 24
840.8163791464909
 34
0.0
  0
DIMENSION
  5
BB6
  8
寸法
  6
CONTINUOUS
  2
*D5
 10
54.09585712766171
 20
541.1703041464909
 30
0.0
 11
43.59585712766162
 21
513.169354146491
 31
0.0
 70
    32
 13
103.5870971276617
 23
485.168404146491
 33
0.0
 14
107.6324721276617
 24
541.1703041464909
 34
0.0
 50
90.0
  0
DIMENSION
  5
BC3
  8
寸法
  6
CONTINUOUS
  2
*D6
 10
54.09585712766171
 20
641.1230391464909
 30
0.0
 11
43.5958571276616
 21
591.1466716464909
 31
0.0
 70
    32
 13
107.6324721276617
 23
541.1703041464909
 33
0.0
 14
157.5379471276617
 24
641.1230391464909
 34
0.0
 50
90.0
  0
DIMENSION
  5
BD0
  8
寸法
  6
CONTINUOUS
  2
*D7
 10
54.09585712766169
 20
641.1230391464909
 30
0.0
 11
43.59585712766159
 21
708.3626716464909
 31
0.0
 70
    32
 13
157.5379471276617
 23
775.6023041464908
 33
0.0
 14
54.09585712766171
 24
641.1230391464909
 34
0.0
 50
90.0
  0
DIMENSION
  5
BDC
  8
寸法
  6
CONTINUOUS
  2
*D8
 10
13.05525595873928
 20
485.168404146491
 30
0.0
 11
2.555255958739206
 21
630.385354146491
 31
0.0
 70
    32
 13
53.59585712766172
 23
775.6023041464908
 33
0.0
 14
53.5958571276617
 24
485.168404146491
 34
0.0
 50
90.0
  0
DIMENSION
  5
BE9
  8
寸法
  6
CONTINUOUS
  2
*D9
 10
807.3016221276616
 20
426.955321734126
 30
0.0
 11
457.4670471276617
 21
437.455321734126
 31
0.0
 70
    32
 13
107.6324721276617
 23
491.2648691464909
 33
0.0
 14
807.3016221276616
 24
491.2648691464909
 34
0.0
  0
DIMENSION
  5
BF6
  8
寸法
  6
CONTINUOUS
  2
*D10
 10
652.2572525678938
 20
624.5464711338725
 30
0.0
 11
789.8630896276608
 21
713.6420041464913
 31
0.0
 70
   163
 15
703.4614474321062
 25
657.6996071591091
 35
0.0
 40
0.0
  0
DIMENSION
  5
C01
  8
寸法
  6
CONTINUOUS
  2
*D11
 10
625.6967172132885
 20
660.1306383296057
 30
0.0
 11
805.8129921276616
 21
593.6277666464907
 31
0.0
 70
   163
 15
728.8876270420351
 25
622.0302954346206
 35
0.0
 40
0.0
  0
ARC
  5
C97
  8
ﾚｲﾔ1
  6
CONTINUOUS
 10
1206.040787127662
 20
759.0815291464909
 30
0.0
 40
11.90921500000013
 50
180.0
 51
270.0
  0
ARC
  5
C98
  8
ﾚｲﾔ1
  6
CONTINUOUS
 10
1312.089997127662
 20
759.0815291464909
 30
0.0
 40
11.96315589192629
 50
275.4399545817969
 51
0.0
  0
ARC
  5
C99
  8
ﾚｲﾔ1
  6
CONTINUOUS
 10
1206.040787127662
 20
541.1703041464909
 30
0.0
 40
11.90930999999989
 50
89.9999999999999
 51
174.2217339521362
  0
ARC
  5
C9A
  8
ﾚｲﾔ1
  6
CONTINUOUS
 10
1312.089997127662
 20
541.1703041464909
 30
0.0
 40
11.9092599999999
 50
0.0
 51
90.0
  0
DIMENSION
  5
CA8
  8
寸法
  6
CONTINUOUS
  2
*D12
 10
1289.972747127661
 20
840.3163791464909
 30
0.0
 11
1258.994542127662
 21
850.8163791464909
 31
0.0
 70
    32
 13
1228.016337127662
 23
775.1023041464908
 33
0.0
 14
1289.972747127661
 24
759.0815291464909
 34
0.0
  0
DIMENSION
  5
CCF
  8
寸法
  6
CONTINUOUS
  2
*D13
 10
1197.108897127662
 20
686.0157891464909
 30
0.0
 11
1165.942230460995
 21
696.5157891464909
 31
0.0
 70
    32
 13
1206.040787127662
 23
671.0379791464909
 33
0.0
 14
1197.108897127662
 24
671.0379791464909
 34
0.0
  0
DIMENSION
  5
CDD
  8
寸法
  6
CONTINUOUS
  2
*D14
 10
1228.016337127662
 20
686.0157891464909
 30
0.0
 11
1269.183003794328
 21
696.5157891464909
 31
0.0
 70
    32
 13
1206.040787127662
 23
671.0379791464909
 33
0.0
 14
1228.016337127662
 24
671.0379791464909
 34
0.0
  0
DIMENSION
  5
D3D
  8
寸法
  6
CONTINUOUS
  2
*D17
 10
1555.302474211534
 20
513.0985141464909
 30
0.0
 11
1544.802474211534
 21
644.1004091464911
 31
0.0
 70
    32
 13
1434.216697127662
 23
775.1023041464908
 33
0.0
 14
1384.122102127661
 24
513.0985141464909
 34
0.0
 50
90.0
  0
LINE
  5
FA5
  8
ﾚｲﾔ1
  6
DASHDOT
 10
1259.065392127662
 20
484.0787476705933
 30
0.0
 11
1259.065392127662
 21
807.1531222371751
 31
0.0
  0
LINE
  5
FB3
  8
図面枠
  6
CONTINUOUS
 10
-95.0
 20
-58.5
 30
0.0
 11
-95.0
 21
1271.5
 31
0.0
  0
LINE
  5
FB4
  8
図面枠
  6
CONTINUOUS
 10
-110.0
 20
1286.5
 30
0.0
 11
-110.0
 21
-73.5
 31
0.0
  0
LINE
  5
FB5
  8
図面枠
  6
CONTINUOUS
 10
-95.0
 20
1271.5
 30
0.0
 11
1800.0
 21
1271.5
 31
0.0
  0
LINE
  5
FB6
  8
図面枠
  6
CONTINUOUS
 10
1815.0
 20
1286.5
 30
0.0
 11
-110.0
 21
1286.5
 31
0.0
  0
LINE
  5
FB7
  8
図面枠
  6
CONTINUOUS
 10
1815.0
 20
1286.5
 30
0.0
 11
1815.0
 21
-73.5
 31
0.0
  0
LINE
  5
FB8
  8
図面枠
  6
CONTINUOUS
 10
1800.0
 20
1271.5
 30
0.0
 11
1800.0
 21
-58.5
 31
0.0
  0
LINE
  5
FB9
  8
図面枠
  6
CONTINUOUS
 10
1815.0
 20
-73.5
 30
0.0
 11
-110.0
 21
-73.5
 31
0.0
  0
LINE
  5
FBA
  8
図面枠
  6
CONTINUOUS
 10
1800.0
 20
-58.5
 30
0.0
 11
-95.0
 21
-58.5
 31
0.0
  0
TEXT
  5
1140
  8
図面枠
  6
CONTINUOUS
 10
1490.429410896702
 20
32.81942298311469
 30
0.0
 40
25.0
  1
SLD-300
  0
DIMENSION
  5
1705
  8
寸法
  6
CONTINUOUS
  2
*D46
 10
707.3489371276617
 20
452.9905609062321
 30
0.0
 11
457.4670471276617
 21
463.4905609062321
 31
0.0
 70
    32
 13
207.5851571276617
 23
515.2251191464908
 33
0.0
 14
707.3489371276617
 24
515.2251191464908
 34
0.0
  0
LINE
  5
1739
  8
0
  6
CONTINUOUS
 10
1109.040787127662
 20
541.1703041464909
 30
0.0
 11
1109.040787127662
 21
775.1023041464908
 31
0.0
  0
LINE
  5
173A
  8
0
  6
CONTINUOUS
 10
1409.040787127662
 20
541.1703041464909
 30
0.0
 11
1409.040787127662
 21
775.1023041464908
 31
0.0
  0
DIMENSION
  5
173B
  8
寸法
  6
CONTINUOUS
  2
*D47
 10
1409.040787127662
 20
878.7946447984133
 30
0.0
 11
1259.040787127662
 21
889.2946447984133
 31
0.0
 70
    32
 13
1109.040787127662
 23
775.1023041464908
 33
0.0
 14
1409.040787127662
 24
775.1023041464908
 34
0.0
  0
DIMENSION
  5
1748
  8
寸法
  6
CONTINUOUS
  2
*D48
 10
1228.016337127662
 20
840.3163791464909
 30
0.0
 11
1168.528562127662
 21
850.8163791464909
 31
0.0
 70
    32
 13
1109.040787127662
 23
775.1023041464908
 33
0.0
 14
1228.016337127662
 24
775.1023041464908
 34
0.0
  0
DIMENSION
  5
1755
  8
寸法
  6
CONTINUOUS
  2
*D49
 10
1409.040787127662
 20
840.3163791464909
 30
0.0
 11
1349.506767127662
 21
850.8163791464909
 31
0.0
 70
    32
 13
1289.972747127661
 23
775.1023041464908
 33
0.0
 14
1409.040787127662
 24
775.1023041464908
 34
0.0
  0
DIMENSION
  5
178D
  8
寸法
  6
CONTINUOUS
  2
*D50
 10
1429.065392127662
 20
426.0
 30
0.0
 11
1259.065392127662
 21
436.5
 31
0.0
 70
    32
 13
1089.065392127662
 23
497.2194441464909
 33
0.0
 14
1429.065392127662
 24
497.2194441464909
 34
0.0
  0
DIMENSION
  5
179A
  8
寸法
  6
CONTINUOUS
  2
*D51
 10
1507.042702127661
 20
394.0
 30
0.0
 11
1259.065384627662
 21
404.5
 31
0.0
 70
    32
 13
1011.088067127662
 23
525.1495041464909
 33
0.0
 14
1507.042702127661
 24
525.1495041464909
 34
0.0
  0
ENDSEC
  0
EOF
