  0
SECTION
  2
HEADER
  9
$ACADVER
  1
AC1015
  9
$ACADMAINTVER
 70
    20
  9
$DWGCODEPAGE
  3
ANSI_932
  9
$INSBASE
 10
0.0
 20
0.0
 30
0.0
  9
$EXTMIN
 10
-630.0
 20
-445.5
 30
0.0
  9
$EXTMAX
 10
630.0
 20
445.5
 30
0.0
  9
$LIMMIN
 10
0.0
 20
0.0
  9
$LIMMAX
 10
12.0
 20
9.0
  9
$ORTHOMODE
 70
     0
  9
$REGENMODE
 70
     1
  9
$FILLMODE
 70
     1
  9
$QTEXTMODE
 70
     0
  9
$MIRRTEXT
 70
     1
  9
$LTSCALE
 40
1.0
  9
$ATTMODE
 70
     1
  9
$TEXTSIZE
 40
3.0
  9
$TRACEWID
 40
0.05
  9
$TEXTSTYLE
  7
STANDARD
  9
$CLAYER
  8
寸法
  9
$CELTYPE
  6
CONTINUOUS
  9
$CECOLOR
 62
   256
  9
$CELTSCALE
 40
1.0
  9
$DISPSILH
 70
     0
  9
$DIMSCALE
 40
1.0
  9
$DIMASZ
 40
5.0
  9
$DIMEXO
 40
0.0625
  9
$DIMDLI
 40
0.38
  9
$DIMRND
 40
0.0
  9
$DIMDLE
 40
0.0
  9
$DIMEXE
 40
0.18
  9
$DIMTP
 40
0.0
  9
$DIMTM
 40
0.0
  9
$DIMTXT
 40
13.0
  9
$DIMCEN
 40
0.09
  9
$DIMTSZ
 40
0.0
  9
$DIMTOL
 70
     0
  9
$DIMLIM
 70
     0
  9
$DIMTIH
 70
     0
  9
$DIMTOH
 70
     0
  9
$DIMSE1
 70
     0
  9
$DIMSE2
 70
     0
  9
$DIMTAD
 70
     1
  9
$DIMZIN
 70
     0
  9
$DIMBLK
  1
Open30
  9
$DIMASO
 70
     1
  9
$DIMSHO
 70
     1
  9
$DIMPOST
  1

  9
$DIMAPOST
  1

  9
$DIMALT
 70
     0
  9
$DIMALTD
 70
     2
  9
$DIMALTF
 40
25.4
  9
$DIMLFAC
 40
1.0
  9
$DIMTOFL
 70
     0
  9
$DIMTVP
 40
0.0
  9
$DIMTIX
 70
     0
  9
$DIMSOXD
 70
     0
  9
$DIMSAH
 70
     0
  9
$DIMBLK1
  1

  9
$DIMBLK2
  1

  9
$DIMSTYLE
  2
Standard
  9
$DIMCLRD
 70
     1
  9
$DIMCLRE
 70
     1
  9
$DIMCLRT
 70
     1
  9
$DIMTFAC
 40
1.0
  9
$DIMGAP
 40
0.5
  9
$DIMJUST
 70
     0
  9
$DIMSD1
 70
     0
  9
$DIMSD2
 70
     0
  9
$DIMTOLJ
 70
     1
  9
$DIMTZIN
 70
     0
  9
$DIMALTZ
 70
     0
  9
$DIMALTTZ
 70
     0
  9
$DIMUPT
 70
     0
  9
$DIMDEC
 70
     0
  9
$DIMTDEC
 70
     0
  9
$DIMALTU
 70
     2
  9
$DIMALTTD
 70
     2
  9
$DIMTXSTY
  7
TEXTSTYLE01
  9
$DIMAUNIT
 70
     0
  9
$DIMADEC
 70
     0
  9
$DIMALTRND
 40
0.0
  9
$DIMAZIN
 70
     0
  9
$DIMDSEP
 70
    46
  9
$DIMATFIT
 70
     3
  9
$DIMFRAC
 70
     0
  9
$DIMLDRBLK
  1
Open30
  9
$DIMLUNIT
 70
     2
  9
$DIMLWD
 70
    -2
  9
$DIMLWE
 70
    -2
  9
$DIMTMOVE
 70
     0
  9
$LUNITS
 70
     2
  9
$LUPREC
 70
     4
  9
$SKETCHINC
 40
0.1
  9
$FILLETRAD
 40
0.0
  9
$AUNITS
 70
     0
  9
$AUPREC
 70
     0
  9
$MENU
  1
.
  9
$ELEVATION
 40
0.0
  9
$PELEVATION
 40
0.0
  9
$THICKNESS
 40
0.0
  9
$LIMCHECK
 70
     0
  9
$CHAMFERA
 40
0.0
  9
$CHAMFERB
 40
0.0
  9
$CHAMFERC
 40
0.0
  9
$CHAMFERD
 40
0.0
  9
$SKPOLY
 70
     0
  9
$TDCREATE
 40
2452359.417281227
  9
$TDUCREATE
 40
2452359.042281227
  9
$TDUPDATE
 40
2455342.527763125
  9
$TDUUPDATE
 40
2455342.152763125
  9
$TDINDWG
 40
0.2709527315
  9
$TDUSRTIMER
 40
0.2709527315
  9
$USRTIMER
 70
     1
  9
$ANGBASE
 50
0.0
  9
$ANGDIR
 70
     0
  9
$PDMODE
 70
     0
  9
$PDSIZE
 40
4.5
  9
$PLINEWID
 40
0.0
  9
$SPLFRAME
 70
     0
  9
$SPLINETYPE
 70
     6
  9
$SPLINESEGS
 70
     8
  9
$HANDSEED
  5
4D3
  9
$SURFTAB1
 70
     6
  9
$SURFTAB2
 70
     6
  9
$SURFTYPE
 70
     6
  9
$SURFU
 70
     6
  9
$SURFV
 70
     6
  9
$UCSBASE
  2

  9
$UCSNAME
  2

  9
$UCSORG
 10
0.0
 20
0.0
 30
0.0
  9
$UCSXDIR
 10
1.0
 20
0.0
 30
0.0
  9
$UCSYDIR
 10
0.0
 20
1.0
 30
0.0
  9
$UCSORTHOREF
  2

  9
$UCSORTHOVIEW
 70
     0
  9
$UCSORGTOP
 10
0.0
 20
0.0
 30
0.0
  9
$UCSORGBOTTOM
 10
0.0
 20
0.0
 30
0.0
  9
$UCSORGLEFT
 10
0.0
 20
0.0
 30
0.0
  9
$UCSORGRIGHT
 10
0.0
 20
0.0
 30
0.0
  9
$UCSORGFRONT
 10
0.0
 20
0.0
 30
0.0
  9
$UCSORGBACK
 10
0.0
 20
0.0
 30
0.0
  9
$PUCSBASE
  2

  9
$PUCSNAME
  2

  9
$PUCSORG
 10
0.0
 20
0.0
 30
0.0
  9
$PUCSXDIR
 10
1.0
 20
0.0
 30
0.0
  9
$PUCSYDIR
 10
0.0
 20
1.0
 30
0.0
  9
$PUCSORTHOREF
  2

  9
$PUCSORTHOVIEW
 70
     0
  9
$PUCSORGTOP
 10
0.0
 20
0.0
 30
0.0
  9
$PUCSORGBOTTOM
 10
0.0
 20
0.0
 30
0.0
  9
$PUCSORGLEFT
 10
0.0
 20
0.0
 30
0.0
  9
$PUCSORGRIGHT
 10
0.0
 20
0.0
 30
0.0
  9
$PUCSORGFRONT
 10
0.0
 20
0.0
 30
0.0
  9
$PUCSORGBACK
 10
0.0
 20
0.0
 30
0.0
  9
$USERI1
 70
     0
  9
$USERI2
 70
     0
  9
$USERI3
 70
     0
  9
$USERI4
 70
     0
  9
$USERI5
 70
     0
  9
$USERR1
 40
0.0
  9
$USERR2
 40
0.0
  9
$USERR3
 40
0.0
  9
$USERR4
 40
0.0
  9
$USERR5
 40
0.0
  9
$WORLDVIEW
 70
     1
  9
$SHADEDGE
 70
     3
  9
$SHADEDIF
 70
    70
  9
$TILEMODE
 70
     1
  9
$MAXACTVP
 70
    64
  9
$PINSBASE
 10
0.0
 20
0.0
 30
0.0
  9
$PLIMCHECK
 70
     0
  9
$PEXTMIN
 10
1.000000000000000E+20
 20
1.000000000000000E+20
 30
1.000000000000000E+20
  9
$PEXTMAX
 10
-1.000000000000000E+20
 20
-1.000000000000000E+20
 30
-1.000000000000000E+20
  9
$PLIMMIN
 10
0.0
 20
0.0
  9
$PLIMMAX
 10
12.0
 20
9.0
  9
$UNITMODE
 70
     0
  9
$VISRETAIN
 70
     1
  9
$PLINEGEN
 70
     0
  9
$PSLTSCALE
 70
     1
  9
$TREEDEPTH
 70
  3020
  9
$CMLSTYLE
  2
Standard
  9
$CMLJUST
 70
     0
  9
$CMLSCALE
 40
1.0
  9
$PROXYGRAPHICS
 70
     1
  9
$MEASUREMENT
 70
     0
  9
$CELWEIGHT
370
    -1
  9
$ENDCAPS
280
     0
  9
$JOINSTYLE
280
     0
  9
$LWDISPLAY
290
     0
  9
$INSUNITS
 70
     0
  9
$HYPERLINKBASE
  1

  9
$STYLESHEET
  1

  9
$XEDIT
290
     1
  9
$CEPSNTYPE
380
     0
  9
$PSTYLEMODE
290
     1
  9
$FINGERPRINTGUID
  2
{B5B60804-CC53-4E95-AD79-3C5F7B40A435}
  9
$VERSIONGUID
  2
{EF0A320C-3791-4417-A076-6A3442D2ADB4}
  9
$EXTNAMES
290
     1
  9
$PSVPSCALE
 40
0.0
  9
$OLESTARTUP
290
     0
  0
ENDSEC
  0
SECTION
  2
CLASSES
  0
CLASS
  1
ACDBDICTIONARYWDFLT
  2
AcDbDictionaryWithDefault
  3
ObjectDBX Classes
 90
        0
280
     0
281
     0
  0
CLASS
  1
ACDBPLACEHOLDER
  2
AcDbPlaceHolder
  3
ObjectDBX Classes
 90
        0
280
     0
281
     0
  0
CLASS
  1
LAYOUT
  2
AcDbLayout
  3
ObjectDBX Classes
 90
        0
280
     0
281
     0
  0
CLASS
  1
DICTIONARYVAR
  2
AcDbDictionaryVar
  3
ObjectDBX Classes
 90
        0
280
     0
281
     0
  0
ENDSEC
  0
SECTION
  2
TABLES
  0
TABLE
  2
VPORT
  5
8
330
0
100
AcDbSymbolTable
 70
     2
  0
VPORT
  5
4CB
330
8
100
AcDbSymbolTableRecord
100
AcDbViewportTableRecord
  2
*Active
 70
     0
 10
0.0
 20
0.0
 11
1.0
 21
1.0
 12
65.66427429171153
 22
144.5898303777918
 13
0.0
 23
0.0
 14
1.0
 24
1.0
 15
0.0
 25
0.0
 16
0.0
 26
0.0
 36
1.0
 17
0.0
 27
0.0
 37
0.0
 40
1400.354760350945
 41
1.530456852791878
 42
50.0
 43
0.0
 44
0.0
 50
0.0
 51
0.0
 71
     0
 72
   100
 73
     1
 74
     1
 75
     0
 76
     0
 77
     0
 78
     0
281
     0
 65
     1
110
0.0
120
0.0
130
0.0
111
1.0
121
0.0
131
0.0
112
0.0
122
1.0
132
0.0
 79
     0
146
0.0
  0
ENDTAB
  0
TABLE
  2
LTYPE
  5
5
330
0
100
AcDbSymbolTable
 70
     9
  0
LTYPE
  5
13
330
5
100
AcDbSymbolTableRecord
100
AcDbLinetypeTableRecord
  2
ByBlock
 70
     0
  3

 72
    65
 73
     0
 40
0.0
  0
LTYPE
  5
14
330
5
100
AcDbSymbolTableRecord
100
AcDbLinetypeTableRecord
  2
ByLayer
 70
     0
  3

 72
    65
 73
     0
 40
0.0
  0
LTYPE
  5
15
330
5
100
AcDbSymbolTableRecord
100
AcDbLinetypeTableRecord
  2
CONTINUOUS
 70
     0
  3
実線
 72
    65
 73
     0
 40
0.0
  0
LTYPE
  5
22
330
5
100
AcDbSymbolTableRecord
100
AcDbLinetypeTableRecord
  2
DASHED
 70
     0
  3
破線A
 72
    65
 73
     2
 40
22.5
 49
15.0
 74
     0
 49
-7.5
 74
     0
  0
LTYPE
  5
23
330
5
100
AcDbSymbolTableRecord
100
AcDbLinetypeTableRecord
  2
DASHEDX2
 70
     0
  3
破線B
 72
    65
 73
     2
 40
45.0
 49
30.0
 74
     0
 49
-15.0
 74
     0
  0
LTYPE
  5
24
330
5
100
AcDbSymbolTableRecord
100
AcDbLinetypeTableRecord
  2
DASHDOT
 70
     0
  3
１点鎖線A
 72
    65
 73
     4
 40
30.0
 49
15.0
 74
     0
 49
-7.5
 74
     0
 49
0.0
 74
     0
 49
-7.5
 74
     0
  0
LTYPE
  5
25
330
5
100
AcDbSymbolTableRecord
100
AcDbLinetypeTableRecord
  2
DASHDOTX2
 70
     0
  3
１点鎖線B
 72
    65
 73
     4
 40
60.0
 49
30.0
 74
     0
 49
-15.0
 74
     0
 49
0.0
 74
     0
 49
-15.0
 74
     0
  0
LTYPE
  5
26
330
5
100
AcDbSymbolTableRecord
100
AcDbLinetypeTableRecord
  2
DIVIDE2
 70
     0
  3
２点鎖線A
 72
    65
 73
     6
 40
18.75
 49
7.5
 74
     0
 49
-3.75
 74
     0
 49
0.0
 74
     0
 49
-3.75
 74
     0
 49
0.0
 74
     0
 49
-3.75
 74
     0
  0
LTYPE
  5
27
330
5
100
AcDbSymbolTableRecord
100
AcDbLinetypeTableRecord
  2
DIVIDE
 70
     0
  3
２点鎖線B
 72
    65
 73
     6
 40
37.5
 49
15.0
 74
     0
 49
-7.5
 74
     0
 49
0.0
 74
     0
 49
-7.5
 74
     0
 49
0.0
 74
     0
 49
-7.5
 74
     0
  0
LTYPE
  5
28
330
5
100
AcDbSymbolTableRecord
100
AcDbLinetypeTableRecord
  2
DOT
 70
     0
  3
点線A
 72
    65
 73
     2
 40
7.5
 49
0.0
 74
     0
 49
-7.5
 74
     0
  0
LTYPE
  5
29
330
5
100
AcDbSymbolTableRecord
100
AcDbLinetypeTableRecord
  2
DOTX2
 70
     0
  3
点線B
 72
    65
 73
     2
 40
15.0
 49
0.0
 74
     0
 49
-15.0
 74
     0
  0
ENDTAB
  0
TABLE
  2
LAYER
  5
2
330
0
100
AcDbSymbolTable
 70
     6
  0
LAYER
  5
10
330
2
100
AcDbSymbolTableRecord
100
AcDbLayerTableRecord
  2
0
 70
     0
 62
     7
  6
CONTINUOUS
370
    -3
390
F
  0
LAYER
  5
2A
330
2
100
AcDbSymbolTableRecord
100
AcDbLayerTableRecord
  2
ﾚｲﾔ1
 70
     0
 62
     7
  6
CONTINUOUS
370
    -3
390
F
  0
LAYER
  5
31
330
2
100
AcDbSymbolTableRecord
100
AcDbLayerTableRecord
  2
文字
 70
     0
 62
     7
  6
CONTINUOUS
370
    -3
390
F
  0
LAYER
  5
38
330
2
100
AcDbSymbolTableRecord
100
AcDbLayerTableRecord
  2
寸法
 70
     0
 62
     1
  6
CONTINUOUS
370
    -3
390
F
  0
LAYER
  5
39
330
2
100
AcDbSymbolTableRecord
100
AcDbLayerTableRecord
  2
ﾊｯﾁﾝｸﾞ
 70
     0
 62
     8
  6
CONTINUOUS
370
    -3
390
F
  0
LAYER
  5
350
330
2
100
AcDbSymbolTableRecord
100
AcDbLayerTableRecord
  2
Defpoints
 70
     0
 62
     7
  6
CONTINUOUS
290
     0
370
    -3
390
F
  0
ENDTAB
  0
TABLE
  2
STYLE
  5
3
330
0
100
AcDbSymbolTable
 70
    12
  0
STYLE
  5
11
330
3
100
AcDbSymbolTableRecord
100
AcDbTextStyleTableRecord
  2
STANDARD
 70
     0
 40
3.0
 41
1.0
 50
0.0
 71
     0
 42
3.0
  3
TXT
  4
BIGFONT
  0
STYLE
  5
3B
330
3
100
AcDbSymbolTableRecord
100
AcDbTextStyleTableRecord
  2
TATE
 70
     4
 40
3.0
 41
1.0
 50
0.0
 71
     0
 42
3.0
  3
TXT
  4
BIGFONT
  0
STYLE
  5
3C
330
3
100
AcDbSymbolTableRecord
100
AcDbTextStyleTableRecord
  2
TEXTSTYLE01
 70
     0
 40
0.0
 41
1.0
 50
0.0
 71
     0
 42
0.0
  3
TXT
  4
BIGFONT
  0
STYLE
  5
3D
330
3
100
AcDbSymbolTableRecord
100
AcDbTextStyleTableRecord
  2
TEXTSTYLE02
 70
     0
 40
0.0
 41
1.0
 50
0.0
 71
     0
 42
0.0
  3
TXT
  4
BIGFONT
  0
STYLE
  5
3E
330
3
100
AcDbSymbolTableRecord
100
AcDbTextStyleTableRecord
  2
TEXTSTYLE03
 70
     0
 40
0.0
 41
1.0
 50
0.0
 71
     0
 42
0.0
  3
TXT
  4
BIGFONT
  0
STYLE
  5
3F
330
3
100
AcDbSymbolTableRecord
100
AcDbTextStyleTableRecord
  2
TEXTSTYLE04
 70
     0
 40
0.0
 41
1.0
 50
0.0
 71
     0
 42
0.0
  3
TXT
  4
BIGFONT
  0
STYLE
  5
40
330
3
100
AcDbSymbolTableRecord
100
AcDbTextStyleTableRecord
  2
TEXTSTYLE05
 70
     0
 40
0.0
 41
1.0
 50
0.0
 71
     0
 42
0.0
  3
TXT
  4
BIGFONT
  0
STYLE
  5
41
330
3
100
AcDbSymbolTableRecord
100
AcDbTextStyleTableRecord
  2
TEXTSTYLE06
 70
     0
 40
0.0
 41
1.0
 50
0.0
 71
     0
 42
0.0
  3

  4

  0
STYLE
  5
42
330
3
100
AcDbSymbolTableRecord
100
AcDbTextStyleTableRecord
  2
TEXTSTYLE07
 70
     0
 40
0.0
 41
1.0
 50
0.0
 71
     0
 42
0.0
  3

  4

  0
STYLE
  5
43
330
3
100
AcDbSymbolTableRecord
100
AcDbTextStyleTableRecord
  2
TEXTSTYLE08
 70
     0
 40
0.0
 41
1.0
 50
0.0
 71
     0
 42
0.0
  3

  4

  0
STYLE
  5
44
330
3
100
AcDbSymbolTableRecord
100
AcDbTextStyleTableRecord
  2
TEXTSTYLE09
 70
     0
 40
0.0
 41
1.0
 50
0.0
 71
     0
 42
0.0
  3

  4

  0
STYLE
  5
45
330
3
100
AcDbSymbolTableRecord
100
AcDbTextStyleTableRecord
  2
TEXTSTYLE10
 70
     0
 40
0.0
 41
1.0
 50
0.0
 71
     0
 42
0.0
  3

  4

  0
ENDTAB
  0
TABLE
  2
VIEW
  5
6
330
0
100
AcDbSymbolTable
 70
     0
  0
ENDTAB
  0
TABLE
  2
UCS
  5
7
330
0
100
AcDbSymbolTable
 70
     0
  0
ENDTAB
  0
TABLE
  2
APPID
  5
9
330
0
100
AcDbSymbolTable
 70
     1
  0
APPID
  5
12
330
9
100
AcDbSymbolTableRecord
100
AcDbRegAppTableRecord
  2
ACAD
 70
     0
  0
ENDTAB
  0
TABLE
  2
DIMSTYLE
  5
A
330
0
100
AcDbSymbolTable
 70
     1
100
AcDbDimStyleTable
 71
     1
340
31C
  0
DIMSTYLE
105
31C
102
{ACAD_REACTORS
330
380
330
3A5
330
432
330
46D
330
47C
330
489
330
496
102
}
330
A
100
AcDbSymbolTableRecord
100
AcDbDimStyleTableRecord
  2
Standard
 70
     0
 41
5.0
 73
     0
 74
     0
 77
     1
140
13.0
147
0.5
176
     1
177
     1
178
     1
271
     0
272
     0
340
3C
341
349
342
349
  0
ENDTAB
  0
TABLE
  2
BLOCK_RECORD
  5
1
330
0
100
AcDbSymbolTable
 70
     8
  0
BLOCK_RECORD
  5
1E
330
1
100
AcDbSymbolTableRecord
100
AcDbBlockTableRecord
  2
*Model_Space
340
21
  0
BLOCK_RECORD
  5
1A
330
1
100
AcDbSymbolTableRecord
100
AcDbBlockTableRecord
  2
*Paper_Space
340
1D
  0
BLOCK_RECORD
  5
349
330
1
100
AcDbSymbolTableRecord
100
AcDbBlockTableRecord
  2
_Open30
340
0
102
{BLKREFS
331
416
331
417
331
429
331
42A
331
442
331
443
331
478
331
479
331
481
331
482
331
48E
331
48F
331
4A6
331
4A7
102
}
  0
BLOCK_RECORD
  5
381
330
1
100
AcDbSymbolTableRecord
100
AcDbBlockTableRecord
  2
*D1
340
0
  0
BLOCK_RECORD
  5
3A6
330
1
100
AcDbSymbolTableRecord
100
AcDbBlockTableRecord
  2
*D2
340
0
  0
BLOCK_RECORD
  5
433
330
1
100
AcDbSymbolTableRecord
100
AcDbBlockTableRecord
  2
*D3
340
0
  0
BLOCK_RECORD
  5
46E
330
1
100
AcDbSymbolTableRecord
100
AcDbBlockTableRecord
  2
*D4
340
0
  0
BLOCK_RECORD
  5
47D
330
1
100
AcDbSymbolTableRecord
100
AcDbBlockTableRecord
  2
*D5
340
0
  0
BLOCK_RECORD
  5
48A
330
1
100
AcDbSymbolTableRecord
100
AcDbBlockTableRecord
  2
*D6
340
0
  0
BLOCK_RECORD
  5
497
330
1
100
AcDbSymbolTableRecord
100
AcDbBlockTableRecord
  2
*D7
340
0
  0
ENDTAB
  0
ENDSEC
  0
SECTION
  2
BLOCKS
  0
BLOCK
  5
1F
330
1E
100
AcDbEntity
  8
0
100
AcDbBlockBegin
  2
*Model_Space
 70
     0
 10
0.0
 20
0.0
 30
0.0
  3
*Model_Space
  1

  0
ENDBLK
  5
20
330
1E
100
AcDbEntity
  8
0
100
AcDbBlockEnd
  0
BLOCK
  5
1B
330
1A
100
AcDbEntity
 67
     1
  8
0
100
AcDbBlockBegin
  2
*Paper_Space
 70
     0
 10
0.0
 20
0.0
 30
0.0
  3
*Paper_Space
  1

  0
ENDBLK
  5
1C
330
1A
100
AcDbEntity
 67
     1
  8
0
100
AcDbBlockEnd
  0
BLOCK
  5
34D
330
349
100
AcDbEntity
  8
0
100
AcDbBlockBegin
  2
_Open30
 70
     0
 10
0.0
 20
0.0
 30
0.0
  3
_Open30
  1

  0
LINE
  5
34A
330
349
100
AcDbEntity
  8
0
  6
Continuous
 62
     0
370
    -2
100
AcDbLine
 10
-1.0
 20
0.26794919
 30
0.0
 11
0.0
 21
0.0
 31
0.0
  0
LINE
  5
34B
330
349
100
AcDbEntity
  8
0
  6
Continuous
 62
     0
370
    -2
100
AcDbLine
 10
0.0
 20
0.0
 30
0.0
 11
-1.0
 21
-0.26794919
 31
0.0
  0
LINE
  5
34C
330
349
100
AcDbEntity
  8
0
  6
Continuous
 62
     0
370
    -2
100
AcDbLine
 10
0.0
 20
0.0
 30
0.0
 11
-1.0
 21
0.0
 31
0.0
  0
ENDBLK
  5
34E
330
349
100
AcDbEntity
  8
0
100
AcDbBlockEnd
  0
BLOCK
  5
38D
330
381
100
AcDbEntity
  8
0
100
AcDbBlockBegin
  2
*D1
 70
     1
 10
0.0
 20
0.0
 30
0.0
  3
*D1
  1

  0
LINE
  5
426
330
381
100
AcDbEntity
  8
寸法
  6
Continuous
 62
     1
370
    -2
100
AcDbLine
 10
423.9332868696958
 20
62.65776711794847
 30
0.0
 11
411.6681076294089
 21
48.86661555459234
 31
0.0
  0
LINE
  5
427
330
381
100
AcDbEntity
  8
寸法
  6
Continuous
 62
     1
370
    -2
100
AcDbLine
 10
344.2695164769073
 20
62.65776711794847
 30
0.0
 11
356.5346957171943
 21
48.86661555459234
 31
0.0
  0
ARC
  5
428
330
381
100
AcDbEntity
  8
寸法
  6
Continuous
 62
     1
370
    -2
100
AcDbCircle
 10
384.1014016733016
 20
17.87019776932283
 30
0.0
 40
41.66133547499954
100
AcDbArc
 50
55.23216924399278
 51
124.7678307560072
  0
INSERT
  5
429
330
381
100
AcDbEntity
  8
寸法
  6
Continuous
 62
     1
370
    -2
100
AcDbBlockReference
  2
_Open30
 10
411.7877278637934
 20
49.00111834090478
 30
0.0
 41
5.0
 42
5.0
 43
5.0
 50
321.7919157712187
  0
INSERT
  5
42A
330
381
100
AcDbEntity
  8
寸法
  6
Continuous
 62
     1
370
    -2
100
AcDbBlockReference
  2
_Open30
 10
356.4150754828098
 20
49.00111834090478
 30
0.0
 41
5.0
 42
5.0
 43
5.0
 50
218.2080842287813
  0
MTEXT
  5
42B
330
381
100
AcDbEntity
  8
寸法
  6
Continuous
 62
     1
100
AcDbMText
 10
384.1014016733016
 20
66.53153324432236
 30
0.0
 40
13.0
 41
0.0
 71
     5
 72
     1
  1
\A1;80°
  7
TEXTSTYLE01
 73
     1
 44
1.0
1001
ACAD
1000
MTEXTBEGIN
1070
    73
1070
     1
1070
    44
1040
1.0
1070
    74
1070
     0
1000
MTEXTEND
  0
POINT
  5
42C
330
381
100
AcDbEntity
  8
Defpoints
  6
Continuous
 62
     0
100
AcDbPoint
 10
394.0974672765829
 20
58.31454899437468
 30
0.0
  0
POINT
  5
42D
330
381
100
AcDbEntity
  8
Defpoints
  6
Continuous
 62
     0
100
AcDbPoint
 10
436.6014016733016
 20
76.90198547430691
 30
0.0
  0
POINT
  5
42E
330
381
100
AcDbEntity
  8
Defpoints
  6
Continuous
 62
     0
100
AcDbPoint
 10
331.6014016733016
 20
76.90198547430691
 30
0.0
  0
POINT
  5
42F
330
381
100
AcDbEntity
  8
Defpoints
  6
Continuous
 62
     0
100
AcDbPoint
 10
344.2279816733016
 20
62.70446947430696
 30
0.0
  0
POINT
  5
430
330
381
100
AcDbEntity
  8
Defpoints
  6
Continuous
 62
     0
100
AcDbPoint
 10
423.9748216733016
 20
62.70446947430696
 30
0.0
  0
ENDBLK
  5
38E
330
381
100
AcDbEntity
  8
0
100
AcDbBlockEnd
  0
BLOCK
  5
3AC
330
3A6
100
AcDbEntity
  8
0
100
AcDbBlockBegin
  2
*D2
 70
     1
 10
0.0
 20
0.0
 30
0.0
  3
*D2
  1

  0
LINE
  5
414
330
3A6
100
AcDbEntity
  8
寸法
  6
Continuous
 62
     1
370
    -2
100
AcDbLine
 10
-439.3374046024924
 20
-10.69804166151019
 30
0.0
 11
-302.8111498434701
 21
46.43846661012419
 31
0.0
  0
MTEXT
  5
415
330
3A6
100
AcDbEntity
  8
寸法
  6
Continuous
 62
     1
100
AcDbMText
 10
-328.6086508788003
 20
45.10056669596681
 30
0.0
 40
13.0
 41
0.0
 71
     5
 72
     1
  1
\A1;\U+2205158
  7
TEXTSTYLE01
 11
0.9224747192494678
 21
0.3860574987558403
 31
0.0
 73
     1
 44
1.0
1001
ACAD
1000
MTEXTBEGIN
1070
    73
1070
     1
1070
    44
1040
1.0
1070
    74
1070
     0
1000
MTEXTEND
  0
INSERT
  5
416
330
3A6
100
AcDbEntity
  8
寸法
  6
Continuous
 62
     1
370
    -2
100
AcDbBlockReference
  2
_Open30
 10
-443.9497781987397
 20
-12.62832915528941
 30
0.0
 41
5.0
 42
5.0
 43
5.0
 50
202.7094067794499
  0
INSERT
  5
417
330
3A6
100
AcDbEntity
  8
寸法
  6
Continuous
 62
     1
370
    -2
100
AcDbBlockReference
  2
_Open30
 10
-298.1987762472227
 20
48.36875410390328
 30
0.0
 41
5.0
 42
5.0
 43
5.0
 50
22.70940677944984
  0
POINT
  5
418
330
3A6
100
AcDbEntity
  8
Defpoints
  6
Continuous
 62
     0
100
AcDbPoint
 10
-298.1987762472227
 20
48.36875410390328
 30
0.0
  0
POINT
  5
419
330
3A6
100
AcDbEntity
  8
Defpoints
  6
Continuous
 62
     0
100
AcDbPoint
 10
-443.9497781987397
 20
-12.62832915528941
 30
0.0
  0
ENDBLK
  5
3AD
330
3A6
100
AcDbEntity
  8
0
100
AcDbBlockEnd
  0
BLOCK
  5
439
330
433
100
AcDbEntity
  8
0
100
AcDbBlockBegin
  2
*D3
 70
     1
 10
0.0
 20
0.0
 30
0.0
  3
*D3
  1

  0
LINE
  5
440
330
433
100
AcDbEntity
  8
寸法
  6
Continuous
 62
     1
370
    -2
100
AcDbLine
 10
-341.0578461998252
 20
5.409720163321651
 30
0.0
 11
-401.0907082461371
 21
30.33070478529237
 31
0.0
  0
MTEXT
  5
441
330
433
100
AcDbEntity
  8
寸法
  6
Continuous
 62
     1
100
AcDbMText
 10
-377.8456259771902
 20
30.42916389245873
 30
0.0
 40
13.0
 41
0.0
 71
     5
 72
     1
  1
\A1;\U+220575
  7
TEXTSTYLE01
 11
0.9235824930201811
 21
-0.3833997634149334
 31
0.0
 73
     1
 44
1.0
1001
ACAD
1000
MTEXTBEGIN
1070
    73
1070
     1
1070
    44
1040
1.0
1070
    74
1070
     0
1000
MTEXTEND
  0
INSERT
  5
442
330
433
100
AcDbEntity
  8
寸法
  6
Continuous
 62
     1
370
    -2
100
AcDbBlockReference
  2
_Open30
 10
-336.4399337347243
 20
3.492721346246995
 30
0.0
 41
5.0
 42
5.0
 43
5.0
 50
337.4555685115405
  0
INSERT
  5
443
330
433
100
AcDbEntity
  8
寸法
  6
Continuous
 62
     1
370
    -2
100
AcDbBlockReference
  2
_Open30
 10
-405.708620711238
 20
32.24770360236707
 30
0.0
 41
5.0
 42
5.0
 43
5.0
 50
157.4555685115404
  0
POINT
  5
444
330
433
100
AcDbEntity
  8
Defpoints
  6
Continuous
 62
     0
100
AcDbPoint
 10
-405.708620711238
 20
32.24770360236707
 30
0.0
  0
POINT
  5
445
330
433
100
AcDbEntity
  8
Defpoints
  6
Continuous
 62
     0
100
AcDbPoint
 10
-336.4399337347243
 20
3.492721346246995
 30
0.0
  0
ENDBLK
  5
43A
330
433
100
AcDbEntity
  8
0
100
AcDbBlockEnd
  0
BLOCK
  5
474
330
46E
100
AcDbEntity
  8
0
100
AcDbBlockBegin
  2
*D4
 70
     1
 10
0.0
 20
0.0
 30
0.0
  3
*D4
  1

  0
LINE
  5
476
330
46E
100
AcDbEntity
  8
寸法
  6
Continuous
 62
     1
370
    -2
100
AcDbLine
 10
430.665166012394
 20
49.87124137297607
 30
0.0
 11
337.5376373342092
 21
-14.13081642436236
 31
0.0
  0
MTEXT
  5
477
330
46E
100
AcDbEntity
  8
寸法
  6
Continuous
 62
     1
100
AcDbMText
 10
375.5481906609066
 20
25.62666927083862
 30
0.0
 40
13.0
 41
0.0
 71
     5
 72
     1
  1
\A1;\U+2205123
  7
TEXTSTYLE01
 11
0.8241374219308402
 21
0.5663898920118442
 31
0.0
 73
     1
 44
1.0
1001
ACAD
1000
MTEXTBEGIN
1070
    73
1070
     1
1070
    44
1040
1.0
1070
    74
1070
     0
1000
MTEXTEND
  0
INSERT
  5
478
330
46E
100
AcDbEntity
  8
寸法
  6
Continuous
 62
     1
370
    -2
100
AcDbBlockReference
  2
_Open30
 10
434.7858531220483
 20
52.70319083303528
 30
0.0
 41
5.0
 42
5.0
 43
5.0
 50
34.49886365927788
  0
INSERT
  5
479
330
46E
100
AcDbEntity
  8
寸法
  6
Continuous
 62
     1
370
    -2
100
AcDbBlockReference
  2
_Open30
 10
333.4169502245548
 20
-16.96276588442145
 30
0.0
 41
5.0
 42
5.0
 43
5.0
 50
214.4988636592779
  0
POINT
  5
47A
330
46E
100
AcDbEntity
  8
Defpoints
  6
Continuous
 62
     0
100
AcDbPoint
 10
333.4169502245548
 20
-16.96276588442145
 30
0.0
  0
POINT
  5
47B
330
46E
100
AcDbEntity
  8
Defpoints
  6
Continuous
 62
     0
100
AcDbPoint
 10
434.7858531220483
 20
52.70319083303528
 30
0.0
  0
ENDBLK
  5
475
330
46E
100
AcDbEntity
  8
0
100
AcDbBlockEnd
  0
BLOCK
  5
487
330
47D
100
AcDbEntity
  8
0
100
AcDbBlockBegin
  2
*D5
 70
     1
 10
0.0
 20
0.0
 30
0.0
  3
*D5
  1

  0
LINE
  5
47E
330
47D
100
AcDbEntity
  8
寸法
  6
Continuous
 62
     1
370
    -2
100
AcDbLine
 10
-144.6463741392288
 20
76.96448547430691
 30
0.0
 11
-144.6463741392288
 21
121.123704306329
 31
0.0
  0
LINE
  5
47F
330
47D
100
AcDbEntity
  8
寸法
  6
Continuous
 62
     1
370
    -2
100
AcDbLine
 10
193.3536198607711
 20
76.96448547430691
 30
0.0
 11
193.3536198607711
 21
121.123704306329
 31
0.0
  0
LINE
  5
480
330
47D
100
AcDbEntity
  8
寸法
  6
Continuous
 62
     1
370
    -2
100
AcDbLine
 10
-139.6463741392288
 20
120.943704306329
 30
0.0
 11
188.3536198607711
 21
120.943704306329
 31
0.0
  0
INSERT
  5
481
330
47D
100
AcDbEntity
  8
寸法
  6
Continuous
 62
     1
370
    -2
100
AcDbBlockReference
  2
_Open30
 10
-144.6463741392288
 20
120.943704306329
 30
0.0
 41
5.0
 42
5.0
 43
5.0
 50
180.0
  0
INSERT
  5
482
330
47D
100
AcDbEntity
  8
寸法
  6
Continuous
 62
     1
370
    -2
100
AcDbBlockReference
  2
_Open30
 10
193.3536198607711
 20
120.943704306329
 30
0.0
 41
5.0
 42
5.0
 43
5.0
  0
MTEXT
  5
483
330
47D
100
AcDbEntity
  8
寸法
  6
Continuous
 62
     1
100
AcDbMText
 10
24.35362286077117
 20
127.9437043063289
 30
0.0
 40
13.0
 41
0.0
 71
     5
 72
     1
  1
\A1;338
  7
TEXTSTYLE01
 73
     1
 44
1.0
1001
ACAD
1000
MTEXTBEGIN
1070
    73
1070
     1
1070
    44
1040
1.0
1070
    74
1070
     0
1000
MTEXTEND
  0
POINT
  5
484
330
47D
100
AcDbEntity
  8
Defpoints
  6
Continuous
 62
     0
100
AcDbPoint
 10
-144.6463741392288
 20
76.90198547430691
 30
0.0
  0
POINT
  5
485
330
47D
100
AcDbEntity
  8
Defpoints
  6
Continuous
 62
     0
100
AcDbPoint
 10
193.3536198607711
 20
76.90198547430691
 30
0.0
  0
POINT
  5
486
330
47D
100
AcDbEntity
  8
Defpoints
  6
Continuous
 62
     0
100
AcDbPoint
 10
193.3536198607711
 20
120.943704306329
 30
0.0
  0
ENDBLK
  5
488
330
47D
100
AcDbEntity
  8
0
100
AcDbBlockEnd
  0
BLOCK
  5
494
330
48A
100
AcDbEntity
  8
0
100
AcDbBlockBegin
  2
*D6
 70
     1
 10
0.0
 20
0.0
 30
0.0
  3
*D6
  1

  0
LINE
  5
48B
330
48A
100
AcDbEntity
  8
寸法
  6
Continuous
 62
     1
370
    -2
100
AcDbLine
 10
-194.6463771392288
 20
96.93271047430691
 30
0.0
 11
-194.6463771392288
 21
143.8566331121157
 31
0.0
  0
LINE
  5
48C
330
48A
100
AcDbEntity
  8
寸法
  6
Continuous
 62
     1
370
    -2
100
AcDbLine
 10
225.3536228607711
 20
96.93271047430691
 30
0.0
 11
225.3536228607711
 21
143.8566331121157
 31
0.0
  0
LINE
  5
48D
330
48A
100
AcDbEntity
  8
寸法
  6
Continuous
 62
     1
370
    -2
100
AcDbLine
 10
-189.6463771392288
 20
143.6766331121157
 30
0.0
 11
220.3536228607711
 21
143.6766331121157
 31
0.0
  0
INSERT
  5
48E
330
48A
100
AcDbEntity
  8
寸法
  6
Continuous
 62
     1
370
    -2
100
AcDbBlockReference
  2
_Open30
 10
-194.6463771392288
 20
143.6766331121157
 30
0.0
 41
5.0
 42
5.0
 43
5.0
 50
180.0
  0
INSERT
  5
48F
330
48A
100
AcDbEntity
  8
寸法
  6
Continuous
 62
     1
370
    -2
100
AcDbBlockReference
  2
_Open30
 10
225.3536228607711
 20
143.6766331121157
 30
0.0
 41
5.0
 42
5.0
 43
5.0
  0
MTEXT
  5
490
330
48A
100
AcDbEntity
  8
寸法
  6
Continuous
 62
     1
100
AcDbMText
 10
15.35362286077114
 20
150.6766331121157
 30
0.0
 40
13.0
 41
0.0
 71
     5
 72
     1
  1
\A1;420
  7
TEXTSTYLE01
 73
     1
 44
1.0
1001
ACAD
1000
MTEXTBEGIN
1070
    73
1070
     1
1070
    44
1040
1.0
1070
    74
1070
     0
1000
MTEXTEND
  0
POINT
  5
491
330
48A
100
AcDbEntity
  8
Defpoints
  6
Continuous
 62
     0
100
AcDbPoint
 10
-194.6463771392288
 20
96.8702104743069
 30
0.0
  0
POINT
  5
492
330
48A
100
AcDbEntity
  8
Defpoints
  6
Continuous
 62
     0
100
AcDbPoint
 10
225.3536228607711
 20
96.8702104743069
 30
0.0
  0
POINT
  5
493
330
48A
100
AcDbEntity
  8
Defpoints
  6
Continuous
 62
     0
100
AcDbPoint
 10
225.3536228607711
 20
143.6766331121157
 30
0.0
  0
ENDBLK
  5
495
330
48A
100
AcDbEntity
  8
0
100
AcDbBlockEnd
  0
BLOCK
  5
4A1
330
497
100
AcDbEntity
  8
0
100
AcDbBlockBegin
  2
*D7
 70
     1
 10
0.0
 20
0.0
 30
0.0
  3
*D7
  1

  0
LINE
  5
4A3
330
497
100
AcDbEntity
  8
寸法
  6
Continuous
 62
     1
370
    -2
100
AcDbLine
 10
-194.7088771392288
 20
96.8702104743069
 30
0.0
 11
-226.1520581893093
 21
96.87021047430691
 31
0.0
  0
LINE
  5
4A4
330
497
100
AcDbEntity
  8
寸法
  6
Continuous
 62
     1
370
    -2
100
AcDbLine
 10
-194.7088771392288
 20
-61.12978452569308
 30
0.0
 11
-226.1520581893094
 21
-61.12978452569308
 31
0.0
  0
LINE
  5
4A5
330
497
100
AcDbEntity
  8
寸法
  6
Continuous
 62
     1
370
    -2
100
AcDbLine
 10
-225.9720581893093
 20
91.87021047430691
 30
0.0
 11
-225.9720581893093
 21
-56.12978452569308
 31
0.0
  0
INSERT
  5
4A6
330
497
100
AcDbEntity
  8
寸法
  6
Continuous
 62
     1
370
    -2
100
AcDbBlockReference
  2
_Open30
 10
-225.9720581893093
 20
96.87021047430691
 30
0.0
 41
5.0
 42
5.0
 43
5.0
 50
90.0
  0
INSERT
  5
4A7
330
497
100
AcDbEntity
  8
寸法
  6
Continuous
 62
     1
370
    -2
100
AcDbBlockReference
  2
_Open30
 10
-225.9720581893093
 20
-61.12978452569308
 30
0.0
 41
5.0
 42
5.0
 43
5.0
 50
270.0
  0
MTEXT
  5
4A8
330
497
100
AcDbEntity
  8
寸法
  6
Continuous
 62
     1
100
AcDbMText
 10
-232.9720581893093
 20
17.87021297430688
 30
0.0
 40
13.0
 41
0.0
 71
     5
 72
     1
  1
\A1;φ158
  7
TEXTSTYLE01
 11
0.0000000000000001
 21
1.0
 31
0.0
 73
     1
 44
1.0
1001
ACAD
1000
MTEXTBEGIN
1070
    73
1070
     1
1070
    44
1040
1.0
1070
    74
1070
     0
1000
MTEXTEND
  0
POINT
  5
4A9
330
497
100
AcDbEntity
  8
Defpoints
  6
Continuous
 62
     0
100
AcDbPoint
 10
-194.6463771392288
 20
96.8702104743069
 30
0.0
  0
POINT
  5
4AA
330
497
100
AcDbEntity
  8
Defpoints
  6
Continuous
 62
     0
100
AcDbPoint
 10
-194.6463771392288
 20
-61.12978452569308
 30
0.0
  0
POINT
  5
4AB
330
497
100
AcDbEntity
  8
Defpoints
  6
Continuous
 62
     0
100
AcDbPoint
 10
-225.9720581893093
 20
-61.12978452569308
 30
0.0
  0
ENDBLK
  5
4A2
330
497
100
AcDbEntity
  8
0
100
AcDbBlockEnd
  0
ENDSEC
  0
SECTION
  2
ENTITIES
  0
LWPOLYLINE
  5
1CD
330
1E
100
AcDbEntity
  8
ﾚｲﾔ1
  6
Continuous
 62
     9
100
AcDbPolyline
 90
        4
 70
     1
 43
0.0
 10
-630.0
 20
-445.5
 10
630.0
 20
-445.5
 10
630.0
 20
445.5
 10
-630.0
 20
445.5
  0
LINE
  5
1D3
330
1E
100
AcDbEntity
  8
ﾚｲﾔ1
  6
Continuous
 62
     5
100
AcDbLine
 10
183.9
 20
-338.4
 30
0.0
 11
183.9
 21
-368.4
 31
0.0
  0
LINE
  5
1D4
330
1E
100
AcDbEntity
  8
ﾚｲﾔ1
  6
Continuous
 62
     5
100
AcDbLine
 10
183.9
 20
-368.4
 30
0.0
 11
213.9
 21
-368.4
 31
0.0
  0
LINE
  5
1D5
330
1E
100
AcDbEntity
  8
ﾚｲﾔ1
  6
Continuous
 62
     5
100
AcDbLine
 10
213.9
 20
-368.4
 30
0.0
 11
213.9
 21
-338.4
 31
0.0
  0
LINE
  5
1D6
330
1E
100
AcDbEntity
  8
ﾚｲﾔ1
  6
Continuous
 62
     5
100
AcDbLine
 10
213.9
 20
-338.4
 30
0.0
 11
183.9
 21
-338.4
 31
0.0
  0
LINE
  5
1D7
330
1E
100
AcDbEntity
  8
ﾚｲﾔ1
  6
Continuous
 62
     5
100
AcDbLine
 10
213.9
 20
-338.4
 30
0.0
 11
213.9
 21
-368.4
 31
0.0
  0
LINE
  5
1D8
330
1E
100
AcDbEntity
  8
ﾚｲﾔ1
  6
Continuous
 62
     5
100
AcDbLine
 10
213.9
 20
-368.4
 30
0.0
 11
243.9
 21
-368.4
 31
0.0
  0
LINE
  5
1D9
330
1E
100
AcDbEntity
  8
ﾚｲﾔ1
  6
Continuous
 62
     5
100
AcDbLine
 10
243.9
 20
-368.4
 30
0.0
 11
243.9
 21
-338.4
 31
0.0
  0
LINE
  5
1DA
330
1E
100
AcDbEntity
  8
ﾚｲﾔ1
  6
Continuous
 62
     5
100
AcDbLine
 10
243.9
 20
-338.4
 30
0.0
 11
213.9
 21
-338.4
 31
0.0
  0
LINE
  5
1DB
330
1E
100
AcDbEntity
  8
ﾚｲﾔ1
  6
Continuous
 62
     5
100
AcDbLine
 10
243.9
 20
-338.4
 30
0.0
 11
243.9
 21
-368.4
 31
0.0
  0
LINE
  5
1DC
330
1E
100
AcDbEntity
  8
ﾚｲﾔ1
  6
Continuous
 62
     5
100
AcDbLine
 10
243.9
 20
-368.4
 30
0.0
 11
273.9
 21
-368.4
 31
0.0
  0
LINE
  5
1DD
330
1E
100
AcDbEntity
  8
ﾚｲﾔ1
  6
Continuous
 62
     5
100
AcDbLine
 10
273.9
 20
-368.4
 30
0.0
 11
273.9
 21
-338.4
 31
0.0
  0
LINE
  5
1DE
330
1E
100
AcDbEntity
  8
ﾚｲﾔ1
  6
Continuous
 62
     5
100
AcDbLine
 10
273.9
 20
-338.4
 30
0.0
 11
243.9
 21
-338.4
 31
0.0
  0
LINE
  5
1DF
330
1E
100
AcDbEntity
  8
ﾚｲﾔ1
  6
Continuous
 62
     5
100
AcDbLine
 10
273.9
 20
-338.4
 30
0.0
 11
273.9
 21
-368.4
 31
0.0
  0
LINE
  5
1E0
330
1E
100
AcDbEntity
  8
ﾚｲﾔ1
  6
Continuous
 62
     5
100
AcDbLine
 10
273.9
 20
-368.4
 30
0.0
 11
303.9
 21
-368.4
 31
0.0
  0
LINE
  5
1E1
330
1E
100
AcDbEntity
  8
ﾚｲﾔ1
  6
Continuous
 62
     5
100
AcDbLine
 10
303.9
 20
-368.4
 30
0.0
 11
303.9
 21
-338.4
 31
0.0
  0
LINE
  5
1E2
330
1E
100
AcDbEntity
  8
ﾚｲﾔ1
  6
Continuous
 62
     5
100
AcDbLine
 10
303.9
 20
-338.4
 30
0.0
 11
273.9
 21
-338.4
 31
0.0
  0
LINE
  5
1E3
330
1E
100
AcDbEntity
  8
ﾚｲﾔ1
  6
Continuous
 62
     5
100
AcDbLine
 10
303.9
 20
-338.4
 30
0.0
 11
303.9
 21
-368.4
 31
0.0
  0
LINE
  5
1E4
330
1E
100
AcDbEntity
  8
ﾚｲﾔ1
  6
Continuous
 62
     5
100
AcDbLine
 10
303.9
 20
-368.4
 30
0.0
 11
345.9
 21
-368.4
 31
0.0
  0
LINE
  5
1E5
330
1E
100
AcDbEntity
  8
ﾚｲﾔ1
  6
Continuous
 62
     5
100
AcDbLine
 10
345.9
 20
-368.4
 30
0.0
 11
345.9
 21
-338.4
 31
0.0
  0
LINE
  5
1E6
330
1E
100
AcDbEntity
  8
ﾚｲﾔ1
  6
Continuous
 62
     5
100
AcDbLine
 10
345.9
 20
-338.4
 30
0.0
 11
303.9
 21
-338.4
 31
0.0
  0
LINE
  5
1E7
330
1E
100
AcDbEntity
  8
ﾚｲﾔ1
  6
Continuous
 62
     5
100
AcDbLine
 10
345.9
 20
-338.4
 30
0.0
 11
345.9
 21
-368.4
 31
0.0
  0
LINE
  5
1E8
330
1E
100
AcDbEntity
  8
ﾚｲﾔ1
  6
Continuous
 62
     5
100
AcDbLine
 10
345.9
 20
-368.4
 30
0.0
 11
387.9
 21
-368.4
 31
0.0
  0
LINE
  5
1E9
330
1E
100
AcDbEntity
  8
ﾚｲﾔ1
  6
Continuous
 62
     5
100
AcDbLine
 10
387.9
 20
-368.4
 30
0.0
 11
387.9
 21
-338.4
 31
0.0
  0
LINE
  5
1EA
330
1E
100
AcDbEntity
  8
ﾚｲﾔ1
  6
Continuous
 62
     5
100
AcDbLine
 10
387.9
 20
-338.4
 30
0.0
 11
345.9
 21
-338.4
 31
0.0
  0
LINE
  5
1EB
330
1E
100
AcDbEntity
  8
ﾚｲﾔ1
  6
Continuous
 62
     5
100
AcDbLine
 10
387.9
 20
-338.4
 30
0.0
 11
387.9
 21
-368.4
 31
0.0
  0
LINE
  5
1EC
330
1E
100
AcDbEntity
  8
ﾚｲﾔ1
  6
Continuous
 62
     5
100
AcDbLine
 10
387.9
 20
-368.4
 30
0.0
 11
420.8999999999999
 21
-368.4
 31
0.0
  0
LINE
  5
1ED
330
1E
100
AcDbEntity
  8
ﾚｲﾔ1
  6
Continuous
 62
     5
100
AcDbLine
 10
420.8999999999999
 20
-368.4
 30
0.0
 11
420.8999999999999
 21
-338.4
 31
0.0
  0
LINE
  5
1EE
330
1E
100
AcDbEntity
  8
ﾚｲﾔ1
  6
Continuous
 62
     5
100
AcDbLine
 10
420.8999999999999
 20
-338.4
 30
0.0
 11
387.9
 21
-338.4
 31
0.0
  0
LINE
  5
1EF
330
1E
100
AcDbEntity
  8
ﾚｲﾔ1
  6
Continuous
 62
     5
100
AcDbLine
 10
420.8999999999999
 20
-338.4
 30
0.0
 11
420.8999999999999
 21
-368.4
 31
0.0
  0
LINE
  5
1F0
330
1E
100
AcDbEntity
  8
ﾚｲﾔ1
  6
Continuous
 62
     5
100
AcDbLine
 10
420.8999999999999
 20
-368.4
 30
0.0
 11
432.8999999999999
 21
-368.4
 31
0.0
  0
LINE
  5
1F1
330
1E
100
AcDbEntity
  8
ﾚｲﾔ1
  6
Continuous
 62
     5
100
AcDbLine
 10
432.8999999999999
 20
-368.4
 30
0.0
 11
432.8999999999999
 21
-338.4
 31
0.0
  0
LINE
  5
1F2
330
1E
100
AcDbEntity
  8
ﾚｲﾔ1
  6
Continuous
 62
     5
100
AcDbLine
 10
432.8999999999999
 20
-338.4
 30
0.0
 11
420.8999999999999
 21
-338.4
 31
0.0
  0
LINE
  5
1F3
330
1E
100
AcDbEntity
  8
ﾚｲﾔ1
  6
Continuous
 62
     5
100
AcDbLine
 10
432.8999999999999
 20
-338.4
 30
0.0
 11
432.8999999999999
 21
-368.4
 31
0.0
  0
LINE
  5
1F4
330
1E
100
AcDbEntity
  8
ﾚｲﾔ1
  6
Continuous
 62
     5
100
AcDbLine
 10
432.8999999999999
 20
-368.4
 30
0.0
 11
558.8999999999999
 21
-368.4
 31
0.0
  0
LINE
  5
1F5
330
1E
100
AcDbEntity
  8
ﾚｲﾔ1
  6
Continuous
 62
     5
100
AcDbLine
 10
558.8999999999999
 20
-368.4
 30
0.0
 11
558.8999999999999
 21
-338.4
 31
0.0
  0
LINE
  5
1F6
330
1E
100
AcDbEntity
  8
ﾚｲﾔ1
  6
Continuous
 62
     5
100
AcDbLine
 10
558.8999999999999
 20
-338.4
 30
0.0
 11
432.8999999999999
 21
-338.4
 31
0.0
  0
LINE
  5
1F7
330
1E
100
AcDbEntity
  8
ﾚｲﾔ1
  6
Continuous
 62
     5
100
AcDbLine
 10
183.9
 20
-338.4
 30
0.0
 11
183.9
 21
-323.4
 31
0.0
  0
LINE
  5
1F8
330
1E
100
AcDbEntity
  8
ﾚｲﾔ1
  6
Continuous
 62
     5
100
AcDbLine
 10
183.9
 20
-323.4
 30
0.0
 11
345.9
 21
-323.4
 31
0.0
  0
LINE
  5
1F9
330
1E
100
AcDbEntity
  8
ﾚｲﾔ1
  6
Continuous
 62
     5
100
AcDbLine
 10
345.9
 20
-323.4
 30
0.0
 11
345.9
 21
-338.4
 31
0.0
  0
LINE
  5
1FA
330
1E
100
AcDbEntity
  8
ﾚｲﾔ1
  6
Continuous
 62
     5
100
AcDbLine
 10
345.9
 20
-338.4
 30
0.0
 11
183.9
 21
-338.4
 31
0.0
  0
LINE
  5
1FB
330
1E
100
AcDbEntity
  8
ﾚｲﾔ1
  6
Continuous
 62
     5
100
AcDbLine
 10
183.9
 20
-323.4
 30
0.0
 11
183.9
 21
-308.4
 31
0.0
  0
LINE
  5
1FC
330
1E
100
AcDbEntity
  8
ﾚｲﾔ1
  6
Continuous
 62
     5
100
AcDbLine
 10
183.9
 20
-308.4
 30
0.0
 11
345.9
 21
-308.4
 31
0.0
  0
LINE
  5
1FD
330
1E
100
AcDbEntity
  8
ﾚｲﾔ1
  6
Continuous
 62
     5
100
AcDbLine
 10
345.9
 20
-308.4
 30
0.0
 11
345.9
 21
-323.4
 31
0.0
  0
LINE
  5
1FE
330
1E
100
AcDbEntity
  8
ﾚｲﾔ1
  6
Continuous
 62
     5
100
AcDbLine
 10
345.9
 20
-323.4
 30
0.0
 11
183.9
 21
-323.4
 31
0.0
  0
LINE
  5
1FF
330
1E
100
AcDbEntity
  8
ﾚｲﾔ1
  6
Continuous
 62
     5
100
AcDbLine
 10
183.9
 20
-308.4
 30
0.0
 11
183.9
 21
-293.4
 31
0.0
  0
LINE
  5
200
330
1E
100
AcDbEntity
  8
ﾚｲﾔ1
  6
Continuous
 62
     5
100
AcDbLine
 10
183.9
 20
-293.4
 30
0.0
 11
345.9
 21
-293.4
 31
0.0
  0
LINE
  5
201
330
1E
100
AcDbEntity
  8
ﾚｲﾔ1
  6
Continuous
 62
     5
100
AcDbLine
 10
345.9
 20
-293.4
 30
0.0
 11
345.9
 21
-308.4
 31
0.0
  0
LINE
  5
202
330
1E
100
AcDbEntity
  8
ﾚｲﾔ1
  6
Continuous
 62
     5
100
AcDbLine
 10
345.9
 20
-308.4
 30
0.0
 11
183.9
 21
-308.4
 31
0.0
  0
LINE
  5
203
330
1E
100
AcDbEntity
  8
ﾚｲﾔ1
  6
Continuous
 62
     5
100
AcDbLine
 10
345.9
 20
-293.4
 30
0.0
 11
345.9
 21
-338.4
 31
0.0
  0
LINE
  5
204
330
1E
100
AcDbEntity
  8
ﾚｲﾔ1
  6
Continuous
 62
     5
100
AcDbLine
 10
345.9
 20
-338.4
 30
0.0
 11
360.9
 21
-338.4
 31
0.0
  0
LINE
  5
205
330
1E
100
AcDbEntity
  8
ﾚｲﾔ1
  6
Continuous
 62
     5
100
AcDbLine
 10
360.9
 20
-338.4
 30
0.0
 11
360.9
 21
-293.4
 31
0.0
  0
LINE
  5
206
330
1E
100
AcDbEntity
  8
ﾚｲﾔ1
  6
Continuous
 62
     5
100
AcDbLine
 10
360.9
 20
-293.4
 30
0.0
 11
345.9
 21
-293.4
 31
0.0
  0
LINE
  5
207
330
1E
100
AcDbEntity
  8
ﾚｲﾔ1
  6
Continuous
 62
     5
100
AcDbLine
 10
360.9
 20
-338.4
 30
0.0
 11
360.9
 21
-293.4
 31
0.0
  0
LINE
  5
208
330
1E
100
AcDbEntity
  8
ﾚｲﾔ1
  6
Continuous
 62
     5
100
AcDbLine
 10
360.9
 20
-293.4
 30
0.0
 11
558.8999999999999
 21
-293.4
 31
0.0
  0
LINE
  5
209
330
1E
100
AcDbEntity
  8
ﾚｲﾔ1
  6
Continuous
 62
     5
100
AcDbLine
 10
558.8999999999999
 20
-293.4
 30
0.0
 11
558.8999999999999
 21
-338.4
 31
0.0
  0
LINE
  5
20A
330
1E
100
AcDbEntity
  8
ﾚｲﾔ1
  6
Continuous
 62
     5
100
AcDbLine
 10
558.8999999999999
 20
-338.4
 30
0.0
 11
360.9
 21
-338.4
 31
0.0
  0
LINE
  5
20B
330
1E
100
AcDbEntity
  8
ﾚｲﾔ1
  6
Continuous
 62
     5
100
AcDbLine
 10
183.9
 20
-293.4
 30
0.0
 11
183.9
 21
-233.4
 31
0.0
  0
LINE
  5
20C
330
1E
100
AcDbEntity
  8
ﾚｲﾔ1
  6
Continuous
 62
     5
100
AcDbLine
 10
183.9
 20
-233.4
 30
0.0
 11
558.8999999999999
 21
-233.4
 31
0.0
  0
LINE
  5
20D
330
1E
100
AcDbEntity
  8
ﾚｲﾔ1
  6
Continuous
 62
     5
100
AcDbLine
 10
558.8999999999999
 20
-233.4
 30
0.0
 11
558.8999999999999
 21
-293.4
 31
0.0
  0
LINE
  5
20E
330
1E
100
AcDbEntity
  8
ﾚｲﾔ1
  6
Continuous
 62
     5
100
AcDbLine
 10
558.8999999999999
 20
-293.4
 30
0.0
 11
183.9
 21
-293.4
 31
0.0
  0
LINE
  5
20F
330
1E
100
AcDbEntity
  8
ﾚｲﾔ1
  6
Continuous
 62
     5
100
AcDbLine
 10
183.9
 20
-248.4
 30
0.0
 11
558.8999999999999
 21
-248.4
 31
0.0
  0
LINE
  5
210
330
1E
100
AcDbEntity
  8
ﾚｲﾔ1
  6
Continuous
 62
     5
100
AcDbLine
 10
183.9
 20
-263.4
 30
0.0
 11
558.8999999999999
 21
-263.4
 31
0.0
  0
LINE
  5
211
330
1E
100
AcDbEntity
  8
ﾚｲﾔ1
  6
Continuous
 62
     5
100
AcDbLine
 10
183.9
 20
-278.4
 30
0.0
 11
558.8999999999999
 21
-278.4
 31
0.0
  0
LINE
  5
212
330
1E
100
AcDbEntity
  8
ﾚｲﾔ1
  6
Continuous
 62
     5
100
AcDbLine
 10
204.9
 20
-233.4
 30
0.0
 11
204.9
 21
-323.4
 31
0.0
  0
LINE
  5
213
330
1E
100
AcDbEntity
  8
ﾚｲﾔ1
  6
Continuous
 62
     5
100
AcDbLine
 10
228.9
 20
-233.4
 30
0.0
 11
228.9
 21
-323.4
 31
0.0
  0
LINE
  5
214
330
1E
100
AcDbEntity
  8
ﾚｲﾔ1
  6
Continuous
 62
     5
100
AcDbLine
 10
324.9
 20
-233.4
 30
0.0
 11
324.9
 21
-323.4
 31
0.0
  0
LINE
  5
215
330
1E
100
AcDbEntity
  8
ﾚｲﾔ1
  6
Continuous
 62
     5
100
AcDbLine
 10
345.9
 20
-293.4
 30
0.0
 11
345.9
 21
-233.4
 31
0.0
  0
LINE
  5
216
330
1E
100
AcDbEntity
  8
ﾚｲﾔ1
  6
Continuous
 62
     5
100
AcDbLine
 10
366.9
 20
-293.4
 30
0.0
 11
366.9
 21
-233.4
 31
0.0
  0
LINE
  5
217
330
1E
100
AcDbEntity
  8
ﾚｲﾔ1
  6
Continuous
 62
     5
100
AcDbLine
 10
420.8999999999999
 20
-293.4
 30
0.0
 11
420.8999999999999
 21
-233.4
 31
0.0
  0
LINE
  5
218
330
1E
100
AcDbEntity
  8
ﾚｲﾔ1
  6
Continuous
 62
     5
100
AcDbLine
 10
444.8999999999999
 20
-233.4
 30
0.0
 11
444.8999999999999
 21
-293.4
 31
0.0
  0
LINE
  5
219
330
1E
100
AcDbEntity
  8
ﾚｲﾔ1
  6
Continuous
 62
     5
100
AcDbLine
 10
474.8999999999999
 20
-233.4
 30
0.0
 11
474.8999999999999
 21
-293.4
 31
0.0
  0
LINE
  5
21A
330
1E
100
AcDbEntity
  8
ﾚｲﾔ1
  6
Continuous
 62
     5
100
AcDbLine
 10
213.9
 20
-323.4
 30
0.0
 11
213.9
 21
-368.4
 31
0.0
  0
LINE
  5
21B
330
1E
100
AcDbEntity
  8
ﾚｲﾔ1
  6
Continuous
 62
     5
100
AcDbLine
 10
243.9
 20
-323.4
 30
0.0
 11
243.9
 21
-368.4
 31
0.0
  0
LINE
  5
21C
330
1E
100
AcDbEntity
  8
ﾚｲﾔ1
  6
Continuous
 62
     5
100
AcDbLine
 10
273.9
 20
-323.4
 30
0.0
 11
273.9
 21
-368.4
 31
0.0
  0
LINE
  5
21D
330
1E
100
AcDbEntity
  8
ﾚｲﾔ1
  6
Continuous
 62
     5
100
AcDbLine
 10
303.9
 20
-323.4
 30
0.0
 11
303.9
 21
-368.4
 31
0.0
  0
LINE
  5
21E
330
1E
100
AcDbEntity
  8
ﾚｲﾔ1
  6
Continuous
 62
     5
100
AcDbLine
 10
303.9
 20
-353.4
 30
0.0
 11
420.8999999999999
 21
-353.4
 31
0.0
  0
LINE
  5
21F
330
1E
100
AcDbEntity
  8
ﾚｲﾔ1
  6
Continuous
 62
     5
100
AcDbLine
 10
369.9
 20
-317.7
 30
0.0
 11
549.2999999999999
 21
-317.7
 31
0.0
  0
LINE
  5
220
330
1E
100
AcDbEntity
  8
ﾚｲﾔ1
  6
Continuous
 62
     5
100
AcDbLine
 10
-556.5
 20
367.5
 30
0.0
 11
558.8999999999999
 21
367.5
 31
0.0
  0
LINE
  5
221
330
1E
100
AcDbEntity
  8
ﾚｲﾔ1
  6
Continuous
 62
     5
100
AcDbLine
 10
558.8999999999999
 20
-368.4
 30
0.0
 11
-556.5
 21
-368.4
 31
0.0
  0
LINE
  5
222
330
1E
100
AcDbEntity
  8
ﾚｲﾔ1
  6
Continuous
 62
     5
100
AcDbLine
 10
-556.5
 20
-368.4
 30
0.0
 11
-556.5
 21
367.5
 31
0.0
  0
LINE
  5
223
330
1E
100
AcDbEntity
  8
ﾚｲﾔ1
  6
Continuous
 62
     5
100
AcDbLine
 10
558.8999999999999
 20
367.5
 30
0.0
 11
558.8999999999999
 21
-368.4
 31
0.0
  0
LINE
  5
224
330
1E
100
AcDbEntity
  8
ﾚｲﾔ1
  6
Continuous
100
AcDbLine
 10
307.7212056210672
 20
169.6357348295088
 30
0.0
 11
470.9212056210672
 21
169.6357348295088
 31
0.0
  0
LINE
  5
225
330
1E
100
AcDbEntity
  8
ﾚｲﾔ1
  6
Continuous
100
AcDbLine
 10
307.7212056210672
 20
166.0357348295088
 30
0.0
 11
470.9212056210672
 21
166.0357348295088
 31
0.0
  0
LINE
  5
226
330
1E
100
AcDbEntity
  8
ﾚｲﾔ1
  6
Continuous
 62
     5
100
AcDbLine
 10
566.3999999999999
 20
376.5
 30
0.0
 11
-565.5
 21
376.5
 31
0.0
  0
LINE
  5
227
330
1E
100
AcDbEntity
  8
ﾚｲﾔ1
  6
Continuous
 62
     5
100
AcDbLine
 10
-565.5
 20
376.5
 30
0.0
 11
-565.5
 21
-375.9
 31
0.0
  0
LINE
  5
228
330
1E
100
AcDbEntity
  8
ﾚｲﾔ1
  6
Continuous
 62
     5
100
AcDbLine
 10
566.3999999999999
 20
-375.9
 30
0.0
 11
-565.5
 21
-375.9
 31
0.0
  0
LINE
  5
229
330
1E
100
AcDbEntity
  8
ﾚｲﾔ1
  6
Continuous
 62
     5
100
AcDbLine
 10
566.3999999999999
 20
376.5
 30
0.0
 11
566.3999999999999
 21
-375.9
 31
0.0
  0
LINE
  5
22A
330
1E
100
AcDbEntity
  8
ﾚｲﾔ1
  6
Continuous
 62
     5
100
AcDbLine
 10
513.375
 20
-387.9
 30
0.0
 11
522.75
 21
-387.9
 31
0.0
  0
LINE
  5
22B
330
1E
100
AcDbEntity
  8
ﾚｲﾔ1
  6
Continuous
 62
     5
100
AcDbLine
 10
366.675
 20
-384.15
 30
0.0
 11
370.425
 21
-384.15
 31
0.0
  0
LINE
  5
22C
330
1E
100
AcDbEntity
  8
ﾚｲﾔ1
  6
Continuous
 62
     5
100
AcDbLine
 10
368.55
 20
-381.3
 30
0.0
 11
368.55
 21
-395.4
 31
0.0
  0
LINE
  5
22D
330
1E
100
AcDbEntity
  8
ﾚｲﾔ1
  6
Continuous
 62
     5
100
AcDbLine
 10
366.675
 20
-389.775
 30
0.0
 11
368.55
 21
-385.05
 31
0.0
  0
LINE
  5
22E
330
1E
100
AcDbEntity
  8
ﾚｲﾔ1
  6
Continuous
 62
     5
100
AcDbLine
 10
368.55
 20
-385.05
 30
0.0
 11
369.525
 21
-386.925
 31
0.0
  0
LINE
  5
22F
330
1E
100
AcDbEntity
  8
ﾚｲﾔ1
  6
Continuous
 62
     5
100
AcDbLine
 10
373.275
 20
-382.275
 30
0.0
 11
371.4
 21
-386.025
 31
0.0
  0
LINE
  5
230
330
1E
100
AcDbEntity
  8
ﾚｲﾔ1
  6
Continuous
 62
     5
100
AcDbLine
 10
372.3
 20
-384.15
 30
0.0
 11
378.9
 21
-384.15
 31
0.0
  0
LINE
  5
231
330
1E
100
AcDbEntity
  8
ﾚｲﾔ1
  6
Continuous
 62
     5
100
AcDbLine
 10
370.425
 20
-387.9
 30
0.0
 11
379.8
 21
-387.9
 31
0.0
  0
LINE
  5
232
330
1E
100
AcDbEntity
  8
ﾚｲﾔ1
  6
Continuous
 62
     5
100
AcDbLine
 10
375.15
 20
-381.3
 30
0.0
 11
375.15
 21
-395.4
 31
0.0
  0
LINE
  5
233
330
1E
100
AcDbEntity
  8
ﾚｲﾔ1
  6
Continuous
 62
     5
100
AcDbLine
 10
370.425
 20
-394.425
 30
0.0
 11
373.275
 21
-391.65
 31
0.0
  0
LINE
  5
234
330
1E
100
AcDbEntity
  8
ﾚｲﾔ1
  6
Continuous
 62
     5
100
AcDbLine
 10
373.275
 20
-391.65
 30
0.0
 11
375.15
 21
-388.8
 31
0.0
  0
LINE
  5
235
330
1E
100
AcDbEntity
  8
ﾚｲﾔ1
  6
Continuous
 62
     5
100
AcDbLine
 10
375.15
 20
-388.8
 30
0.0
 11
377.025
 21
-391.65
 31
0.0
  0
LINE
  5
236
330
1E
100
AcDbEntity
  8
ﾚｲﾔ1
  6
Continuous
 62
     5
100
AcDbLine
 10
377.025
 20
-391.65
 30
0.0
 11
379.8
 21
-394.425
 31
0.0
  0
LINE
  5
237
330
1E
100
AcDbEntity
  8
ﾚｲﾔ1
  6
Continuous
 62
     5
100
AcDbLine
 10
381.675
 20
-384.15
 30
0.0
 11
394.8
 21
-384.15
 31
0.0
  0
LINE
  5
238
330
1E
100
AcDbEntity
  8
ﾚｲﾔ1
  6
Continuous
 62
     5
100
AcDbLine
 10
381.675
 20
-394.425
 30
0.0
 11
389.175
 21
-392.55
 31
0.0
  0
LINE
  5
239
330
1E
100
AcDbEntity
  8
ﾚｲﾔ1
  6
Continuous
 62
     5
100
AcDbLine
 10
382.65
 20
-387.9
 30
0.0
 11
388.275
 21
-387.9
 31
0.0
  0
LINE
  5
23A
330
1E
100
AcDbEntity
  8
ﾚｲﾔ1
  6
Continuous
 62
     5
100
AcDbLine
 10
385.425
 20
-387.9
 30
0.0
 11
385.425
 21
-393.525
 31
0.0
  0
LINE
  5
23B
330
1E
100
AcDbEntity
  8
ﾚｲﾔ1
  6
Continuous
 62
     5
100
AcDbLine
 10
390.15
 20
-381.3
 30
0.0
 11
390.15
 21
-386.025
 31
0.0
  0
LINE
  5
23C
330
1E
100
AcDbEntity
  8
ﾚｲﾔ1
  6
Continuous
 62
     5
100
AcDbLine
 10
390.15
 20
-386.025
 30
0.0
 11
391.05
 21
-390.675
 31
0.0
  0
LINE
  5
23D
330
1E
100
AcDbEntity
  8
ﾚｲﾔ1
  6
Continuous
 62
     5
100
AcDbLine
 10
391.05
 20
-390.675
 30
0.0
 11
392.025
 21
-392.55
 31
0.0
  0
LINE
  5
23E
330
1E
100
AcDbEntity
  8
ﾚｲﾔ1
  6
Continuous
 62
     5
100
AcDbLine
 10
392.025
 20
-392.55
 30
0.0
 11
394.8
 21
-395.4
 31
0.0
  0
LINE
  5
23F
330
1E
100
AcDbEntity
  8
ﾚｲﾔ1
  6
Continuous
 62
     5
100
AcDbLine
 10
394.8
 20
-395.4
 30
0.0
 11
394.8
 21
-392.55
 31
0.0
  0
LINE
  5
240
330
1E
100
AcDbEntity
  8
ﾚｲﾔ1
  6
Continuous
 62
     5
100
AcDbLine
 10
392.925
 20
-381.3
 30
0.0
 11
394.8
 21
-383.175
 31
0.0
  0
LINE
  5
241
330
1E
100
AcDbEntity
  8
ﾚｲﾔ1
  6
Continuous
 62
     5
100
AcDbLine
 10
396.75
 20
-387.9
 30
0.0
 11
403.35
 21
-381.3
 31
0.0
  0
LINE
  5
242
330
1E
100
AcDbEntity
  8
ﾚｲﾔ1
  6
Continuous
 62
     5
100
AcDbLine
 10
403.35
 20
-381.3
 30
0.0
 11
409.8749999999999
 21
-387.9
 31
0.0
  0
LINE
  5
243
330
1E
100
AcDbEntity
  8
ﾚｲﾔ1
  6
Continuous
 62
     5
100
AcDbLine
 10
400.4999999999999
 20
-386.925
 30
0.0
 11
406.125
 21
-386.925
 31
0.0
  0
LINE
  5
244
330
1E
100
AcDbEntity
  8
ﾚｲﾔ1
  6
Continuous
 62
     5
100
AcDbLine
 10
397.725
 20
-390.675
 30
0.0
 11
408.975
 21
-390.675
 31
0.0
  0
LINE
  5
245
330
1E
100
AcDbEntity
  8
ﾚｲﾔ1
  6
Continuous
 62
     5
100
AcDbLine
 10
407.1
 20
-392.55
 30
0.0
 11
408.975
 21
-395.4
 31
0.0
  0
LINE
  5
246
330
1E
100
AcDbEntity
  8
ﾚｲﾔ1
  6
Continuous
 62
     5
100
AcDbLine
 10
397.725
 20
-395.4
 30
0.0
 11
408.0
 21
-394.425
 31
0.0
  0
LINE
  5
247
330
1E
100
AcDbEntity
  8
ﾚｲﾔ1
  6
Continuous
 62
     5
100
AcDbLine
 10
402.3749999999999
 20
-391.65
 30
0.0
 11
399.6
 21
-395.4
 31
0.0
  0
LINE
  5
248
330
1E
100
AcDbEntity
  8
ﾚｲﾔ1
  6
Continuous
 62
     5
100
AcDbLine
 10
414.5249999999999
 20
-381.3
 30
0.0
 11
414.5249999999999
 21
-384.15
 31
0.0
  0
LINE
  5
249
330
1E
100
AcDbEntity
  8
ﾚｲﾔ1
  6
Continuous
 62
     5
100
AcDbLine
 10
411.675
 20
-384.15
 30
0.0
 11
416.3999999999999
 21
-384.15
 31
0.0
  0
LINE
  5
24A
330
1E
100
AcDbEntity
  8
ﾚｲﾔ1
  6
Continuous
 62
     5
100
AcDbLine
 10
416.3999999999999
 20
-384.15
 30
0.0
 11
414.5249999999999
 21
-388.8
 31
0.0
  0
LINE
  5
24B
330
1E
100
AcDbEntity
  8
ﾚｲﾔ1
  6
Continuous
 62
     5
100
AcDbLine
 10
414.5249999999999
 20
-388.8
 30
0.0
 11
411.675
 21
-391.65
 31
0.0
  0
LINE
  5
24C
330
1E
100
AcDbEntity
  8
ﾚｲﾔ1
  6
Continuous
 62
     5
100
AcDbLine
 10
414.5249999999999
 20
-395.4
 30
0.0
 11
414.5249999999999
 21
-388.8
 31
0.0
  0
LINE
  5
24D
330
1E
100
AcDbEntity
  8
ﾚｲﾔ1
  6
Continuous
 62
     5
100
AcDbLine
 10
414.5249999999999
 20
-388.8
 30
0.0
 11
417.3
 21
-390.675
 31
0.0
  0
LINE
  5
24E
330
1E
100
AcDbEntity
  8
ﾚｲﾔ1
  6
Continuous
 62
     5
100
AcDbLine
 10
418.2749999999999
 20
-386.925
 30
0.0
 11
423.8999999999999
 21
-386.925
 31
0.0
  0
LINE
  5
24F
330
1E
100
AcDbEntity
  8
ﾚｲﾔ1
  6
Continuous
 62
     5
100
AcDbLine
 10
417.3
 20
-395.4
 30
0.0
 11
424.8
 21
-395.4
 31
0.0
  0
LINE
  5
250
330
1E
100
AcDbEntity
  8
ﾚｲﾔ1
  6
Continuous
 62
     5
100
AcDbLine
 10
421.05
 20
-381.3
 30
0.0
 11
421.05
 21
-395.4
 31
0.0
  0
LINE
  5
251
330
1E
100
AcDbEntity
  8
ﾚｲﾔ1
  6
Continuous
 62
     5
100
AcDbLine
 10
437.475
 20
-395.4
 30
0.0
 11
437.475
 21
-382.275
 31
0.0
  0
LINE
  5
252
330
1E
100
AcDbEntity
  8
ﾚｲﾔ1
  6
Continuous
 62
     5
100
AcDbLine
 10
437.475
 20
-382.275
 30
0.0
 11
442.1249999999999
 21
-382.275
 31
0.0
  0
LINE
  5
253
330
1E
100
AcDbEntity
  8
ﾚｲﾔ1
  6
Continuous
 62
     5
100
AcDbLine
 10
442.1249999999999
 20
-382.275
 30
0.0
 11
442.1249999999999
 21
-386.025
 31
0.0
  0
LINE
  5
254
330
1E
100
AcDbEntity
  8
ﾚｲﾔ1
  6
Continuous
 62
     5
100
AcDbLine
 10
442.1249999999999
 20
-386.025
 30
0.0
 11
437.475
 21
-386.025
 31
0.0
  0
LINE
  5
255
330
1E
100
AcDbEntity
  8
ﾚｲﾔ1
  6
Continuous
 62
     5
100
AcDbLine
 10
437.475
 20
-384.15
 30
0.0
 11
442.1249999999999
 21
-384.15
 31
0.0
  0
LINE
  5
256
330
1E
100
AcDbEntity
  8
ﾚｲﾔ1
  6
Continuous
 62
     5
100
AcDbLine
 10
448.725
 20
-386.025
 30
0.0
 11
444.0
 21
-386.025
 31
0.0
  0
LINE
  5
257
330
1E
100
AcDbEntity
  8
ﾚｲﾔ1
  6
Continuous
 62
     5
100
AcDbLine
 10
444.0
 20
-386.025
 30
0.0
 11
444.0
 21
-382.275
 31
0.0
  0
LINE
  5
258
330
1E
100
AcDbEntity
  8
ﾚｲﾔ1
  6
Continuous
 62
     5
100
AcDbLine
 10
444.0
 20
-382.275
 30
0.0
 11
448.725
 21
-382.275
 31
0.0
  0
LINE
  5
259
330
1E
100
AcDbEntity
  8
ﾚｲﾔ1
  6
Continuous
 62
     5
100
AcDbLine
 10
448.725
 20
-382.275
 30
0.0
 11
448.725
 21
-395.4
 31
0.0
  0
LINE
  5
25A
330
1E
100
AcDbEntity
  8
ﾚｲﾔ1
  6
Continuous
 62
     5
100
AcDbLine
 10
448.725
 20
-395.4
 30
0.0
 11
447.75
 21
-395.4
 31
0.0
  0
LINE
  5
25B
330
1E
100
AcDbEntity
  8
ﾚｲﾔ1
  6
Continuous
 62
     5
100
AcDbLine
 10
444.0
 20
-384.15
 30
0.0
 11
448.725
 21
-384.15
 31
0.0
  0
LINE
  5
25C
330
1E
100
AcDbEntity
  8
ﾚｲﾔ1
  6
Continuous
 62
     5
100
AcDbLine
 10
441.225
 20
-386.925
 30
0.0
 11
443.1
 21
-388.8
 31
0.0
  0
LINE
  5
25D
330
1E
100
AcDbEntity
  8
ﾚｲﾔ1
  6
Continuous
 62
     5
100
AcDbLine
 10
443.1
 20
-388.8
 30
0.0
 11
444.975
 21
-386.925
 31
0.0
  0
LINE
  5
25E
330
1E
100
AcDbEntity
  8
ﾚｲﾔ1
  6
Continuous
 62
     5
100
AcDbLine
 10
440.2499999999999
 20
-388.8
 30
0.0
 11
445.875
 21
-388.8
 31
0.0
  0
LINE
  5
25F
330
1E
100
AcDbEntity
  8
ﾚｲﾔ1
  6
Continuous
 62
     5
100
AcDbLine
 10
439.35
 20
-391.65
 30
0.0
 11
446.85
 21
-391.65
 31
0.0
  0
LINE
  5
260
330
1E
100
AcDbEntity
  8
ﾚｲﾔ1
  6
Continuous
 62
     5
100
AcDbLine
 10
443.1
 20
-388.8
 30
0.0
 11
443.1
 21
-391.65
 31
0.0
  0
LINE
  5
261
330
1E
100
AcDbEntity
  8
ﾚｲﾔ1
  6
Continuous
 62
     5
100
AcDbLine
 10
443.1
 20
-391.65
 30
0.0
 11
441.225
 21
-393.525
 31
0.0
  0
LINE
  5
262
330
1E
100
AcDbEntity
  8
ﾚｲﾔ1
  6
Continuous
 62
     5
100
AcDbLine
 10
441.225
 20
-393.525
 30
0.0
 11
439.35
 21
-394.425
 31
0.0
  0
LINE
  5
263
330
1E
100
AcDbEntity
  8
ﾚｲﾔ1
  6
Continuous
 62
     5
100
AcDbLine
 10
443.1
 20
-391.65
 30
0.0
 11
444.975
 21
-393.525
 31
0.0
  0
LINE
  5
264
330
1E
100
AcDbEntity
  8
ﾚｲﾔ1
  6
Continuous
 62
     5
100
AcDbLine
 10
444.975
 20
-393.525
 30
0.0
 11
446.85
 21
-394.425
 31
0.0
  0
LINE
  5
265
330
1E
100
AcDbEntity
  8
ﾚｲﾔ1
  6
Continuous
 62
     5
100
AcDbLine
 10
451.4999999999999
 20
-383.175
 30
0.0
 11
464.625
 21
-383.175
 31
0.0
  0
LINE
  5
266
330
1E
100
AcDbEntity
  8
ﾚｲﾔ1
  6
Continuous
 62
     5
100
AcDbLine
 10
453.375
 20
-385.05
 30
0.0
 11
462.75
 21
-385.05
 31
0.0
  0
LINE
  5
267
330
1E
100
AcDbEntity
  8
ﾚｲﾔ1
  6
Continuous
 62
     5
100
AcDbLine
 10
462.75
 20
-385.05
 30
0.0
 11
462.75
 21
-390.675
 31
0.0
  0
LINE
  5
268
330
1E
100
AcDbEntity
  8
ﾚｲﾔ1
  6
Continuous
 62
     5
100
AcDbLine
 10
462.75
 20
-390.675
 30
0.0
 11
453.375
 21
-390.675
 31
0.0
  0
LINE
  5
269
330
1E
100
AcDbEntity
  8
ﾚｲﾔ1
  6
Continuous
 62
     5
100
AcDbLine
 10
453.375
 20
-390.675
 30
0.0
 11
453.375
 21
-385.05
 31
0.0
  0
LINE
  5
26A
330
1E
100
AcDbEntity
  8
ﾚｲﾔ1
  6
Continuous
 62
     5
100
AcDbLine
 10
453.375
 20
-387.9
 30
0.0
 11
462.75
 21
-387.9
 31
0.0
  0
LINE
  5
26B
330
1E
100
AcDbEntity
  8
ﾚｲﾔ1
  6
Continuous
 62
     5
100
AcDbLine
 10
458.1
 20
-381.3
 30
0.0
 11
458.1
 21
-395.4
 31
0.0
  0
LINE
  5
26C
330
1E
100
AcDbEntity
  8
ﾚｲﾔ1
  6
Continuous
 62
     5
100
AcDbLine
 10
451.4999999999999
 20
-394.425
 30
0.0
 11
454.35
 21
-393.525
 31
0.0
  0
LINE
  5
26D
330
1E
100
AcDbEntity
  8
ﾚｲﾔ1
  6
Continuous
 62
     5
100
AcDbLine
 10
454.35
 20
-393.525
 30
0.0
 11
458.1
 21
-390.675
 31
0.0
  0
LINE
  5
26E
330
1E
100
AcDbEntity
  8
ﾚｲﾔ1
  6
Continuous
 62
     5
100
AcDbLine
 10
458.1
 20
-390.675
 30
0.0
 11
461.85
 21
-393.525
 31
0.0
  0
LINE
  5
26F
330
1E
100
AcDbEntity
  8
ﾚｲﾔ1
  6
Continuous
 62
     5
100
AcDbLine
 10
461.85
 20
-393.525
 30
0.0
 11
464.625
 21
-394.425
 31
0.0
  0
LINE
  5
270
330
1E
100
AcDbEntity
  8
ﾚｲﾔ1
  6
Continuous
 62
     5
100
AcDbLine
 10
467.475
 20
-381.3
 30
0.0
 11
469.35
 21
-383.175
 31
0.0
  0
LINE
  5
271
330
1E
100
AcDbEntity
  8
ﾚｲﾔ1
  6
Continuous
 62
     5
100
AcDbLine
 10
466.5
 20
-386.025
 30
0.0
 11
468.3749999999999
 21
-387.9
 31
0.0
  0
LINE
  5
272
330
1E
100
AcDbEntity
  8
ﾚｲﾔ1
  6
Continuous
 62
     5
100
AcDbLine
 10
466.5
 20
-395.4
 30
0.0
 11
469.35
 21
-389.775
 31
0.0
  0
LINE
  5
273
330
1E
100
AcDbEntity
  8
ﾚｲﾔ1
  6
Continuous
 62
     5
100
AcDbLine
 10
472.125
 20
-384.15
 30
0.0
 11
479.6249999999999
 21
-384.15
 31
0.0
  0
LINE
  5
274
330
1E
100
AcDbEntity
  8
ﾚｲﾔ1
  6
Continuous
 62
     5
100
AcDbLine
 10
479.6249999999999
 20
-384.15
 30
0.0
 11
479.6249999999999
 21
-395.4
 31
0.0
  0
LINE
  5
275
330
1E
100
AcDbEntity
  8
ﾚｲﾔ1
  6
Continuous
 62
     5
100
AcDbLine
 10
479.6249999999999
 20
-395.4
 30
0.0
 11
472.125
 21
-395.4
 31
0.0
  0
LINE
  5
276
330
1E
100
AcDbEntity
  8
ﾚｲﾔ1
  6
Continuous
 62
     5
100
AcDbLine
 10
472.125
 20
-395.4
 30
0.0
 11
472.125
 21
-384.15
 31
0.0
  0
LINE
  5
277
330
1E
100
AcDbEntity
  8
ﾚｲﾔ1
  6
Continuous
 62
     5
100
AcDbLine
 10
472.125
 20
-389.775
 30
0.0
 11
479.6249999999999
 21
-389.775
 31
0.0
  0
LINE
  5
278
330
1E
100
AcDbEntity
  8
ﾚｲﾔ1
  6
Continuous
 62
     5
100
AcDbLine
 10
475.875
 20
-381.3
 30
0.0
 11
475.875
 21
-395.4
 31
0.0
  0
LINE
  5
279
330
1E
100
AcDbEntity
  8
ﾚｲﾔ1
  6
Continuous
 62
     5
100
AcDbLine
 10
481.5
 20
-385.05
 30
0.0
 11
485.25
 21
-385.05
 31
0.0
  0
LINE
  5
27A
330
1E
100
AcDbEntity
  8
ﾚｲﾔ1
  6
Continuous
 62
     5
100
AcDbLine
 10
483.375
 20
-381.3
 30
0.0
 11
483.375
 21
-395.4
 31
0.0
  0
LINE
  5
27B
330
1E
100
AcDbEntity
  8
ﾚｲﾔ1
  6
Continuous
 62
     5
100
AcDbLine
 10
481.5
 20
-390.675
 30
0.0
 11
483.375
 21
-386.025
 31
0.0
  0
LINE
  5
27C
330
1E
100
AcDbEntity
  8
ﾚｲﾔ1
  6
Continuous
 62
     5
100
AcDbLine
 10
483.375
 20
-386.025
 30
0.0
 11
485.25
 21
-388.8
 31
0.0
  0
LINE
  5
27D
330
1E
100
AcDbEntity
  8
ﾚｲﾔ1
  6
Continuous
 62
     5
100
AcDbLine
 10
488.1
 20
-381.3
 30
0.0
 11
486.225
 21
-383.175
 31
0.0
  0
LINE
  5
27E
330
1E
100
AcDbEntity
  8
ﾚｲﾔ1
  6
Continuous
 62
     5
100
AcDbLine
 10
486.225
 20
-383.175
 30
0.0
 11
488.1
 21
-384.15
 31
0.0
  0
LINE
  5
27F
330
1E
100
AcDbEntity
  8
ﾚｲﾔ1
  6
Continuous
 62
     5
100
AcDbLine
 10
489.0
 20
-383.175
 30
0.0
 11
486.225
 21
-386.925
 31
0.0
  0
LINE
  5
280
330
1E
100
AcDbEntity
  8
ﾚｲﾔ1
  6
Continuous
 62
     5
100
AcDbLine
 10
486.225
 20
-386.925
 30
0.0
 11
489.0
 21
-386.925
 31
0.0
  0
LINE
  5
281
330
1E
100
AcDbEntity
  8
ﾚｲﾔ1
  6
Continuous
 62
     5
100
AcDbLine
 10
489.0
 20
-386.925
 30
0.0
 11
488.1
 21
-385.05
 31
0.0
  0
LINE
  5
282
330
1E
100
AcDbEntity
  8
ﾚｲﾔ1
  6
Continuous
 62
     5
100
AcDbLine
 10
493.725
 20
-381.3
 30
0.0
 11
491.85
 21
-383.175
 31
0.0
  0
LINE
  5
283
330
1E
100
AcDbEntity
  8
ﾚｲﾔ1
  6
Continuous
 62
     5
100
AcDbLine
 10
491.85
 20
-383.175
 30
0.0
 11
493.725
 21
-384.15
 31
0.0
  0
LINE
  5
284
330
1E
100
AcDbEntity
  8
ﾚｲﾔ1
  6
Continuous
 62
     5
100
AcDbLine
 10
494.625
 20
-383.175
 30
0.0
 11
491.85
 21
-386.925
 31
0.0
  0
LINE
  5
285
330
1E
100
AcDbEntity
  8
ﾚｲﾔ1
  6
Continuous
 62
     5
100
AcDbLine
 10
491.85
 20
-386.925
 30
0.0
 11
494.625
 21
-386.925
 31
0.0
  0
LINE
  5
286
330
1E
100
AcDbEntity
  8
ﾚｲﾔ1
  6
Continuous
 62
     5
100
AcDbLine
 10
494.625
 20
-386.925
 30
0.0
 11
493.725
 21
-385.05
 31
0.0
  0
LINE
  5
287
330
1E
100
AcDbEntity
  8
ﾚｲﾔ1
  6
Continuous
 62
     5
100
AcDbLine
 10
485.25
 20
-389.775
 30
0.0
 11
494.625
 21
-389.775
 31
0.0
  0
LINE
  5
288
330
1E
100
AcDbEntity
  8
ﾚｲﾔ1
  6
Continuous
 62
     5
100
AcDbLine
 10
487.1249999999999
 20
-389.775
 30
0.0
 11
487.1249999999999
 21
-391.65
 31
0.0
  0
LINE
  5
289
330
1E
100
AcDbEntity
  8
ﾚｲﾔ1
  6
Continuous
 62
     5
100
AcDbLine
 10
487.1249999999999
 20
-391.65
 30
0.0
 11
485.25
 21
-394.425
 31
0.0
  0
LINE
  5
28A
330
1E
100
AcDbEntity
  8
ﾚｲﾔ1
  6
Continuous
 62
     5
100
AcDbLine
 10
487.1249999999999
 20
-391.65
 30
0.0
 11
489.0
 21
-393.525
 31
0.0
  0
LINE
  5
28B
330
1E
100
AcDbEntity
  8
ﾚｲﾔ1
  6
Continuous
 62
     5
100
AcDbLine
 10
489.975
 20
-381.3
 30
0.0
 11
489.975
 21
-387.9
 31
0.0
  0
LINE
  5
28C
330
1E
100
AcDbEntity
  8
ﾚｲﾔ1
  6
Continuous
 62
     5
100
AcDbLine
 10
489.975
 20
-387.9
 30
0.0
 11
490.875
 21
-392.55
 31
0.0
  0
LINE
  5
28D
330
1E
100
AcDbEntity
  8
ﾚｲﾔ1
  6
Continuous
 62
     5
100
AcDbLine
 10
490.875
 20
-392.55
 30
0.0
 11
492.75
 21
-394.425
 31
0.0
  0
LINE
  5
28E
330
1E
100
AcDbEntity
  8
ﾚｲﾔ1
  6
Continuous
 62
     5
100
AcDbLine
 10
492.75
 20
-394.425
 30
0.0
 11
494.625
 21
-395.4
 31
0.0
  0
LINE
  5
28F
330
1E
100
AcDbEntity
  8
ﾚｲﾔ1
  6
Continuous
 62
     5
100
AcDbLine
 10
494.625
 20
-395.4
 30
0.0
 11
494.625
 21
-393.525
 31
0.0
  0
LINE
  5
290
330
1E
100
AcDbEntity
  8
ﾚｲﾔ1
  6
Continuous
 62
     5
100
AcDbLine
 10
493.725
 20
-390.675
 30
0.0
 11
492.75
 21
-392.55
 31
0.0
  0
LINE
  5
291
330
1E
100
AcDbEntity
  8
ﾚｲﾔ1
  6
Continuous
 62
     5
100
AcDbLine
 10
492.75
 20
-392.55
 30
0.0
 11
490.875
 21
-394.425
 31
0.0
  0
LINE
  5
292
330
1E
100
AcDbEntity
  8
ﾚｲﾔ1
  6
Continuous
 62
     5
100
AcDbLine
 10
490.875
 20
-394.425
 30
0.0
 11
488.1
 21
-395.4
 31
0.0
  0
LINE
  5
293
330
1E
100
AcDbEntity
  8
ﾚｲﾔ1
  6
Continuous
 62
     5
100
AcDbLine
 10
491.85
 20
-387.9
 30
0.0
 11
493.725
 21
-388.8
 31
0.0
  0
LINE
  5
294
330
1E
100
AcDbEntity
  8
ﾚｲﾔ1
  6
Continuous
 62
     5
100
AcDbLine
 10
497.475
 20
-386.025
 30
0.0
 11
508.725
 21
-386.025
 31
0.0
  0
LINE
  5
295
330
1E
100
AcDbEntity
  8
ﾚｲﾔ1
  6
Continuous
 62
     5
100
AcDbLine
 10
499.35
 20
-382.275
 30
0.0
 11
499.35
 21
-389.775
 31
0.0
  0
LINE
  5
296
330
1E
100
AcDbEntity
  8
ﾚｲﾔ1
  6
Continuous
 62
     5
100
AcDbLine
 10
506.85
 20
-382.275
 30
0.0
 11
506.85
 21
-389.775
 31
0.0
  0
LINE
  5
297
330
1E
100
AcDbEntity
  8
ﾚｲﾔ1
  6
Continuous
 62
     5
100
AcDbLine
 10
506.85
 20
-389.775
 30
0.0
 11
504.975
 21
-392.55
 31
0.0
  0
LINE
  5
298
330
1E
100
AcDbEntity
  8
ﾚｲﾔ1
  6
Continuous
 62
     5
100
AcDbLine
 10
504.975
 20
-392.55
 30
0.0
 11
502.125
 21
-394.425
 31
0.0
  0
LINE
  5
299
330
1E
100
AcDbEntity
  8
ﾚｲﾔ1
  6
Continuous
 62
     5
100
AcDbLine
 10
502.125
 20
-394.425
 30
0.0
 11
500.25
 21
-394.425
 31
0.0
  0
LINE
  5
29A
330
1E
100
AcDbEntity
  8
ﾚｲﾔ1
  6
Continuous
 62
     5
100
AcDbLine
 10
536.85
 20
-384.15
 30
0.0
 11
534.0
 21
-386.025
 31
0.0
  0
LINE
  5
29B
330
1E
100
AcDbEntity
  8
ﾚｲﾔ1
  6
Continuous
 62
     5
100
AcDbLine
 10
534.0
 20
-386.025
 30
0.0
 11
531.225
 21
-386.925
 31
0.0
  0
LINE
  5
29C
330
1E
100
AcDbEntity
  8
ﾚｲﾔ1
  6
Continuous
 62
     5
100
AcDbLine
 10
531.225
 20
-386.925
 30
0.0
 11
528.375
 21
-386.925
 31
0.0
  0
LINE
  5
29D
330
1E
100
AcDbEntity
  8
ﾚｲﾔ1
  6
Continuous
 62
     5
100
AcDbLine
 10
528.375
 20
-382.275
 30
0.0
 11
528.375
 21
-392.55
 31
0.0
  0
LINE
  5
29E
330
1E
100
AcDbEntity
  8
ﾚｲﾔ1
  6
Continuous
 62
     5
100
AcDbLine
 10
528.375
 20
-392.55
 30
0.0
 11
529.35
 21
-393.525
 31
0.0
  0
LINE
  5
29F
330
1E
100
AcDbEntity
  8
ﾚｲﾔ1
  6
Continuous
 62
     5
100
AcDbLine
 10
529.35
 20
-393.525
 30
0.0
 11
537.75
 21
-393.525
 31
0.0
  0
LINE
  5
2A0
330
1E
100
AcDbEntity
  8
ﾚｲﾔ1
  6
Continuous
 62
     5
100
AcDbLine
 10
537.75
 20
-383.175
 30
0.0
 11
538.725
 21
-384.15
 31
0.0
  0
LINE
  5
2A1
330
1E
100
AcDbEntity
  8
ﾚｲﾔ1
  6
Continuous
 62
     5
100
AcDbLine
 10
538.725
 20
-381.3
 30
0.0
 11
539.625
 21
-382.275
 31
0.0
  0
LINE
  5
2A2
330
1E
100
AcDbEntity
  8
ﾚｲﾔ1
  6
Continuous
 62
     5
100
AcDbLine
 10
543.3749999999999
 20
-383.175
 30
0.0
 11
551.85
 21
-383.175
 31
0.0
  0
LINE
  5
2A3
330
1E
100
AcDbEntity
  8
ﾚｲﾔ1
  6
Continuous
 62
     5
100
AcDbLine
 10
551.85
 20
-383.175
 30
0.0
 11
550.875
 21
-386.925
 31
0.0
  0
LINE
  5
2A4
330
1E
100
AcDbEntity
  8
ﾚｲﾔ1
  6
Continuous
 62
     5
100
AcDbLine
 10
550.875
 20
-386.925
 30
0.0
 11
549.0
 21
-389.775
 31
0.0
  0
LINE
  5
2A5
330
1E
100
AcDbEntity
  8
ﾚｲﾔ1
  6
Continuous
 62
     5
100
AcDbLine
 10
549.0
 20
-389.775
 30
0.0
 11
546.225
 21
-392.55
 31
0.0
  0
LINE
  5
2A6
330
1E
100
AcDbEntity
  8
ﾚｲﾔ1
  6
Continuous
 62
     5
100
AcDbLine
 10
546.225
 20
-392.55
 30
0.0
 11
542.475
 21
-394.425
 31
0.0
  0
LINE
  5
2A7
330
1E
100
AcDbEntity
  8
ﾚｲﾔ1
  6
Continuous
 62
     5
100
AcDbLine
 10
549.0
 20
-389.775
 30
0.0
 11
553.725
 21
-394.425
 31
0.0
  0
LINE
  5
2AC
330
1E
100
AcDbEntity
  8
ﾚｲﾔ1
  6
DASHDOT
 62
   252
100
AcDbLine
 10
-371.0742772229811
 20
121.4565811631219
 30
0.0
 11
-371.0742772229811
 21
-87.31378773573396
 31
0.0
  0
LINE
  5
2AD
330
1E
100
AcDbEntity
  8
ﾚｲﾔ1
  6
DASHDOT
 62
   252
100
AcDbLine
 10
-487.8838813978005
 20
17.87021247430692
 30
0.0
 11
-269.4877520644086
 21
17.87021247430692
 31
0.0
  0
CIRCLE
  5
2AF
330
1E
100
AcDbEntity
  8
ﾚｲﾔ1
100
AcDbCircle
 10
-371.0742772229811
 20
17.87021247430692
 30
0.0
 40
78.999998
  0
LINE
  5
2B2
330
1E
100
AcDbEntity
  8
ﾚｲﾔ1
  6
DASHDOT
 62
   252
100
AcDbLine
 10
-241.8695121392289
 20
17.87021247430692
 30
0.0
 11
257.2535528607712
 21
17.87021247430692
 31
0.0
  0
LINE
  5
2D4
330
1E
100
AcDbEntity
  8
ﾚｲﾔ1
  6
DASHDOT
 62
   252
100
AcDbLine
 10
384.1014016733016
 20
99.67021547430693
 30
0.0
 11
384.1014016733016
 21
-65.92978452569309
 31
0.0
  0
LINE
  5
2D5
330
1E
100
AcDbEntity
  8
ﾚｲﾔ1
  6
Continuous
 62
   252
100
AcDbLine
 10
299.4014046733016
 20
17.87021247430692
 30
0.0
 11
467.4014046733016
 21
17.87021247430692
 31
0.0
  0
CIRCLE
  5
2D6
330
1E
100
AcDbEntity
  8
ﾚｲﾔ1
100
AcDbCircle
 10
384.1014016733016
 20
17.87021247430692
 30
0.0
 40
78.999998
  0
LINE
  5
2D8
330
1E
100
AcDbEntity
  8
ﾚｲﾔ1
100
AcDbLine
 10
331.6014016733015
 20
76.90198547430691
 30
0.0
 11
344.2279816733016
 21
62.70446947430696
 31
0.0
  0
LINE
  5
2D9
330
1E
100
AcDbEntity
  8
ﾚｲﾔ1
100
AcDbLine
 10
436.6014016733015
 20
76.90198547430691
 30
0.0
 11
423.9748216733016
 21
62.70446947430696
 31
0.0
  0
LINE
  5
2DA
330
1E
100
AcDbEntity
  8
ﾚｲﾔ1
100
AcDbLine
 10
343.2311475838494
 20
-28.0848996533293
 30
0.0
 11
331.6014016733015
 21
-41.16155952569306
 31
0.0
  0
LINE
  5
2DB
330
1E
100
AcDbEntity
  8
ﾚｲﾔ1
100
AcDbLine
 10
424.9716557627538
 20
-28.08489965332923
 30
0.0
 11
436.6014016733015
 21
-41.16155952569306
 31
0.0
  0
TEXT
  5
2DC
330
1E
100
AcDbEntity
  8
文字
 62
     5
100
AcDbText
 10
186.3
 20
-337.2
 30
0.0
 40
12.0
  1
審査
 41
1.3
100
AcDbText
  0
TEXT
  5
2DD
330
1E
100
AcDbEntity
  8
文字
 62
     5
100
AcDbText
 10
215.1
 20
-337.2
 30
0.0
 40
12.0
  1
検図
 41
1.125
100
AcDbText
  0
TEXT
  5
2DE
330
1E
100
AcDbEntity
  8
文字
 62
     5
100
AcDbText
 10
245.7
 20
-336.9
 30
0.0
 40
12.0
  1
設計
 41
1.125
100
AcDbText
  0
TEXT
  5
2DF
330
1E
100
AcDbEntity
  8
文字
 62
     5
100
AcDbText
 10
276.3
 20
-337.2
 30
0.0
 40
12.0
  1
製図
 41
1.125
100
AcDbText
  0
TEXT
  5
2E0
330
1E
100
AcDbEntity
  8
文字
 62
     5
100
AcDbText
 10
310.65
 20
-335.1
 30
0.0
 40
12.0
  1
尺度
 41
1.125
100
AcDbText
  0
TEXT
  5
2E1
330
1E
100
AcDbEntity
  8
文字
 62
     5
100
AcDbText
 10
348.8533703896961
 20
-295.2642069161635
 30
0.0
 40
12.0
  1
名称
 50
270.0
 41
1.199999999999999
100
AcDbText
  0
TEXT
  5
2E2
330
1E
100
AcDbEntity
  8
文字
 62
     5
100
AcDbText
 10
347.55
 20
-351.6
 30
0.0
 40
9.0
  1
設計年月日
 41
0.8
100
AcDbText
  0
TEXT
  5
2E6
330
1E
100
AcDbEntity
  8
文字
 62
     5
100
AcDbText
 10
422.85
 20
-364.5
 30
0.0
 40
9.0
  1
番
100
AcDbText
  0
TEXT
  5
2E7
330
1E
100
AcDbEntity
  8
文字
 62
     5
100
AcDbText
 10
206.1
 20
-321.3
 30
0.0
 40
7.5
  1
年月日
100
AcDbText
  0
TEXT
  5
2E8
330
1E
100
AcDbEntity
  8
文字
 62
     5
100
AcDbText
 10
186.3
 20
-320.7
 30
0.0
 40
7.5
  1
記号
100
AcDbText
  0
TEXT
  5
2E9
330
1E
100
AcDbEntity
  8
文字
 62
     5
100
AcDbText
 10
241.5
 20
-320.7
 30
0.0
 40
7.5
  1
訂正理由
 41
2.279999999999999
100
AcDbText
  0
TEXT
  5
2EB
330
1E
100
AcDbEntity
  8
文字
 62
     5
100
AcDbText
 10
325.2
 20
-320.7
 30
0.0
 40
7.5
  1
訂正
 41
0.9599999999999999
100
AcDbText
  0
TEXT
  5
2EC
330
1E
100
AcDbEntity
  8
文字
 62
     5
100
AcDbText
 10
339.0
 20
-320.7
 30
0.0
 40
7.5
  1
者
100
AcDbText
  0
TEXT
  5
2ED
330
1E
100
AcDbEntity
  8
文字
 62
     5
100
AcDbText
 10
347.55
 20
-291.0
 30
0.0
 40
9.0
  1
番号
100
AcDbText
  0
TEXT
  5
2EE
330
1E
100
AcDbEntity
  8
文字
 62
     5
100
AcDbText
 10
369.15
 20
-291.6
 30
0.0
 40
9.0
  1
名称
 41
2.0
100
AcDbText
  0
TEXT
  5
2EF
330
1E
100
AcDbEntity
  8
文字
 62
     5
100
AcDbText
 10
423.1499999999999
 20
-291.3
 30
0.0
 40
9.0
  1
数量
100
AcDbText
  0
TEXT
  5
2F0
330
1E
100
AcDbEntity
  8
文字
 62
     5
100
AcDbText
 10
447.9
 20
-291.6
 30
0.0
 40
9.0
  1
材質
100
AcDbText
  0
TEXT
  5
2F1
330
1E
100
AcDbEntity
  8
文字
 62
     5
100
AcDbText
 10
480.6
 20
-291.0
 30
0.0
 40
9.0
  1
記事
 41
3.0
100
AcDbText
  0
TEXT
  5
2F2
330
1E
100
AcDbEntity
  8
文字
 62
     0
100
AcDbText
 10
307.7212056210672
 20
176.8357348295088
 30
0.0
 40
21.0
  1
断面詳細
100
AcDbText
  0
TEXT
  5
2F3
330
1E
100
AcDbEntity
  8
文字
 62
     5
100
AcDbText
 10
387.9
 20
-353.4
 30
0.0
 40
9.0
  1
94.6.14
 50
4.48
 41
0.85
100
AcDbText
  0
TEXT
  5
2F7
330
1E
100
AcDbEntity
  8
文字
 62
     5
100
AcDbText
 10
279.15
 20
-361.95
 30
0.0
 40
9.0
  1
菊池
 41
1.116667
100
AcDbText
  0
TEXT
  5
2F8
330
1E
100
AcDbEntity
  8
文字
 62
     5
100
AcDbText
 10
373.95
 20
-312.75
 30
0.0
 40
15.0
  1
ラムチェアー2
 41
1.12
100
AcDbText
  0
TEXT
  5
2F9
330
1E
100
AcDbEntity
  8
文字
 62
     5
100
AcDbText
 10
307.8
 20
-350.4
 30
0.0
 40
12.0
  1
１：
 41
0.9375
100
AcDbText
  0
TEXT
  5
2FA
330
1E
100
AcDbEntity
  8
文字
 62
     5
100
AcDbText
 10
330.0
 20
-350.4
 30
0.0
 40
12.0
  1
３
100
AcDbText
  0
TEXT
  5
2FD
330
1E
100
AcDbEntity
  8
文字
 62
     5
100
AcDbText
 10
375.15
 20
-333.15
 30
0.0
 40
12.0
  1
50TON
 41
1.125
100
AcDbText
  0
TEXT
  5
2FE
330
1E
100
AcDbEntity
  8
文字
 62
     5
100
AcDbText
 10
450.5066311705271
 20
-333.15
 30
0.0
 40
12.0
  1
*420
 41
1.125
100
AcDbText
  0
DIMENSION
  5
380
330
1E
100
AcDbEntity
  8
寸法
  6
Continuous
100
AcDbDimension
  2
*D1
 10
423.9748216733016
 20
62.70446947430696
 30
0.0
 11
384.1014016733016
 21
66.53153324432236
 31
0.0
 70
    34
  1
80°
 71
     5
 42
1.45380124174926
  3
Standard
100
AcDb2LineAngularDimension
 13
331.6014016733016
 23
76.90198547430691
 33
0.0
 14
344.2279816733016
 24
62.70446947430696
 34
0.0
 15
436.6014016733016
 25
76.90198547430691
 35
0.0
 16
394.0974672765829
 26
58.31454899437468
 36
0.0
  0
DIMENSION
  5
3A5
330
1E
100
AcDbEntity
  8
寸法
  6
Continuous
100
AcDbDimension
  2
*D2
 10
-443.9497781987397
 20
-12.62832915528941
 30
0.0
 11
-328.6086508788003
 21
45.10056669596681
 31
0.0
 70
   163
 71
     5
 42
157.9999960000001
  3
Standard
100
AcDbDiametricDimension
 15
-298.1987762472227
 25
48.36875410390328
 35
0.0
 40
0.0
1001
ACAD
1000
DSTYLE
1002
{
1070
   279
1070
     2
1070
   288
1070
     1
1002
}
  0
LINE
  5
3E5
330
1E
100
AcDbEntity
  8
ﾚｲﾔ1
100
AcDbLine
 10
-194.6463771392288
 20
-61.12978452569308
 30
0.0
 11
225.3536228607711
 21
-61.12978452569308
 31
0.0
  0
LINE
  5
3E6
330
1E
100
AcDbEntity
  8
ﾚｲﾔ1
100
AcDbLine
 10
225.3536228607711
 20
-61.12978452569308
 30
0.0
 11
225.3536228607711
 21
96.8702104743069
 31
0.0
  0
LINE
  5
3E7
330
1E
100
AcDbEntity
  8
ﾚｲﾔ1
100
AcDbLine
 10
225.3536228607711
 20
96.8702104743069
 30
0.0
 11
-194.6463771392288
 21
96.8702104743069
 31
0.0
  0
LINE
  5
3EE
330
1E
100
AcDbEntity
  8
ﾚｲﾔ1
100
AcDbLine
 10
-194.6463771392288
 20
-61.12978452569308
 30
0.0
 11
-194.6463771392288
 21
96.8702104743069
 31
0.0
  0
LINE
  5
3EF
330
1E
100
AcDbEntity
  8
ﾚｲﾔ1
 62
   252
100
AcDbLine
 10
-164.6463771392288
 20
-61.12978452569308
 30
0.0
 11
-164.6463771392288
 21
96.8702104743069
 31
0.0
  0
CIRCLE
  5
431
330
1E
100
AcDbEntity
  8
ﾚｲﾔ1
  6
Continuous
100
AcDbCircle
 10
-371.0742772229811
 20
17.87021247430705
 30
0.0
 40
37.5
  0
DIMENSION
  5
432
330
1E
100
AcDbEntity
  8
寸法
  6
Continuous
100
AcDbDimension
  2
*D3
 10
-336.4399337347243
 20
3.492721346246995
 30
0.0
 11
-377.8456259771902
 21
30.42916389245873
 31
0.0
 70
   163
 71
     5
 42
75.00000000000011
  3
Standard
100
AcDbDiametricDimension
 15
-405.708620711238
 25
32.24770360236707
 35
0.0
 40
0.0
1001
ACAD
1000
DSTYLE
1002
{
1070
   279
1070
     2
1070
   288
1070
     1
1002
}
  0
CIRCLE
  5
446
330
1E
100
AcDbEntity
  8
ﾚｲﾔ1
  6
Continuous
100
AcDbCircle
 10
384.1014016733016
 20
17.87021247430692
 30
0.0
 40
61.5
  0
HATCH
  5
45B
330
1E
100
AcDbEntity
  8
ﾊｯﾁﾝｸﾞ
  6
Continuous
100
AcDbHatch
 10
0.0
 20
0.0
 30
0.0
210
0.0
220
0.0
230
1.0
  2
_USER
 70
     0
 71
     0
 91
        4
 92
        7
 72
     1
 73
     1
 93
        4
 10
384.1014016733016
 20
96.87021047430693
 42
0.1837524025850919
 10
331.6014039425677
 20
76.90198292270995
 42
0.0
 10
343.2311476230532
 20
63.82532463680914
 42
-0.1837524116820103
 10
384.1014016733016
 20
79.37021247430692
 42
0.0
 97
        0
 92
        7
 72
     1
 73
     1
 93
        4
 10
384.1014016733016
 20
96.87021047430693
 42
0.0
 10
384.1014016733016
 20
79.37021247430692
 42
-0.183752411682011
 10
424.9716557235499
 20
63.82532463680904
 42
0.0
 10
436.6013994040353
 20
76.90198292270995
 42
0.1837524025850919
 97
        0
 92
        7
 72
     1
 73
     1
 93
        4
 10
343.2311475838494
 20
-28.08489965332931
 42
0.0
 10
331.6014034459859
 20
-41.1615575324603
 42
0.1837524047591284
 10
384.1014016733016
 20
-61.12978552569308
 42
0.0
 10
384.1014016733016
 20
-43.62978752569307
 42
-0.1837524119024838
 97
        0
 92
        7
 72
     1
 73
     1
 93
        4
 10
436.6013999006171
 20
-41.16155753246029
 42
0.0
 10
424.9716557627538
 20
-28.08489965332923
 42
-0.1837524119024845
 10
384.1014016733016
 20
-43.62978752569307
 42
0.0
 10
384.1014016733016
 20
-61.12978552569308
 42
0.1837524047591284
 97
        0
 75
     0
 76
     0
 52
30.0
 41
5.0
 77
     0
 78
     1
 53
30.0
 43
0.0
 44
0.0
 45
-2.499999999999999
 46
4.330127018922193
 79
     0
 47
0.3359468441010422
 98
        4
 10
369.1378512523761
 20
83.27067788279192
 10
401.0766502827618
 20
82.59878430774596
 10
351.9917597452786
 20
-42.70939050709057
 10
405.1110253878368
 20
-51.10806019516258
  0
LINE
  5
45C
330
1E
100
AcDbEntity
  8
ﾚｲﾔ1
  6
Continuous
100
AcDbLine
 10
193.3536198607711
 20
-28.0848996533293
 30
0.0
 11
-144.6463741392288
 21
-28.0848996533293
 31
0.0
  0
LINE
  5
45D
330
1E
100
AcDbEntity
  8
ﾚｲﾔ1
  6
Continuous
100
AcDbLine
 10
193.3536198607711
 20
76.90198547430691
 30
0.0
 11
-144.6463741392288
 21
76.90198547430691
 31
0.0
  0
LINE
  5
45E
330
1E
100
AcDbEntity
  8
ﾚｲﾔ1
100
AcDbLine
 10
193.3536198607711
 20
62.87021347430691
 30
0.0
 11
-144.6463741392288
 21
62.87021347430691
 31
0.0
  0
LINE
  5
45F
330
1E
100
AcDbEntity
  8
ﾚｲﾔ1
100
AcDbLine
 10
-144.6463741392288
 20
76.90198547430691
 30
0.0
 11
-144.6463741392288
 21
-42.12978752569308
 31
0.0
  0
LINE
  5
460
330
1E
100
AcDbEntity
  8
ﾚｲﾔ1
100
AcDbLine
 10
-144.6463741392288
 20
-42.12978752569308
 30
0.0
 11
193.3536198607711
 21
-42.12978752569308
 31
0.0
  0
LINE
  5
461
330
1E
100
AcDbEntity
  8
ﾚｲﾔ1
100
AcDbLine
 10
193.3536198607711
 20
-42.12978752569308
 30
0.0
 11
193.3536198607711
 21
76.90198547430691
 31
0.0
  0
CIRCLE
  5
466
330
1E
100
AcDbEntity
  8
ﾚｲﾔ1
  6
DASHEDX2
100
AcDbCircle
 10
-371.0742772229811
 20
17.87021247430705
 30
0.0
 40
61.5
  0
CIRCLE
  5
468
330
1E
100
AcDbEntity
  8
ﾚｲﾔ1
  6
Continuous
100
AcDbCircle
 10
-419.6908585079332
 20
18.13303457404299
 30
0.0
 40
7.0
  0
CIRCLE
  5
46A
330
1E
100
AcDbEntity
  8
ﾚｲﾔ1
  6
Continuous
100
AcDbCircle
 10
-322.4576959380291
 20
18.13303457404299
 30
0.0
 40
7.0
  0
CIRCLE
  5
46B
330
1E
100
AcDbEntity
  8
ﾚｲﾔ1
  6
Continuous
100
AcDbCircle
 10
-371.3370993227172
 20
66.48679375925908
 30
0.0
 40
7.0
  0
CIRCLE
  5
46C
330
1E
100
AcDbEntity
  8
ﾚｲﾔ1
  6
Continuous
100
AcDbCircle
 10
-371.3370993227172
 20
-30.74636881064524
 30
0.0
 40
7.0
  0
DIMENSION
  5
46D
330
1E
100
AcDbEntity
  8
寸法
  6
Continuous
100
AcDbDimension
  2
*D4
 10
434.7858531220483
 20
52.70319083303528
 30
0.0
 11
375.5481906609066
 21
25.62666927083862
 31
0.0
 70
   163
 71
     5
 42
123.0
  3
Standard
100
AcDbDiametricDimension
 15
333.4169502245548
 25
-16.96276588442145
 35
0.0
 40
0.0
1001
ACAD
1000
DSTYLE
1002
{
1070
   279
1070
     2
1070
   288
1070
     1
1002
}
  0
DIMENSION
  5
47C
330
1E
100
AcDbEntity
  8
寸法
  6
Continuous
100
AcDbDimension
  2
*D5
 10
193.3536198607711
 20
120.943704306329
 30
0.0
 11
24.35362286077117
 21
127.9437043063289
 31
0.0
 70
    32
 71
     5
 42
337.999994
  3
Standard
100
AcDbAlignedDimension
 13
-144.6463741392288
 23
76.90198547430691
 33
0.0
 14
193.3536198607711
 24
76.90198547430691
 34
0.0
100
AcDbRotatedDimension
  0
DIMENSION
  5
489
330
1E
100
AcDbEntity
  8
寸法
  6
Continuous
100
AcDbDimension
  2
*D6
 10
225.3536228607711
 20
143.6766331121157
 30
0.0
 11
15.35362286077114
 21
150.6766331121157
 31
0.0
 70
    32
 71
     5
 42
419.9999999999999
  3
Standard
100
AcDbAlignedDimension
 13
-194.6463771392288
 23
96.8702104743069
 33
0.0
 14
225.3536228607711
 24
96.8702104743069
 34
0.0
100
AcDbRotatedDimension
  0
DIMENSION
  5
496
330
1E
100
AcDbEntity
  8
寸法
  6
Continuous
100
AcDbDimension
  2
*D7
 10
-225.9720581893093
 20
-61.12978452569308
 30
0.0
 11
-232.9720581893093
 21
17.87021297430688
 31
0.0
 70
    32
  1
φ158
 71
     5
 42
157.999995
  3
Standard
100
AcDbAlignedDimension
 13
-194.6463771392288
 23
96.8702104743069
 33
0.0
 14
-194.6463771392288
 24
-61.12978452569308
 34
0.0
 50
90.0
100
AcDbRotatedDimension
  0
MTEXT
  5
4BB
330
1E
100
AcDbEntity
  8
寸法
  6
Continuous
100
AcDbMText
 10
-118.8408111795188
 20
-193.8672081053114
 30
0.0
 40
25.0
 41
370.9871346391147
 71
     1
 72
     5
  1
{\C0;ボルト固定タイプ}
 73
     1
 44
1.0
1001
ACAD
1000
MTEXTBEGIN
1070
    73
1070
     1
1070
    44
1040
1.0
1070
    74
1070
     0
1000
MTEXTEND
  0
ENDSEC
  0
SECTION
  2
OBJECTS
  0
DICTIONARY
  5
C
330
0
100
AcDbDictionary
281
     1
  3
ACAD_COLOR
350
4B7
  3
ACAD_GROUP
350
D
  3
ACAD_LAYOUT
350
19
  3
ACAD_MATERIAL
350
4B6
  3
ACAD_MLINESTYLE
350
16
  3
ACAD_PLOTSETTINGS
350
18
  3
ACAD_PLOTSTYLENAME
350
E
  3
ACDBHEADERROUNDTRIPXREC
350
4CC
  3
AcDbVariableDictionary
350
447
  0
DICTIONARY
  5
4B7
102
{ACAD_REACTORS
330
C
102
}
330
C
100
AcDbDictionary
281
     1
  0
DICTIONARY
  5
D
102
{ACAD_REACTORS
330
C
102
}
330
C
100
AcDbDictionary
281
     1
  0
DICTIONARY
  5
19
102
{ACAD_REACTORS
330
C
102
}
330
C
100
AcDbDictionary
281
     1
  3
Model
350
21
  3
ﾚｲｱｳﾄ1
350
1D
  0
DICTIONARY
  5
4B6
102
{ACAD_REACTORS
330
C
102
}
330
C
100
AcDbDictionary
281
     1
  0
DICTIONARY
  5
16
102
{ACAD_REACTORS
330
C
102
}
330
C
100
AcDbDictionary
281
     1
  3
Standard
350
17
  0
DICTIONARY
  5
18
102
{ACAD_REACTORS
330
C
102
}
330
C
100
AcDbDictionary
281
     1
  0
ACDBDICTIONARYWDFLT
  5
E
102
{ACAD_REACTORS
330
C
102
}
330
C
100
AcDbDictionary
281
     1
  3
Normal
350
F
100
AcDbDictionaryWithDefault
340
F
  0
DICTIONARY
  5
4CC
102
{ACAD_REACTORS
330
C
102
}
330
C
100
AcDbDictionary
281
     1
  3
COLORDICT
350
4CE
  3
MATERIALDICT
350
4CD
  0
DICTIONARY
  5
447
102
{ACAD_REACTORS
330
C
102
}
330
C
100
AcDbDictionary
281
     1
  3
DIMASSOC
350
4C9
  3
PROJECTNAME
350
4CA
  3
SORTENTS
350
448
  0
LAYOUT
  5
21
102
{ACAD_XDICTIONARY
360
4D1
102
}
102
{ACAD_REACTORS
330
19
102
}
330
19
100
AcDbPlotSettings
  1

  2
\\SOUKO01\倉庫プリンタ
  4
A4
  6

 40
5.873749732971191
 41
5.873747825622558
 42
5.873748779296875
 43
5.873748779296875
 44
209.9733276367187
 45
296.9259948730469
 46
0.0
 47
2.43
 48
0.0
 49
0.0
140
0.0
141
0.0
142
1.0
143
4.495147712384434
 70
 11956
 72
     1
 73
     1
 74
     1
  7

 75
     0
147
0.2224621000206362
148
630.0384492148164
149
445.5271890876199
100
AcDbLayout
  1
Model
 70
     1
 71
     0
 10
0.0
 20
0.0
 11
12.0
 21
9.0
 12
0.0
 22
0.0
 32
0.0
 14
0.0
 24
0.0
 34
0.0
 15
0.0
 25
0.0
 35
0.0
146
0.0
 13
0.0
 23
0.0
 33
0.0
 16
1.0
 26
0.0
 36
0.0
 17
0.0
 27
1.0
 37
0.0
 76
     0
330
1E
  0
LAYOUT
  5
1D
102
{ACAD_XDICTIONARY
360
4CF
102
}
102
{ACAD_REACTORS
330
19
102
}
330
19
100
AcDbPlotSettings
  1

  2
\\Souko01\倉庫プリンタ
  4

  6

 40
0.0
 41
0.0
 42
0.0
 43
0.0
 44
0.0
 45
0.0
 46
0.0
 47
0.0
 48
0.0
 49
0.0
140
0.0
141
0.0
142
1.0
143
1.0
 70
   688
 72
     0
 73
     0
 74
     5
  7

 75
    16
147
1.0
148
0.0
149
0.0
100
AcDbLayout
  1
ﾚｲｱｳﾄ1
 70
     1
 71
     1
 10
0.0
 20
0.0
 11
12.0
 21
9.0
 12
0.0
 22
0.0
 32
0.0
 14
1.000000000000000E+20
 24
1.000000000000000E+20
 34
1.000000000000000E+20
 15
-1.000000000000000E+20
 25
-1.000000000000000E+20
 35
-1.000000000000000E+20
146
0.0
 13
0.0
 23
0.0
 33
0.0
 16
1.0
 26
0.0
 36
0.0
 17
0.0
 27
1.0
 37
0.0
 76
     0
330
1A
  0
MLINESTYLE
  5
17
102
{ACAD_REACTORS
330
16
102
}
330
16
100
AcDbMlineStyle
  2
STANDARD
 70
     0
  3

 62
   256
 51
90.0
 52
90.0
 71
     2
 49
0.5
 62
   256
  6
BYLAYER
 49
-0.5
 62
   256
  6
BYLAYER
  0
ACDBPLACEHOLDER
  5
F
102
{ACAD_REACTORS
330
E
102
}
330
E
  0
XRECORD
  5
4CE
102
{ACAD_REACTORS
330
4CC
102
}
330
4CC
100
AcDbXrecord
280
     1
340
4B7
  0
XRECORD
  5
4CD
102
{ACAD_REACTORS
330
4CC
102
}
330
4CC
100
AcDbXrecord
280
     1
340
4B6
  0
DICTIONARYVAR
  5
4C9
102
{ACAD_REACTORS
330
447
102
}
330
447
100
DictionaryVariables
280
     0
  1
1
  0
DICTIONARYVAR
  5
4CA
102
{ACAD_REACTORS
330
447
102
}
330
447
100
DictionaryVariables
280
     0
  1

  0
DICTIONARYVAR
  5
448
102
{ACAD_REACTORS
330
447
102
}
330
447
100
DictionaryVariables
280
     0
  1
96
  0
DICTIONARY
  5
4D1
330
21
100
AcDbDictionary
280
     1
281
     1
  3
ACAD_XREC_ROUNDTRIP
360
4D2
  0
DICTIONARY
  5
4CF
330
1D
100
AcDbDictionary
280
     1
281
     1
  3
ACAD_XREC_ROUNDTRIP
360
4D0
  0
XRECORD
  5
4D2
102
{ACAD_REACTORS
330
4D1
102
}
330
4D1
100
AcDbXrecord
280
     1
102
SHADEPLOT
 70
     0
102
SHADEPLOTRESLEVEL
 70
     2
102
SHADEPLOTCUSTOMDPI
 70
   300
  0
XRECORD
  5
4D0
102
{ACAD_REACTORS
330
4CF
102
}
330
4CF
100
AcDbXrecord
280
     1
102
SHADEPLOT
 70
     0
102
SHADEPLOTRESLEVEL
 70
     2
102
SHADEPLOTCUSTOMDPI
 70
   300
  0
ENDSEC
  0
EOF
