  0
SECTION
  2
HEADER
  9
$ACADVER
  1
AC1015
  9
$ACADMAINTVER
 70
    20
  9
$DWGCODEPAGE
  3
ANSI_932
  9
$INSBASE
 10
0.0
 20
0.0
 30
0.0
  9
$EXTMIN
 10
-210.0
 20
-148.5
 30
0.0
  9
$EXTMAX
 10
630.0
 20
445.5
 30
0.0
  9
$LIMMIN
 10
-210.0
 20
-148.5
  9
$LIMMAX
 10
210.0
 20
148.5
  9
$ORTHOMODE
 70
     0
  9
$REGENMODE
 70
     1
  9
$FILLMODE
 70
     1
  9
$QTEXTMODE
 70
     0
  9
$MIRRTEXT
 70
     1
  9
$LTSCALE
 40
1.0
  9
$ATTMODE
 70
     1
  9
$TEXTSIZE
 40
1.0
  9
$TRACEWID
 40
0.05
  9
$TEXTSTYLE
  7
STANDARD
  9
$CLAYER
  8
図面
  9
$CELTYPE
  6
ByLayer
  9
$CECOLOR
 62
   256
  9
$CELTSCALE
 40
1.0
  9
$DISPSILH
 70
     0
  9
$DIMSCALE
 40
1.0
  9
$DIMASZ
 40
5.0
  9
$DIMEXO
 40
0.0625
  9
$DIMDLI
 40
0.38
  9
$DIMRND
 40
0.0
  9
$DIMDLE
 40
0.0
  9
$DIMEXE
 40
0.5
  9
$DIMTP
 40
0.0
  9
$DIMTM
 40
0.0
  9
$DIMTXT
 40
9.0
  9
$DIMCEN
 40
0.09
  9
$DIMTSZ
 40
0.0
  9
$DIMTOL
 70
     0
  9
$DIMLIM
 70
     0
  9
$DIMTIH
 70
     0
  9
$DIMTOH
 70
     0
  9
$DIMSE1
 70
     0
  9
$DIMSE2
 70
     0
  9
$DIMTAD
 70
     1
  9
$DIMZIN
 70
     0
  9
$DIMBLK
  1
Open30
  9
$DIMASO
 70
     1
  9
$DIMSHO
 70
     1
  9
$DIMPOST
  1

  9
$DIMAPOST
  1

  9
$DIMALT
 70
     0
  9
$DIMALTD
 70
     2
  9
$DIMALTF
 40
25.4
  9
$DIMLFAC
 40
1.0
  9
$DIMTOFL
 70
     0
  9
$DIMTVP
 40
0.0
  9
$DIMTIX
 70
     0
  9
$DIMSOXD
 70
     0
  9
$DIMSAH
 70
     0
  9
$DIMBLK1
  1

  9
$DIMBLK2
  1

  9
$DIMSTYLE
  2
Standard
  9
$DIMCLRD
 70
     1
  9
$DIMCLRE
 70
     1
  9
$DIMCLRT
 70
     1
  9
$DIMTFAC
 40
1.0
  9
$DIMGAP
 40
0.5
  9
$DIMJUST
 70
     0
  9
$DIMSD1
 70
     0
  9
$DIMSD2
 70
     0
  9
$DIMTOLJ
 70
     1
  9
$DIMTZIN
 70
     0
  9
$DIMALTZ
 70
     0
  9
$DIMALTTZ
 70
     0
  9
$DIMUPT
 70
     0
  9
$DIMDEC
 70
     0
  9
$DIMTDEC
 70
     0
  9
$DIMALTU
 70
     2
  9
$DIMALTTD
 70
     2
  9
$DIMTXSTY
  7
TextStyle01
  9
$DIMAUNIT
 70
     0
  9
$DIMADEC
 70
     0
  9
$DIMALTRND
 40
0.0
  9
$DIMAZIN
 70
     0
  9
$DIMDSEP
 70
    46
  9
$DIMATFIT
 70
     3
  9
$DIMFRAC
 70
     0
  9
$DIMLDRBLK
  1
Open30
  9
$DIMLUNIT
 70
     2
  9
$DIMLWD
 70
    -2
  9
$DIMLWE
 70
    -2
  9
$DIMTMOVE
 70
     2
  9
$LUNITS
 70
     2
  9
$LUPREC
 70
     4
  9
$SKETCHINC
 40
0.1
  9
$FILLETRAD
 40
0.0
  9
$AUNITS
 70
     0
  9
$AUPREC
 70
     0
  9
$MENU
  1
acad
  9
$ELEVATION
 40
0.0
  9
$PELEVATION
 40
0.0
  9
$THICKNESS
 40
0.0
  9
$LIMCHECK
 70
     0
  9
$CHAMFERA
 40
0.0
  9
$CHAMFERB
 40
0.0
  9
$CHAMFERC
 40
0.0
  9
$CHAMFERD
 40
0.0
  9
$SKPOLY
 70
     0
  9
$TDCREATE
 40
2449944.925517361
  9
$TDUCREATE
 40
2449944.550517361
  9
$TDUPDATE
 40
2455342.527016783
  9
$TDUUPDATE
 40
2455342.152016782
  9
$TDINDWG
 40
0.3569270255
  9
$TDUSRTIMER
 40
0.3569270255
  9
$USRTIMER
 70
     1
  9
$ANGBASE
 50
0.0
  9
$ANGDIR
 70
     0
  9
$PDMODE
 70
     0
  9
$PDSIZE
 40
1.5
  9
$PLINEWID
 40
0.0
  9
$SPLFRAME
 70
     0
  9
$SPLINETYPE
 70
     6
  9
$SPLINESEGS
 70
     8
  9
$HANDSEED
  5
2A6
  9
$SURFTAB1
 70
     6
  9
$SURFTAB2
 70
     6
  9
$SURFTYPE
 70
     6
  9
$SURFU
 70
     6
  9
$SURFV
 70
     6
  9
$UCSBASE
  2

  9
$UCSNAME
  2

  9
$UCSORG
 10
0.0
 20
0.0
 30
0.0
  9
$UCSXDIR
 10
1.0
 20
0.0
 30
0.0
  9
$UCSYDIR
 10
0.0
 20
1.0
 30
0.0
  9
$UCSORTHOREF
  2

  9
$UCSORTHOVIEW
 70
     0
  9
$UCSORGTOP
 10
0.0
 20
0.0
 30
0.0
  9
$UCSORGBOTTOM
 10
0.0
 20
0.0
 30
0.0
  9
$UCSORGLEFT
 10
0.0
 20
0.0
 30
0.0
  9
$UCSORGRIGHT
 10
0.0
 20
0.0
 30
0.0
  9
$UCSORGFRONT
 10
0.0
 20
0.0
 30
0.0
  9
$UCSORGBACK
 10
0.0
 20
0.0
 30
0.0
  9
$PUCSBASE
  2

  9
$PUCSNAME
  2

  9
$PUCSORG
 10
0.0
 20
0.0
 30
0.0
  9
$PUCSXDIR
 10
1.0
 20
0.0
 30
0.0
  9
$PUCSYDIR
 10
0.0
 20
1.0
 30
0.0
  9
$PUCSORTHOREF
  2

  9
$PUCSORTHOVIEW
 70
     0
  9
$PUCSORGTOP
 10
0.0
 20
0.0
 30
0.0
  9
$PUCSORGBOTTOM
 10
0.0
 20
0.0
 30
0.0
  9
$PUCSORGLEFT
 10
0.0
 20
0.0
 30
0.0
  9
$PUCSORGRIGHT
 10
0.0
 20
0.0
 30
0.0
  9
$PUCSORGFRONT
 10
0.0
 20
0.0
 30
0.0
  9
$PUCSORGBACK
 10
0.0
 20
0.0
 30
0.0
  9
$USERI1
 70
     0
  9
$USERI2
 70
     0
  9
$USERI3
 70
     0
  9
$USERI4
 70
     0
  9
$USERI5
 70
     0
  9
$USERR1
 40
0.0
  9
$USERR2
 40
0.0
  9
$USERR3
 40
0.0
  9
$USERR4
 40
0.0
  9
$USERR5
 40
0.0
  9
$WORLDVIEW
 70
     1
  9
$SHADEDGE
 70
     3
  9
$SHADEDIF
 70
    70
  9
$TILEMODE
 70
     1
  9
$MAXACTVP
 70
    16
  9
$PINSBASE
 10
0.0
 20
0.0
 30
0.0
  9
$PLIMCHECK
 70
     0
  9
$PEXTMIN
 10
1.000000000000000E+20
 20
1.000000000000000E+20
 30
1.000000000000000E+20
  9
$PEXTMAX
 10
-1.000000000000000E+20
 20
-1.000000000000000E+20
 30
-1.000000000000000E+20
  9
$PLIMMIN
 10
0.0
 20
0.0
  9
$PLIMMAX
 10
12.0
 20
9.0
  9
$UNITMODE
 70
     0
  9
$VISRETAIN
 70
     0
  9
$PLINEGEN
 70
     0
  9
$PSLTSCALE
 70
     1
  9
$TREEDEPTH
 70
  3020
  9
$CMLSTYLE
  2
Standard
  9
$CMLJUST
 70
     0
  9
$CMLSCALE
 40
1.0
  9
$PROXYGRAPHICS
 70
     1
  9
$MEASUREMENT
 70
     0
  9
$CELWEIGHT
370
    -1
  9
$ENDCAPS
280
     0
  9
$JOINSTYLE
280
     0
  9
$LWDISPLAY
290
     0
  9
$INSUNITS
 70
     0
  9
$HYPERLINKBASE
  1

  9
$STYLESHEET
  1

  9
$XEDIT
290
     1
  9
$CEPSNTYPE
380
     0
  9
$PSTYLEMODE
290
     1
  9
$FINGERPRINTGUID
  2
{3F05092E-EABE-41D4-925D-E3C07104686B}
  9
$VERSIONGUID
  2
{0DCBC67C-9AFE-4BED-A3DD-A568BA86D6A1}
  9
$EXTNAMES
290
     1
  9
$PSVPSCALE
 40
0.0
  9
$OLESTARTUP
290
     0
  0
ENDSEC
  0
SECTION
  2
CLASSES
  0
CLASS
  1
ACDBDICTIONARYWDFLT
  2
AcDbDictionaryWithDefault
  3
ObjectDBX Classes
 90
        0
280
     0
281
     0
  0
CLASS
  1
ACDBPLACEHOLDER
  2
AcDbPlaceHolder
  3
ObjectDBX Classes
 90
        0
280
     0
281
     0
  0
CLASS
  1
LAYOUT
  2
AcDbLayout
  3
ObjectDBX Classes
 90
        0
280
     0
281
     0
  0
CLASS
  1
DICTIONARYVAR
  2
AcDbDictionaryVar
  3
ObjectDBX Classes
 90
        0
280
     0
281
     0
  0
ENDSEC
  0
SECTION
  2
TABLES
  0
TABLE
  2
VPORT
  5
8
330
0
100
AcDbSymbolTable
 70
     2
  0
VPORT
  5
29E
330
8
100
AcDbSymbolTableRecord
100
AcDbViewportTableRecord
  2
*Active
 70
     0
 10
0.0
 20
0.0
 11
1.0
 21
1.0
 12
63.7223409356219
 22
212.5044496145526
 13
0.0
 23
0.0
 14
1.0
 24
1.0
 15
0.0
 25
0.0
 16
0.0
 26
0.0
 36
1.0
 17
0.0
 27
0.0
 37
0.0
 40
811.7445820920156
 41
1.530456852791878
 42
50.0
 43
0.0
 44
0.0
 50
0.0
 51
0.0
 71
     0
 72
   100
 73
     1
 74
     0
 75
     0
 76
     0
 77
     0
 78
     0
281
     0
 65
     1
110
0.0
120
0.0
130
0.0
111
1.0
121
0.0
131
0.0
112
0.0
122
1.0
132
0.0
 79
     0
146
0.0
  0
ENDTAB
  0
TABLE
  2
LTYPE
  5
5
330
0
100
AcDbSymbolTable
 70
    15
  0
LTYPE
  5
13
330
5
100
AcDbSymbolTableRecord
100
AcDbLinetypeTableRecord
  2
ByBlock
 70
     0
  3

 72
    65
 73
     0
 40
0.0
  0
LTYPE
  5
14
330
5
100
AcDbSymbolTableRecord
100
AcDbLinetypeTableRecord
  2
ByLayer
 70
     0
  3

 72
    65
 73
     0
 40
0.0
  0
LTYPE
  5
15
330
5
100
AcDbSymbolTableRecord
100
AcDbLinetypeTableRecord
  2
CONTINUOUS
 70
     0
  3
実線
 72
    65
 73
     0
 40
0.0
  0
LTYPE
  5
2D
330
5
100
AcDbSymbolTableRecord
100
AcDbLinetypeTableRecord
  2
DASHED
 70
     0
  3
破線A
 72
    65
 73
     2
 40
7.5
 49
5.0
 74
     0
 49
-2.5
 74
     0
  0
LTYPE
  5
2E
330
5
100
AcDbSymbolTableRecord
100
AcDbLinetypeTableRecord
  2
DASHEDX2
 70
     0
  3
破線B
 72
    65
 73
     2
 40
15.0
 49
10.0
 74
     0
 49
-5.0
 74
     0
  0
LTYPE
  5
2F
330
5
100
AcDbSymbolTableRecord
100
AcDbLinetypeTableRecord
  2
DASHDOT
 70
     0
  3
１点鎖線A
 72
    65
 73
     4
 40
10.0
 49
5.0
 74
     0
 49
-2.5
 74
     0
 49
0.0
 74
     0
 49
-2.5
 74
     0
  0
LTYPE
  5
30
330
5
100
AcDbSymbolTableRecord
100
AcDbLinetypeTableRecord
  2
DASHDOTX2
 70
     0
  3
１点鎖線B
 72
    65
 73
     4
 40
20.0
 49
10.0
 74
     0
 49
-5.0
 74
     0
 49
0.0
 74
     0
 49
-5.0
 74
     0
  0
LTYPE
  5
31
330
5
100
AcDbSymbolTableRecord
100
AcDbLinetypeTableRecord
  2
DIVIDE2
 70
     0
  3
２点鎖線A
 72
    65
 73
     6
 40
6.25
 49
2.5
 74
     0
 49
-1.25
 74
     0
 49
0.0
 74
     0
 49
-1.25
 74
     0
 49
0.0
 74
     0
 49
-1.25
 74
     0
  0
LTYPE
  5
32
330
5
100
AcDbSymbolTableRecord
100
AcDbLinetypeTableRecord
  2
DIVIDE
 70
     0
  3
２点鎖線B
 72
    65
 73
     6
 40
12.5
 49
5.0
 74
     0
 49
-2.5
 74
     0
 49
0.0
 74
     0
 49
-2.5
 74
     0
 49
0.0
 74
     0
 49
-2.5
 74
     0
  0
LTYPE
  5
33
330
5
100
AcDbSymbolTableRecord
100
AcDbLinetypeTableRecord
  2
DOT
 70
     0
  3
点線A
 72
    65
 73
     2
 40
2.5
 49
0.0
 74
     0
 49
-2.5
 74
     0
  0
LTYPE
  5
34
330
5
100
AcDbSymbolTableRecord
100
AcDbLinetypeTableRecord
  2
DOTX2
 70
     0
  3
点線B
 72
    65
 73
     2
 40
5.0
 49
0.0
 74
     0
 49
-5.0
 74
     0
  0
LTYPE
  5
35
330
5
100
AcDbSymbolTableRecord
100
AcDbLinetypeTableRecord
  2
CONTINUOUS
 70
     0
  3
実線
 72
    65
 73
     0
 40
0.0
  0
LTYPE
  5
36
330
5
100
AcDbSymbolTableRecord
100
AcDbLinetypeTableRecord
  2
CONTINUOUS
 70
     0
  3
実線
 72
    65
 73
     0
 40
0.0
  0
LTYPE
  5
37
330
5
100
AcDbSymbolTableRecord
100
AcDbLinetypeTableRecord
  2
CONTINUOUS
 70
     0
  3
実線
 72
    65
 73
     0
 40
0.0
  0
LTYPE
  5
38
330
5
100
AcDbSymbolTableRecord
100
AcDbLinetypeTableRecord
  2
CONTINUOUS
 70
     0
  3
実線
 72
    65
 73
     0
 40
0.0
  0
LTYPE
  5
39
330
5
100
AcDbSymbolTableRecord
100
AcDbLinetypeTableRecord
  2
CONTINUOUS
 70
     0
  3
実線
 72
    65
 73
     0
 40
0.0
  0
LTYPE
  5
3A
330
5
100
AcDbSymbolTableRecord
100
AcDbLinetypeTableRecord
  2
CONTINUOUS
 70
     0
  3
実線
 72
    65
 73
     0
 40
0.0
  0
ENDTAB
  0
TABLE
  2
LAYER
  5
2
330
0
100
AcDbSymbolTable
 70
     6
  0
LAYER
  5
10
330
2
100
AcDbSymbolTableRecord
100
AcDbLayerTableRecord
  2
ﾚｲﾔ1
 70
     0
 62
     7
  6
CONTINUOUS
370
    -3
390
F
  0
LAYER
  5
4C
330
2
100
AcDbSymbolTableRecord
100
AcDbLayerTableRecord
  2
0
 70
     0
 62
     7
  6
CONTINUOUS
370
    -3
390
F
  0
LAYER
  5
16B
330
2
100
AcDbSymbolTableRecord
100
AcDbLayerTableRecord
  2
図面
 70
     0
 62
     7
  6
CONTINUOUS
370
    -3
390
F
  0
LAYER
  5
16C
330
2
100
AcDbSymbolTableRecord
100
AcDbLayerTableRecord
  2
図面枠
 70
     0
 62
     5
  6
CONTINUOUS
370
    -3
390
F
  0
LAYER
  5
1AB
330
2
100
AcDbSymbolTableRecord
100
AcDbLayerTableRecord
  2
下図
 70
     0
 62
     8
  6
CONTINUOUS
290
     0
370
    -3
390
F
  0
LAYER
  5
200
330
2
100
AcDbSymbolTableRecord
100
AcDbLayerTableRecord
  2
Defpoints
 70
     0
 62
     7
  6
CONTINUOUS
290
     0
370
    -3
390
F
  0
ENDTAB
  0
TABLE
  2
STYLE
  5
3
330
0
100
AcDbSymbolTable
 70
    12
  0
STYLE
  5
11
330
3
100
AcDbSymbolTableRecord
100
AcDbTextStyleTableRecord
  2
STANDARD
 70
     0
 40
1.0
 41
1.0
 50
0.0
 71
     0
 42
1.0
  3
TXT
  4
BIGFONT
  0
STYLE
  5
22
330
3
100
AcDbSymbolTableRecord
100
AcDbTextStyleTableRecord
  2
TATE
 70
     4
 40
1.0
 41
1.0
 50
0.0
 71
     0
 42
1.0
  3
TXT
  4
BIGFONT
  0
STYLE
  5
23
330
3
100
AcDbSymbolTableRecord
100
AcDbTextStyleTableRecord
  2
TextStyle01
 70
     0
 40
0.0
 41
1.0
 50
0.0
 71
     0
 42
0.0
  3
TXT
  4
BIGFONT
  0
STYLE
  5
24
330
3
100
AcDbSymbolTableRecord
100
AcDbTextStyleTableRecord
  2
TextStyle02
 70
     0
 40
0.0
 41
1.0
 50
0.0
 71
     0
 42
0.0
  3
TXT
  4
BIGFONT
  0
STYLE
  5
25
330
3
100
AcDbSymbolTableRecord
100
AcDbTextStyleTableRecord
  2
TextStyle03
 70
     0
 40
0.0
 41
1.0
 50
0.0
 71
     0
 42
0.0
  3
TXT
  4
BIGFONT
  0
STYLE
  5
26
330
3
100
AcDbSymbolTableRecord
100
AcDbTextStyleTableRecord
  2
TextStyle04
 70
     0
 40
0.0
 41
1.0
 50
0.0
 71
     0
 42
0.0
  3
TXT
  4
BIGFONT
  0
STYLE
  5
27
330
3
100
AcDbSymbolTableRecord
100
AcDbTextStyleTableRecord
  2
TextStyle05
 70
     0
 40
0.0
 41
1.0
 50
0.0
 71
     0
 42
0.0
  3
TXT
  4
BIGFONT
  0
STYLE
  5
28
330
3
100
AcDbSymbolTableRecord
100
AcDbTextStyleTableRecord
  2
TextStyle06
 70
     0
 40
0.0
 41
1.0
 50
0.0
 71
     0
 42
0.0
  3

  4

  0
STYLE
  5
29
330
3
100
AcDbSymbolTableRecord
100
AcDbTextStyleTableRecord
  2
TextStyle07
 70
     0
 40
0.0
 41
1.0
 50
0.0
 71
     0
 42
0.0
  3

  4

  0
STYLE
  5
2A
330
3
100
AcDbSymbolTableRecord
100
AcDbTextStyleTableRecord
  2
TextStyle08
 70
     0
 40
0.0
 41
1.0
 50
0.0
 71
     0
 42
0.0
  3

  4

  0
STYLE
  5
2B
330
3
100
AcDbSymbolTableRecord
100
AcDbTextStyleTableRecord
  2
TextStyle09
 70
     0
 40
0.0
 41
1.0
 50
0.0
 71
     0
 42
0.0
  3

  4

  0
STYLE
  5
2C
330
3
100
AcDbSymbolTableRecord
100
AcDbTextStyleTableRecord
  2
TextStyle10
 70
     0
 40
0.0
 41
1.0
 50
0.0
 71
     0
 42
0.0
  3

  4

  0
ENDTAB
  0
TABLE
  2
VIEW
  5
6
330
0
100
AcDbSymbolTable
 70
     0
  0
ENDTAB
  0
TABLE
  2
UCS
  5
7
330
0
100
AcDbSymbolTable
 70
     0
  0
ENDTAB
  0
TABLE
  2
APPID
  5
9
330
0
100
AcDbSymbolTable
 70
     1
  0
APPID
  5
12
330
9
100
AcDbSymbolTableRecord
100
AcDbRegAppTableRecord
  2
ACAD
 70
     0
  0
ENDTAB
  0
TABLE
  2
DIMSTYLE
  5
A
330
0
100
AcDbSymbolTable
 70
     1
100
AcDbDimStyleTable
 71
     1
340
142
  0
DIMSTYLE
105
142
102
{ACAD_REACTORS
330
1FF
330
20D
330
21A
330
224
330
23F
102
}
330
A
100
AcDbSymbolTableRecord
100
AcDbDimStyleTableRecord
  2
Standard
 70
     0
340
11
  0
ENDTAB
  0
TABLE
  2
BLOCK_RECORD
  5
1
330
0
100
AcDbSymbolTable
 70
     7
  0
BLOCK_RECORD
  5
1E
330
1
100
AcDbSymbolTableRecord
100
AcDbBlockTableRecord
  2
*Model_Space
340
21
  0
BLOCK_RECORD
  5
1A
330
1
100
AcDbSymbolTableRecord
100
AcDbBlockTableRecord
  2
*Paper_Space
340
1D
  0
BLOCK_RECORD
  5
1C1
330
1
100
AcDbSymbolTableRecord
100
AcDbBlockTableRecord
  2
_Open30
340
0
102
{BLKREFS
331
285
331
28B
331
291
102
}
  0
BLOCK_RECORD
  5
201
330
1
100
AcDbSymbolTableRecord
100
AcDbBlockTableRecord
  2
*D1
340
0
  0
BLOCK_RECORD
  5
20E
330
1
100
AcDbSymbolTableRecord
100
AcDbBlockTableRecord
  2
*D2
340
0
  0
BLOCK_RECORD
  5
21B
330
1
100
AcDbSymbolTableRecord
100
AcDbBlockTableRecord
  2
*D3
340
0
  0
BLOCK_RECORD
  5
225
330
1
100
AcDbSymbolTableRecord
100
AcDbBlockTableRecord
  2
*D4
340
0
  0
BLOCK_RECORD
  5
240
330
1
100
AcDbSymbolTableRecord
100
AcDbBlockTableRecord
  2
*D5
340
0
  0
BLOCK_RECORD
  5
259
330
1
100
AcDbSymbolTableRecord
100
AcDbBlockTableRecord
  2
_Open
340
0
102
{BLKREFS
331
274
331
275
331
27D
331
27E
331
286
331
28C
331
292
102
}
  0
ENDTAB
  0
ENDSEC
  0
SECTION
  2
BLOCKS
  0
BLOCK
  5
4F
330
1E
100
AcDbEntity
  8
0
100
AcDbBlockBegin
  2
*Model_Space
 70
     0
 10
0.0
 20
0.0
 30
0.0
  3
*Model_Space
  1

  0
ENDBLK
  5
50
330
1E
100
AcDbEntity
  8
0
100
AcDbBlockEnd
  0
BLOCK
  5
4D
330
1A
100
AcDbEntity
 67
     1
  8
0
100
AcDbBlockBegin
  2
*Paper_Space
 70
     0
 10
0.0
 20
0.0
 30
0.0
  3
*Paper_Space
  1

  0
ENDBLK
  5
4E
330
1A
100
AcDbEntity
 67
     1
  8
0
100
AcDbBlockEnd
  0
BLOCK
  5
1C5
330
1C1
100
AcDbEntity
  8
0
100
AcDbBlockBegin
  2
_Open30
 70
     0
 10
0.0
 20
0.0
 30
0.0
  3
_Open30
  1

  0
LINE
  5
1C2
330
1C1
100
AcDbEntity
  8
下図
 62
     0
370
    -2
100
AcDbLine
 10
-1.0
 20
0.26794919
 30
0.0
 11
0.0
 21
0.0
 31
0.0
  0
LINE
  5
1C3
330
1C1
100
AcDbEntity
  8
下図
 62
     0
370
    -2
100
AcDbLine
 10
0.0
 20
0.0
 30
0.0
 11
-1.0
 21
-0.26794919
 31
0.0
  0
LINE
  5
1C4
330
1C1
100
AcDbEntity
  8
下図
 62
     0
370
    -2
100
AcDbLine
 10
0.0
 20
0.0
 30
0.0
 11
-1.0
 21
0.0
 31
0.0
  0
ENDBLK
  5
1C6
330
1C1
100
AcDbEntity
  8
0
100
AcDbBlockEnd
  0
BLOCK
  5
20B
330
201
100
AcDbEntity
  8
0
100
AcDbBlockBegin
  2
*D1
 70
     1
 10
0.0
 20
0.0
 30
0.0
  3
*D1
  1

  0
LINE
  5
27A
330
201
100
AcDbEntity
  8
図面
 62
     1
370
    -2
100
AcDbLine
 10
78.62231632821295
 20
266.9126827411523
 30
0.0
 11
59.79710518558253
 21
266.9126827411523
 31
0.0
  0
LINE
  5
27B
330
201
100
AcDbEntity
  8
図面
 62
     1
370
    -2
100
AcDbLine
 10
78.62231632821295
 20
108.9126827411522
 30
0.0
 11
59.79710518558249
 21
108.9126827411522
 31
0.0
  0
LINE
  5
27C
330
201
100
AcDbEntity
  8
図面
 62
     1
370
    -2
100
AcDbLine
 10
60.29710518558252
 20
261.9126827411522
 30
0.0
 11
60.2971051855825
 21
113.9126827411522
 31
0.0
  0
INSERT
  5
27D
330
201
100
AcDbEntity
  8
図面
 62
     1
370
    -2
100
AcDbBlockReference
  2
_Open
 10
60.29710518558252
 20
266.9126827411523
 30
0.0
 41
5.0
 42
5.0
 43
5.0
 50
90.0
  0
INSERT
  5
27E
330
201
100
AcDbEntity
  8
図面
 62
     1
370
    -2
100
AcDbBlockReference
  2
_Open
 10
60.29710518558249
 20
108.9126827411522
 30
0.0
 41
5.0
 42
5.0
 43
5.0
 50
270.0
  0
MTEXT
  5
27F
330
201
100
AcDbEntity
  8
図面
 62
     1
100
AcDbMText
 10
55.29710518558248
 20
187.9126827411522
 30
0.0
 40
9.0
 41
0.0
 71
     5
 72
     1
  1
\A1;φ158
  7
TextStyle01
 11
0.0000000000000001
 21
1.0
 31
0.0
 73
     1
 44
1.0
1001
ACAD
1000
MTEXTBEGIN
1070
    73
1070
     1
1070
    44
1040
1.0
1070
    74
1070
     0
1000
MTEXTEND
  0
POINT
  5
280
330
201
100
AcDbEntity
  8
Defpoints
 62
     0
100
AcDbPoint
 10
78.68481632821294
 20
266.9126827411523
 30
0.0
  0
POINT
  5
281
330
201
100
AcDbEntity
  8
Defpoints
 62
     0
100
AcDbPoint
 10
78.68481632821294
 20
108.9126827411522
 30
0.0
  0
POINT
  5
282
330
201
100
AcDbEntity
  8
Defpoints
 62
     0
100
AcDbPoint
 10
60.29710518558249
 20
108.9126827411522
 30
0.0
  0
ENDBLK
  5
20C
330
201
100
AcDbEntity
  8
0
100
AcDbBlockEnd
  0
BLOCK
  5
218
330
20E
100
AcDbEntity
  8
0
100
AcDbBlockBegin
  2
*D2
 70
     1
 10
0.0
 20
0.0
 30
0.0
  3
*D2
  1

  0
LINE
  5
271
330
20E
100
AcDbEntity
  8
図面
 62
     1
370
    -2
100
AcDbLine
 10
78.68481632821294
 20
266.9751827411523
 30
0.0
 11
78.68481632821294
 21
290.4899821296117
 31
0.0
  0
LINE
  5
272
330
20E
100
AcDbEntity
  8
図面
 62
     1
370
    -2
100
AcDbLine
 10
328.6848163282129
 20
266.9751827411523
 30
0.0
 11
328.6848163282129
 21
290.4899821296117
 31
0.0
  0
LINE
  5
273
330
20E
100
AcDbEntity
  8
図面
 62
     1
370
    -2
100
AcDbLine
 10
83.68481632821294
 20
289.9899821296117
 30
0.0
 11
323.6848163282129
 21
289.9899821296117
 31
0.0
  0
INSERT
  5
274
330
20E
100
AcDbEntity
  8
図面
 62
     1
370
    -2
100
AcDbBlockReference
  2
_Open
 10
78.68481632821294
 20
289.9899821296117
 30
0.0
 41
5.0
 42
5.0
 43
5.0
 50
180.0
  0
INSERT
  5
275
330
20E
100
AcDbEntity
  8
図面
 62
     1
370
    -2
100
AcDbBlockReference
  2
_Open
 10
328.6848163282129
 20
289.9899821296117
 30
0.0
 41
5.0
 42
5.0
 43
5.0
  0
MTEXT
  5
276
330
20E
100
AcDbEntity
  8
図面
 62
     1
100
AcDbMText
 10
203.6848163282129
 20
294.9899821296117
 30
0.0
 40
9.0
 41
0.0
 71
     5
 72
     1
  1
\A1;250
  7
TextStyle01
 73
     1
 44
1.0
1001
ACAD
1000
MTEXTBEGIN
1070
    73
1070
     1
1070
    44
1040
1.0
1070
    74
1070
     0
1000
MTEXTEND
  0
POINT
  5
277
330
20E
100
AcDbEntity
  8
Defpoints
 62
     0
100
AcDbPoint
 10
78.68481632821294
 20
266.9126827411523
 30
0.0
  0
POINT
  5
278
330
20E
100
AcDbEntity
  8
Defpoints
 62
     0
100
AcDbPoint
 10
328.6848163282129
 20
266.9126827411523
 30
0.0
  0
POINT
  5
279
330
20E
100
AcDbEntity
  8
Defpoints
 62
     0
100
AcDbPoint
 10
328.6848163282129
 20
289.9899821296117
 30
0.0
  0
ENDBLK
  5
219
330
20E
100
AcDbEntity
  8
0
100
AcDbBlockEnd
  0
BLOCK
  5
222
330
21B
100
AcDbEntity
  8
0
100
AcDbBlockBegin
  2
*D3
 70
     1
 10
0.0
 20
0.0
 30
0.0
  3
*D3
  1

  0
LINE
  5
289
330
21B
100
AcDbEntity
  8
図面
 62
     1
370
    -2
100
AcDbLine
 10
-19.52282713416011
 20
204.0022502577805
 30
0.0
 11
-75.99851454486333
 21
171.8231152245242
 31
0.0
  0
MTEXT
  5
28A
330
21B
100
AcDbEntity
  8
図面
 62
     1
100
AcDbMText
 10
-36.29251731259638
 20
201.6474390664468
 30
0.0
 40
9.0
 41
0.0
 71
     5
 72
     1
  1
\A1;\U+220575
  7
TextStyle01
 11
0.8688567293954337
 21
0.4950636158962506
 31
0.0
 73
     1
 44
1.0
1001
ACAD
1000
MTEXTBEGIN
1070
    73
1070
     1
1070
    44
1040
1.0
1070
    74
1070
     0
1000
MTEXTEND
  0
INSERT
  5
28B
330
21B
100
AcDbEntity
  8
図面
 62
     1
370
    -2
100
AcDbBlockReference
  2
_Open30
 10
-15.17854348718295
 20
206.4775683372617
 30
0.0
 41
5.0
 42
5.0
 43
5.0
 50
29.67394532861098
  0
INSERT
  5
28C
330
21B
100
AcDbEntity
  8
図面
 62
     1
370
    -2
100
AcDbBlockReference
  2
_Open
 10
-80.34279819184048
 20
169.3477971450429
 30
0.0
 41
5.0
 42
5.0
 43
5.0
 50
209.673945328611
  0
POINT
  5
28D
330
21B
100
AcDbEntity
  8
Defpoints
 62
     0
100
AcDbPoint
 10
-80.34279819184048
 20
169.3477971450429
 30
0.0
  0
POINT
  5
28E
330
21B
100
AcDbEntity
  8
Defpoints
 62
     0
100
AcDbPoint
 10
-15.17854348718295
 20
206.4775683372617
 30
0.0
  0
ENDBLK
  5
223
330
21B
100
AcDbEntity
  8
0
100
AcDbBlockEnd
  0
BLOCK
  5
22C
330
225
100
AcDbEntity
  8
0
100
AcDbBlockBegin
  2
*D4
 70
     1
 10
0.0
 20
0.0
 30
0.0
  3
*D4
  1

  0
LINE
  5
283
330
225
100
AcDbEntity
  8
図面
 62
     1
370
    -2
100
AcDbLine
 10
528.7796534173699
 20
171.8694275533864
 30
0.0
 11
434.067162942666
 21
203.9559379289182
 31
0.0
  0
MTEXT
  5
284
330
225
100
AcDbEntity
  8
図面
 62
     1
100
AcDbMText
 10
463.1267472123099
 20
202.392406902543
 30
0.0
 40
9.0
 41
0.0
 71
     5
 72
     1
  1
\A1;φ108
  7
TextStyle01
 11
0.9471249047470395
 21
-0.3208651037553183
 31
0.0
 73
     1
 44
1.0
1001
ACAD
1000
MTEXTBEGIN
1070
    73
1070
     1
1070
    44
1040
1.0
1070
    74
1070
     0
1000
MTEXTEND
  0
INSERT
  5
285
330
225
100
AcDbEntity
  8
図面
 62
     1
370
    -2
100
AcDbBlockReference
  2
_Open30
 10
533.5152779411051
 20
170.2651020346098
 30
0.0
 41
5.0
 42
5.0
 43
5.0
 50
341.2847492454046
  0
INSERT
  5
286
330
225
100
AcDbEntity
  8
図面
 62
     1
370
    -2
100
AcDbBlockReference
  2
_Open
 10
429.3315384189307
 20
205.5602634476949
 30
0.0
 41
5.0
 42
5.0
 43
5.0
 50
161.2847492454045
  0
POINT
  5
287
330
225
100
AcDbEntity
  8
Defpoints
 62
     0
100
AcDbPoint
 10
429.3315384189307
 20
205.5602634476949
 30
0.0
  0
POINT
  5
288
330
225
100
AcDbEntity
  8
Defpoints
 62
     0
100
AcDbPoint
 10
533.5152779411051
 20
170.2651020346098
 30
0.0
  0
ENDBLK
  5
22D
330
225
100
AcDbEntity
  8
0
100
AcDbBlockEnd
  0
BLOCK
  5
247
330
240
100
AcDbEntity
  8
0
100
AcDbBlockBegin
  2
*D5
 70
     1
 10
0.0
 20
0.0
 30
0.0
  3
*D5
  1

  0
LINE
  5
28F
330
240
100
AcDbEntity
  8
図面
 62
     1
370
    -2
100
AcDbLine
 10
-13.98397715793696
 20
162.1176257739526
 30
0.0
 11
-81.53736452108645
 21
213.7077397083518
 31
0.0
  0
MTEXT
  5
290
330
240
100
AcDbEntity
  8
図面
 62
     1
100
AcDbMText
 10
-23.97521528785777
 20
177.9771345130643
 30
0.0
 40
9.0
 41
0.0
 71
     5
 72
     1
  1
\A1;\U+220595
  7
TextStyle01
 11
0.7947457336841115
 21
-0.6069425168752832
 31
0.0
 73
     1
 44
1.0
1001
ACAD
1000
MTEXTBEGIN
1070
    73
1070
     1
1070
    44
1040
1.0
1070
    74
1070
     0
1000
MTEXTEND
  0
INSERT
  5
291
330
240
100
AcDbEntity
  8
図面
 62
     1
370
    -2
100
AcDbBlockReference
  2
_Open30
 10
-10.01024848951641
 20
159.0829131895763
 30
0.0
 41
5.0
 42
5.0
 43
5.0
 50
322.6312461479119
  0
INSERT
  5
292
330
240
100
AcDbEntity
  8
図面
 62
     1
370
    -2
100
AcDbBlockReference
  2
_Open
 10
-85.51109318950702
 20
216.7424522927282
 30
0.0
 41
5.0
 42
5.0
 43
5.0
 50
142.6312461479119
  0
POINT
  5
293
330
240
100
AcDbEntity
  8
Defpoints
 62
     0
100
AcDbPoint
 10
-85.51109318950702
 20
216.7424522927282
 30
0.0
  0
POINT
  5
294
330
240
100
AcDbEntity
  8
Defpoints
 62
     0
100
AcDbPoint
 10
-10.01024848951641
 20
159.0829131895763
 30
0.0
  0
ENDBLK
  5
248
330
240
100
AcDbEntity
  8
0
100
AcDbBlockEnd
  0
BLOCK
  5
25D
330
259
100
AcDbEntity
  8
0
100
AcDbBlockBegin
  2
_Open
 70
     0
 10
0.0
 20
0.0
 30
0.0
  3
_Open
  1

  0
LINE
  5
25A
330
259
100
AcDbEntity
  8
0
  6
ByBlock
 62
     0
370
    -2
100
AcDbLine
 10
-1.0
 20
0.1666666666666666
 30
0.0
 11
0.0
 21
0.0
 31
0.0
  0
LINE
  5
25B
330
259
100
AcDbEntity
  8
0
  6
ByBlock
 62
     0
370
    -2
100
AcDbLine
 10
-1.0
 20
-0.1666666666666666
 30
0.0
 11
0.0
 21
0.0
 31
0.0
  0
LINE
  5
25C
330
259
100
AcDbEntity
  8
0
  6
ByBlock
 62
     0
370
    -2
100
AcDbLine
 10
0.0
 20
0.0
 30
0.0
 11
-1.0
 21
0.0
 31
0.0
  0
ENDBLK
  5
25E
330
259
100
AcDbEntity
  8
0
100
AcDbBlockEnd
  0
ENDSEC
  0
SECTION
  2
ENTITIES
  0
LWPOLYLINE
  5
51
330
1E
100
AcDbEntity
  8
図面枠
  6
Continuous
 62
     4
100
AcDbPolyline
 90
        4
 70
     1
 43
0.0
 10
-210.0
 20
-148.5
 10
630.0
 20
-148.5
 10
630.0
 20
445.5
 10
-210.0
 20
445.5
  0
LINE
  5
57
330
1E
100
AcDbEntity
  8
図面枠
  6
Continuous
100
AcDbLine
 10
599.9999999999999
 20
425.4999999999999
 30
0.0
 11
-170.0
 21
425.4999999999999
 31
0.0
  0
LINE
  5
58
330
1E
100
AcDbEntity
  8
図面枠
  6
Continuous
100
AcDbLine
 10
-170.0
 20
425.4999999999999
 30
0.0
 11
-170.0
 21
-118.5
 31
0.0
  0
LINE
  5
59
330
1E
100
AcDbEntity
  8
図面枠
  6
Continuous
100
AcDbLine
 10
599.9999999999999
 20
-118.5
 30
0.0
 11
-170.0
 21
-118.5
 31
0.0
  0
LINE
  5
5A
330
1E
100
AcDbEntity
  8
図面枠
  6
Continuous
100
AcDbLine
 10
599.9999999999999
 20
425.4999999999999
 30
0.0
 11
599.9999999999999
 21
-118.5
 31
0.0
  0
LINE
  5
5B
330
1E
100
AcDbEntity
  8
図面枠
  6
Continuous
100
AcDbLine
 10
363.9999999999999
 20
-112.5
 30
0.0
 11
363.9999999999999
 21
-92.5
 31
0.0
  0
LINE
  5
5C
330
1E
100
AcDbEntity
  8
図面枠
  6
Continuous
100
AcDbLine
 10
363.9999999999999
 20
-92.5
 30
0.0
 11
343.9999999999999
 21
-92.5
 31
0.0
  0
LINE
  5
5D
330
1E
100
AcDbEntity
  8
図面枠
  6
Continuous
100
AcDbLine
 10
363.9999999999999
 20
-92.5
 30
0.0
 11
363.9999999999999
 21
-112.5
 31
0.0
  0
LINE
  5
5E
330
1E
100
AcDbEntity
  8
図面枠
  6
Continuous
100
AcDbLine
 10
363.9999999999999
 20
-112.5
 30
0.0
 11
383.9999999999999
 21
-112.5
 31
0.0
  0
LINE
  5
5F
330
1E
100
AcDbEntity
  8
図面枠
  6
Continuous
100
AcDbLine
 10
383.9999999999999
 20
-112.5
 30
0.0
 11
383.9999999999999
 21
-92.5
 31
0.0
  0
LINE
  5
60
330
1E
100
AcDbEntity
  8
図面枠
  6
Continuous
100
AcDbLine
 10
383.9999999999999
 20
-92.5
 30
0.0
 11
363.9999999999999
 21
-92.5
 31
0.0
  0
LINE
  5
61
330
1E
100
AcDbEntity
  8
図面枠
  6
Continuous
100
AcDbLine
 10
383.9999999999999
 20
-92.5
 30
0.0
 11
383.9999999999999
 21
-112.5
 31
0.0
  0
LINE
  5
62
330
1E
100
AcDbEntity
  8
図面枠
  6
Continuous
100
AcDbLine
 10
383.9999999999999
 20
-112.5
 30
0.0
 11
403.9999999999999
 21
-112.5
 31
0.0
  0
LINE
  5
63
330
1E
100
AcDbEntity
  8
図面枠
  6
Continuous
100
AcDbLine
 10
403.9999999999999
 20
-112.5
 30
0.0
 11
403.9999999999999
 21
-92.5
 31
0.0
  0
LINE
  5
64
330
1E
100
AcDbEntity
  8
図面枠
  6
Continuous
100
AcDbLine
 10
403.9999999999999
 20
-92.5
 30
0.0
 11
383.9999999999999
 21
-92.5
 31
0.0
  0
LINE
  5
65
330
1E
100
AcDbEntity
  8
図面枠
  6
Continuous
100
AcDbLine
 10
403.9999999999999
 20
-92.5
 30
0.0
 11
403.9999999999999
 21
-112.5
 31
0.0
  0
LINE
  5
66
330
1E
100
AcDbEntity
  8
図面枠
  6
Continuous
100
AcDbLine
 10
403.9999999999999
 20
-112.5
 30
0.0
 11
423.9999999999999
 21
-112.5
 31
0.0
  0
LINE
  5
67
330
1E
100
AcDbEntity
  8
図面枠
  6
Continuous
100
AcDbLine
 10
423.9999999999999
 20
-112.5
 30
0.0
 11
423.9999999999999
 21
-92.5
 31
0.0
  0
LINE
  5
68
330
1E
100
AcDbEntity
  8
図面枠
  6
Continuous
100
AcDbLine
 10
423.9999999999999
 20
-92.5
 30
0.0
 11
403.9999999999999
 21
-92.5
 31
0.0
  0
LINE
  5
69
330
1E
100
AcDbEntity
  8
図面枠
  6
Continuous
100
AcDbLine
 10
423.9999999999999
 20
-92.5
 30
0.0
 11
423.9999999999999
 21
-112.5
 31
0.0
  0
LINE
  5
6A
330
1E
100
AcDbEntity
  8
図面枠
  6
Continuous
100
AcDbLine
 10
423.9999999999999
 20
-112.5
 30
0.0
 11
451.9999999999998
 21
-112.5
 31
0.0
  0
LINE
  5
6B
330
1E
100
AcDbEntity
  8
図面枠
  6
Continuous
100
AcDbLine
 10
451.9999999999998
 20
-112.5
 30
0.0
 11
451.9999999999998
 21
-92.5
 31
0.0
  0
LINE
  5
6C
330
1E
100
AcDbEntity
  8
図面枠
  6
Continuous
100
AcDbLine
 10
451.9999999999998
 20
-92.5
 30
0.0
 11
423.9999999999999
 21
-92.5
 31
0.0
  0
LINE
  5
6D
330
1E
100
AcDbEntity
  8
図面枠
  6
Continuous
100
AcDbLine
 10
451.9999999999998
 20
-92.5
 30
0.0
 11
451.9999999999998
 21
-112.5
 31
0.0
  0
LINE
  5
6E
330
1E
100
AcDbEntity
  8
図面枠
  6
Continuous
100
AcDbLine
 10
451.9999999999998
 20
-112.5
 30
0.0
 11
479.9999999999998
 21
-112.5
 31
0.0
  0
LINE
  5
6F
330
1E
100
AcDbEntity
  8
図面枠
  6
Continuous
100
AcDbLine
 10
479.9999999999998
 20
-112.5
 30
0.0
 11
479.9999999999998
 21
-92.5
 31
0.0
  0
LINE
  5
70
330
1E
100
AcDbEntity
  8
図面枠
  6
Continuous
100
AcDbLine
 10
479.9999999999998
 20
-92.5
 30
0.0
 11
451.9999999999998
 21
-92.5
 31
0.0
  0
LINE
  5
71
330
1E
100
AcDbEntity
  8
図面枠
  6
Continuous
100
AcDbLine
 10
479.9999999999998
 20
-92.5
 30
0.0
 11
479.9999999999998
 21
-112.5
 31
0.0
  0
LINE
  5
72
330
1E
100
AcDbEntity
  8
図面枠
  6
Continuous
100
AcDbLine
 10
479.9999999999998
 20
-112.5
 30
0.0
 11
501.9999999999998
 21
-112.5
 31
0.0
  0
LINE
  5
73
330
1E
100
AcDbEntity
  8
図面枠
  6
Continuous
100
AcDbLine
 10
501.9999999999998
 20
-112.5
 30
0.0
 11
501.9999999999998
 21
-92.5
 31
0.0
  0
LINE
  5
74
330
1E
100
AcDbEntity
  8
図面枠
  6
Continuous
100
AcDbLine
 10
501.9999999999998
 20
-92.5
 30
0.0
 11
479.9999999999998
 21
-92.5
 31
0.0
  0
LINE
  5
75
330
1E
100
AcDbEntity
  8
図面枠
  6
Continuous
100
AcDbLine
 10
501.9999999999998
 20
-92.5
 30
0.0
 11
501.9999999999998
 21
-112.5
 31
0.0
  0
LINE
  5
76
330
1E
100
AcDbEntity
  8
図面枠
  6
Continuous
100
AcDbLine
 10
501.9999999999998
 20
-112.5
 30
0.0
 11
509.9999999999998
 21
-112.5
 31
0.0
  0
LINE
  5
77
330
1E
100
AcDbEntity
  8
図面枠
  6
Continuous
100
AcDbLine
 10
509.9999999999998
 20
-112.5
 30
0.0
 11
509.9999999999998
 21
-92.5
 31
0.0
  0
LINE
  5
78
330
1E
100
AcDbEntity
  8
図面枠
  6
Continuous
100
AcDbLine
 10
509.9999999999998
 20
-92.5
 30
0.0
 11
501.9999999999998
 21
-92.5
 31
0.0
  0
LINE
  5
79
330
1E
100
AcDbEntity
  8
図面枠
  6
Continuous
100
AcDbLine
 10
509.9999999999998
 20
-92.5
 30
0.0
 11
509.9999999999998
 21
-112.5
 31
0.0
  0
LINE
  5
7A
330
1E
100
AcDbEntity
  8
図面枠
  6
Continuous
100
AcDbLine
 10
509.9999999999998
 20
-112.5
 30
0.0
 11
593.9999999999998
 21
-112.5
 31
0.0
  0
LINE
  5
7B
330
1E
100
AcDbEntity
  8
図面枠
  6
Continuous
100
AcDbLine
 10
593.9999999999998
 20
-112.5
 30
0.0
 11
593.9999999999998
 21
-92.5
 31
0.0
  0
LINE
  5
7C
330
1E
100
AcDbEntity
  8
図面枠
  6
Continuous
100
AcDbLine
 10
593.9999999999998
 20
-92.5
 30
0.0
 11
509.9999999999998
 21
-92.5
 31
0.0
  0
LINE
  5
7D
330
1E
100
AcDbEntity
  8
図面枠
  6
Continuous
100
AcDbLine
 10
343.9999999999999
 20
-92.5
 30
0.0
 11
343.9999999999999
 21
-82.5
 31
0.0
  0
LINE
  5
7E
330
1E
100
AcDbEntity
  8
図面枠
  6
Continuous
100
AcDbLine
 10
343.9999999999999
 20
-82.5
 30
0.0
 11
451.9999999999998
 21
-82.5
 31
0.0
  0
LINE
  5
7F
330
1E
100
AcDbEntity
  8
図面枠
  6
Continuous
100
AcDbLine
 10
451.9999999999998
 20
-82.5
 30
0.0
 11
451.9999999999998
 21
-92.5
 31
0.0
  0
LINE
  5
80
330
1E
100
AcDbEntity
  8
図面枠
  6
Continuous
100
AcDbLine
 10
451.9999999999998
 20
-92.5
 30
0.0
 11
343.9999999999999
 21
-92.5
 31
0.0
  0
LINE
  5
81
330
1E
100
AcDbEntity
  8
図面枠
  6
Continuous
100
AcDbLine
 10
343.9999999999999
 20
-82.5
 30
0.0
 11
343.9999999999999
 21
-72.5
 31
0.0
  0
LINE
  5
82
330
1E
100
AcDbEntity
  8
図面枠
  6
Continuous
100
AcDbLine
 10
343.9999999999999
 20
-72.5
 30
0.0
 11
451.9999999999998
 21
-72.5
 31
0.0
  0
LINE
  5
83
330
1E
100
AcDbEntity
  8
図面枠
  6
Continuous
100
AcDbLine
 10
451.9999999999998
 20
-72.5
 30
0.0
 11
451.9999999999998
 21
-82.5
 31
0.0
  0
LINE
  5
84
330
1E
100
AcDbEntity
  8
図面枠
  6
Continuous
100
AcDbLine
 10
451.9999999999998
 20
-82.5
 30
0.0
 11
343.9999999999999
 21
-82.5
 31
0.0
  0
LINE
  5
85
330
1E
100
AcDbEntity
  8
図面枠
  6
Continuous
100
AcDbLine
 10
343.9999999999999
 20
-72.5
 30
0.0
 11
343.9999999999999
 21
-62.5
 31
0.0
  0
LINE
  5
86
330
1E
100
AcDbEntity
  8
図面枠
  6
Continuous
100
AcDbLine
 10
343.9999999999999
 20
-62.5
 30
0.0
 11
451.9999999999998
 21
-62.5
 31
0.0
  0
LINE
  5
87
330
1E
100
AcDbEntity
  8
図面枠
  6
Continuous
100
AcDbLine
 10
451.9999999999998
 20
-62.5
 30
0.0
 11
451.9999999999998
 21
-72.5
 31
0.0
  0
LINE
  5
88
330
1E
100
AcDbEntity
  8
図面枠
  6
Continuous
100
AcDbLine
 10
451.9999999999998
 20
-72.5
 30
0.0
 11
343.9999999999999
 21
-72.5
 31
0.0
  0
LINE
  5
89
330
1E
100
AcDbEntity
  8
図面枠
  6
Continuous
100
AcDbLine
 10
451.9999999999998
 20
-62.5
 30
0.0
 11
451.9999999999998
 21
-92.5
 31
0.0
  0
LINE
  5
8A
330
1E
100
AcDbEntity
  8
図面枠
  6
Continuous
100
AcDbLine
 10
451.9999999999998
 20
-92.5
 30
0.0
 11
461.9999999999999
 21
-92.5
 31
0.0
  0
LINE
  5
8B
330
1E
100
AcDbEntity
  8
図面枠
  6
Continuous
100
AcDbLine
 10
461.9999999999999
 20
-92.5
 30
0.0
 11
461.9999999999999
 21
-62.5
 31
0.0
  0
LINE
  5
8C
330
1E
100
AcDbEntity
  8
図面枠
  6
Continuous
100
AcDbLine
 10
461.9999999999999
 20
-62.5
 30
0.0
 11
451.9999999999998
 21
-62.5
 31
0.0
  0
LINE
  5
8D
330
1E
100
AcDbEntity
  8
図面枠
  6
Continuous
100
AcDbLine
 10
461.9999999999999
 20
-92.5
 30
0.0
 11
461.9999999999999
 21
-62.5
 31
0.0
  0
LINE
  5
8E
330
1E
100
AcDbEntity
  8
図面枠
  6
Continuous
100
AcDbLine
 10
461.9999999999999
 20
-62.5
 30
0.0
 11
593.9999999999998
 21
-62.5
 31
0.0
  0
LINE
  5
8F
330
1E
100
AcDbEntity
  8
図面枠
  6
Continuous
100
AcDbLine
 10
593.9999999999998
 20
-62.5
 30
0.0
 11
593.9999999999998
 21
-92.5
 31
0.0
  0
LINE
  5
90
330
1E
100
AcDbEntity
  8
図面枠
  6
Continuous
100
AcDbLine
 10
593.9999999999998
 20
-92.5
 30
0.0
 11
461.9999999999999
 21
-92.5
 31
0.0
  0
LINE
  5
91
330
1E
100
AcDbEntity
  8
図面枠
  6
Continuous
100
AcDbLine
 10
343.9999999999999
 20
-62.5
 30
0.0
 11
343.9999999999999
 21
-22.5
 31
0.0
  0
LINE
  5
92
330
1E
100
AcDbEntity
  8
図面枠
  6
Continuous
100
AcDbLine
 10
343.9999999999999
 20
-22.5
 30
0.0
 11
593.9999999999998
 21
-22.5
 31
0.0
  0
LINE
  5
93
330
1E
100
AcDbEntity
  8
図面枠
  6
Continuous
100
AcDbLine
 10
593.9999999999998
 20
-22.5
 30
0.0
 11
593.9999999999998
 21
-62.5
 31
0.0
  0
LINE
  5
94
330
1E
100
AcDbEntity
  8
図面枠
  6
Continuous
100
AcDbLine
 10
593.9999999999998
 20
-62.5
 30
0.0
 11
343.9999999999999
 21
-62.5
 31
0.0
  0
LINE
  5
95
330
1E
100
AcDbEntity
  8
図面枠
  6
Continuous
100
AcDbLine
 10
343.9999999999999
 20
-32.5
 30
0.0
 11
593.9999999999998
 21
-32.5
 31
0.0
  0
LINE
  5
96
330
1E
100
AcDbEntity
  8
図面枠
  6
Continuous
100
AcDbLine
 10
343.9999999999999
 20
-42.5
 30
0.0
 11
593.9999999999998
 21
-42.5
 31
0.0
  0
LINE
  5
97
330
1E
100
AcDbEntity
  8
図面枠
  6
Continuous
100
AcDbLine
 10
343.9999999999999
 20
-52.5
 30
0.0
 11
593.9999999999998
 21
-52.5
 31
0.0
  0
LINE
  5
98
330
1E
100
AcDbEntity
  8
図面枠
  6
Continuous
100
AcDbLine
 10
357.9999999999999
 20
-22.5
 30
0.0
 11
357.9999999999999
 21
-82.5
 31
0.0
  0
LINE
  5
99
330
1E
100
AcDbEntity
  8
図面枠
  6
Continuous
100
AcDbLine
 10
373.9999999999999
 20
-22.5
 30
0.0
 11
373.9999999999999
 21
-82.5
 31
0.0
  0
LINE
  5
9A
330
1E
100
AcDbEntity
  8
図面枠
  6
Continuous
100
AcDbLine
 10
437.9999999999999
 20
-22.5
 30
0.0
 11
437.9999999999999
 21
-82.5
 31
0.0
  0
LINE
  5
9B
330
1E
100
AcDbEntity
  8
図面枠
  6
Continuous
100
AcDbLine
 10
451.9999999999998
 20
-62.5
 30
0.0
 11
451.9999999999998
 21
-22.5
 31
0.0
  0
LINE
  5
9C
330
1E
100
AcDbEntity
  8
図面枠
  6
Continuous
100
AcDbLine
 10
465.9999999999999
 20
-62.5
 30
0.0
 11
465.9999999999999
 21
-22.5
 31
0.0
  0
LINE
  5
9D
330
1E
100
AcDbEntity
  8
図面枠
  6
Continuous
100
AcDbLine
 10
501.9999999999998
 20
-62.5
 30
0.0
 11
501.9999999999998
 21
-22.5
 31
0.0
  0
LINE
  5
9E
330
1E
100
AcDbEntity
  8
図面枠
  6
Continuous
100
AcDbLine
 10
517.9999999999998
 20
-22.5
 30
0.0
 11
517.9999999999998
 21
-62.5
 31
0.0
  0
LINE
  5
9F
330
1E
100
AcDbEntity
  8
図面枠
  6
Continuous
100
AcDbLine
 10
537.9999999999999
 20
-22.5
 30
0.0
 11
537.9999999999999
 21
-62.5
 31
0.0
  0
LINE
  5
A0
330
1E
100
AcDbEntity
  8
図面枠
  6
Continuous
100
AcDbLine
 10
363.9999999999999
 20
-82.5
 30
0.0
 11
363.9999999999999
 21
-112.5
 31
0.0
  0
LINE
  5
A1
330
1E
100
AcDbEntity
  8
図面枠
  6
Continuous
100
AcDbLine
 10
383.9999999999999
 20
-82.5
 30
0.0
 11
383.9999999999999
 21
-112.5
 31
0.0
  0
LINE
  5
A2
330
1E
100
AcDbEntity
  8
図面枠
  6
Continuous
100
AcDbLine
 10
403.9999999999999
 20
-82.5
 30
0.0
 11
403.9999999999999
 21
-112.5
 31
0.0
  0
LINE
  5
A3
330
1E
100
AcDbEntity
  8
図面枠
  6
Continuous
100
AcDbLine
 10
423.9999999999999
 20
-82.5
 30
0.0
 11
423.9999999999999
 21
-112.5
 31
0.0
  0
LINE
  5
A4
330
1E
100
AcDbEntity
  8
図面枠
  6
Continuous
100
AcDbLine
 10
423.9999999999999
 20
-102.5
 30
0.0
 11
501.9999999999998
 21
-102.5
 31
0.0
  0
LINE
  5
A5
330
1E
100
AcDbEntity
  8
図面枠
  6
Continuous
100
AcDbLine
 10
467.9999999999998
 20
-78.70000000000001
 30
0.0
 11
587.5999999999999
 21
-78.70000000000001
 31
0.0
  0
LINE
  5
A6
330
1E
100
AcDbEntity
  8
図面枠
  6
Continuous
100
AcDbLine
 10
-164.0
 20
419.5
 30
0.0
 11
593.9999999999998
 21
419.5
 31
0.0
  0
LINE
  5
A7
330
1E
100
AcDbEntity
  8
図面枠
  6
Continuous
100
AcDbLine
 10
-164.0
 20
-112.5
 30
0.0
 11
-164.0
 21
419.5
 31
0.0
  0
LINE
  5
A8
330
1E
100
AcDbEntity
  8
図面枠
  6
Continuous
100
AcDbLine
 10
593.9999999999998
 20
419.5
 30
0.0
 11
593.9999999999998
 21
-112.5
 31
0.0
  0
LINE
  5
A9
330
1E
100
AcDbEntity
  8
図面枠
  6
Continuous
100
AcDbLine
 10
343.9999999999999
 20
-92.5
 30
0.0
 11
343.9999999999999
 21
-112.5
 31
0.0
  0
LINE
  5
AA
330
1E
100
AcDbEntity
  8
図面枠
  6
Continuous
100
AcDbLine
 10
343.9999999999999
 20
-112.5
 30
0.0
 11
363.9999999999999
 21
-112.5
 31
0.0
  0
LINE
  5
AB
330
1E
100
AcDbEntity
  8
図面枠
  6
Continuous
100
AcDbLine
 10
593.9999999999998
 20
-112.5
 30
0.0
 11
-164.0
 21
-112.5
 31
0.0
  0
TEXT
  5
12A
330
1E
100
AcDbEntity
  8
図面枠
100
AcDbText
 10
345.5999999999999
 20
-91.70000000000001
 30
0.0
 40
8.0
  1
審査
100
AcDbText
  0
TEXT
  5
12D
330
1E
100
AcDbEntity
  8
図面枠
100
AcDbText
 10
364.7999999999998
 20
-91.70000000000001
 30
0.0
 40
8.0
  1
検図
100
AcDbText
  0
TEXT
  5
12E
330
1E
100
AcDbEntity
  8
図面枠
100
AcDbText
 10
385.1999999999998
 20
-91.5
 30
0.0
 40
8.0
  1
設計
100
AcDbText
  0
TEXT
  5
12F
330
1E
100
AcDbEntity
  8
図面枠
100
AcDbText
 10
405.5999999999999
 20
-91.70000000000001
 30
0.0
 40
8.0
  1
製図
100
AcDbText
  0
TEXT
  5
130
330
1E
100
AcDbEntity
  8
図面枠
100
AcDbText
 10
427.5386658101195
 20
-91.58085748155196
 30
0.0
 40
8.0
  1
尺度
 41
1.125
100
AcDbText
  0
TEXT
  5
131
330
1E
100
AcDbEntity
  8
図面枠
100
AcDbText
 10
452.6591105400799
 20
-66.37549711764094
 30
0.0
 40
8.0
  1
名 称
 50
270.0
100
AcDbText
  0
TEXT
  5
132
330
1E
100
AcDbEntity
  8
図面枠
100
AcDbText
 10
453.1000000000004
 20
-100.6595719953652
 30
0.0
 40
6.0
  1
設計年月日
 41
0.75
100
AcDbText
  0
TEXT
  5
136
330
1E
100
AcDbEntity
  8
図面枠
100
AcDbText
 10
503.2999999999998
 20
-109.8999999999999
 30
0.0
 40
6.0
  1
番
100
AcDbText
  0
TEXT
  5
137
330
1E
100
AcDbEntity
  8
図面枠
100
AcDbText
 10
358.7999999999998
 20
-81.09999999999999
 30
0.0
 40
6.0
  1
年月日
 41
0.75
100
AcDbText
  0
TEXT
  5
138
330
1E
100
AcDbEntity
  8
図面枠
100
AcDbText
 10
345.5999999999999
 20
-80.70000000000002
 30
0.0
 40
6.0
  1
記号
100
AcDbText
  0
TEXT
  5
139
330
1E
100
AcDbEntity
  8
図面枠
100
AcDbText
 10
389.1293294753884
 20
-80.70000000000002
 30
0.0
 40
6.0
  1
訂 正 理 由
100
AcDbText
  0
TEXT
  5
13B
330
1E
100
AcDbEntity
  8
図面枠
100
AcDbText
 10
438.4149970311137
 20
-80.37978599768278
 30
0.0
 40
5.0
  1
訂正者
 41
0.8
100
AcDbText
  0
TEXT
  5
13D
330
1E
100
AcDbEntity
  8
図面枠
100
AcDbText
 10
452.2331314778607
 20
-60.9
 30
0.0
 40
6.0
  1
番号
100
AcDbText
  0
TEXT
  5
13E
330
1E
100
AcDbEntity
  8
図面枠
100
AcDbText
 10
471.8343500010263
 20
-60.00062857063705
 30
0.0
 40
6.0
  1
名  称
100
AcDbText
  0
TEXT
  5
13F
330
1E
100
AcDbEntity
  8
図面枠
100
AcDbText
 10
504.366868522139
 20
-60.23375188966415
 30
0.0
 40
6.0
  1
数量
100
AcDbText
  0
TEXT
  5
140
330
1E
100
AcDbEntity
  8
図面枠
100
AcDbText
 10
521.7337395077215
 20
-60.00062857063728
 30
0.0
 40
6.0
  1
材質
100
AcDbText
  0
TEXT
  5
141
330
1E
100
AcDbEntity
  8
図面枠
100
AcDbText
 10
550.9021305679563
 20
-60.4668781532554
 30
0.0
 40
6.0
  1
記    事
100
AcDbText
  0
TEXT
  5
14C
330
1E
100
AcDbEntity
  8
図面枠
100
AcDbText
 10
455.7162099643677
 20
-110.5969933663405
 30
0.0
 40
6.0
  1
重  量
100
AcDbText
  0
TEXT
  5
150
330
1E
100
AcDbEntity
  8
図面枠
100
AcDbText
 10
428.922043583219
 20
-101.4225218467502
 30
0.0
 40
6.0
  1
１：2
100
AcDbText
  0
TEXT
  5
152
330
1E
100
AcDbEntity
  8
図面枠
100
AcDbText
 10
503.2999999999998
 20
-100.4531797304413
 30
0.0
 40
6.0
  1
図
100
AcDbText
  0
MTEXT
  5
191
330
1E
100
AcDbEntity
  8
図面枠
370
    30
100
AcDbMText
 10
463.3062204535012
 20
-120.1032045333772
 30
0.0
 40
8.8
 41
145.2385542283408
 71
     1
 72
     5
  1
株式会社　関東油機サービス
 73
     1
 44
1.0
1001
ACAD
1000
MTEXTBEGIN
1070
    73
1070
     1
1070
    44
1040
1.0
1070
    74
1070
     0
1000
MTEXTEND
  0
LINE
  5
1DF
330
1E
100
AcDbEntity
  8
図面
  6
DASHDOT
100
AcDbLine
 10
-133.1383928625214
 20
187.9126827411522
 30
0.0
 11
572.5787290409
 21
187.9126827411522
 31
0.0
  0
LINE
  5
1E0
330
1E
100
AcDbEntity
  8
図面
100
AcDbLine
 10
78.68481632821294
 20
266.9126827411523
 30
0.0
 11
78.68481632821294
 21
108.9126827411522
 31
0.0
  0
LINE
  5
1E1
330
1E
100
AcDbEntity
  8
図面
100
AcDbLine
 10
328.6848163282129
 20
266.9126827411523
 30
0.0
 11
328.684816328213
 21
108.9126827411522
 31
0.0
  0
LINE
  5
1E2
330
1E
100
AcDbEntity
  8
図面
  6
DASHDOT
100
AcDbLine
 10
-47.7606708395117
 20
278.6262705112031
 30
0.0
 11
-47.7606708395117
 21
93.00446377666549
 31
0.0
  0
CIRCLE
  5
1E3
330
1E
100
AcDbEntity
  8
図面
100
AcDbCircle
 10
-47.7606708395117
 20
187.9126827411522
 30
0.0
 40
79.0
  0
LINE
  5
1E4
330
1E
100
AcDbEntity
  8
図面
  6
DASHDOT
100
AcDbLine
 10
481.4234081800179
 20
286.1857362169346
 30
0.0
 11
481.4234081800179
 21
65.8813082762922
 31
0.0
  0
CIRCLE
  5
1E5
330
1E
100
AcDbEntity
  8
図面
100
AcDbCircle
 10
481.4234081800179
 20
187.9126827411522
 30
0.0
 40
79.0
  0
LINE
  5
1E6
330
1E
100
AcDbEntity
  8
図面
100
AcDbLine
 10
78.68481632821294
 20
266.9126827411523
 30
0.0
 11
328.6848163282129
 21
266.9126827411523
 31
0.0
  0
LINE
  5
1E7
330
1E
100
AcDbEntity
  8
図面
100
AcDbLine
 10
78.68481632821294
 20
108.9126827411522
 30
0.0
 11
328.684816328213
 21
108.9126827411522
 31
0.0
  0
CIRCLE
  5
1E8
330
1E
100
AcDbEntity
  8
図面
100
AcDbCircle
 10
-47.7606708395117
 20
187.9126827411522
 30
0.0
 40
37.5
  0
CIRCLE
  5
1E9
330
1E
100
AcDbEntity
  8
図面
  6
DASHDOT
100
AcDbCircle
 10
-47.7606708395117
 20
187.9126827411522
 30
0.0
 40
47.5
  0
LINE
  5
1EA
330
1E
100
AcDbEntity
  8
図面
  6
DASHDOT
100
AcDbLine
 10
-47.7606708395117
 20
225.4126827411523
 30
0.0
 11
-47.7606708395117
 21
245.7280575368701
 31
0.0
  0
LINE
  5
1EB
330
1E
100
AcDbEntity
  8
図面
100
AcDbLine
 10
123.6848163282129
 20
243.7741184548895
 30
0.0
 11
296.6848163282129
 21
243.7741184548895
 31
0.0
  0
LINE
  5
1EC
330
1E
100
AcDbEntity
  8
図面
100
AcDbLine
 10
123.6848163282129
 20
132.051247027415
 30
0.0
 11
296.6848163282129
 21
132.051247027415
 31
0.0
  0
LINE
  5
1ED
330
1E
100
AcDbEntity
  8
図面
  6
DASHED
100
AcDbLine
 10
88.68481632821293
 20
266.9126827411523
 30
0.0
 11
88.68481632821296
 21
108.9126827411522
 31
0.0
  0
LINE
  5
1EE
330
1E
100
AcDbEntity
  8
図面
100
AcDbLine
 10
123.6848163282129
 20
243.7741184548895
 30
0.0
 11
123.6848163282129
 21
132.051247027415
 31
0.0
  0
LINE
  5
1EF
330
1E
100
AcDbEntity
  8
図面
100
AcDbLine
 10
296.6848163282129
 20
243.7741184548895
 30
0.0
 11
296.6848163282129
 21
132.051247027415
 31
0.0
  0
CIRCLE
  5
1F0
330
1E
100
AcDbEntity
  8
図面
100
AcDbCircle
 10
-47.7606708395117
 20
235.4126827411523
 30
0.0
 40
5.5
  0
CIRCLE
  5
1F2
330
1E
100
AcDbEntity
  8
図面
100
AcDbCircle
 10
481.4234081800179
 20
187.9126827411522
 30
0.0
 40
55.0
  0
LINE
  5
1F3
330
1E
100
AcDbEntity
  8
図面
  6
DASHDOT
100
AcDbLine
 10
-85.2606708395117
 20
187.9126827411522
 30
0.0
 11
-105.5760456352295
 21
187.9126827411522
 31
0.0
  0
CIRCLE
  5
1F4
330
1E
100
AcDbEntity
  8
図面
100
AcDbCircle
 10
-95.26067083951174
 20
187.9126827411522
 30
0.0
 40
5.5
  0
CIRCLE
  5
1F5
330
1E
100
AcDbEntity
  8
図面
100
AcDbCircle
 10
-47.76067083951175
 20
140.4126827411522
 30
0.0
 40
5.5
  0
LINE
  5
1F6
330
1E
100
AcDbEntity
  8
図面
  6
DASHDOT
100
AcDbLine
 10
-47.76067083951173
 20
150.4126827411522
 30
0.0
 11
-47.76067083951173
 21
130.0973079454344
 31
0.0
  0
LINE
  5
1F7
330
1E
100
AcDbEntity
  8
図面
  6
DASHDOT
100
AcDbLine
 10
-10.26067083951173
 20
187.9126827411522
 30
0.0
 11
10.05470395620612
 21
187.9126827411523
 31
0.0
  0
CIRCLE
  5
1F8
330
1E
100
AcDbEntity
  8
図面
100
AcDbCircle
 10
-0.2606708395117323
 20
187.9126827411523
 30
0.0
 40
5.5
  0
LINE
  5
1F9
330
1E
100
AcDbEntity
  8
図面
  6
DASHED
100
AcDbLine
 10
442.5325352147579
 20
226.8035557064124
 30
0.0
 11
425.5619724662807
 21
243.7741184548895
 31
0.0
  0
LINE
  5
1FA
330
1E
100
AcDbEntity
  8
図面
  6
DASHED
100
AcDbLine
 10
442.5325352147579
 20
149.0218097758921
 30
0.0
 11
425.5619724662807
 21
132.051247027415
 31
0.0
  0
LINE
  5
1FB
330
1E
100
AcDbEntity
  8
図面
100
AcDbLine
 10
296.6848163282129
 20
226.8035557064124
 30
0.0
 11
123.6848163282129
 21
226.8035557064124
 31
0.0
  0
LINE
  5
1FC
330
1E
100
AcDbEntity
  8
図面
100
AcDbLine
 10
296.684816328213
 20
149.0218097758921
 30
0.0
 11
123.6848163282129
 21
149.0218097758921
 31
0.0
  0
LINE
  5
1FD
330
1E
100
AcDbEntity
  8
図面
  6
DASHED
100
AcDbLine
 10
520.3142811452781
 20
149.0218097758921
 30
0.0
 11
537.2848438937552
 21
132.051247027415
 31
0.0
  0
LINE
  5
1FE
330
1E
100
AcDbEntity
  8
図面
  6
DASHED
100
AcDbLine
 10
520.3142811452781
 20
226.8035557064124
 30
0.0
 11
537.2848438937552
 21
243.7741184548895
 31
0.0
  0
DIMENSION
  5
1FF
330
1E
100
AcDbEntity
  8
図面
100
AcDbDimension
  2
*D1
 10
60.29710518558249
 20
108.9126827411522
 30
0.0
 11
55.29710518558248
 21
187.9126827411522
 31
0.0
 70
    32
  1
φ158
 71
     5
 42
158.0
  3
Standard
100
AcDbAlignedDimension
 13
78.68481632821294
 23
266.9126827411523
 33
0.0
 14
78.68481632821294
 24
108.9126827411522
 34
0.0
 50
90.0
100
AcDbRotatedDimension
1001
ACAD
1000
DSTYLE
1002
{
1070
   343
1005
259
1070
   173
1070
     1
1070
   344
1005
259
1070
    41
1040
5.0
1070
    44
1040
0.5
1070
    73
1070
     0
1070
    74
1070
     0
1070
    77
1070
     1
1070
   140
1040
9.0
1070
   147
1040
0.5
1070
   176
1070
     1
1070
   177
1070
     1
1070
   178
1070
     1
1070
   271
1070
     0
1070
   272
1070
     0
1070
   279
1070
     2
1070
   340
1005
23
1070
   341
1005
1C1
1070
   342
1005
0
1002
}
  0
DIMENSION
  5
20D
330
1E
100
AcDbEntity
  8
図面
100
AcDbDimension
  2
*D2
 10
328.6848163282129
 20
289.9899821296117
 30
0.0
 11
203.6848163282129
 21
294.9899821296117
 31
0.0
 70
    32
 71
     5
 42
250.0
  3
Standard
100
AcDbAlignedDimension
 13
78.68481632821294
 23
266.9126827411523
 33
0.0
 14
328.6848163282129
 24
266.9126827411523
 34
0.0
100
AcDbRotatedDimension
1001
ACAD
1000
DSTYLE
1002
{
1070
   343
1005
259
1070
   173
1070
     1
1070
   344
1005
259
1070
    41
1040
5.0
1070
    44
1040
0.5
1070
    73
1070
     0
1070
    74
1070
     0
1070
    77
1070
     1
1070
   140
1040
9.0
1070
   147
1040
0.5
1070
   176
1070
     1
1070
   177
1070
     1
1070
   178
1070
     1
1070
   271
1070
     0
1070
   272
1070
     0
1070
   279
1070
     2
1070
   340
1005
23
1070
   341
1005
1C1
1070
   342
1005
0
1002
}
  0
DIMENSION
  5
21A
330
1E
100
AcDbEntity
  8
図面
100
AcDbDimension
  2
*D3
 10
-15.17854348718295
 20
206.4775683372617
 30
0.0
 11
-36.29251731259638
 21
201.6474390664468
 31
0.0
 70
   163
 71
     5
 42
75.00000000000001
  3
Standard
100
AcDbDiametricDimension
 15
-80.34279819184048
 25
169.3477971450429
 35
0.0
 40
0.0
1001
ACAD
1000
DSTYLE
1002
{
1070
   344
1005
259
1070
   173
1070
     1
1070
   343
1005
1C1
1070
    41
1040
5.0
1070
    44
1040
0.5
1070
    73
1070
     0
1070
    74
1070
     0
1070
    77
1070
     1
1070
   140
1040
9.0
1070
   147
1040
0.5
1070
   176
1070
     1
1070
   177
1070
     1
1070
   178
1070
     1
1070
   271
1070
     0
1070
   272
1070
     0
1070
   279
1070
     2
1070
   288
1070
     1
1070
   340
1005
23
1070
   341
1005
1C1
1070
   342
1005
0
1002
}
  0
DIMENSION
  5
224
330
1E
100
AcDbEntity
  8
図面
100
AcDbDimension
  2
*D4
 10
533.5152779411051
 20
170.2651020346098
 30
0.0
 11
463.1267472123099
 21
202.392406902543
 31
0.0
 70
   163
  1
φ108
 71
     5
 42
110.0
  3
Standard
100
AcDbDiametricDimension
 15
429.3315384189307
 25
205.5602634476949
 35
0.0
 40
0.0
1001
ACAD
1000
DSTYLE
1002
{
1070
   344
1005
259
1070
   173
1070
     1
1070
   343
1005
1C1
1070
    41
1040
5.0
1070
    44
1040
0.5
1070
    73
1070
     0
1070
    74
1070
     0
1070
    77
1070
     1
1070
   140
1040
9.0
1070
   147
1040
0.5
1070
   176
1070
     1
1070
   177
1070
     1
1070
   178
1070
     1
1070
   271
1070
     0
1070
   272
1070
     0
1070
   279
1070
     2
1070
   288
1070
     1
1070
   340
1005
23
1070
   341
1005
1C1
1070
   342
1005
0
1002
}
  0
TEXT
  5
23D
330
1E
100
AcDbEntity
  8
図面枠
100
AcDbText
 10
467.9999999999998
 20
-78.70000000000001
 30
0.0
 40
8.0
  1
ＲＭＣ-50Ａ
100
AcDbText
  0
DIMENSION
  5
23F
330
1E
100
AcDbEntity
  8
図面
100
AcDbDimension
  2
*D5
 10
-10.01024848951641
 20
159.0829131895763
 30
0.0
 11
-23.97521528785777
 21
177.9771345130643
 31
0.0
 70
   163
 71
     5
 42
95.00000000000001
  3
Standard
100
AcDbDiametricDimension
 15
-85.51109318950702
 25
216.7424522927282
 35
0.0
 40
0.0
1001
ACAD
1000
DSTYLE
1002
{
1070
   344
1005
259
1070
   173
1070
     1
1070
   343
1005
1C1
1070
    41
1040
5.0
1070
    44
1040
0.5
1070
    73
1070
     0
1070
    74
1070
     0
1070
    77
1070
     1
1070
   140
1040
9.0
1070
   147
1040
0.5
1070
   176
1070
     1
1070
   177
1070
     1
1070
   178
1070
     1
1070
   271
1070
     0
1070
   272
1070
     0
1070
   279
1070
     2
1070
   288
1070
     1
1070
   340
1005
23
1070
   341
1005
1C1
1070
   342
1005
0
1002
}
  0
LEADER
  5
249
330
1E
100
AcDbEntity
  8
図面
100
AcDbLeader
  3
Standard
 73
     0
 74
     0
 75
     1
 40
9.0
 41
21.0
 76
     3
 10
-47.7606708395117
 20
240.9126827411522
 30
0.0
 10
-27.87676723422101
 20
285.639786547335
 30
0.0
 10
-22.87676723422101
 20
285.639786547335
 30
0.0
340
24A
213
0.0
223
-4.5
233
0.0
1001
ACAD
1000
DSTYLE
1002
{
1070
    41
1040
5.0
1070
    44
1040
0.5
1070
    73
1070
     0
1070
    74
1070
     0
1070
    77
1070
     0
1070
   140
1040
9.0
1070
   147
1040
0.5
1070
   176
1070
     1
1070
   177
1070
     1
1070
   178
1070
     1
1070
   271
1070
     0
1070
   272
1070
     0
1070
   279
1070
     2
1070
   340
1005
23
1070
   341
1005
259
1070
   342
1005
1C1
1002
}
  0
MTEXT
  5
24A
102
{ACAD_REACTORS
330
249
102
}
330
1E
100
AcDbEntity
  8
図面
 62
     1
100
AcDbMText
 10
-22.37676723422101
 20
290.139786547335
 30
0.0
 40
9.0
 41
0.0
 71
     1
 72
     1
  1
φ12
  7
TextStyle01
 73
     1
 44
1.0
1001
ACAD
1000
MTEXTBEGIN
1070
    73
1070
     1
1070
    44
1040
1.0
1070
    74
1070
     0
1000
MTEXTEND
  0
MTEXT
  5
24C
330
1E
100
AcDbEntity
  8
図面
100
AcDbMText
 10
221.9576680726273
 20
-95.29845926779023
 30
0.0
 40
10.0
 41
158.5952
 71
     1
 72
     5
  1
SHJ-505適用品
 73
     1
 44
1.0
1001
ACAD
1000
MTEXTBEGIN
1070
    73
1070
     1
1070
    44
1040
1.0
1070
    74
1070
     0
1000
MTEXTEND
  0
ENDSEC
  0
SECTION
  2
OBJECTS
  0
DICTIONARY
  5
C
330
0
100
AcDbDictionary
281
     1
  3
ACAD_COLOR
350
255
  3
ACAD_GROUP
350
D
  3
ACAD_LAYOUT
350
19
  3
ACAD_MATERIAL
350
254
  3
ACAD_MLINESTYLE
350
16
  3
ACAD_PLOTSETTINGS
350
18
  3
ACAD_PLOTSTYLENAME
350
E
  3
ACDBHEADERROUNDTRIPXREC
350
29F
  3
AcDbVariableDictionary
350
29B
  0
DICTIONARY
  5
255
102
{ACAD_REACTORS
330
C
102
}
330
C
100
AcDbDictionary
281
     1
  0
DICTIONARY
  5
D
102
{ACAD_REACTORS
330
C
102
}
330
C
100
AcDbDictionary
281
     1
  0
DICTIONARY
  5
19
102
{ACAD_REACTORS
330
C
102
}
330
C
100
AcDbDictionary
281
     1
  3
Model
350
21
  3
ﾚｲｱｳﾄ1
350
1D
  0
DICTIONARY
  5
254
102
{ACAD_REACTORS
330
C
102
}
330
C
100
AcDbDictionary
281
     1
  0
DICTIONARY
  5
16
102
{ACAD_REACTORS
330
C
102
}
330
C
100
AcDbDictionary
281
     1
  3
Standard
350
17
  0
DICTIONARY
  5
18
102
{ACAD_REACTORS
330
C
102
}
330
C
100
AcDbDictionary
281
     1
  0
ACDBDICTIONARYWDFLT
  5
E
102
{ACAD_REACTORS
330
C
102
}
330
C
100
AcDbDictionary
281
     1
  3
Normal
350
F
100
AcDbDictionaryWithDefault
340
F
  0
DICTIONARY
  5
29F
102
{ACAD_REACTORS
330
C
102
}
330
C
100
AcDbDictionary
281
     1
  3
COLORDICT
350
2A1
  3
MATERIALDICT
350
2A0
  0
DICTIONARY
  5
29B
102
{ACAD_REACTORS
330
C
102
}
330
C
100
AcDbDictionary
281
     1
  3
DIMASSOC
350
29C
  3
PROJECTNAME
350
29D
  0
LAYOUT
  5
21
102
{ACAD_XDICTIONARY
360
2A4
102
}
102
{ACAD_REACTORS
330
19
102
}
330
19
100
AcDbPlotSettings
  1

  2
倉庫プリンタ.pc3
  4
A4
  6

 40
5.873749732971191
 41
5.873747825622558
 42
5.873748779296875
 43
5.873748779296875
 44
296.9259948730469
 45
209.9733276367187
 46
2.43
 47
0.0
 48
-210.0
 49
-148.5
140
210.0
141
148.5
142
1.0
143
2.996902292728284
 70
 11956
 72
     1
 73
     0
 74
     1
  7

 75
     0
147
0.3336778787971868
148
210.0512675753739
149
148.5362534997286
100
AcDbLayout
  1
Model
 70
     1
 71
     0
 10
0.0
 20
0.0
 11
12.0
 21
9.0
 12
0.0
 22
0.0
 32
0.0
 14
0.0
 24
0.0
 34
0.0
 15
0.0
 25
0.0
 35
0.0
146
0.0
 13
0.0
 23
0.0
 33
0.0
 16
1.0
 26
0.0
 36
0.0
 17
0.0
 27
1.0
 37
0.0
 76
     0
330
1E
  0
LAYOUT
  5
1D
102
{ACAD_XDICTIONARY
360
2A2
102
}
102
{ACAD_REACTORS
330
19
102
}
330
19
100
AcDbPlotSettings
  1

  2
なし
  4

  6

 40
0.0
 41
0.0
 42
0.0
 43
0.0
 44
0.0
 45
0.0
 46
0.0
 47
0.0
 48
0.0
 49
0.0
140
0.0
141
0.0
142
1.0
143
1.0
 70
   688
 72
     0
 73
     0
 74
     5
  7

 75
    16
147
1.0
148
0.0
149
0.0
100
AcDbLayout
  1
ﾚｲｱｳﾄ1
 70
     1
 71
     1
 10
0.0
 20
0.0
 11
12.0
 21
9.0
 12
0.0
 22
0.0
 32
0.0
 14
1.000000000000000E+20
 24
1.000000000000000E+20
 34
1.000000000000000E+20
 15
-1.000000000000000E+20
 25
-1.000000000000000E+20
 35
-1.000000000000000E+20
146
0.0
 13
0.0
 23
0.0
 33
0.0
 16
1.0
 26
0.0
 36
0.0
 17
0.0
 27
1.0
 37
0.0
 76
     0
330
1A
  0
MLINESTYLE
  5
17
102
{ACAD_REACTORS
330
16
102
}
330
16
100
AcDbMlineStyle
  2
STANDARD
 70
     0
  3

 62
   256
 51
90.0
 52
90.0
 71
     2
 49
0.5
 62
   256
  6
BYLAYER
 49
-0.5
 62
   256
  6
BYLAYER
  0
ACDBPLACEHOLDER
  5
F
102
{ACAD_REACTORS
330
E
102
}
330
E
  0
XRECORD
  5
2A1
102
{ACAD_REACTORS
330
29F
102
}
330
29F
100
AcDbXrecord
280
     1
340
255
  0
XRECORD
  5
2A0
102
{ACAD_REACTORS
330
29F
102
}
330
29F
100
AcDbXrecord
280
     1
340
254
  0
DICTIONARYVAR
  5
29C
102
{ACAD_REACTORS
330
29B
102
}
330
29B
100
DictionaryVariables
280
     0
  1
1
  0
DICTIONARYVAR
  5
29D
102
{ACAD_REACTORS
330
29B
102
}
330
29B
100
DictionaryVariables
280
     0
  1

  0
DICTIONARY
  5
2A4
330
21
100
AcDbDictionary
280
     1
281
     1
  3
ACAD_XREC_ROUNDTRIP
360
2A5
  0
DICTIONARY
  5
2A2
330
1D
100
AcDbDictionary
280
     1
281
     1
  3
ACAD_XREC_ROUNDTRIP
360
2A3
  0
XRECORD
  5
2A5
102
{ACAD_REACTORS
330
2A4
102
}
330
2A4
100
AcDbXrecord
280
     1
102
SHADEPLOT
 70
     0
102
SHADEPLOTRESLEVEL
 70
     2
102
SHADEPLOTCUSTOMDPI
 70
   300
  0
XRECORD
  5
2A3
102
{ACAD_REACTORS
330
2A2
102
}
330
2A2
100
AcDbXrecord
280
     1
102
SHADEPLOT
 70
     0
102
SHADEPLOTRESLEVEL
 70
     2
102
SHADEPLOTCUSTOMDPI
 70
   300
  0
ENDSEC
  0
EOF
