  0
SECTION
  2
HEADER
  9
$ACADVER
  1
AC1015
  9
$ACADMAINTVER
 70
    20
  9
$DWGCODEPAGE
  3
ANSI_932
  9
$INSBASE
 10
0.0
 20
0.0
 30
0.0
  9
$EXTMIN
 10
-210.0
 20
-148.5
 30
0.0
  9
$EXTMAX
 10
210.0
 20
148.5
 30
0.0
  9
$LIMMIN
 10
0.0
 20
0.0
  9
$LIMMAX
 10
12.0
 20
9.0
  9
$ORTHOMODE
 70
     0
  9
$REGENMODE
 70
     1
  9
$FILLMODE
 70
     1
  9
$QTEXTMODE
 70
     0
  9
$MIRRTEXT
 70
     1
  9
$LTSCALE
 40
1.0
  9
$ATTMODE
 70
     1
  9
$TEXTSIZE
 40
1.0
  9
$TRACEWID
 40
0.05
  9
$TEXTSTYLE
  7
STANDARD
  9
$CLAYER
  8
寸法
  9
$CELTYPE
  6
ByLayer
  9
$CECOLOR
 62
   256
  9
$CELTSCALE
 40
1.0
  9
$DISPSILH
 70
     0
  9
$DIMSCALE
 40
1.0
  9
$DIMASZ
 40
3.0
  9
$DIMEXO
 40
0.5200000000000001
  9
$DIMDLI
 40
0.38
  9
$DIMRND
 40
0.0
  9
$DIMDLE
 40
0.0
  9
$DIMEXE
 40
0.5
  9
$DIMTP
 40
0.0
  9
$DIMTM
 40
0.0
  9
$DIMTXT
 40
5.0
  9
$DIMCEN
 40
0.09
  9
$DIMTSZ
 40
0.0
  9
$DIMTOL
 70
     0
  9
$DIMLIM
 70
     0
  9
$DIMTIH
 70
     0
  9
$DIMTOH
 70
     0
  9
$DIMSE1
 70
     0
  9
$DIMSE2
 70
     0
  9
$DIMTAD
 70
     1
  9
$DIMZIN
 70
     0
  9
$DIMBLK
  1
Open30
  9
$DIMASO
 70
     1
  9
$DIMSHO
 70
     1
  9
$DIMPOST
  1

  9
$DIMAPOST
  1

  9
$DIMALT
 70
     0
  9
$DIMALTD
 70
     2
  9
$DIMALTF
 40
25.4
  9
$DIMLFAC
 40
1.0
  9
$DIMTOFL
 70
     0
  9
$DIMTVP
 40
0.0
  9
$DIMTIX
 70
     0
  9
$DIMSOXD
 70
     0
  9
$DIMSAH
 70
     0
  9
$DIMBLK1
  1

  9
$DIMBLK2
  1

  9
$DIMSTYLE
  2
Standard
  9
$DIMCLRD
 70
     1
  9
$DIMCLRE
 70
     1
  9
$DIMCLRT
 70
     1
  9
$DIMTFAC
 40
1.0
  9
$DIMGAP
 40
0.5
  9
$DIMJUST
 70
     0
  9
$DIMSD1
 70
     0
  9
$DIMSD2
 70
     0
  9
$DIMTOLJ
 70
     1
  9
$DIMTZIN
 70
     0
  9
$DIMALTZ
 70
     0
  9
$DIMALTTZ
 70
     0
  9
$DIMUPT
 70
     0
  9
$DIMDEC
 70
     0
  9
$DIMTDEC
 70
     0
  9
$DIMALTU
 70
     2
  9
$DIMALTTD
 70
     2
  9
$DIMTXSTY
  7
TextStyle01
  9
$DIMAUNIT
 70
     0
  9
$DIMADEC
 70
     0
  9
$DIMALTRND
 40
0.0
  9
$DIMAZIN
 70
     0
  9
$DIMDSEP
 70
    46
  9
$DIMATFIT
 70
     3
  9
$DIMFRAC
 70
     0
  9
$DIMLDRBLK
  1
Open30
  9
$DIMLUNIT
 70
     2
  9
$DIMLWD
 70
    -1
  9
$DIMLWE
 70
    -1
  9
$DIMTMOVE
 70
     2
  9
$LUNITS
 70
     2
  9
$LUPREC
 70
     4
  9
$SKETCHINC
 40
0.1
  9
$FILLETRAD
 40
0.0
  9
$AUNITS
 70
     0
  9
$AUPREC
 70
     0
  9
$MENU
  1
acad
  9
$ELEVATION
 40
0.0
  9
$PELEVATION
 40
0.0
  9
$THICKNESS
 40
0.0
  9
$LIMCHECK
 70
     0
  9
$CHAMFERA
 40
0.0
  9
$CHAMFERB
 40
0.0
  9
$CHAMFERC
 40
0.0
  9
$CHAMFERD
 40
0.0
  9
$SKPOLY
 70
     0
  9
$TDCREATE
 40
2449944.925517361
  9
$TDUCREATE
 40
2449944.550517361
  9
$TDUPDATE
 40
2455342.526754005
  9
$TDUUPDATE
 40
2455342.151754004
  9
$TDINDWG
 40
0.0881057060
  9
$TDUSRTIMER
 40
0.0881057060
  9
$USRTIMER
 70
     1
  9
$ANGBASE
 50
0.0
  9
$ANGDIR
 70
     0
  9
$PDMODE
 70
     0
  9
$PDSIZE
 40
1.5
  9
$PLINEWID
 40
0.0
  9
$SPLFRAME
 70
     0
  9
$SPLINETYPE
 70
     6
  9
$SPLINESEGS
 70
     8
  9
$HANDSEED
  5
3E0
  9
$SURFTAB1
 70
     6
  9
$SURFTAB2
 70
     6
  9
$SURFTYPE
 70
     6
  9
$SURFU
 70
     6
  9
$SURFV
 70
     6
  9
$UCSBASE
  2

  9
$UCSNAME
  2

  9
$UCSORG
 10
0.0
 20
0.0
 30
0.0
  9
$UCSXDIR
 10
1.0
 20
0.0
 30
0.0
  9
$UCSYDIR
 10
0.0
 20
1.0
 30
0.0
  9
$UCSORTHOREF
  2

  9
$UCSORTHOVIEW
 70
     0
  9
$UCSORGTOP
 10
0.0
 20
0.0
 30
0.0
  9
$UCSORGBOTTOM
 10
0.0
 20
0.0
 30
0.0
  9
$UCSORGLEFT
 10
0.0
 20
0.0
 30
0.0
  9
$UCSORGRIGHT
 10
0.0
 20
0.0
 30
0.0
  9
$UCSORGFRONT
 10
0.0
 20
0.0
 30
0.0
  9
$UCSORGBACK
 10
0.0
 20
0.0
 30
0.0
  9
$PUCSBASE
  2

  9
$PUCSNAME
  2

  9
$PUCSORG
 10
0.0
 20
0.0
 30
0.0
  9
$PUCSXDIR
 10
1.0
 20
0.0
 30
0.0
  9
$PUCSYDIR
 10
0.0
 20
1.0
 30
0.0
  9
$PUCSORTHOREF
  2

  9
$PUCSORTHOVIEW
 70
     0
  9
$PUCSORGTOP
 10
0.0
 20
0.0
 30
0.0
  9
$PUCSORGBOTTOM
 10
0.0
 20
0.0
 30
0.0
  9
$PUCSORGLEFT
 10
0.0
 20
0.0
 30
0.0
  9
$PUCSORGRIGHT
 10
0.0
 20
0.0
 30
0.0
  9
$PUCSORGFRONT
 10
0.0
 20
0.0
 30
0.0
  9
$PUCSORGBACK
 10
0.0
 20
0.0
 30
0.0
  9
$USERI1
 70
     0
  9
$USERI2
 70
     0
  9
$USERI3
 70
     0
  9
$USERI4
 70
     0
  9
$USERI5
 70
     0
  9
$USERR1
 40
0.0
  9
$USERR2
 40
0.0
  9
$USERR3
 40
0.0
  9
$USERR4
 40
0.0
  9
$USERR5
 40
0.0
  9
$WORLDVIEW
 70
     1
  9
$SHADEDGE
 70
     3
  9
$SHADEDIF
 70
    70
  9
$TILEMODE
 70
     1
  9
$MAXACTVP
 70
    16
  9
$PINSBASE
 10
0.0
 20
0.0
 30
0.0
  9
$PLIMCHECK
 70
     0
  9
$PEXTMIN
 10
1.000000000000000E+20
 20
1.000000000000000E+20
 30
1.000000000000000E+20
  9
$PEXTMAX
 10
-1.000000000000000E+20
 20
-1.000000000000000E+20
 30
-1.000000000000000E+20
  9
$PLIMMIN
 10
0.0
 20
0.0
  9
$PLIMMAX
 10
12.0
 20
9.0
  9
$UNITMODE
 70
     0
  9
$VISRETAIN
 70
     0
  9
$PLINEGEN
 70
     0
  9
$PSLTSCALE
 70
     1
  9
$TREEDEPTH
 70
  3020
  9
$CMLSTYLE
  2
Standard
  9
$CMLJUST
 70
     0
  9
$CMLSCALE
 40
1.0
  9
$PROXYGRAPHICS
 70
     1
  9
$MEASUREMENT
 70
     0
  9
$CELWEIGHT
370
    -1
  9
$ENDCAPS
280
     0
  9
$JOINSTYLE
280
     0
  9
$LWDISPLAY
290
     0
  9
$INSUNITS
 70
     0
  9
$HYPERLINKBASE
  1

  9
$STYLESHEET
  1

  9
$XEDIT
290
     1
  9
$CEPSNTYPE
380
     0
  9
$PSTYLEMODE
290
     1
  9
$FINGERPRINTGUID
  2
{94D4B675-E6D2-4566-95E8-61A6FD7011C4}
  9
$VERSIONGUID
  2
{6FD47C2F-3BD8-4EC5-9AA8-069466C8ECFB}
  9
$EXTNAMES
290
     1
  9
$PSVPSCALE
 40
0.0
  9
$OLESTARTUP
290
     0
  0
ENDSEC
  0
SECTION
  2
CLASSES
  0
CLASS
  1
ACDBDICTIONARYWDFLT
  2
AcDbDictionaryWithDefault
  3
ObjectDBX Classes
 90
        0
280
     0
281
     0
  0
CLASS
  1
ACDBPLACEHOLDER
  2
AcDbPlaceHolder
  3
ObjectDBX Classes
 90
        0
280
     0
281
     0
  0
CLASS
  1
LAYOUT
  2
AcDbLayout
  3
ObjectDBX Classes
 90
        0
280
     0
281
     0
  0
CLASS
  1
DICTIONARYVAR
  2
AcDbDictionaryVar
  3
ObjectDBX Classes
 90
        0
280
     0
281
     0
  0
ENDSEC
  0
SECTION
  2
TABLES
  0
TABLE
  2
VPORT
  5
8
330
0
100
AcDbSymbolTable
 70
     2
  0
VPORT
  5
3D8
330
8
100
AcDbSymbolTableRecord
100
AcDbViewportTableRecord
  2
*Active
 70
     0
 10
0.0
 20
0.0
 11
1.0
 21
1.0
 12
12.84958164577824
 22
9.938964658006682
 13
0.0
 23
0.0
 14
1.0
 24
1.0
 15
0.0
 25
0.0
 16
0.0
 26
0.0
 36
1.0
 17
0.0
 27
0.0
 37
0.0
 40
536.3245657907421
 41
1.530456852791878
 42
50.0
 43
0.0
 44
0.0
 50
0.0
 51
0.0
 71
     0
 72
   100
 73
     1
 74
     0
 75
     0
 76
     0
 77
     0
 78
     0
281
     0
 65
     1
110
0.0
120
0.0
130
0.0
111
1.0
121
0.0
131
0.0
112
0.0
122
1.0
132
0.0
 79
     0
146
0.0
  0
ENDTAB
  0
TABLE
  2
LTYPE
  5
5
330
0
100
AcDbSymbolTable
 70
    15
  0
LTYPE
  5
13
330
5
100
AcDbSymbolTableRecord
100
AcDbLinetypeTableRecord
  2
ByBlock
 70
     0
  3

 72
    65
 73
     0
 40
0.0
  0
LTYPE
  5
14
330
5
100
AcDbSymbolTableRecord
100
AcDbLinetypeTableRecord
  2
ByLayer
 70
     0
  3

 72
    65
 73
     0
 40
0.0
  0
LTYPE
  5
15
330
5
100
AcDbSymbolTableRecord
100
AcDbLinetypeTableRecord
  2
CONTINUOUS
 70
     0
  3
実線
 72
    65
 73
     0
 40
0.0
  0
LTYPE
  5
3A
330
5
100
AcDbSymbolTableRecord
100
AcDbLinetypeTableRecord
  2
DASHED
 70
     0
  3
破線A
 72
    65
 73
     2
 40
7.5
 49
5.0
 74
     0
 49
-2.5
 74
     0
  0
LTYPE
  5
3B
330
5
100
AcDbSymbolTableRecord
100
AcDbLinetypeTableRecord
  2
DASHEDX2
 70
     0
  3
破線B
 72
    65
 73
     2
 40
15.0
 49
10.0
 74
     0
 49
-5.0
 74
     0
  0
LTYPE
  5
3C
330
5
100
AcDbSymbolTableRecord
100
AcDbLinetypeTableRecord
  2
DASHDOT
 70
     0
  3
１点鎖線A
 72
    65
 73
     4
 40
10.0
 49
5.0
 74
     0
 49
-2.5
 74
     0
 49
0.0
 74
     0
 49
-2.5
 74
     0
  0
LTYPE
  5
3D
330
5
100
AcDbSymbolTableRecord
100
AcDbLinetypeTableRecord
  2
DASHDOTX2
 70
     0
  3
１点鎖線B
 72
    65
 73
     4
 40
20.0
 49
10.0
 74
     0
 49
-5.0
 74
     0
 49
0.0
 74
     0
 49
-5.0
 74
     0
  0
LTYPE
  5
3E
330
5
100
AcDbSymbolTableRecord
100
AcDbLinetypeTableRecord
  2
DIVIDE2
 70
     0
  3
２点鎖線A
 72
    65
 73
     6
 40
6.25
 49
2.5
 74
     0
 49
-1.25
 74
     0
 49
0.0
 74
     0
 49
-1.25
 74
     0
 49
0.0
 74
     0
 49
-1.25
 74
     0
  0
LTYPE
  5
3F
330
5
100
AcDbSymbolTableRecord
100
AcDbLinetypeTableRecord
  2
DIVIDE
 70
     0
  3
２点鎖線B
 72
    65
 73
     6
 40
12.5
 49
5.0
 74
     0
 49
-2.5
 74
     0
 49
0.0
 74
     0
 49
-2.5
 74
     0
 49
0.0
 74
     0
 49
-2.5
 74
     0
  0
LTYPE
  5
40
330
5
100
AcDbSymbolTableRecord
100
AcDbLinetypeTableRecord
  2
DOT
 70
     0
  3
点線A
 72
    65
 73
     2
 40
2.5
 49
0.0
 74
     0
 49
-2.5
 74
     0
  0
LTYPE
  5
41
330
5
100
AcDbSymbolTableRecord
100
AcDbLinetypeTableRecord
  2
DOTX2
 70
     0
  3
点線B
 72
    65
 73
     2
 40
5.0
 49
0.0
 74
     0
 49
-5.0
 74
     0
  0
LTYPE
  5
42
330
5
100
AcDbSymbolTableRecord
100
AcDbLinetypeTableRecord
  2
CONTINUOUS
 70
     0
  3
実線
 72
    65
 73
     0
 40
0.0
  0
LTYPE
  5
43
330
5
100
AcDbSymbolTableRecord
100
AcDbLinetypeTableRecord
  2
CONTINUOUS
 70
     0
  3
実線
 72
    65
 73
     0
 40
0.0
  0
LTYPE
  5
44
330
5
100
AcDbSymbolTableRecord
100
AcDbLinetypeTableRecord
  2
CONTINUOUS
 70
     0
  3
実線
 72
    65
 73
     0
 40
0.0
  0
LTYPE
  5
45
330
5
100
AcDbSymbolTableRecord
100
AcDbLinetypeTableRecord
  2
CONTINUOUS
 70
     0
  3
実線
 72
    65
 73
     0
 40
0.0
  0
LTYPE
  5
46
330
5
100
AcDbSymbolTableRecord
100
AcDbLinetypeTableRecord
  2
CONTINUOUS
 70
     0
  3
実線
 72
    65
 73
     0
 40
0.0
  0
LTYPE
  5
47
330
5
100
AcDbSymbolTableRecord
100
AcDbLinetypeTableRecord
  2
CONTINUOUS
 70
     0
  3
実線
 72
    65
 73
     0
 40
0.0
  0
ENDTAB
  0
TABLE
  2
LAYER
  5
2
330
0
100
AcDbSymbolTable
 70
     8
  0
LAYER
  5
10
330
2
100
AcDbSymbolTableRecord
100
AcDbLayerTableRecord
  2
ﾚｲﾔ1
 70
     0
 62
     7
  6
CONTINUOUS
370
    -3
390
F
  0
LAYER
  5
4A
330
2
100
AcDbSymbolTableRecord
100
AcDbLayerTableRecord
  2
ﾚｲﾔ3
 70
     0
 62
    15
  6
DASHDOT
370
    -3
390
F
  0
LAYER
  5
4F
330
2
100
AcDbSymbolTableRecord
100
AcDbLayerTableRecord
  2
文字
 70
     0
 62
     7
  6
CONTINUOUS
370
    -3
390
F
  0
LAYER
  5
50
330
2
100
AcDbSymbolTableRecord
100
AcDbLayerTableRecord
  2
ﾚｲﾔ9
 70
     0
 62
   252
  6
DASHED
370
    -3
390
F
  0
LAYER
  5
56
330
2
100
AcDbSymbolTableRecord
100
AcDbLayerTableRecord
  2
寸法
 70
     0
 62
     1
  6
CONTINUOUS
370
    -3
390
F
  0
LAYER
  5
57
330
2
100
AcDbSymbolTableRecord
100
AcDbLayerTableRecord
  2
ﾊｯﾁﾝｸﾞ
 70
     0
 62
   253
  6
CONTINUOUS
370
    -3
390
F
  0
LAYER
  5
59
330
2
100
AcDbSymbolTableRecord
100
AcDbLayerTableRecord
  2
0
 70
     0
 62
     7
  6
CONTINUOUS
370
    -3
390
F
  0
LAYER
  5
3C3
330
2
100
AcDbSymbolTableRecord
100
AcDbLayerTableRecord
  2
Defpoints
 70
     0
 62
     7
  6
CONTINUOUS
290
     0
370
    -3
390
F
  0
ENDTAB
  0
TABLE
  2
STYLE
  5
3
330
0
100
AcDbSymbolTable
 70
    12
  0
STYLE
  5
11
330
3
100
AcDbSymbolTableRecord
100
AcDbTextStyleTableRecord
  2
STANDARD
 70
     0
 40
1.0
 41
1.0
 50
0.0
 71
     0
 42
1.0
  3
TXT
  4
BIGFONT
  0
STYLE
  5
2F
330
3
100
AcDbSymbolTableRecord
100
AcDbTextStyleTableRecord
  2
TATE
 70
     4
 40
1.0
 41
1.0
 50
0.0
 71
     0
 42
1.0
  3
TXT
  4
BIGFONT
  0
STYLE
  5
30
330
3
100
AcDbSymbolTableRecord
100
AcDbTextStyleTableRecord
  2
TextStyle01
 70
     0
 40
0.0
 41
1.0
 50
0.0
 71
     0
 42
0.0
  3
TXT
  4
BIGFONT
  0
STYLE
  5
31
330
3
100
AcDbSymbolTableRecord
100
AcDbTextStyleTableRecord
  2
TextStyle02
 70
     0
 40
0.0
 41
1.0
 50
0.0
 71
     0
 42
0.0
  3
TXT
  4
BIGFONT
  0
STYLE
  5
32
330
3
100
AcDbSymbolTableRecord
100
AcDbTextStyleTableRecord
  2
TextStyle03
 70
     0
 40
0.0
 41
1.0
 50
0.0
 71
     0
 42
0.0
  3
TXT
  4
BIGFONT
  0
STYLE
  5
33
330
3
100
AcDbSymbolTableRecord
100
AcDbTextStyleTableRecord
  2
TextStyle04
 70
     0
 40
0.0
 41
1.0
 50
0.0
 71
     0
 42
0.0
  3
TXT
  4
BIGFONT
  0
STYLE
  5
34
330
3
100
AcDbSymbolTableRecord
100
AcDbTextStyleTableRecord
  2
TextStyle05
 70
     0
 40
0.0
 41
1.0
 50
0.0
 71
     0
 42
0.0
  3
TXT
  4
BIGFONT
  0
STYLE
  5
35
330
3
100
AcDbSymbolTableRecord
100
AcDbTextStyleTableRecord
  2
TextStyle06
 70
     0
 40
0.0
 41
1.0
 50
0.0
 71
     0
 42
0.0
  3

  4

  0
STYLE
  5
36
330
3
100
AcDbSymbolTableRecord
100
AcDbTextStyleTableRecord
  2
TextStyle07
 70
     0
 40
0.0
 41
1.0
 50
0.0
 71
     0
 42
0.0
  3

  4

  0
STYLE
  5
37
330
3
100
AcDbSymbolTableRecord
100
AcDbTextStyleTableRecord
  2
TextStyle08
 70
     0
 40
0.0
 41
1.0
 50
0.0
 71
     0
 42
0.0
  3

  4

  0
STYLE
  5
38
330
3
100
AcDbSymbolTableRecord
100
AcDbTextStyleTableRecord
  2
TextStyle09
 70
     0
 40
0.0
 41
1.0
 50
0.0
 71
     0
 42
0.0
  3

  4

  0
STYLE
  5
39
330
3
100
AcDbSymbolTableRecord
100
AcDbTextStyleTableRecord
  2
TextStyle10
 70
     0
 40
0.0
 41
1.0
 50
0.0
 71
     0
 42
0.0
  3

  4

  0
ENDTAB
  0
TABLE
  2
VIEW
  5
6
330
0
100
AcDbSymbolTable
 70
     0
  0
ENDTAB
  0
TABLE
  2
UCS
  5
7
330
0
100
AcDbSymbolTable
 70
     0
  0
ENDTAB
  0
TABLE
  2
APPID
  5
9
330
0
100
AcDbSymbolTable
 70
     1
  0
APPID
  5
12
330
9
100
AcDbSymbolTableRecord
100
AcDbRegAppTableRecord
  2
ACAD
 70
     0
  0
ENDTAB
  0
TABLE
  2
DIMSTYLE
  5
A
330
0
100
AcDbSymbolTable
 70
     1
100
AcDbDimStyleTable
 71
     1
340
38C
  0
DIMSTYLE
105
38C
102
{ACAD_REACTORS
330
3C2
102
}
330
A
100
AcDbSymbolTableRecord
100
AcDbDimStyleTableRecord
  2
Standard
 70
     0
340
11
  0
ENDTAB
  0
TABLE
  2
BLOCK_RECORD
  5
1
330
0
100
AcDbSymbolTable
 70
    15
  0
BLOCK_RECORD
  5
1E
330
1
100
AcDbSymbolTableRecord
100
AcDbBlockTableRecord
  2
*Model_Space
340
21
  0
BLOCK_RECORD
  5
1A
330
1
100
AcDbSymbolTableRecord
100
AcDbBlockTableRecord
  2
*Paper_Space
340
1D
  0
BLOCK_RECORD
  5
22
330
1
100
AcDbSymbolTableRecord
100
AcDbBlockTableRecord
  2
*H0
340
0
102
{BLKREFS
331
388
102
}
  0
BLOCK_RECORD
  5
23
330
1
100
AcDbSymbolTableRecord
100
AcDbBlockTableRecord
  2
*H1
340
0
102
{BLKREFS
331
389
102
}
  0
BLOCK_RECORD
  5
24
330
1
100
AcDbSymbolTableRecord
100
AcDbBlockTableRecord
  2
*H2
340
0
102
{BLKREFS
331
38A
102
}
  0
BLOCK_RECORD
  5
25
330
1
100
AcDbSymbolTableRecord
100
AcDbBlockTableRecord
  2
*H3
340
0
102
{BLKREFS
331
38B
102
}
  0
BLOCK_RECORD
  5
26
330
1
100
AcDbSymbolTableRecord
100
AcDbBlockTableRecord
  2
*G4
340
0
102
{BLKREFS
331
36F
102
}
  0
BLOCK_RECORD
  5
28
330
1
100
AcDbSymbolTableRecord
100
AcDbBlockTableRecord
  2
*G6
340
0
102
{BLKREFS
331
371
102
}
  0
BLOCK_RECORD
  5
29
330
1
100
AcDbSymbolTableRecord
100
AcDbBlockTableRecord
  2
*G7
340
0
102
{BLKREFS
331
372
102
}
  0
BLOCK_RECORD
  5
2A
330
1
100
AcDbSymbolTableRecord
100
AcDbBlockTableRecord
  2
*G8
340
0
102
{BLKREFS
331
373
102
}
  0
BLOCK_RECORD
  5
2B
330
1
100
AcDbSymbolTableRecord
100
AcDbBlockTableRecord
  2
*G9
340
0
102
{BLKREFS
331
374
102
}
  0
BLOCK_RECORD
  5
2C
330
1
100
AcDbSymbolTableRecord
100
AcDbBlockTableRecord
  2
*G10
340
0
102
{BLKREFS
331
376
102
}
  0
BLOCK_RECORD
  5
2D
330
1
100
AcDbSymbolTableRecord
100
AcDbBlockTableRecord
  2
*G11
340
0
102
{BLKREFS
331
378
102
}
  0
BLOCK_RECORD
  5
2E
330
1
100
AcDbSymbolTableRecord
100
AcDbBlockTableRecord
  2
*G12
340
0
102
{BLKREFS
331
379
102
}
  0
BLOCK_RECORD
  5
3BC
330
1
100
AcDbSymbolTableRecord
100
AcDbBlockTableRecord
  2
_Open30
340
0
102
{BLKREFS
331
3C7
331
3C8
102
}
  0
BLOCK_RECORD
  5
3C4
330
1
100
AcDbSymbolTableRecord
100
AcDbBlockTableRecord
  2
*D14
340
0
  0
ENDTAB
  0
ENDSEC
  0
SECTION
  2
BLOCKS
  0
BLOCK
  5
5C
330
1E
100
AcDbEntity
  8
0
100
AcDbBlockBegin
  2
*Model_Space
 70
     0
 10
0.0
 20
0.0
 30
0.0
  3
*Model_Space
  1

  0
ENDBLK
  5
5D
330
1E
100
AcDbEntity
  8
0
100
AcDbBlockEnd
  0
BLOCK
  5
5A
330
1A
100
AcDbEntity
 67
     1
  8
0
100
AcDbBlockBegin
  2
*Paper_Space
 70
     0
 10
0.0
 20
0.0
 30
0.0
  3
*Paper_Space
  1

  0
ENDBLK
  5
5B
330
1A
100
AcDbEntity
 67
     1
  8
0
100
AcDbBlockEnd
  0
BLOCK
  5
5E
330
22
100
AcDbEntity
  8
ﾚｲﾔ1
100
AcDbBlockBegin
  2
*H0
 70
     1
 10
0.0
 20
0.0
 30
0.0
  3
*H0
  1

  0
LINE
  5
5F
330
22
100
AcDbEntity
  8
ﾊｯﾁﾝｸﾞ
100
AcDbLine
 10
-100.75
 20
57.225
 30
0.0
 11
-99.40000000000001
 21
55.89999999999999
 31
0.0
  0
LINE
  5
60
330
22
100
AcDbEntity
  8
ﾊｯﾁﾝｸﾞ
100
AcDbLine
 10
-100.75
 20
60.04999999999999
 30
0.0
 11
-96.425
 21
55.725
 31
0.0
  0
LINE
  5
61
330
22
100
AcDbEntity
  8
ﾊｯﾁﾝｸﾞ
100
AcDbLine
 10
-100.75
 20
62.875
 30
0.0
 11
-92.9
 21
55.04999999999999
 31
0.0
  0
LINE
  5
62
330
22
100
AcDbEntity
  8
ﾊｯﾁﾝｸﾞ
100
AcDbLine
 10
-100.75
 20
65.72499999999999
 30
0.0
 11
-89.35
 21
54.325
 31
0.0
  0
LINE
  5
63
330
22
100
AcDbEntity
  8
ﾊｯﾁﾝｸﾞ
100
AcDbLine
 10
-100.75
 20
68.55
 30
0.0
 11
-85.20000000000001
 21
53.0
 31
0.0
  0
LINE
  5
64
330
22
100
AcDbEntity
  8
ﾊｯﾁﾝｸﾞ
100
AcDbLine
 10
-100.75
 20
71.375
 30
0.0
 11
-79.825
 21
50.45
 31
0.0
  0
LINE
  5
65
330
22
100
AcDbEntity
  8
ﾊｯﾁﾝｸﾞ
100
AcDbLine
 10
-100.75
 20
74.2
 30
0.0
 11
-70.375
 21
43.825
 31
0.0
  0
LINE
  5
66
330
22
100
AcDbEntity
  8
ﾊｯﾁﾝｸﾞ
100
AcDbLine
 10
-100.75
 20
77.025
 30
0.0
 11
-68.97499999999999
 21
45.25
 31
0.0
  0
LINE
  5
67
330
22
100
AcDbEntity
  8
ﾊｯﾁﾝｸﾞ
100
AcDbLine
 10
-99.29999999999999
 20
78.4
 30
0.0
 11
-67.54999999999999
 21
46.65
 31
0.0
  0
LINE
  5
68
330
22
100
AcDbEntity
  8
ﾊｯﾁﾝｸﾞ
100
AcDbLine
 10
-96.325
 20
78.25
 30
0.0
 11
-66.15000000000001
 21
48.075
 31
0.0
  0
LINE
  5
69
330
22
100
AcDbEntity
  8
ﾊｯﾁﾝｸﾞ
100
AcDbLine
 10
-93.15000000000001
 20
77.925
 30
0.0
 11
-64.725
 21
49.5
 31
0.0
  0
LINE
  5
6A
330
22
100
AcDbEntity
  8
ﾊｯﾁﾝｸﾞ
100
AcDbLine
 10
-89.7
 20
77.275
 30
0.0
 11
-63.325
 21
50.89999999999999
 31
0.0
  0
LINE
  5
6B
330
22
100
AcDbEntity
  8
ﾊｯﾁﾝｸﾞ
100
AcDbLine
 10
-86.25
 20
76.65
 30
0.0
 11
-61.9
 21
52.325
 31
0.0
  0
LINE
  5
6C
330
22
100
AcDbEntity
  8
ﾊｯﾁﾝｸﾞ
100
AcDbLine
 10
-82.575
 20
75.825
 30
0.0
 11
-60.475
 21
53.725
 31
0.0
  0
LINE
  5
6D
330
22
100
AcDbEntity
  8
ﾊｯﾁﾝｸﾞ
100
AcDbLine
 10
-78.34999999999999
 20
74.42499999999999
 30
0.0
 11
-59.075
 21
55.15
 31
0.0
  0
LINE
  5
6E
330
22
100
AcDbEntity
  8
ﾊｯﾁﾝｸﾞ
100
AcDbLine
 10
-73.09999999999999
 20
72.0
 30
0.0
 11
-57.65
 21
56.55
 31
0.0
  0
LINE
  5
6F
330
22
100
AcDbEntity
  8
ﾊｯﾁﾝｸﾞ
100
AcDbLine
 10
-67.40000000000001
 20
69.125
 30
0.0
 11
-56.25
 21
57.975
 31
0.0
  0
LINE
  5
70
330
22
100
AcDbEntity
  8
ﾊｯﾁﾝｸﾞ
100
AcDbLine
 10
-55.975
 20
60.525
 30
0.0
 11
-54.825
 21
59.375
 31
0.0
  0
LINE
  5
71
330
22
100
AcDbEntity
  8
ﾊｯﾁﾝｸﾞ
100
AcDbLine
 10
-100.475
 20
78.45
 30
0.0
 11
-100.75
 21
78.2
 31
0.0
  0
LINE
  5
72
330
22
100
AcDbEntity
  8
ﾊｯﾁﾝｸﾞ
100
AcDbLine
 10
-97.77500000000001
 20
78.325
 30
0.0
 11
-100.75
 21
75.375
 31
0.0
  0
LINE
  5
73
330
22
100
AcDbEntity
  8
ﾊｯﾁﾝｸﾞ
100
AcDbLine
 10
-95.075
 20
78.2
 30
0.0
 11
-100.75
 21
72.54999999999999
 31
0.0
  0
LINE
  5
74
330
22
100
AcDbEntity
  8
ﾊｯﾁﾝｸﾞ
100
AcDbLine
 10
-92.62500000000001
 20
77.825
 30
0.0
 11
-100.75
 21
69.725
 31
0.0
  0
LINE
  5
75
330
22
100
AcDbEntity
  8
ﾊｯﾁﾝｸﾞ
100
AcDbLine
 10
-90.25
 20
77.40000000000001
 30
0.0
 11
-100.75
 21
66.90000000000001
 31
0.0
  0
LINE
  5
76
330
22
100
AcDbEntity
  8
ﾊｯﾁﾝｸﾞ
100
AcDbLine
 10
-87.85
 20
76.95
 30
0.0
 11
-100.75
 21
64.05
 31
0.0
  0
LINE
  5
77
330
22
100
AcDbEntity
  8
ﾊｯﾁﾝｸﾞ
100
AcDbLine
 10
-85.44999999999999
 20
76.525
 30
0.0
 11
-100.75
 21
61.225
 31
0.0
  0
LINE
  5
78
330
22
100
AcDbEntity
  8
ﾊｯﾁﾝｸﾞ
100
AcDbLine
 10
-83.15000000000001
 20
76.0
 30
0.0
 11
-100.75
 21
58.39999999999999
 31
0.0
  0
LINE
  5
79
330
22
100
AcDbEntity
  8
ﾊｯﾁﾝｸﾞ
100
AcDbLine
 10
-81.0
 20
75.325
 30
0.0
 11
-100.375
 21
55.95
 31
0.0
  0
LINE
  5
7A
330
22
100
AcDbEntity
  8
ﾊｯﾁﾝｸﾞ
100
AcDbLine
 10
-78.875
 20
74.59999999999999
 30
0.0
 11
-97.70000000000001
 21
55.8
 31
0.0
  0
LINE
  5
7B
330
22
100
AcDbEntity
  8
ﾊｯﾁﾝｸﾞ
100
AcDbLine
 10
-76.79999999999999
 20
73.875
 30
0.0
 11
-95.15
 21
55.525
 31
0.0
  0
LINE
  5
7C
330
22
100
AcDbEntity
  8
ﾊｯﾁﾝｸﾞ
100
AcDbLine
 10
-74.92499999999999
 20
72.925
 30
0.0
 11
-92.79999999999999
 21
55.04999999999999
 31
0.0
  0
LINE
  5
7D
330
22
100
AcDbEntity
  8
ﾊｯﾁﾝｸﾞ
100
AcDbLine
 10
-73.04999999999999
 20
71.97499999999999
 30
0.0
 11
-90.44999999999999
 21
54.55
 31
0.0
  0
LINE
  5
7E
330
22
100
AcDbEntity
  8
ﾊｯﾁﾝｸﾞ
100
AcDbLine
 10
-71.15000000000001
 20
71.025
 30
0.0
 11
-88.125
 21
54.05
 31
0.0
  0
LINE
  5
7F
330
22
100
AcDbEntity
  8
ﾊｯﾁﾝｸﾞ
100
AcDbLine
 10
-69.27500000000001
 20
70.075
 30
0.0
 11
-86.05
 21
53.3
 31
0.0
  0
LINE
  5
80
330
22
100
AcDbEntity
  8
ﾊｯﾁﾝｸﾞ
100
AcDbLine
 10
-67.40000000000001
 20
69.125
 30
0.0
 11
-84.02500000000001
 21
52.5
 31
0.0
  0
LINE
  5
81
330
22
100
AcDbEntity
  8
ﾊｯﾁﾝｸﾞ
100
AcDbLine
 10
-65.59999999999999
 20
68.09999999999999
 30
0.0
 11
-82.125
 21
51.575
 31
0.0
  0
LINE
  5
82
330
22
100
AcDbEntity
  8
ﾊｯﾁﾝｸﾞ
100
AcDbLine
 10
-63.975
 20
66.90000000000001
 30
0.0
 11
-80.22499999999999
 21
50.65
 31
0.0
  0
LINE
  5
83
330
22
100
AcDbEntity
  8
ﾊｯﾁﾝｸﾞ
100
AcDbLine
 10
-62.325
 20
65.72499999999999
 30
0.0
 11
-78.525
 21
49.525
 31
0.0
  0
LINE
  5
84
330
22
100
AcDbEntity
  8
ﾊｯﾁﾝｸﾞ
100
AcDbLine
 10
-60.7
 20
64.525
 30
0.0
 11
-76.92499999999999
 21
48.3
 31
0.0
  0
LINE
  5
85
330
22
100
AcDbEntity
  8
ﾊｯﾁﾝｸﾞ
100
AcDbLine
 10
-59.075
 20
63.325
 30
0.0
 11
-75.325
 21
47.075
 31
0.0
  0
LINE
  5
86
330
22
100
AcDbEntity
  8
ﾊｯﾁﾝｸﾞ
100
AcDbLine
 10
-57.575
 20
62.0
 30
0.0
 11
-73.72499999999999
 21
45.84999999999999
 31
0.0
  0
LINE
  5
87
330
22
100
AcDbEntity
  8
ﾊｯﾁﾝｸﾞ
100
AcDbLine
 10
-56.1
 20
60.65
 30
0.0
 11
-72.125
 21
44.625
 31
0.0
  0
ENDBLK
  5
88
330
22
100
AcDbEntity
  8
ﾚｲﾔ1
100
AcDbBlockEnd
  0
BLOCK
  5
89
330
23
100
AcDbEntity
  8
ﾚｲﾔ1
100
AcDbBlockBegin
  2
*H1
 70
     1
 10
0.0
 20
0.0
 30
0.0
  3
*H1
  1

  0
LINE
  5
8A
330
23
100
AcDbEntity
  8
ﾊｯﾁﾝｸﾞ
100
AcDbLine
 10
-100.725
 20
57.225
 30
0.0
 11
-102.075
 21
55.89999999999999
 31
0.0
  0
LINE
  5
8B
330
23
100
AcDbEntity
  8
ﾊｯﾁﾝｸﾞ
100
AcDbLine
 10
-100.725
 20
60.04999999999999
 30
0.0
 11
-105.05
 21
55.725
 31
0.0
  0
LINE
  5
8C
330
23
100
AcDbEntity
  8
ﾊｯﾁﾝｸﾞ
100
AcDbLine
 10
-100.725
 20
62.875
 30
0.0
 11
-108.575
 21
55.04999999999999
 31
0.0
  0
LINE
  5
8D
330
23
100
AcDbEntity
  8
ﾊｯﾁﾝｸﾞ
100
AcDbLine
 10
-100.725
 20
65.72499999999999
 30
0.0
 11
-112.125
 21
54.325
 31
0.0
  0
LINE
  5
8E
330
23
100
AcDbEntity
  8
ﾊｯﾁﾝｸﾞ
100
AcDbLine
 10
-100.725
 20
68.55
 30
0.0
 11
-116.275
 21
53.0
 31
0.0
  0
LINE
  5
8F
330
23
100
AcDbEntity
  8
ﾊｯﾁﾝｸﾞ
100
AcDbLine
 10
-100.725
 20
71.375
 30
0.0
 11
-121.65
 21
50.45
 31
0.0
  0
LINE
  5
90
330
23
100
AcDbEntity
  8
ﾊｯﾁﾝｸﾞ
100
AcDbLine
 10
-100.725
 20
74.2
 30
0.0
 11
-131.1
 21
43.825
 31
0.0
  0
LINE
  5
91
330
23
100
AcDbEntity
  8
ﾊｯﾁﾝｸﾞ
100
AcDbLine
 10
-100.725
 20
77.025
 30
0.0
 11
-132.5
 21
45.25
 31
0.0
  0
LINE
  5
92
330
23
100
AcDbEntity
  8
ﾊｯﾁﾝｸﾞ
100
AcDbLine
 10
-102.175
 20
78.4
 30
0.0
 11
-133.925
 21
46.65
 31
0.0
  0
LINE
  5
93
330
23
100
AcDbEntity
  8
ﾊｯﾁﾝｸﾞ
100
AcDbLine
 10
-105.15
 20
78.25
 30
0.0
 11
-135.325
 21
48.075
 31
0.0
  0
LINE
  5
94
330
23
100
AcDbEntity
  8
ﾊｯﾁﾝｸﾞ
100
AcDbLine
 10
-108.325
 20
77.925
 30
0.0
 11
-136.75
 21
49.5
 31
0.0
  0
LINE
  5
95
330
23
100
AcDbEntity
  8
ﾊｯﾁﾝｸﾞ
100
AcDbLine
 10
-111.775
 20
77.275
 30
0.0
 11
-138.15
 21
50.89999999999999
 31
0.0
  0
LINE
  5
96
330
23
100
AcDbEntity
  8
ﾊｯﾁﾝｸﾞ
100
AcDbLine
 10
-115.225
 20
76.65
 30
0.0
 11
-139.575
 21
52.325
 31
0.0
  0
LINE
  5
97
330
23
100
AcDbEntity
  8
ﾊｯﾁﾝｸﾞ
100
AcDbLine
 10
-118.9
 20
75.825
 30
0.0
 11
-141.0
 21
53.725
 31
0.0
  0
LINE
  5
98
330
23
100
AcDbEntity
  8
ﾊｯﾁﾝｸﾞ
100
AcDbLine
 10
-123.125
 20
74.42499999999999
 30
0.0
 11
-142.4
 21
55.15
 31
0.0
  0
LINE
  5
99
330
23
100
AcDbEntity
  8
ﾊｯﾁﾝｸﾞ
100
AcDbLine
 10
-128.375
 20
72.0
 30
0.0
 11
-143.825
 21
56.55
 31
0.0
  0
LINE
  5
9A
330
23
100
AcDbEntity
  8
ﾊｯﾁﾝｸﾞ
100
AcDbLine
 10
-134.075
 20
69.125
 30
0.0
 11
-145.225
 21
57.975
 31
0.0
  0
LINE
  5
9B
330
23
100
AcDbEntity
  8
ﾊｯﾁﾝｸﾞ
100
AcDbLine
 10
-145.5
 20
60.525
 30
0.0
 11
-146.65
 21
59.375
 31
0.0
  0
LINE
  5
9C
330
23
100
AcDbEntity
  8
ﾊｯﾁﾝｸﾞ
100
AcDbLine
 10
-101.0
 20
78.45
 30
0.0
 11
-100.725
 21
78.2
 31
0.0
  0
LINE
  5
9D
330
23
100
AcDbEntity
  8
ﾊｯﾁﾝｸﾞ
100
AcDbLine
 10
-103.7
 20
78.325
 30
0.0
 11
-100.725
 21
75.375
 31
0.0
  0
LINE
  5
9E
330
23
100
AcDbEntity
  8
ﾊｯﾁﾝｸﾞ
100
AcDbLine
 10
-106.4
 20
78.2
 30
0.0
 11
-100.725
 21
72.54999999999999
 31
0.0
  0
LINE
  5
9F
330
23
100
AcDbEntity
  8
ﾊｯﾁﾝｸﾞ
100
AcDbLine
 10
-108.85
 20
77.825
 30
0.0
 11
-100.725
 21
69.725
 31
0.0
  0
LINE
  5
A0
330
23
100
AcDbEntity
  8
ﾊｯﾁﾝｸﾞ
100
AcDbLine
 10
-111.225
 20
77.40000000000001
 30
0.0
 11
-100.725
 21
66.90000000000001
 31
0.0
  0
LINE
  5
A1
330
23
100
AcDbEntity
  8
ﾊｯﾁﾝｸﾞ
100
AcDbLine
 10
-113.625
 20
76.95
 30
0.0
 11
-100.725
 21
64.05
 31
0.0
  0
LINE
  5
A2
330
23
100
AcDbEntity
  8
ﾊｯﾁﾝｸﾞ
100
AcDbLine
 10
-116.025
 20
76.525
 30
0.0
 11
-100.725
 21
61.225
 31
0.0
  0
LINE
  5
A3
330
23
100
AcDbEntity
  8
ﾊｯﾁﾝｸﾞ
100
AcDbLine
 10
-118.325
 20
76.0
 30
0.0
 11
-100.725
 21
58.39999999999999
 31
0.0
  0
LINE
  5
A4
330
23
100
AcDbEntity
  8
ﾊｯﾁﾝｸﾞ
100
AcDbLine
 10
-120.475
 20
75.325
 30
0.0
 11
-101.1
 21
55.95
 31
0.0
  0
LINE
  5
A5
330
23
100
AcDbEntity
  8
ﾊｯﾁﾝｸﾞ
100
AcDbLine
 10
-122.6
 20
74.59999999999999
 30
0.0
 11
-103.775
 21
55.8
 31
0.0
  0
LINE
  5
A6
330
23
100
AcDbEntity
  8
ﾊｯﾁﾝｸﾞ
100
AcDbLine
 10
-124.675
 20
73.875
 30
0.0
 11
-106.325
 21
55.525
 31
0.0
  0
LINE
  5
A7
330
23
100
AcDbEntity
  8
ﾊｯﾁﾝｸﾞ
100
AcDbLine
 10
-126.55
 20
72.925
 30
0.0
 11
-108.675
 21
55.04999999999999
 31
0.0
  0
LINE
  5
A8
330
23
100
AcDbEntity
  8
ﾊｯﾁﾝｸﾞ
100
AcDbLine
 10
-128.425
 20
71.97499999999999
 30
0.0
 11
-111.025
 21
54.55
 31
0.0
  0
LINE
  5
A9
330
23
100
AcDbEntity
  8
ﾊｯﾁﾝｸﾞ
100
AcDbLine
 10
-130.325
 20
71.025
 30
0.0
 11
-113.35
 21
54.05
 31
0.0
  0
LINE
  5
AA
330
23
100
AcDbEntity
  8
ﾊｯﾁﾝｸﾞ
100
AcDbLine
 10
-132.2
 20
70.075
 30
0.0
 11
-115.425
 21
53.3
 31
0.0
  0
LINE
  5
AB
330
23
100
AcDbEntity
  8
ﾊｯﾁﾝｸﾞ
100
AcDbLine
 10
-134.075
 20
69.125
 30
0.0
 11
-117.45
 21
52.5
 31
0.0
  0
LINE
  5
AC
330
23
100
AcDbEntity
  8
ﾊｯﾁﾝｸﾞ
100
AcDbLine
 10
-135.875
 20
68.09999999999999
 30
0.0
 11
-119.35
 21
51.575
 31
0.0
  0
LINE
  5
AD
330
23
100
AcDbEntity
  8
ﾊｯﾁﾝｸﾞ
100
AcDbLine
 10
-137.5
 20
66.90000000000001
 30
0.0
 11
-121.25
 21
50.65
 31
0.0
  0
LINE
  5
AE
330
23
100
AcDbEntity
  8
ﾊｯﾁﾝｸﾞ
100
AcDbLine
 10
-139.15
 20
65.72499999999999
 30
0.0
 11
-122.95
 21
49.525
 31
0.0
  0
LINE
  5
AF
330
23
100
AcDbEntity
  8
ﾊｯﾁﾝｸﾞ
100
AcDbLine
 10
-140.775
 20
64.525
 30
0.0
 11
-124.55
 21
48.3
 31
0.0
  0
LINE
  5
B0
330
23
100
AcDbEntity
  8
ﾊｯﾁﾝｸﾞ
100
AcDbLine
 10
-142.4
 20
63.325
 30
0.0
 11
-126.15
 21
47.075
 31
0.0
  0
LINE
  5
B1
330
23
100
AcDbEntity
  8
ﾊｯﾁﾝｸﾞ
100
AcDbLine
 10
-143.9
 20
62.0
 30
0.0
 11
-127.75
 21
45.84999999999999
 31
0.0
  0
LINE
  5
B2
330
23
100
AcDbEntity
  8
ﾊｯﾁﾝｸﾞ
100
AcDbLine
 10
-145.375
 20
60.65
 30
0.0
 11
-129.35
 21
44.625
 31
0.0
  0
ENDBLK
  5
B3
330
23
100
AcDbEntity
  8
ﾚｲﾔ1
100
AcDbBlockEnd
  0
BLOCK
  5
B4
330
24
100
AcDbEntity
  8
ﾚｲﾔ1
100
AcDbBlockBegin
  2
*H2
 70
     1
 10
0.0
 20
0.0
 30
0.0
  3
*H2
  1

  0
LINE
  5
B5
330
24
100
AcDbEntity
  8
ﾊｯﾁﾝｸﾞ
100
AcDbLine
 10
-100.725
 20
-30.275
 30
0.0
 11
-102.075
 21
-28.95
 31
0.0
  0
LINE
  5
B6
330
24
100
AcDbEntity
  8
ﾊｯﾁﾝｸﾞ
100
AcDbLine
 10
-100.725
 20
-33.1
 30
0.0
 11
-105.05
 21
-28.775
 31
0.0
  0
LINE
  5
B7
330
24
100
AcDbEntity
  8
ﾊｯﾁﾝｸﾞ
100
AcDbLine
 10
-100.725
 20
-35.925
 30
0.0
 11
-108.575
 21
-28.1
 31
0.0
  0
LINE
  5
B8
330
24
100
AcDbEntity
  8
ﾊｯﾁﾝｸﾞ
100
AcDbLine
 10
-100.725
 20
-38.775
 30
0.0
 11
-112.125
 21
-27.375
 31
0.0
  0
LINE
  5
B9
330
24
100
AcDbEntity
  8
ﾊｯﾁﾝｸﾞ
100
AcDbLine
 10
-100.725
 20
-41.6
 30
0.0
 11
-116.275
 21
-26.05
 31
0.0
  0
LINE
  5
BA
330
24
100
AcDbEntity
  8
ﾊｯﾁﾝｸﾞ
100
AcDbLine
 10
-100.725
 20
-44.42499999999999
 30
0.0
 11
-121.65
 21
-23.5
 31
0.0
  0
LINE
  5
BB
330
24
100
AcDbEntity
  8
ﾊｯﾁﾝｸﾞ
100
AcDbLine
 10
-100.725
 20
-47.25
 30
0.0
 11
-131.1
 21
-16.875
 31
0.0
  0
LINE
  5
BC
330
24
100
AcDbEntity
  8
ﾊｯﾁﾝｸﾞ
100
AcDbLine
 10
-100.725
 20
-50.075
 30
0.0
 11
-132.5
 21
-18.3
 31
0.0
  0
LINE
  5
BD
330
24
100
AcDbEntity
  8
ﾊｯﾁﾝｸﾞ
100
AcDbLine
 10
-102.175
 20
-51.45
 30
0.0
 11
-133.925
 21
-19.7
 31
0.0
  0
LINE
  5
BE
330
24
100
AcDbEntity
  8
ﾊｯﾁﾝｸﾞ
100
AcDbLine
 10
-105.15
 20
-51.29999999999999
 30
0.0
 11
-135.325
 21
-21.125
 31
0.0
  0
LINE
  5
BF
330
24
100
AcDbEntity
  8
ﾊｯﾁﾝｸﾞ
100
AcDbLine
 10
-108.325
 20
-50.975
 30
0.0
 11
-136.75
 21
-22.55
 31
0.0
  0
LINE
  5
C0
330
24
100
AcDbEntity
  8
ﾊｯﾁﾝｸﾞ
100
AcDbLine
 10
-111.775
 20
-50.325
 30
0.0
 11
-138.15
 21
-23.95
 31
0.0
  0
LINE
  5
C1
330
24
100
AcDbEntity
  8
ﾊｯﾁﾝｸﾞ
100
AcDbLine
 10
-115.225
 20
-49.7
 30
0.0
 11
-139.575
 21
-25.375
 31
0.0
  0
LINE
  5
C2
330
24
100
AcDbEntity
  8
ﾊｯﾁﾝｸﾞ
100
AcDbLine
 10
-118.9
 20
-48.875
 30
0.0
 11
-141.0
 21
-26.775
 31
0.0
  0
LINE
  5
C3
330
24
100
AcDbEntity
  8
ﾊｯﾁﾝｸﾞ
100
AcDbLine
 10
-123.125
 20
-47.475
 30
0.0
 11
-142.4
 21
-28.2
 31
0.0
  0
LINE
  5
C4
330
24
100
AcDbEntity
  8
ﾊｯﾁﾝｸﾞ
100
AcDbLine
 10
-128.375
 20
-45.04999999999999
 30
0.0
 11
-143.825
 21
-29.6
 31
0.0
  0
LINE
  5
C5
330
24
100
AcDbEntity
  8
ﾊｯﾁﾝｸﾞ
100
AcDbLine
 10
-134.075
 20
-42.175
 30
0.0
 11
-145.225
 21
-31.025
 31
0.0
  0
LINE
  5
C6
330
24
100
AcDbEntity
  8
ﾊｯﾁﾝｸﾞ
100
AcDbLine
 10
-145.5
 20
-33.575
 30
0.0
 11
-146.65
 21
-32.425
 31
0.0
  0
LINE
  5
C7
330
24
100
AcDbEntity
  8
ﾊｯﾁﾝｸﾞ
100
AcDbLine
 10
-101.0
 20
-51.5
 30
0.0
 11
-100.725
 21
-51.25
 31
0.0
  0
LINE
  5
C8
330
24
100
AcDbEntity
  8
ﾊｯﾁﾝｸﾞ
100
AcDbLine
 10
-103.7
 20
-51.375
 30
0.0
 11
-100.725
 21
-48.425
 31
0.0
  0
LINE
  5
C9
330
24
100
AcDbEntity
  8
ﾊｯﾁﾝｸﾞ
100
AcDbLine
 10
-106.4
 20
-51.25
 30
0.0
 11
-100.725
 21
-45.6
 31
0.0
  0
LINE
  5
CA
330
24
100
AcDbEntity
  8
ﾊｯﾁﾝｸﾞ
100
AcDbLine
 10
-108.85
 20
-50.875
 30
0.0
 11
-100.725
 21
-42.77499999999999
 31
0.0
  0
LINE
  5
CB
330
24
100
AcDbEntity
  8
ﾊｯﾁﾝｸﾞ
100
AcDbLine
 10
-111.225
 20
-50.45
 30
0.0
 11
-100.725
 21
-39.95
 31
0.0
  0
LINE
  5
CC
330
24
100
AcDbEntity
  8
ﾊｯﾁﾝｸﾞ
100
AcDbLine
 10
-113.625
 20
-50.0
 30
0.0
 11
-100.725
 21
-37.1
 31
0.0
  0
LINE
  5
CD
330
24
100
AcDbEntity
  8
ﾊｯﾁﾝｸﾞ
100
AcDbLine
 10
-116.025
 20
-49.575
 30
0.0
 11
-100.725
 21
-34.275
 31
0.0
  0
LINE
  5
CE
330
24
100
AcDbEntity
  8
ﾊｯﾁﾝｸﾞ
100
AcDbLine
 10
-118.325
 20
-49.05
 30
0.0
 11
-100.725
 21
-31.45
 31
0.0
  0
LINE
  5
CF
330
24
100
AcDbEntity
  8
ﾊｯﾁﾝｸﾞ
100
AcDbLine
 10
-120.475
 20
-48.375
 30
0.0
 11
-101.1
 21
-29.0
 31
0.0
  0
LINE
  5
D0
330
24
100
AcDbEntity
  8
ﾊｯﾁﾝｸﾞ
100
AcDbLine
 10
-122.6
 20
-47.64999999999999
 30
0.0
 11
-103.775
 21
-28.85
 31
0.0
  0
LINE
  5
D1
330
24
100
AcDbEntity
  8
ﾊｯﾁﾝｸﾞ
100
AcDbLine
 10
-124.675
 20
-46.92499999999999
 30
0.0
 11
-106.325
 21
-28.575
 31
0.0
  0
LINE
  5
D2
330
24
100
AcDbEntity
  8
ﾊｯﾁﾝｸﾞ
100
AcDbLine
 10
-126.55
 20
-45.975
 30
0.0
 11
-108.675
 21
-28.1
 31
0.0
  0
LINE
  5
D3
330
24
100
AcDbEntity
  8
ﾊｯﾁﾝｸﾞ
100
AcDbLine
 10
-128.425
 20
-45.025
 30
0.0
 11
-111.025
 21
-27.6
 31
0.0
  0
LINE
  5
D4
330
24
100
AcDbEntity
  8
ﾊｯﾁﾝｸﾞ
100
AcDbLine
 10
-130.325
 20
-44.075
 30
0.0
 11
-113.35
 21
-27.1
 31
0.0
  0
LINE
  5
D5
330
24
100
AcDbEntity
  8
ﾊｯﾁﾝｸﾞ
100
AcDbLine
 10
-132.2
 20
-43.125
 30
0.0
 11
-115.425
 21
-26.35
 31
0.0
  0
LINE
  5
D6
330
24
100
AcDbEntity
  8
ﾊｯﾁﾝｸﾞ
100
AcDbLine
 10
-134.075
 20
-42.175
 30
0.0
 11
-117.45
 21
-25.55
 31
0.0
  0
LINE
  5
D7
330
24
100
AcDbEntity
  8
ﾊｯﾁﾝｸﾞ
100
AcDbLine
 10
-135.875
 20
-41.15
 30
0.0
 11
-119.35
 21
-24.625
 31
0.0
  0
LINE
  5
D8
330
24
100
AcDbEntity
  8
ﾊｯﾁﾝｸﾞ
100
AcDbLine
 10
-137.5
 20
-39.95
 30
0.0
 11
-121.25
 21
-23.7
 31
0.0
  0
LINE
  5
D9
330
24
100
AcDbEntity
  8
ﾊｯﾁﾝｸﾞ
100
AcDbLine
 10
-139.15
 20
-38.775
 30
0.0
 11
-122.95
 21
-22.575
 31
0.0
  0
LINE
  5
DA
330
24
100
AcDbEntity
  8
ﾊｯﾁﾝｸﾞ
100
AcDbLine
 10
-140.775
 20
-37.575
 30
0.0
 11
-124.55
 21
-21.35
 31
0.0
  0
LINE
  5
DB
330
24
100
AcDbEntity
  8
ﾊｯﾁﾝｸﾞ
100
AcDbLine
 10
-142.4
 20
-36.375
 30
0.0
 11
-126.15
 21
-20.125
 31
0.0
  0
LINE
  5
DC
330
24
100
AcDbEntity
  8
ﾊｯﾁﾝｸﾞ
100
AcDbLine
 10
-143.9
 20
-35.05
 30
0.0
 11
-127.75
 21
-18.9
 31
0.0
  0
LINE
  5
DD
330
24
100
AcDbEntity
  8
ﾊｯﾁﾝｸﾞ
100
AcDbLine
 10
-145.375
 20
-33.7
 30
0.0
 11
-129.35
 21
-17.675
 31
0.0
  0
ENDBLK
  5
DE
330
24
100
AcDbEntity
  8
ﾚｲﾔ1
100
AcDbBlockEnd
  0
BLOCK
  5
DF
330
25
100
AcDbEntity
  8
ﾚｲﾔ1
100
AcDbBlockBegin
  2
*H3
 70
     1
 10
0.0
 20
0.0
 30
0.0
  3
*H3
  1

  0
LINE
  5
E0
330
25
100
AcDbEntity
  8
ﾊｯﾁﾝｸﾞ
100
AcDbLine
 10
-100.75
 20
-30.275
 30
0.0
 11
-99.40000000000001
 21
-28.95
 31
0.0
  0
LINE
  5
E1
330
25
100
AcDbEntity
  8
ﾊｯﾁﾝｸﾞ
100
AcDbLine
 10
-100.75
 20
-33.1
 30
0.0
 11
-96.425
 21
-28.775
 31
0.0
  0
LINE
  5
E2
330
25
100
AcDbEntity
  8
ﾊｯﾁﾝｸﾞ
100
AcDbLine
 10
-100.75
 20
-35.925
 30
0.0
 11
-92.9
 21
-28.1
 31
0.0
  0
LINE
  5
E3
330
25
100
AcDbEntity
  8
ﾊｯﾁﾝｸﾞ
100
AcDbLine
 10
-100.75
 20
-38.775
 30
0.0
 11
-89.35
 21
-27.375
 31
0.0
  0
LINE
  5
E4
330
25
100
AcDbEntity
  8
ﾊｯﾁﾝｸﾞ
100
AcDbLine
 10
-100.75
 20
-41.6
 30
0.0
 11
-85.20000000000001
 21
-26.05
 31
0.0
  0
LINE
  5
E5
330
25
100
AcDbEntity
  8
ﾊｯﾁﾝｸﾞ
100
AcDbLine
 10
-100.75
 20
-44.42499999999999
 30
0.0
 11
-79.825
 21
-23.5
 31
0.0
  0
LINE
  5
E6
330
25
100
AcDbEntity
  8
ﾊｯﾁﾝｸﾞ
100
AcDbLine
 10
-100.75
 20
-47.25
 30
0.0
 11
-70.375
 21
-16.875
 31
0.0
  0
LINE
  5
E7
330
25
100
AcDbEntity
  8
ﾊｯﾁﾝｸﾞ
100
AcDbLine
 10
-100.75
 20
-50.075
 30
0.0
 11
-68.97499999999999
 21
-18.3
 31
0.0
  0
LINE
  5
E8
330
25
100
AcDbEntity
  8
ﾊｯﾁﾝｸﾞ
100
AcDbLine
 10
-99.29999999999999
 20
-51.45
 30
0.0
 11
-67.54999999999999
 21
-19.7
 31
0.0
  0
LINE
  5
E9
330
25
100
AcDbEntity
  8
ﾊｯﾁﾝｸﾞ
100
AcDbLine
 10
-96.325
 20
-51.29999999999999
 30
0.0
 11
-66.15000000000001
 21
-21.125
 31
0.0
  0
LINE
  5
EA
330
25
100
AcDbEntity
  8
ﾊｯﾁﾝｸﾞ
100
AcDbLine
 10
-93.15000000000001
 20
-50.975
 30
0.0
 11
-64.725
 21
-22.55
 31
0.0
  0
LINE
  5
EB
330
25
100
AcDbEntity
  8
ﾊｯﾁﾝｸﾞ
100
AcDbLine
 10
-89.7
 20
-50.325
 30
0.0
 11
-63.325
 21
-23.95
 31
0.0
  0
LINE
  5
EC
330
25
100
AcDbEntity
  8
ﾊｯﾁﾝｸﾞ
100
AcDbLine
 10
-86.25
 20
-49.7
 30
0.0
 11
-61.9
 21
-25.375
 31
0.0
  0
LINE
  5
ED
330
25
100
AcDbEntity
  8
ﾊｯﾁﾝｸﾞ
100
AcDbLine
 10
-82.575
 20
-48.875
 30
0.0
 11
-60.475
 21
-26.775
 31
0.0
  0
LINE
  5
EE
330
25
100
AcDbEntity
  8
ﾊｯﾁﾝｸﾞ
100
AcDbLine
 10
-78.34999999999999
 20
-47.475
 30
0.0
 11
-59.075
 21
-28.2
 31
0.0
  0
LINE
  5
EF
330
25
100
AcDbEntity
  8
ﾊｯﾁﾝｸﾞ
100
AcDbLine
 10
-73.09999999999999
 20
-45.04999999999999
 30
0.0
 11
-57.65
 21
-29.6
 31
0.0
  0
LINE
  5
F0
330
25
100
AcDbEntity
  8
ﾊｯﾁﾝｸﾞ
100
AcDbLine
 10
-67.40000000000001
 20
-42.175
 30
0.0
 11
-56.25
 21
-31.025
 31
0.0
  0
LINE
  5
F1
330
25
100
AcDbEntity
  8
ﾊｯﾁﾝｸﾞ
100
AcDbLine
 10
-55.975
 20
-33.575
 30
0.0
 11
-54.825
 21
-32.425
 31
0.0
  0
LINE
  5
F2
330
25
100
AcDbEntity
  8
ﾊｯﾁﾝｸﾞ
100
AcDbLine
 10
-100.475
 20
-51.5
 30
0.0
 11
-100.75
 21
-51.25
 31
0.0
  0
LINE
  5
F3
330
25
100
AcDbEntity
  8
ﾊｯﾁﾝｸﾞ
100
AcDbLine
 10
-97.77500000000001
 20
-51.375
 30
0.0
 11
-100.75
 21
-48.425
 31
0.0
  0
LINE
  5
F4
330
25
100
AcDbEntity
  8
ﾊｯﾁﾝｸﾞ
100
AcDbLine
 10
-95.075
 20
-51.25
 30
0.0
 11
-100.75
 21
-45.6
 31
0.0
  0
LINE
  5
F5
330
25
100
AcDbEntity
  8
ﾊｯﾁﾝｸﾞ
100
AcDbLine
 10
-92.62500000000001
 20
-50.875
 30
0.0
 11
-100.75
 21
-42.77499999999999
 31
0.0
  0
LINE
  5
F6
330
25
100
AcDbEntity
  8
ﾊｯﾁﾝｸﾞ
100
AcDbLine
 10
-90.25
 20
-50.45
 30
0.0
 11
-100.75
 21
-39.95
 31
0.0
  0
LINE
  5
F7
330
25
100
AcDbEntity
  8
ﾊｯﾁﾝｸﾞ
100
AcDbLine
 10
-87.85
 20
-50.0
 30
0.0
 11
-100.75
 21
-37.1
 31
0.0
  0
LINE
  5
F8
330
25
100
AcDbEntity
  8
ﾊｯﾁﾝｸﾞ
100
AcDbLine
 10
-85.44999999999999
 20
-49.575
 30
0.0
 11
-100.75
 21
-34.275
 31
0.0
  0
LINE
  5
F9
330
25
100
AcDbEntity
  8
ﾊｯﾁﾝｸﾞ
100
AcDbLine
 10
-83.15000000000001
 20
-49.05
 30
0.0
 11
-100.75
 21
-31.45
 31
0.0
  0
LINE
  5
FA
330
25
100
AcDbEntity
  8
ﾊｯﾁﾝｸﾞ
100
AcDbLine
 10
-81.0
 20
-48.375
 30
0.0
 11
-100.375
 21
-29.0
 31
0.0
  0
LINE
  5
FB
330
25
100
AcDbEntity
  8
ﾊｯﾁﾝｸﾞ
100
AcDbLine
 10
-78.875
 20
-47.64999999999999
 30
0.0
 11
-97.70000000000001
 21
-28.85
 31
0.0
  0
LINE
  5
FC
330
25
100
AcDbEntity
  8
ﾊｯﾁﾝｸﾞ
100
AcDbLine
 10
-76.79999999999999
 20
-46.92499999999999
 30
0.0
 11
-95.15
 21
-28.575
 31
0.0
  0
LINE
  5
FD
330
25
100
AcDbEntity
  8
ﾊｯﾁﾝｸﾞ
100
AcDbLine
 10
-74.92499999999999
 20
-45.975
 30
0.0
 11
-92.79999999999999
 21
-28.1
 31
0.0
  0
LINE
  5
FE
330
25
100
AcDbEntity
  8
ﾊｯﾁﾝｸﾞ
100
AcDbLine
 10
-73.04999999999999
 20
-45.025
 30
0.0
 11
-90.44999999999999
 21
-27.6
 31
0.0
  0
LINE
  5
FF
330
25
100
AcDbEntity
  8
ﾊｯﾁﾝｸﾞ
100
AcDbLine
 10
-71.15000000000001
 20
-44.075
 30
0.0
 11
-88.125
 21
-27.1
 31
0.0
  0
LINE
  5
100
330
25
100
AcDbEntity
  8
ﾊｯﾁﾝｸﾞ
100
AcDbLine
 10
-69.27500000000001
 20
-43.125
 30
0.0
 11
-86.05
 21
-26.35
 31
0.0
  0
LINE
  5
101
330
25
100
AcDbEntity
  8
ﾊｯﾁﾝｸﾞ
100
AcDbLine
 10
-67.40000000000001
 20
-42.175
 30
0.0
 11
-84.02500000000001
 21
-25.55
 31
0.0
  0
LINE
  5
102
330
25
100
AcDbEntity
  8
ﾊｯﾁﾝｸﾞ
100
AcDbLine
 10
-65.59999999999999
 20
-41.15
 30
0.0
 11
-82.125
 21
-24.625
 31
0.0
  0
LINE
  5
103
330
25
100
AcDbEntity
  8
ﾊｯﾁﾝｸﾞ
100
AcDbLine
 10
-63.975
 20
-39.95
 30
0.0
 11
-80.22499999999999
 21
-23.7
 31
0.0
  0
LINE
  5
104
330
25
100
AcDbEntity
  8
ﾊｯﾁﾝｸﾞ
100
AcDbLine
 10
-62.325
 20
-38.775
 30
0.0
 11
-78.525
 21
-22.575
 31
0.0
  0
LINE
  5
105
330
25
100
AcDbEntity
  8
ﾊｯﾁﾝｸﾞ
100
AcDbLine
 10
-60.7
 20
-37.575
 30
0.0
 11
-76.92499999999999
 21
-21.35
 31
0.0
  0
LINE
  5
106
330
25
100
AcDbEntity
  8
ﾊｯﾁﾝｸﾞ
100
AcDbLine
 10
-59.075
 20
-36.375
 30
0.0
 11
-75.325
 21
-20.125
 31
0.0
  0
LINE
  5
107
330
25
100
AcDbEntity
  8
ﾊｯﾁﾝｸﾞ
100
AcDbLine
 10
-57.575
 20
-35.05
 30
0.0
 11
-73.72499999999999
 21
-18.9
 31
0.0
  0
LINE
  5
108
330
25
100
AcDbEntity
  8
ﾊｯﾁﾝｸﾞ
100
AcDbLine
 10
-56.1
 20
-33.7
 30
0.0
 11
-72.125
 21
-17.675
 31
0.0
  0
ENDBLK
  5
109
330
25
100
AcDbEntity
  8
ﾚｲﾔ1
100
AcDbBlockEnd
  0
BLOCK
  5
10A
330
26
100
AcDbEntity
  8
ﾚｲﾔ1
100
AcDbBlockBegin
  2
*G4
 70
     1
 10
0.0
 20
0.0
 30
0.0
  3
*G4
  1

  0
LINE
  5
10B
330
26
100
AcDbEntity
  8
寸法
  6
ByBlock
 62
     0
100
AcDbLine
 10
164.6827724999999
 20
78.48510000000006
 30
0.0
 11
174.8047624999999
 21
78.48510000000006
 31
0.0
  0
LINE
  5
10C
330
26
100
AcDbEntity
  8
寸法
  6
ByBlock
 62
     0
100
AcDbLine
 10
164.6827724999999
 20
-51.51490000000003
 30
0.0
 11
174.8047624999999
 21
-51.51490000000003
 31
0.0
  0
LINE
  5
10D
330
26
100
AcDbEntity
  8
寸法
  6
ByBlock
 62
     0
100
AcDbLine
 10
174.8047624999999
 20
78.48510000000006
 30
0.0
 11
174.8047624999999
 21
-51.51490000000003
 31
0.0
  0
LWPOLYLINE
  5
10E
330
26
100
AcDbEntity
  8
寸法
  6
ByBlock
 62
     0
100
AcDbPolyline
 90
        3
 70
     0
 43
0.0
 10
175.58122
 20
75.58732249999994
 10
174.8047624999999
 20
78.48510000000006
 10
174.028305
 20
75.58732249999994
  0
LWPOLYLINE
  5
113
330
26
100
AcDbEntity
  8
寸法
  6
ByBlock
 62
     0
100
AcDbPolyline
 90
        3
 70
     0
 43
0.0
 10
174.028305
 20
-48.6171225
 10
174.8047624999999
 20
-51.51490000000003
 10
175.58122
 20
-48.6171225
  0
TEXT
  5
118
330
26
100
AcDbEntity
  8
寸法
  6
Continuous
 62
     0
100
AcDbText
 10
174.075
 20
9.399999999999998
 30
0.0
 40
5.0
  1
130
 50
90.0
 41
1.13
  7
TextStyle01
100
AcDbText
  0
ENDBLK
  5
11B
330
26
100
AcDbEntity
  8
ﾚｲﾔ1
100
AcDbBlockEnd
  0
BLOCK
  5
122
330
28
100
AcDbEntity
  8
ﾚｲﾔ1
100
AcDbBlockBegin
  2
*G6
 70
     1
 10
0.0
 20
0.0
 30
0.0
  3
*G6
  1

  0
ARC
  5
123
330
28
100
AcDbEntity
  8
寸法
  6
ByBlock
 62
     0
100
AcDbCircle
 10
-100.7298342693409
 20
13.48509949856725
 30
0.0
 40
29.09620249999989
100
AcDbArc
 50
224.9999999999999
 51
315.0000000000001
  0
POINT
  5
124
330
28
100
AcDbEntity
  8
寸法
 62
     0
100
AcDbPoint
 10
-80.15571250000002
 20
-7.08902250000001
 30
0.0
  0
POINT
  5
125
330
28
100
AcDbEntity
  8
寸法
 62
     0
100
AcDbPoint
 10
-121.3039575
 20
-7.08902250000001
 30
0.0
  0
TEXT
  5
126
330
28
100
AcDbEntity
  8
寸法
  6
Continuous
 62
     0
100
AcDbText
 10
-104.8375
 20
-14.925
 30
0.0
 40
5.0
  1
90
 41
1.13
  7
TextStyle01
100
AcDbText
  0
TEXT
  5
127
330
28
100
AcDbEntity
  8
寸法
  6
Continuous
 62
     0
100
AcDbText
 10
-99.175
 20
-14.925
 30
0.0
 40
5.0
  1
ﾟ
 41
1.13
  7
TextStyle01
100
AcDbText
  0
ENDBLK
  5
128
330
28
100
AcDbEntity
  8
ﾚｲﾔ1
100
AcDbBlockEnd
  0
BLOCK
  5
129
330
29
100
AcDbEntity
  8
ﾚｲﾔ1
100
AcDbBlockBegin
  2
*G7
 70
     1
 10
0.0
 20
0.0
 30
0.0
  3
*G7
  1

  0
LINE
  5
12A
330
29
100
AcDbEntity
  8
寸法
  6
ByBlock
 62
     0
100
AcDbLine
 10
-0.31722749999999
 20
83.48510000000006
 30
0.0
 11
-0.31722749999999
 21
109.6484249999999
 31
0.0
  0
LINE
  5
12B
330
29
100
AcDbEntity
  8
寸法
  6
ByBlock
 62
     0
100
AcDbLine
 10
159.6827724999999
 20
83.48510000000006
 30
0.0
 11
159.6827724999999
 21
109.6484249999999
 31
0.0
  0
LINE
  5
12C
330
29
100
AcDbEntity
  8
寸法
  6
ByBlock
 62
     0
100
AcDbLine
 10
-0.31722749999999
 20
109.6484249999999
 30
0.0
 11
159.6827724999999
 21
109.6484249999999
 31
0.0
  0
LWPOLYLINE
  5
12D
330
29
100
AcDbEntity
  8
寸法
  6
ByBlock
 62
     0
100
AcDbPolyline
 90
        3
 70
     0
 43
0.0
 10
2.580550000000039
 20
110.4248825
 10
-0.31722749999999
 20
109.6484249999999
 10
2.580550000000039
 20
108.8719675
  0
LWPOLYLINE
  5
132
330
29
100
AcDbEntity
  8
寸法
  6
ByBlock
 62
     0
100
AcDbPolyline
 90
        3
 70
     0
 43
0.0
 10
156.784995
 20
108.8719675
 10
159.6827724999999
 20
109.6484249999999
 10
156.784995
 20
110.4248825
  0
TEXT
  5
137
330
29
100
AcDbEntity
  8
寸法
  6
Continuous
 62
     0
100
AcDbText
 10
75.575
 20
110.325
 30
0.0
 40
5.0
  1
160
 41
1.13
  7
TextStyle01
100
AcDbText
  0
ENDBLK
  5
138
330
29
100
AcDbEntity
  8
ﾚｲﾔ1
100
AcDbBlockEnd
  0
BLOCK
  5
139
330
2A
100
AcDbEntity
  8
ﾚｲﾔ1
100
AcDbBlockBegin
  2
*G8
 70
     1
 10
0.0
 20
0.0
 30
0.0
  3
*G8
  1

  0
LINE
  5
13A
330
2A
100
AcDbEntity
  8
寸法
  6
ByBlock
 62
     0
100
AcDbLine
 10
-0.31722749999999
 20
97.62836750000005
 30
0.0
 11
-0.31722749999999
 21
96.88338249999997
 31
0.0
  0
LINE
  5
13B
330
2A
100
AcDbEntity
  8
寸法
  6
ByBlock
 62
     0
100
AcDbLine
 10
7.682772499999918
 20
76.48510000000006
 30
0.0
 11
7.682772499999918
 21
96.88338249999997
 31
0.0
  0
LINE
  5
13C
330
2A
100
AcDbEntity
  8
寸法
  6
ByBlock
 62
     0
100
AcDbLine
 10
-6.317227499999989
 20
96.88338249999997
 30
0.0
 11
13.68277249999992
 21
96.88338249999997
 31
0.0
  0
LWPOLYLINE
  5
13D
330
2A
100
AcDbEntity
  8
寸法
  6
ByBlock
 62
     0
100
AcDbPolyline
 90
        3
 70
     0
 43
0.0
 10
-3.215005000000019
 20
96.10692500000006
 10
-0.31722749999999
 20
96.88338249999997
 10
-3.215005000000019
 20
97.65984000000008
  0
LWPOLYLINE
  5
142
330
2A
100
AcDbEntity
  8
寸法
  6
ByBlock
 62
     0
100
AcDbPolyline
 90
        3
 70
     0
 43
0.0
 10
10.58055000000004
 20
97.65984000000008
 10
7.682772499999918
 20
96.88338249999997
 10
10.58055000000004
 20
96.10692500000006
  0
TEXT
  5
147
330
2A
100
AcDbEntity
  8
寸法
  6
Continuous
 62
     0
100
AcDbText
 10
-0.4250000000000002
 20
97.575
 30
0.0
 40
5.0
  1
8
 41
1.13
  7
TextStyle01
100
AcDbText
  0
ENDBLK
  5
148
330
2A
100
AcDbEntity
  8
ﾚｲﾔ1
100
AcDbBlockEnd
  0
BLOCK
  5
149
330
2B
100
AcDbEntity
  8
ﾚｲﾔ1
100
AcDbBlockBegin
  2
*G9
 70
     1
 10
0.0
 20
0.0
 30
0.0
  3
*G9
  1

  0
LWPOLYLINE
  5
14A
330
2B
100
AcDbEntity
  8
寸法
100
AcDbPolyline
 90
        3
 70
     0
 43
0.0
 10
97.97614500000001
 20
88.4140874999999
 10
100.8739224999999
 20
89.19054500000001
 10
97.97614500000001
 20
89.96700249999994
  0
LINE
  5
14F
330
2B
100
AcDbEntity
  8
寸法
100
AcDbLine
 10
100.8739224999999
 20
89.19054500000001
 30
0.0
 11
83.00286250000008
 21
89.19054500000001
 31
0.0
  0
ENDBLK
  5
150
330
2B
100
AcDbEntity
  8
ﾚｲﾔ1
100
AcDbBlockEnd
  0
BLOCK
  5
151
330
2C
100
AcDbEntity
  8
ﾚｲﾔ1
100
AcDbBlockBegin
  2
*G10
 70
     1
 10
0.0
 20
0.0
 30
0.0
  3
*G10
  1

  0
LWPOLYLINE
  5
152
330
2C
100
AcDbEntity
  8
寸法
100
AcDbPolyline
 90
        3
 70
     0
 43
0.0
 10
97.97614500000001
 20
-61.44388749999998
 10
100.8739224999999
 20
-62.22034499999999
 10
97.97614500000001
 20
-62.99680250000001
  0
LINE
  5
157
330
2C
100
AcDbEntity
  8
寸法
100
AcDbLine
 10
100.8739224999999
 20
-62.22034499999999
 30
0.0
 11
83.00286250000008
 21
-62.22034499999999
 31
0.0
  0
ENDBLK
  5
158
330
2C
100
AcDbEntity
  8
ﾚｲﾔ1
100
AcDbBlockEnd
  0
BLOCK
  5
159
330
2D
100
AcDbEntity
  8
ﾚｲﾔ1
100
AcDbBlockBegin
  2
*G11
 70
     1
 10
0.0
 20
0.0
 30
0.0
  3
*G11
  1

  0
LINE
  5
15A
330
2D
100
AcDbEntity
  8
寸法
  6
ByBlock
 62
     0
100
AcDbLine
 10
-0.31722749999999
 20
-56.51490000000003
 30
0.0
 11
-0.31722749999999
 21
-69.36110250000002
 31
0.0
  0
LINE
  5
15B
330
2D
100
AcDbEntity
  8
寸法
  6
ByBlock
 62
     0
100
AcDbLine
 10
29.68277249999992
 20
-24.35555249999998
 30
0.0
 11
29.68277249999992
 21
-69.36110250000002
 31
0.0
  0
LINE
  5
15C
330
2D
100
AcDbEntity
  8
寸法
  6
ByBlock
 62
     0
100
AcDbLine
 10
-0.31722749999999
 20
-69.36110250000002
 30
0.0
 11
29.68277249999992
 21
-69.36110250000002
 31
0.0
  0
LWPOLYLINE
  5
15D
330
2D
100
AcDbEntity
  8
寸法
  6
ByBlock
 62
     0
100
AcDbPolyline
 90
        3
 70
     0
 43
0.0
 10
2.580550000000039
 20
-68.584645
 10
-0.31722749999999
 20
-69.36110250000002
 10
2.580550000000039
 20
-70.13756000000004
  0
LWPOLYLINE
  5
162
330
2D
100
AcDbEntity
  8
寸法
  6
ByBlock
 62
     0
100
AcDbPolyline
 90
        3
 70
     0
 43
0.0
 10
26.78499499999998
 20
-70.13756000000004
 10
29.68277249999992
 20
-69.36110250000002
 10
26.78499499999998
 20
-68.584645
  0
TEXT
  5
167
330
2D
100
AcDbEntity
  8
寸法
  6
Continuous
 62
     0
100
AcDbText
 10
12.0125
 20
-68.67499999999999
 30
0.0
 40
5.0
  1
30
 41
1.13
  7
TextStyle01
100
AcDbText
  0
ENDBLK
  5
168
330
2D
100
AcDbEntity
  8
ﾚｲﾔ1
100
AcDbBlockEnd
  0
BLOCK
  5
169
330
2E
100
AcDbEntity
  8
ﾚｲﾔ1
100
AcDbBlockBegin
  2
*G12
 70
     1
 10
0.0
 20
0.0
 30
0.0
  3
*G12
  1

  0
LINE
  5
16A
330
2E
100
AcDbEntity
  8
寸法
  6
ByBlock
 62
     0
100
AcDbLine
 10
139.6827724999999
 20
-25.00293750000001
 30
0.0
 11
139.6827724999999
 21
-69.36110250000002
 31
0.0
  0
LINE
  5
16B
330
2E
100
AcDbEntity
  8
寸法
  6
ByBlock
 62
     0
100
AcDbLine
 10
159.6827724999999
 20
-56.51490000000003
 30
0.0
 11
159.6827724999999
 21
-69.36110250000002
 31
0.0
  0
LINE
  5
16C
330
2E
100
AcDbEntity
  8
寸法
  6
ByBlock
 62
     0
100
AcDbLine
 10
139.6827724999999
 20
-69.36110250000002
 30
0.0
 11
159.6827724999999
 21
-69.36110250000002
 31
0.0
  0
LWPOLYLINE
  5
16D
330
2E
100
AcDbEntity
  8
寸法
  6
ByBlock
 62
     0
100
AcDbPolyline
 90
        3
 70
     0
 43
0.0
 10
142.58055
 20
-68.584645
 10
139.6827724999999
 20
-69.36110250000002
 10
142.58055
 20
-70.13756000000004
  0
LWPOLYLINE
  5
172
330
2E
100
AcDbEntity
  8
寸法
  6
ByBlock
 62
     0
100
AcDbPolyline
 90
        3
 70
     0
 43
0.0
 10
156.784995
 20
-70.13756000000004
 10
159.6827724999999
 20
-69.36110250000002
 10
156.784995
 20
-68.584645
  0
TEXT
  5
177
330
2E
100
AcDbEntity
  8
寸法
  6
Continuous
 62
     0
100
AcDbText
 10
147.0125
 20
-68.67499999999999
 30
0.0
 40
5.0
  1
20
 41
1.13
  7
TextStyle01
100
AcDbText
  0
ENDBLK
  5
178
330
2E
100
AcDbEntity
  8
ﾚｲﾔ1
100
AcDbBlockEnd
  0
BLOCK
  5
3C0
330
3BC
100
AcDbEntity
  8
0
100
AcDbBlockBegin
  2
_Open30
 70
     0
 10
0.0
 20
0.0
 30
0.0
  3
_Open30
  1

  0
LINE
  5
3BD
330
3BC
100
AcDbEntity
  8
寸法
 62
     0
370
    -2
100
AcDbLine
 10
-1.0
 20
0.26794919
 30
0.0
 11
0.0
 21
0.0
 31
0.0
  0
LINE
  5
3BE
330
3BC
100
AcDbEntity
  8
寸法
 62
     0
370
    -2
100
AcDbLine
 10
0.0
 20
0.0
 30
0.0
 11
-1.0
 21
-0.26794919
 31
0.0
  0
LINE
  5
3BF
330
3BC
100
AcDbEntity
  8
寸法
 62
     0
370
    -2
100
AcDbLine
 10
0.0
 20
0.0
 30
0.0
 11
-1.0
 21
0.0
 31
0.0
  0
ENDBLK
  5
3C1
330
3BC
100
AcDbEntity
  8
0
100
AcDbBlockEnd
  0
BLOCK
  5
3CB
330
3C4
100
AcDbEntity
  8
0
100
AcDbBlockBegin
  2
*D14
 70
     1
 10
0.0
 20
0.0
 30
0.0
  3
*D14
  1

  0
LINE
  5
3C5
330
3C4
100
AcDbEntity
  8
寸法
 62
     1
100
AcDbLine
 10
-61.9247521804031
 20
20.86178945830202
 30
0.0
 11
-139.5349178195969
 21
6.108410541698123
 31
0.0
  0
MTEXT
  5
3C6
330
3C4
100
AcDbEntity
  8
寸法
 62
     1
100
AcDbMText
 10
-78.08159574899947
 20
21.86812271512212
 30
0.0
 40
5.0
 41
0.0
 71
     5
 72
     1
  1
\A1;\U+220585
  7
TextStyle01
 11
0.9824071599897957
 21
0.1867516318557455
 31
0.0
 73
     1
 44
1.0
1001
ACAD
1000
MTEXTBEGIN
1070
    73
1070
     1
1070
    44
1040
1.0
1070
    74
1070
     0
1000
MTEXTEND
  0
INSERT
  5
3C7
330
3C4
100
AcDbEntity
  8
寸法
 62
     1
100
AcDbBlockReference
  2
_Open30
 10
-58.97753070043371
 20
21.42204435386926
 30
0.0
 41
3.0
 42
3.0
 43
3.0
 50
10.7632735132467
  0
INSERT
  5
3C8
330
3C4
100
AcDbEntity
  8
寸法
 62
     1
100
AcDbBlockReference
  2
_Open30
 10
-142.4821392995663
 20
5.548155646130851
 30
0.0
 41
3.0
 42
3.0
 43
3.0
 50
190.7632735132467
  0
POINT
  5
3C9
330
3C4
100
AcDbEntity
  8
Defpoints
 62
     0
100
AcDbPoint
 10
-142.4821392995663
 20
5.548155646130851
 30
0.0
  0
POINT
  5
3CA
330
3C4
100
AcDbEntity
  8
Defpoints
 62
     0
100
AcDbPoint
 10
-58.97753070043371
 20
21.42204435386926
 30
0.0
  0
ENDBLK
  5
3CC
330
3C4
100
AcDbEntity
  8
0
100
AcDbBlockEnd
  0
ENDSEC
  0
SECTION
  2
ENTITIES
  0
LWPOLYLINE
  5
179
330
1E
100
AcDbEntity
  8
ﾚｲﾔ1
  6
Continuous
 62
     9
100
AcDbPolyline
 90
        4
 70
     1
 43
0.0
 10
-210.0
 20
-148.5
 10
210.0
 20
-148.5
 10
210.0
 20
148.5
 10
-210.0
 20
148.5
  0
LINE
  5
17F
330
1E
100
AcDbEntity
  8
ﾚｲﾔ1
  6
Continuous
 62
     5
100
AcDbLine
 10
188.8
 20
-125.3
 30
0.0
 11
-188.5
 21
-125.3
 31
0.0
  0
LINE
  5
180
330
1E
100
AcDbEntity
  8
ﾚｲﾔ1
  6
Continuous
 62
     5
100
AcDbLine
 10
188.8
 20
125.5
 30
0.0
 11
188.8
 21
-125.3
 31
0.0
  0
LINE
  5
181
330
1E
100
AcDbEntity
  8
ﾚｲﾔ1
  6
Continuous
 62
     5
100
AcDbLine
 10
188.8
 20
125.5
 30
0.0
 11
-188.5
 21
125.5
 31
0.0
  0
LINE
  5
182
330
1E
100
AcDbEntity
  8
ﾚｲﾔ1
  6
Continuous
 62
     5
100
AcDbLine
 10
-188.5
 20
125.5
 30
0.0
 11
-188.5
 21
-125.3
 31
0.0
  0
LINE
  5
183
330
1E
100
AcDbEntity
  8
ﾚｲﾔ1
  6
Continuous
 62
     5
100
AcDbLine
 10
61.29999999999999
 20
-112.8
 30
0.0
 11
61.29999999999999
 21
-122.8
 31
0.0
  0
LINE
  5
184
330
1E
100
AcDbEntity
  8
ﾚｲﾔ1
  6
Continuous
 62
     5
100
AcDbLine
 10
61.29999999999999
 20
-122.8
 30
0.0
 11
71.29999999999999
 21
-122.8
 31
0.0
  0
LINE
  5
185
330
1E
100
AcDbEntity
  8
ﾚｲﾔ1
  6
Continuous
 62
     5
100
AcDbLine
 10
71.29999999999999
 20
-122.8
 30
0.0
 11
71.29999999999999
 21
-112.8
 31
0.0
  0
LINE
  5
186
330
1E
100
AcDbEntity
  8
ﾚｲﾔ1
  6
Continuous
 62
     5
100
AcDbLine
 10
71.29999999999999
 20
-112.8
 30
0.0
 11
61.29999999999999
 21
-112.8
 31
0.0
  0
LINE
  5
187
330
1E
100
AcDbEntity
  8
ﾚｲﾔ1
  6
Continuous
 62
     5
100
AcDbLine
 10
71.29999999999999
 20
-112.8
 30
0.0
 11
71.29999999999999
 21
-122.8
 31
0.0
  0
LINE
  5
188
330
1E
100
AcDbEntity
  8
ﾚｲﾔ1
  6
Continuous
 62
     5
100
AcDbLine
 10
71.29999999999999
 20
-122.8
 30
0.0
 11
81.3
 21
-122.8
 31
0.0
  0
LINE
  5
189
330
1E
100
AcDbEntity
  8
ﾚｲﾔ1
  6
Continuous
 62
     5
100
AcDbLine
 10
81.3
 20
-122.8
 30
0.0
 11
81.3
 21
-112.8
 31
0.0
  0
LINE
  5
18A
330
1E
100
AcDbEntity
  8
ﾚｲﾔ1
  6
Continuous
 62
     5
100
AcDbLine
 10
81.3
 20
-112.8
 30
0.0
 11
71.29999999999999
 21
-112.8
 31
0.0
  0
LINE
  5
18B
330
1E
100
AcDbEntity
  8
ﾚｲﾔ1
  6
Continuous
 62
     5
100
AcDbLine
 10
81.3
 20
-112.8
 30
0.0
 11
81.3
 21
-122.8
 31
0.0
  0
LINE
  5
18C
330
1E
100
AcDbEntity
  8
ﾚｲﾔ1
  6
Continuous
 62
     5
100
AcDbLine
 10
81.3
 20
-122.8
 30
0.0
 11
91.3
 21
-122.8
 31
0.0
  0
LINE
  5
18D
330
1E
100
AcDbEntity
  8
ﾚｲﾔ1
  6
Continuous
 62
     5
100
AcDbLine
 10
91.3
 20
-122.8
 30
0.0
 11
91.3
 21
-112.8
 31
0.0
  0
LINE
  5
18E
330
1E
100
AcDbEntity
  8
ﾚｲﾔ1
  6
Continuous
 62
     5
100
AcDbLine
 10
91.3
 20
-112.8
 30
0.0
 11
81.3
 21
-112.8
 31
0.0
  0
LINE
  5
18F
330
1E
100
AcDbEntity
  8
ﾚｲﾔ1
  6
Continuous
 62
     5
100
AcDbLine
 10
91.3
 20
-112.8
 30
0.0
 11
91.3
 21
-122.8
 31
0.0
  0
LINE
  5
190
330
1E
100
AcDbEntity
  8
ﾚｲﾔ1
  6
Continuous
 62
     5
100
AcDbLine
 10
91.3
 20
-122.8
 30
0.0
 11
101.3
 21
-122.8
 31
0.0
  0
LINE
  5
191
330
1E
100
AcDbEntity
  8
ﾚｲﾔ1
  6
Continuous
 62
     5
100
AcDbLine
 10
101.3
 20
-122.8
 30
0.0
 11
101.3
 21
-112.8
 31
0.0
  0
LINE
  5
192
330
1E
100
AcDbEntity
  8
ﾚｲﾔ1
  6
Continuous
 62
     5
100
AcDbLine
 10
101.3
 20
-112.8
 30
0.0
 11
91.3
 21
-112.8
 31
0.0
  0
LINE
  5
193
330
1E
100
AcDbEntity
  8
ﾚｲﾔ1
  6
Continuous
 62
     5
100
AcDbLine
 10
101.3
 20
-112.8
 30
0.0
 11
101.3
 21
-122.8
 31
0.0
  0
LINE
  5
194
330
1E
100
AcDbEntity
  8
ﾚｲﾔ1
  6
Continuous
 62
     5
100
AcDbLine
 10
115.3
 20
-112.8
 30
0.0
 11
101.3
 21
-112.8
 31
0.0
  0
LINE
  5
195
330
1E
100
AcDbEntity
  8
ﾚｲﾔ1
  6
Continuous
 62
     5
100
AcDbLine
 10
129.3
 20
-112.8
 30
0.0
 11
115.3
 21
-112.8
 31
0.0
  0
LINE
  5
196
330
1E
100
AcDbEntity
  8
ﾚｲﾔ1
  6
Continuous
 62
     5
100
AcDbLine
 10
140.3
 20
-112.8
 30
0.0
 11
129.3
 21
-112.8
 31
0.0
  0
LINE
  5
197
330
1E
100
AcDbEntity
  8
ﾚｲﾔ1
  6
Continuous
 62
     5
100
AcDbLine
 10
144.3
 20
-112.8
 30
0.0
 11
140.3
 21
-112.8
 31
0.0
  0
LINE
  5
198
330
1E
100
AcDbEntity
  8
ﾚｲﾔ1
  6
Continuous
 62
     5
100
AcDbLine
 10
186.3
 20
-112.8
 30
0.0
 11
144.3
 21
-112.8
 31
0.0
  0
LINE
  5
199
330
1E
100
AcDbEntity
  8
ﾚｲﾔ1
  6
Continuous
 62
     5
100
AcDbLine
 10
61.29999999999999
 20
-112.8
 30
0.0
 11
61.29999999999999
 21
-107.8
 31
0.0
  0
LINE
  5
19A
330
1E
100
AcDbEntity
  8
ﾚｲﾔ1
  6
Continuous
 62
     5
100
AcDbLine
 10
61.29999999999999
 20
-107.8
 30
0.0
 11
115.3
 21
-107.8
 31
0.0
  0
LINE
  5
19B
330
1E
100
AcDbEntity
  8
ﾚｲﾔ1
  6
Continuous
 62
     5
100
AcDbLine
 10
115.3
 20
-107.8
 30
0.0
 11
115.3
 21
-112.8
 31
0.0
  0
LINE
  5
19C
330
1E
100
AcDbEntity
  8
ﾚｲﾔ1
  6
Continuous
 62
     5
100
AcDbLine
 10
115.3
 20
-112.8
 30
0.0
 11
61.29999999999999
 21
-112.8
 31
0.0
  0
LINE
  5
19D
330
1E
100
AcDbEntity
  8
ﾚｲﾔ1
  6
Continuous
 62
     5
100
AcDbLine
 10
61.29999999999999
 20
-107.8
 30
0.0
 11
61.29999999999999
 21
-102.8
 31
0.0
  0
LINE
  5
19E
330
1E
100
AcDbEntity
  8
ﾚｲﾔ1
  6
Continuous
 62
     5
100
AcDbLine
 10
61.29999999999999
 20
-102.8
 30
0.0
 11
115.3
 21
-102.8
 31
0.0
  0
LINE
  5
19F
330
1E
100
AcDbEntity
  8
ﾚｲﾔ1
  6
Continuous
 62
     5
100
AcDbLine
 10
115.3
 20
-102.8
 30
0.0
 11
115.3
 21
-107.8
 31
0.0
  0
LINE
  5
1A0
330
1E
100
AcDbEntity
  8
ﾚｲﾔ1
  6
Continuous
 62
     5
100
AcDbLine
 10
115.3
 20
-107.8
 30
0.0
 11
61.29999999999999
 21
-107.8
 31
0.0
  0
LINE
  5
1A1
330
1E
100
AcDbEntity
  8
ﾚｲﾔ1
  6
Continuous
 62
     5
100
AcDbLine
 10
61.29999999999999
 20
-102.8
 30
0.0
 11
61.29999999999999
 21
-97.80000000000001
 31
0.0
  0
LINE
  5
1A2
330
1E
100
AcDbEntity
  8
ﾚｲﾔ1
  6
Continuous
 62
     5
100
AcDbLine
 10
61.29999999999999
 20
-97.80000000000001
 30
0.0
 11
115.3
 21
-97.80000000000001
 31
0.0
  0
LINE
  5
1A3
330
1E
100
AcDbEntity
  8
ﾚｲﾔ1
  6
Continuous
 62
     5
100
AcDbLine
 10
115.3
 20
-97.80000000000001
 30
0.0
 11
115.3
 21
-102.8
 31
0.0
  0
LINE
  5
1A4
330
1E
100
AcDbEntity
  8
ﾚｲﾔ1
  6
Continuous
 62
     5
100
AcDbLine
 10
115.3
 20
-102.8
 30
0.0
 11
61.29999999999999
 21
-102.8
 31
0.0
  0
LINE
  5
1A5
330
1E
100
AcDbEntity
  8
ﾚｲﾔ1
  6
Continuous
 62
     5
100
AcDbLine
 10
115.3
 20
-97.80000000000001
 30
0.0
 11
115.3
 21
-112.8
 31
0.0
  0
LINE
  5
1A6
330
1E
100
AcDbEntity
  8
ﾚｲﾔ1
  6
Continuous
 62
     5
100
AcDbLine
 10
115.3
 20
-112.8
 30
0.0
 11
120.3
 21
-112.8
 31
0.0
  0
LINE
  5
1A7
330
1E
100
AcDbEntity
  8
ﾚｲﾔ1
  6
Continuous
 62
     5
100
AcDbLine
 10
120.3
 20
-112.8
 30
0.0
 11
120.3
 21
-97.80000000000001
 31
0.0
  0
LINE
  5
1A8
330
1E
100
AcDbEntity
  8
ﾚｲﾔ1
  6
Continuous
 62
     5
100
AcDbLine
 10
120.3
 20
-97.80000000000001
 30
0.0
 11
115.3
 21
-97.80000000000001
 31
0.0
  0
LINE
  5
1A9
330
1E
100
AcDbEntity
  8
ﾚｲﾔ1
  6
Continuous
 62
     5
100
AcDbLine
 10
120.3
 20
-112.8
 30
0.0
 11
120.3
 21
-97.80000000000001
 31
0.0
  0
LINE
  5
1AA
330
1E
100
AcDbEntity
  8
ﾚｲﾔ1
  6
Continuous
 62
     5
100
AcDbLine
 10
120.3
 20
-97.80000000000001
 30
0.0
 11
186.3
 21
-97.80000000000001
 31
0.0
  0
LINE
  5
1AB
330
1E
100
AcDbEntity
  8
ﾚｲﾔ1
  6
Continuous
 62
     5
100
AcDbLine
 10
186.3
 20
-97.80000000000001
 30
0.0
 11
186.3
 21
-112.8
 31
0.0
  0
LINE
  5
1AC
330
1E
100
AcDbEntity
  8
ﾚｲﾔ1
  6
Continuous
 62
     5
100
AcDbLine
 10
186.3
 20
-112.8
 30
0.0
 11
120.3
 21
-112.8
 31
0.0
  0
LINE
  5
1AD
330
1E
100
AcDbEntity
  8
ﾚｲﾔ1
  6
Continuous
 62
     5
100
AcDbLine
 10
61.29999999999999
 20
-97.80000000000001
 30
0.0
 11
61.29999999999999
 21
-77.8
 31
0.0
  0
LINE
  5
1AE
330
1E
100
AcDbEntity
  8
ﾚｲﾔ1
  6
Continuous
 62
     5
100
AcDbLine
 10
61.29999999999999
 20
-77.8
 30
0.0
 11
186.3
 21
-77.8
 31
0.0
  0
LINE
  5
1AF
330
1E
100
AcDbEntity
  8
ﾚｲﾔ1
  6
Continuous
 62
     5
100
AcDbLine
 10
186.3
 20
-77.8
 30
0.0
 11
186.3
 21
-97.80000000000001
 31
0.0
  0
LINE
  5
1B0
330
1E
100
AcDbEntity
  8
ﾚｲﾔ1
  6
Continuous
 62
     5
100
AcDbLine
 10
186.3
 20
-97.80000000000001
 30
0.0
 11
61.29999999999999
 21
-97.80000000000001
 31
0.0
  0
LINE
  5
1B1
330
1E
100
AcDbEntity
  8
ﾚｲﾔ1
  6
Continuous
 62
     5
100
AcDbLine
 10
61.29999999999999
 20
-82.79999999999999
 30
0.0
 11
186.3
 21
-82.79999999999999
 31
0.0
  0
LINE
  5
1B2
330
1E
100
AcDbEntity
  8
ﾚｲﾔ1
  6
Continuous
 62
     5
100
AcDbLine
 10
61.29999999999999
 20
-87.79999999999999
 30
0.0
 11
186.3
 21
-87.79999999999999
 31
0.0
  0
LINE
  5
1B3
330
1E
100
AcDbEntity
  8
ﾚｲﾔ1
  6
Continuous
 62
     5
100
AcDbLine
 10
61.29999999999999
 20
-92.79999999999999
 30
0.0
 11
186.3
 21
-92.79999999999999
 31
0.0
  0
LINE
  5
1B4
330
1E
100
AcDbEntity
  8
ﾚｲﾔ1
  6
Continuous
 62
     5
100
AcDbLine
 10
68.3
 20
-77.8
 30
0.0
 11
68.3
 21
-107.8
 31
0.0
  0
LINE
  5
1B5
330
1E
100
AcDbEntity
  8
ﾚｲﾔ1
  6
Continuous
 62
     5
100
AcDbLine
 10
76.29999999999999
 20
-77.8
 30
0.0
 11
76.29999999999999
 21
-107.8
 31
0.0
  0
LINE
  5
1B6
330
1E
100
AcDbEntity
  8
ﾚｲﾔ1
  6
Continuous
 62
     5
100
AcDbLine
 10
108.3
 20
-77.8
 30
0.0
 11
108.3
 21
-107.8
 31
0.0
  0
LINE
  5
1B7
330
1E
100
AcDbEntity
  8
ﾚｲﾔ1
  6
Continuous
 62
     5
100
AcDbLine
 10
115.3
 20
-97.80000000000001
 30
0.0
 11
115.3
 21
-77.8
 31
0.0
  0
LINE
  5
1B8
330
1E
100
AcDbEntity
  8
ﾚｲﾔ1
  6
Continuous
 62
     5
100
AcDbLine
 10
122.3
 20
-97.80000000000001
 30
0.0
 11
122.3
 21
-77.8
 31
0.0
  0
LINE
  5
1B9
330
1E
100
AcDbEntity
  8
ﾚｲﾔ1
  6
Continuous
 62
     5
100
AcDbLine
 10
140.3
 20
-97.80000000000001
 30
0.0
 11
140.3
 21
-77.8
 31
0.0
  0
LINE
  5
1BA
330
1E
100
AcDbEntity
  8
ﾚｲﾔ1
  6
Continuous
 62
     5
100
AcDbLine
 10
148.3
 20
-77.8
 30
0.0
 11
148.3
 21
-97.80000000000001
 31
0.0
  0
LINE
  5
1BB
330
1E
100
AcDbEntity
  8
ﾚｲﾔ1
  6
Continuous
 62
     5
100
AcDbLine
 10
158.3
 20
-77.8
 30
0.0
 11
158.3
 21
-97.80000000000001
 31
0.0
  0
LINE
  5
1BC
330
1E
100
AcDbEntity
  8
ﾚｲﾔ1
  6
Continuous
 62
     5
100
AcDbLine
 10
71.29999999999999
 20
-107.8
 30
0.0
 11
71.29999999999999
 21
-122.8
 31
0.0
  0
LINE
  5
1BD
330
1E
100
AcDbEntity
  8
ﾚｲﾔ1
  6
Continuous
 62
     5
100
AcDbLine
 10
81.3
 20
-107.8
 30
0.0
 11
81.3
 21
-122.8
 31
0.0
  0
LINE
  5
1BE
330
1E
100
AcDbEntity
  8
ﾚｲﾔ1
  6
Continuous
 62
     5
100
AcDbLine
 10
91.3
 20
-107.8
 30
0.0
 11
91.3
 21
-122.8
 31
0.0
  0
LINE
  5
1BF
330
1E
100
AcDbEntity
  8
ﾚｲﾔ1
  6
Continuous
 62
     5
100
AcDbLine
 10
101.3
 20
-107.8
 30
0.0
 11
101.3
 21
-122.8
 31
0.0
  0
LINE
  5
1C0
330
1E
100
AcDbEntity
  8
ﾚｲﾔ1
  6
Continuous
 62
     5
100
AcDbLine
 10
123.3
 20
-105.9
 30
0.0
 11
183.1
 21
-105.9
 31
0.0
  0
LINE
  5
1C1
330
1E
100
AcDbEntity
  8
ﾚｲﾔ1
  6
Continuous
 62
     5
100
AcDbLine
 10
101.3
 20
-122.8
 30
0.0
 11
115.3
 21
-122.8
 31
0.0
  0
LINE
  5
1C2
330
1E
100
AcDbEntity
  8
ﾚｲﾔ1
  6
Continuous
 62
     5
100
AcDbLine
 10
115.3
 20
-122.8
 30
0.0
 11
115.3
 21
-112.8
 31
0.0
  0
LINE
  5
1C3
330
1E
100
AcDbEntity
  8
ﾚｲﾔ1
  6
Continuous
 62
     5
100
AcDbLine
 10
115.3
 20
-112.8
 30
0.0
 11
115.3
 21
-122.8
 31
0.0
  0
LINE
  5
1C4
330
1E
100
AcDbEntity
  8
ﾚｲﾔ1
  6
Continuous
 62
     5
100
AcDbLine
 10
115.3
 20
-122.8
 30
0.0
 11
129.3
 21
-122.8
 31
0.0
  0
LINE
  5
1C5
330
1E
100
AcDbEntity
  8
ﾚｲﾔ1
  6
Continuous
 62
     5
100
AcDbLine
 10
129.3
 20
-122.8
 30
0.0
 11
129.3
 21
-112.8
 31
0.0
  0
LINE
  5
1C6
330
1E
100
AcDbEntity
  8
ﾚｲﾔ1
  6
Continuous
 62
     5
100
AcDbLine
 10
129.3
 20
-112.8
 30
0.0
 11
129.3
 21
-122.8
 31
0.0
  0
LINE
  5
1C7
330
1E
100
AcDbEntity
  8
ﾚｲﾔ1
  6
Continuous
 62
     5
100
AcDbLine
 10
129.3
 20
-122.8
 30
0.0
 11
140.3
 21
-122.8
 31
0.0
  0
LINE
  5
1C8
330
1E
100
AcDbEntity
  8
ﾚｲﾔ1
  6
Continuous
 62
     5
100
AcDbLine
 10
140.3
 20
-122.8
 30
0.0
 11
140.3
 21
-112.8
 31
0.0
  0
LINE
  5
1C9
330
1E
100
AcDbEntity
  8
ﾚｲﾔ1
  6
Continuous
 62
     5
100
AcDbLine
 10
140.3
 20
-112.8
 30
0.0
 11
140.3
 21
-122.8
 31
0.0
  0
LINE
  5
1CA
330
1E
100
AcDbEntity
  8
ﾚｲﾔ1
  6
Continuous
 62
     5
100
AcDbLine
 10
140.3
 20
-122.8
 30
0.0
 11
144.3
 21
-122.8
 31
0.0
  0
LINE
  5
1CB
330
1E
100
AcDbEntity
  8
ﾚｲﾔ1
  6
Continuous
 62
     5
100
AcDbLine
 10
144.3
 20
-122.8
 30
0.0
 11
144.3
 21
-112.8
 31
0.0
  0
LINE
  5
1CC
330
1E
100
AcDbEntity
  8
ﾚｲﾔ1
  6
Continuous
 62
     5
100
AcDbLine
 10
144.3
 20
-112.8
 30
0.0
 11
144.3
 21
-122.8
 31
0.0
  0
LINE
  5
1CD
330
1E
100
AcDbEntity
  8
ﾚｲﾔ1
  6
Continuous
 62
     5
100
AcDbLine
 10
144.3
 20
-122.8
 30
0.0
 11
186.3
 21
-122.8
 31
0.0
  0
LINE
  5
1CE
330
1E
100
AcDbEntity
  8
ﾚｲﾔ1
  6
Continuous
 62
     5
100
AcDbLine
 10
186.3
 20
-122.8
 30
0.0
 11
186.3
 21
-112.8
 31
0.0
  0
LINE
  5
1CF
330
1E
100
AcDbEntity
  8
ﾚｲﾔ1
  6
Continuous
 62
     5
100
AcDbLine
 10
101.3
 20
-117.8
 30
0.0
 11
140.3
 21
-117.8
 31
0.0
  0
LINE
  5
1D0
330
1E
100
AcDbEntity
  8
ﾚｲﾔ1
  6
Continuous
 62
     5
100
AcDbLine
 10
186.3
 20
-122.8
 30
0.0
 11
-185.5
 21
-122.8
 31
0.0
  0
LINE
  5
1D1
330
1E
100
AcDbEntity
  8
ﾚｲﾔ1
  6
Continuous
 62
     5
100
AcDbLine
 10
186.3
 20
122.5
 30
0.0
 11
186.3
 21
-122.8
 31
0.0
  0
LINE
  5
1D2
330
1E
100
AcDbEntity
  8
ﾚｲﾔ1
  6
Continuous
 62
     5
100
AcDbLine
 10
-10.125
 20
-122.8
 30
0.0
 11
-10.125
 21
-77.8
 31
0.0
  0
LINE
  5
1D3
330
1E
100
AcDbEntity
  8
ﾚｲﾔ1
  6
Continuous
 62
     5
100
AcDbLine
 10
-185.5
 20
122.5
 30
0.0
 11
186.3
 21
122.5
 31
0.0
  0
LINE
  5
1D4
330
1E
100
AcDbEntity
  8
ﾚｲﾔ1
  6
Continuous
 62
     5
100
AcDbLine
 10
-185.5
 20
-122.8
 30
0.0
 11
-185.5
 21
122.5
 31
0.0
  0
LINE
  5
1D5
330
1E
100
AcDbEntity
  8
ﾚｲﾔ1
  6
Continuous
 62
     5
100
AcDbLine
 10
171.125
 20
-129.3
 30
0.0
 11
174.25
 21
-129.3
 31
0.0
  0
LINE
  5
1D6
330
1E
100
AcDbEntity
  8
ﾚｲﾔ1
  6
Continuous
 62
     5
100
AcDbLine
 10
122.225
 20
-128.05
 30
0.0
 11
123.475
 21
-128.05
 31
0.0
  0
LINE
  5
1D7
330
1E
100
AcDbEntity
  8
ﾚｲﾔ1
  6
Continuous
 62
     5
100
AcDbLine
 10
122.85
 20
-127.1
 30
0.0
 11
122.85
 21
-131.8
 31
0.0
  0
LINE
  5
1D8
330
1E
100
AcDbEntity
  8
ﾚｲﾔ1
  6
Continuous
 62
     5
100
AcDbLine
 10
122.225
 20
-129.925
 30
0.0
 11
122.85
 21
-128.35
 31
0.0
  0
LINE
  5
1D9
330
1E
100
AcDbEntity
  8
ﾚｲﾔ1
  6
Continuous
 62
     5
100
AcDbLine
 10
122.85
 20
-128.35
 30
0.0
 11
123.175
 21
-128.975
 31
0.0
  0
LINE
  5
1DA
330
1E
100
AcDbEntity
  8
ﾚｲﾔ1
  6
Continuous
 62
     5
100
AcDbLine
 10
124.425
 20
-127.425
 30
0.0
 11
123.8
 21
-128.675
 31
0.0
  0
LINE
  5
1DB
330
1E
100
AcDbEntity
  8
ﾚｲﾔ1
  6
Continuous
 62
     5
100
AcDbLine
 10
124.1
 20
-128.05
 30
0.0
 11
126.3
 21
-128.05
 31
0.0
  0
LINE
  5
1DC
330
1E
100
AcDbEntity
  8
ﾚｲﾔ1
  6
Continuous
 62
     5
100
AcDbLine
 10
123.475
 20
-129.3
 30
0.0
 11
126.6
 21
-129.3
 31
0.0
  0
LINE
  5
1DD
330
1E
100
AcDbEntity
  8
ﾚｲﾔ1
  6
Continuous
 62
     5
100
AcDbLine
 10
125.05
 20
-127.1
 30
0.0
 11
125.05
 21
-131.8
 31
0.0
  0
LINE
  5
1DE
330
1E
100
AcDbEntity
  8
ﾚｲﾔ1
  6
Continuous
 62
     5
100
AcDbLine
 10
123.475
 20
-131.475
 30
0.0
 11
124.425
 21
-130.55
 31
0.0
  0
LINE
  5
1DF
330
1E
100
AcDbEntity
  8
ﾚｲﾔ1
  6
Continuous
 62
     5
100
AcDbLine
 10
124.425
 20
-130.55
 30
0.0
 11
125.05
 21
-129.6
 31
0.0
  0
LINE
  5
1E0
330
1E
100
AcDbEntity
  8
ﾚｲﾔ1
  6
Continuous
 62
     5
100
AcDbLine
 10
125.05
 20
-129.6
 30
0.0
 11
125.675
 21
-130.55
 31
0.0
  0
LINE
  5
1E1
330
1E
100
AcDbEntity
  8
ﾚｲﾔ1
  6
Continuous
 62
     5
100
AcDbLine
 10
125.675
 20
-130.55
 30
0.0
 11
126.6
 21
-131.475
 31
0.0
  0
LINE
  5
1E2
330
1E
100
AcDbEntity
  8
ﾚｲﾔ1
  6
Continuous
 62
     5
100
AcDbLine
 10
127.225
 20
-128.05
 30
0.0
 11
131.6
 21
-128.05
 31
0.0
  0
LINE
  5
1E3
330
1E
100
AcDbEntity
  8
ﾚｲﾔ1
  6
Continuous
 62
     5
100
AcDbLine
 10
127.225
 20
-131.475
 30
0.0
 11
129.725
 21
-130.85
 31
0.0
  0
LINE
  5
1E4
330
1E
100
AcDbEntity
  8
ﾚｲﾔ1
  6
Continuous
 62
     5
100
AcDbLine
 10
127.55
 20
-129.3
 30
0.0
 11
129.425
 21
-129.3
 31
0.0
  0
LINE
  5
1E5
330
1E
100
AcDbEntity
  8
ﾚｲﾔ1
  6
Continuous
 62
     5
100
AcDbLine
 10
128.475
 20
-129.3
 30
0.0
 11
128.475
 21
-131.175
 31
0.0
  0
LINE
  5
1E6
330
1E
100
AcDbEntity
  8
ﾚｲﾔ1
  6
Continuous
 62
     5
100
AcDbLine
 10
130.05
 20
-127.1
 30
0.0
 11
130.05
 21
-128.675
 31
0.0
  0
LINE
  5
1E7
330
1E
100
AcDbEntity
  8
ﾚｲﾔ1
  6
Continuous
 62
     5
100
AcDbLine
 10
130.05
 20
-128.675
 30
0.0
 11
130.35
 21
-130.225
 31
0.0
  0
LINE
  5
1E8
330
1E
100
AcDbEntity
  8
ﾚｲﾔ1
  6
Continuous
 62
     5
100
AcDbLine
 10
130.35
 20
-130.225
 30
0.0
 11
130.675
 21
-130.85
 31
0.0
  0
LINE
  5
1E9
330
1E
100
AcDbEntity
  8
ﾚｲﾔ1
  6
Continuous
 62
     5
100
AcDbLine
 10
130.675
 20
-130.85
 30
0.0
 11
131.6
 21
-131.8
 31
0.0
  0
LINE
  5
1EA
330
1E
100
AcDbEntity
  8
ﾚｲﾔ1
  6
Continuous
 62
     5
100
AcDbLine
 10
131.6
 20
-131.8
 30
0.0
 11
131.6
 21
-130.85
 31
0.0
  0
LINE
  5
1EB
330
1E
100
AcDbEntity
  8
ﾚｲﾔ1
  6
Continuous
 62
     5
100
AcDbLine
 10
130.975
 20
-127.1
 30
0.0
 11
131.6
 21
-127.725
 31
0.0
  0
LINE
  5
1EC
330
1E
100
AcDbEntity
  8
ﾚｲﾔ1
  6
Continuous
 62
     5
100
AcDbLine
 10
132.25
 20
-129.3
 30
0.0
 11
134.45
 21
-127.1
 31
0.0
  0
LINE
  5
1ED
330
1E
100
AcDbEntity
  8
ﾚｲﾔ1
  6
Continuous
 62
     5
100
AcDbLine
 10
134.45
 20
-127.1
 30
0.0
 11
136.625
 21
-129.3
 31
0.0
  0
LINE
  5
1EE
330
1E
100
AcDbEntity
  8
ﾚｲﾔ1
  6
Continuous
 62
     5
100
AcDbLine
 10
133.5
 20
-128.975
 30
0.0
 11
135.375
 21
-128.975
 31
0.0
  0
LINE
  5
1EF
330
1E
100
AcDbEntity
  8
ﾚｲﾔ1
  6
Continuous
 62
     5
100
AcDbLine
 10
132.575
 20
-130.225
 30
0.0
 11
136.325
 21
-130.225
 31
0.0
  0
LINE
  5
1F0
330
1E
100
AcDbEntity
  8
ﾚｲﾔ1
  6
Continuous
 62
     5
100
AcDbLine
 10
135.7
 20
-130.85
 30
0.0
 11
136.325
 21
-131.8
 31
0.0
  0
LINE
  5
1F1
330
1E
100
AcDbEntity
  8
ﾚｲﾔ1
  6
Continuous
 62
     5
100
AcDbLine
 10
132.575
 20
-131.8
 30
0.0
 11
136.0
 21
-131.475
 31
0.0
  0
LINE
  5
1F2
330
1E
100
AcDbEntity
  8
ﾚｲﾔ1
  6
Continuous
 62
     5
100
AcDbLine
 10
134.125
 20
-130.55
 30
0.0
 11
133.2
 21
-131.8
 31
0.0
  0
LINE
  5
1F3
330
1E
100
AcDbEntity
  8
ﾚｲﾔ1
  6
Continuous
 62
     5
100
AcDbLine
 10
138.175
 20
-127.1
 30
0.0
 11
138.175
 21
-128.05
 31
0.0
  0
LINE
  5
1F4
330
1E
100
AcDbEntity
  8
ﾚｲﾔ1
  6
Continuous
 62
     5
100
AcDbLine
 10
137.225
 20
-128.05
 30
0.0
 11
138.8
 21
-128.05
 31
0.0
  0
LINE
  5
1F5
330
1E
100
AcDbEntity
  8
ﾚｲﾔ1
  6
Continuous
 62
     5
100
AcDbLine
 10
138.8
 20
-128.05
 30
0.0
 11
138.175
 21
-129.6
 31
0.0
  0
LINE
  5
1F6
330
1E
100
AcDbEntity
  8
ﾚｲﾔ1
  6
Continuous
 62
     5
100
AcDbLine
 10
138.175
 20
-129.6
 30
0.0
 11
137.225
 21
-130.55
 31
0.0
  0
LINE
  5
1F7
330
1E
100
AcDbEntity
  8
ﾚｲﾔ1
  6
Continuous
 62
     5
100
AcDbLine
 10
138.175
 20
-131.8
 30
0.0
 11
138.175
 21
-129.6
 31
0.0
  0
LINE
  5
1F8
330
1E
100
AcDbEntity
  8
ﾚｲﾔ1
  6
Continuous
 62
     5
100
AcDbLine
 10
138.175
 20
-129.6
 30
0.0
 11
139.1
 21
-130.225
 31
0.0
  0
LINE
  5
1F9
330
1E
100
AcDbEntity
  8
ﾚｲﾔ1
  6
Continuous
 62
     5
100
AcDbLine
 10
139.425
 20
-128.975
 30
0.0
 11
141.3
 21
-128.975
 31
0.0
  0
LINE
  5
1FA
330
1E
100
AcDbEntity
  8
ﾚｲﾔ1
  6
Continuous
 62
     5
100
AcDbLine
 10
139.1
 20
-131.8
 30
0.0
 11
141.6
 21
-131.8
 31
0.0
  0
LINE
  5
1FB
330
1E
100
AcDbEntity
  8
ﾚｲﾔ1
  6
Continuous
 62
     5
100
AcDbLine
 10
140.35
 20
-127.1
 30
0.0
 11
140.35
 21
-131.8
 31
0.0
  0
LINE
  5
1FC
330
1E
100
AcDbEntity
  8
ﾚｲﾔ1
  6
Continuous
 62
     5
100
AcDbLine
 10
145.825
 20
-131.8
 30
0.0
 11
145.825
 21
-127.425
 31
0.0
  0
LINE
  5
1FD
330
1E
100
AcDbEntity
  8
ﾚｲﾔ1
  6
Continuous
 62
     5
100
AcDbLine
 10
145.825
 20
-127.425
 30
0.0
 11
147.375
 21
-127.425
 31
0.0
  0
LINE
  5
1FE
330
1E
100
AcDbEntity
  8
ﾚｲﾔ1
  6
Continuous
 62
     5
100
AcDbLine
 10
147.375
 20
-127.425
 30
0.0
 11
147.375
 21
-128.675
 31
0.0
  0
LINE
  5
1FF
330
1E
100
AcDbEntity
  8
ﾚｲﾔ1
  6
Continuous
 62
     5
100
AcDbLine
 10
147.375
 20
-128.675
 30
0.0
 11
145.825
 21
-128.675
 31
0.0
  0
LINE
  5
200
330
1E
100
AcDbEntity
  8
ﾚｲﾔ1
  6
Continuous
 62
     5
100
AcDbLine
 10
145.825
 20
-128.05
 30
0.0
 11
147.375
 21
-128.05
 31
0.0
  0
LINE
  5
201
330
1E
100
AcDbEntity
  8
ﾚｲﾔ1
  6
Continuous
 62
     5
100
AcDbLine
 10
149.575
 20
-128.675
 30
0.0
 11
148.0
 21
-128.675
 31
0.0
  0
LINE
  5
202
330
1E
100
AcDbEntity
  8
ﾚｲﾔ1
  6
Continuous
 62
     5
100
AcDbLine
 10
148.0
 20
-128.675
 30
0.0
 11
148.0
 21
-127.425
 31
0.0
  0
LINE
  5
203
330
1E
100
AcDbEntity
  8
ﾚｲﾔ1
  6
Continuous
 62
     5
100
AcDbLine
 10
148.0
 20
-127.425
 30
0.0
 11
149.575
 21
-127.425
 31
0.0
  0
LINE
  5
204
330
1E
100
AcDbEntity
  8
ﾚｲﾔ1
  6
Continuous
 62
     5
100
AcDbLine
 10
149.575
 20
-127.425
 30
0.0
 11
149.575
 21
-131.8
 31
0.0
  0
LINE
  5
205
330
1E
100
AcDbEntity
  8
ﾚｲﾔ1
  6
Continuous
 62
     5
100
AcDbLine
 10
149.575
 20
-131.8
 30
0.0
 11
149.25
 21
-131.8
 31
0.0
  0
LINE
  5
206
330
1E
100
AcDbEntity
  8
ﾚｲﾔ1
  6
Continuous
 62
     5
100
AcDbLine
 10
148.0
 20
-128.05
 30
0.0
 11
149.575
 21
-128.05
 31
0.0
  0
LINE
  5
207
330
1E
100
AcDbEntity
  8
ﾚｲﾔ1
  6
Continuous
 62
     5
100
AcDbLine
 10
147.075
 20
-128.975
 30
0.0
 11
147.7
 21
-129.6
 31
0.0
  0
LINE
  5
208
330
1E
100
AcDbEntity
  8
ﾚｲﾔ1
  6
Continuous
 62
     5
100
AcDbLine
 10
147.7
 20
-129.6
 30
0.0
 11
148.325
 21
-128.975
 31
0.0
  0
LINE
  5
209
330
1E
100
AcDbEntity
  8
ﾚｲﾔ1
  6
Continuous
 62
     5
100
AcDbLine
 10
146.75
 20
-129.6
 30
0.0
 11
148.625
 21
-129.6
 31
0.0
  0
LINE
  5
20A
330
1E
100
AcDbEntity
  8
ﾚｲﾔ1
  6
Continuous
 62
     5
100
AcDbLine
 10
146.45
 20
-130.55
 30
0.0
 11
148.95
 21
-130.55
 31
0.0
  0
LINE
  5
20B
330
1E
100
AcDbEntity
  8
ﾚｲﾔ1
  6
Continuous
 62
     5
100
AcDbLine
 10
147.7
 20
-129.6
 30
0.0
 11
147.7
 21
-130.55
 31
0.0
  0
LINE
  5
20C
330
1E
100
AcDbEntity
  8
ﾚｲﾔ1
  6
Continuous
 62
     5
100
AcDbLine
 10
147.7
 20
-130.55
 30
0.0
 11
147.075
 21
-131.175
 31
0.0
  0
LINE
  5
20D
330
1E
100
AcDbEntity
  8
ﾚｲﾔ1
  6
Continuous
 62
     5
100
AcDbLine
 10
147.075
 20
-131.175
 30
0.0
 11
146.45
 21
-131.475
 31
0.0
  0
LINE
  5
20E
330
1E
100
AcDbEntity
  8
ﾚｲﾔ1
  6
Continuous
 62
     5
100
AcDbLine
 10
147.7
 20
-130.55
 30
0.0
 11
148.325
 21
-131.175
 31
0.0
  0
LINE
  5
20F
330
1E
100
AcDbEntity
  8
ﾚｲﾔ1
  6
Continuous
 62
     5
100
AcDbLine
 10
148.325
 20
-131.175
 30
0.0
 11
148.95
 21
-131.475
 31
0.0
  0
LINE
  5
210
330
1E
100
AcDbEntity
  8
ﾚｲﾔ1
  6
Continuous
 62
     5
100
AcDbLine
 10
150.5
 20
-127.725
 30
0.0
 11
154.875
 21
-127.725
 31
0.0
  0
LINE
  5
211
330
1E
100
AcDbEntity
  8
ﾚｲﾔ1
  6
Continuous
 62
     5
100
AcDbLine
 10
151.125
 20
-128.35
 30
0.0
 11
154.25
 21
-128.35
 31
0.0
  0
LINE
  5
212
330
1E
100
AcDbEntity
  8
ﾚｲﾔ1
  6
Continuous
 62
     5
100
AcDbLine
 10
154.25
 20
-128.35
 30
0.0
 11
154.25
 21
-130.225
 31
0.0
  0
LINE
  5
213
330
1E
100
AcDbEntity
  8
ﾚｲﾔ1
  6
Continuous
 62
     5
100
AcDbLine
 10
154.25
 20
-130.225
 30
0.0
 11
151.125
 21
-130.225
 31
0.0
  0
LINE
  5
214
330
1E
100
AcDbEntity
  8
ﾚｲﾔ1
  6
Continuous
 62
     5
100
AcDbLine
 10
151.125
 20
-130.225
 30
0.0
 11
151.125
 21
-128.35
 31
0.0
  0
LINE
  5
215
330
1E
100
AcDbEntity
  8
ﾚｲﾔ1
  6
Continuous
 62
     5
100
AcDbLine
 10
151.125
 20
-129.3
 30
0.0
 11
154.25
 21
-129.3
 31
0.0
  0
LINE
  5
216
330
1E
100
AcDbEntity
  8
ﾚｲﾔ1
  6
Continuous
 62
     5
100
AcDbLine
 10
152.7
 20
-127.1
 30
0.0
 11
152.7
 21
-131.8
 31
0.0
  0
LINE
  5
217
330
1E
100
AcDbEntity
  8
ﾚｲﾔ1
  6
Continuous
 62
     5
100
AcDbLine
 10
150.5
 20
-131.475
 30
0.0
 11
151.45
 21
-131.175
 31
0.0
  0
LINE
  5
218
330
1E
100
AcDbEntity
  8
ﾚｲﾔ1
  6
Continuous
 62
     5
100
AcDbLine
 10
151.45
 20
-131.175
 30
0.0
 11
152.7
 21
-130.225
 31
0.0
  0
LINE
  5
219
330
1E
100
AcDbEntity
  8
ﾚｲﾔ1
  6
Continuous
 62
     5
100
AcDbLine
 10
152.7
 20
-130.225
 30
0.0
 11
153.95
 21
-131.175
 31
0.0
  0
LINE
  5
21A
330
1E
100
AcDbEntity
  8
ﾚｲﾔ1
  6
Continuous
 62
     5
100
AcDbLine
 10
153.95
 20
-131.175
 30
0.0
 11
154.875
 21
-131.475
 31
0.0
  0
LINE
  5
21B
330
1E
100
AcDbEntity
  8
ﾚｲﾔ1
  6
Continuous
 62
     5
100
AcDbLine
 10
155.825
 20
-127.1
 30
0.0
 11
156.45
 21
-127.725
 31
0.0
  0
LINE
  5
21C
330
1E
100
AcDbEntity
  8
ﾚｲﾔ1
  6
Continuous
 62
     5
100
AcDbLine
 10
155.5
 20
-128.675
 30
0.0
 11
156.125
 21
-129.3
 31
0.0
  0
LINE
  5
21D
330
1E
100
AcDbEntity
  8
ﾚｲﾔ1
  6
Continuous
 62
     5
100
AcDbLine
 10
155.5
 20
-131.8
 30
0.0
 11
156.45
 21
-129.925
 31
0.0
  0
LINE
  5
21E
330
1E
100
AcDbEntity
  8
ﾚｲﾔ1
  6
Continuous
 62
     5
100
AcDbLine
 10
157.375
 20
-128.05
 30
0.0
 11
159.875
 21
-128.05
 31
0.0
  0
LINE
  5
21F
330
1E
100
AcDbEntity
  8
ﾚｲﾔ1
  6
Continuous
 62
     5
100
AcDbLine
 10
159.875
 20
-128.05
 30
0.0
 11
159.875
 21
-131.8
 31
0.0
  0
LINE
  5
220
330
1E
100
AcDbEntity
  8
ﾚｲﾔ1
  6
Continuous
 62
     5
100
AcDbLine
 10
159.875
 20
-131.8
 30
0.0
 11
157.375
 21
-131.8
 31
0.0
  0
LINE
  5
221
330
1E
100
AcDbEntity
  8
ﾚｲﾔ1
  6
Continuous
 62
     5
100
AcDbLine
 10
157.375
 20
-131.8
 30
0.0
 11
157.375
 21
-128.05
 31
0.0
  0
LINE
  5
222
330
1E
100
AcDbEntity
  8
ﾚｲﾔ1
  6
Continuous
 62
     5
100
AcDbLine
 10
157.375
 20
-129.925
 30
0.0
 11
159.875
 21
-129.925
 31
0.0
  0
LINE
  5
223
330
1E
100
AcDbEntity
  8
ﾚｲﾔ1
  6
Continuous
 62
     5
100
AcDbLine
 10
158.625
 20
-127.1
 30
0.0
 11
158.625
 21
-131.8
 31
0.0
  0
LINE
  5
224
330
1E
100
AcDbEntity
  8
ﾚｲﾔ1
  6
Continuous
 62
     5
100
AcDbLine
 10
160.5
 20
-128.35
 30
0.0
 11
161.75
 21
-128.35
 31
0.0
  0
LINE
  5
225
330
1E
100
AcDbEntity
  8
ﾚｲﾔ1
  6
Continuous
 62
     5
100
AcDbLine
 10
161.125
 20
-127.1
 30
0.0
 11
161.125
 21
-131.8
 31
0.0
  0
LINE
  5
226
330
1E
100
AcDbEntity
  8
ﾚｲﾔ1
  6
Continuous
 62
     5
100
AcDbLine
 10
160.5
 20
-130.225
 30
0.0
 11
161.125
 21
-128.675
 31
0.0
  0
LINE
  5
227
330
1E
100
AcDbEntity
  8
ﾚｲﾔ1
  6
Continuous
 62
     5
100
AcDbLine
 10
161.125
 20
-128.675
 30
0.0
 11
161.75
 21
-129.6
 31
0.0
  0
LINE
  5
228
330
1E
100
AcDbEntity
  8
ﾚｲﾔ1
  6
Continuous
 62
     5
100
AcDbLine
 10
162.7
 20
-127.1
 30
0.0
 11
162.075
 21
-127.725
 31
0.0
  0
LINE
  5
229
330
1E
100
AcDbEntity
  8
ﾚｲﾔ1
  6
Continuous
 62
     5
100
AcDbLine
 10
162.075
 20
-127.725
 30
0.0
 11
162.7
 21
-128.05
 31
0.0
  0
LINE
  5
22A
330
1E
100
AcDbEntity
  8
ﾚｲﾔ1
  6
Continuous
 62
     5
100
AcDbLine
 10
163.0
 20
-127.725
 30
0.0
 11
162.075
 21
-128.975
 31
0.0
  0
LINE
  5
22B
330
1E
100
AcDbEntity
  8
ﾚｲﾔ1
  6
Continuous
 62
     5
100
AcDbLine
 10
162.075
 20
-128.975
 30
0.0
 11
163.0
 21
-128.975
 31
0.0
  0
LINE
  5
22C
330
1E
100
AcDbEntity
  8
ﾚｲﾔ1
  6
Continuous
 62
     5
100
AcDbLine
 10
163.0
 20
-128.975
 30
0.0
 11
162.7
 21
-128.35
 31
0.0
  0
LINE
  5
22D
330
1E
100
AcDbEntity
  8
ﾚｲﾔ1
  6
Continuous
 62
     5
100
AcDbLine
 10
164.575
 20
-127.1
 30
0.0
 11
163.95
 21
-127.725
 31
0.0
  0
LINE
  5
22E
330
1E
100
AcDbEntity
  8
ﾚｲﾔ1
  6
Continuous
 62
     5
100
AcDbLine
 10
163.95
 20
-127.725
 30
0.0
 11
164.575
 21
-128.05
 31
0.0
  0
LINE
  5
22F
330
1E
100
AcDbEntity
  8
ﾚｲﾔ1
  6
Continuous
 62
     5
100
AcDbLine
 10
164.875
 20
-127.725
 30
0.0
 11
163.95
 21
-128.975
 31
0.0
  0
LINE
  5
230
330
1E
100
AcDbEntity
  8
ﾚｲﾔ1
  6
Continuous
 62
     5
100
AcDbLine
 10
163.95
 20
-128.975
 30
0.0
 11
164.875
 21
-128.975
 31
0.0
  0
LINE
  5
231
330
1E
100
AcDbEntity
  8
ﾚｲﾔ1
  6
Continuous
 62
     5
100
AcDbLine
 10
164.875
 20
-128.975
 30
0.0
 11
164.575
 21
-128.35
 31
0.0
  0
LINE
  5
232
330
1E
100
AcDbEntity
  8
ﾚｲﾔ1
  6
Continuous
 62
     5
100
AcDbLine
 10
161.75
 20
-129.925
 30
0.0
 11
164.875
 21
-129.925
 31
0.0
  0
LINE
  5
233
330
1E
100
AcDbEntity
  8
ﾚｲﾔ1
  6
Continuous
 62
     5
100
AcDbLine
 10
162.375
 20
-129.925
 30
0.0
 11
162.375
 21
-130.55
 31
0.0
  0
LINE
  5
234
330
1E
100
AcDbEntity
  8
ﾚｲﾔ1
  6
Continuous
 62
     5
100
AcDbLine
 10
162.375
 20
-130.55
 30
0.0
 11
161.75
 21
-131.475
 31
0.0
  0
LINE
  5
235
330
1E
100
AcDbEntity
  8
ﾚｲﾔ1
  6
Continuous
 62
     5
100
AcDbLine
 10
162.375
 20
-130.55
 30
0.0
 11
163.0
 21
-131.175
 31
0.0
  0
LINE
  5
236
330
1E
100
AcDbEntity
  8
ﾚｲﾔ1
  6
Continuous
 62
     5
100
AcDbLine
 10
163.325
 20
-127.1
 30
0.0
 11
163.325
 21
-129.3
 31
0.0
  0
LINE
  5
237
330
1E
100
AcDbEntity
  8
ﾚｲﾔ1
  6
Continuous
 62
     5
100
AcDbLine
 10
163.325
 20
-129.3
 30
0.0
 11
163.625
 21
-130.85
 31
0.0
  0
LINE
  5
238
330
1E
100
AcDbEntity
  8
ﾚｲﾔ1
  6
Continuous
 62
     5
100
AcDbLine
 10
163.625
 20
-130.85
 30
0.0
 11
164.25
 21
-131.475
 31
0.0
  0
LINE
  5
239
330
1E
100
AcDbEntity
  8
ﾚｲﾔ1
  6
Continuous
 62
     5
100
AcDbLine
 10
164.25
 20
-131.475
 30
0.0
 11
164.875
 21
-131.8
 31
0.0
  0
LINE
  5
23A
330
1E
100
AcDbEntity
  8
ﾚｲﾔ1
  6
Continuous
 62
     5
100
AcDbLine
 10
164.875
 20
-131.8
 30
0.0
 11
164.875
 21
-131.175
 31
0.0
  0
LINE
  5
23B
330
1E
100
AcDbEntity
  8
ﾚｲﾔ1
  6
Continuous
 62
     5
100
AcDbLine
 10
164.575
 20
-130.225
 30
0.0
 11
164.25
 21
-130.85
 31
0.0
  0
LINE
  5
23C
330
1E
100
AcDbEntity
  8
ﾚｲﾔ1
  6
Continuous
 62
     5
100
AcDbLine
 10
164.25
 20
-130.85
 30
0.0
 11
163.625
 21
-131.475
 31
0.0
  0
LINE
  5
23D
330
1E
100
AcDbEntity
  8
ﾚｲﾔ1
  6
Continuous
 62
     5
100
AcDbLine
 10
163.625
 20
-131.475
 30
0.0
 11
162.7
 21
-131.8
 31
0.0
  0
LINE
  5
23E
330
1E
100
AcDbEntity
  8
ﾚｲﾔ1
  6
Continuous
 62
     5
100
AcDbLine
 10
163.95
 20
-129.3
 30
0.0
 11
164.575
 21
-129.6
 31
0.0
  0
LINE
  5
23F
330
1E
100
AcDbEntity
  8
ﾚｲﾔ1
  6
Continuous
 62
     5
100
AcDbLine
 10
165.825
 20
-128.675
 30
0.0
 11
169.575
 21
-128.675
 31
0.0
  0
LINE
  5
240
330
1E
100
AcDbEntity
  8
ﾚｲﾔ1
  6
Continuous
 62
     5
100
AcDbLine
 10
166.45
 20
-127.425
 30
0.0
 11
166.45
 21
-129.925
 31
0.0
  0
LINE
  5
241
330
1E
100
AcDbEntity
  8
ﾚｲﾔ1
  6
Continuous
 62
     5
100
AcDbLine
 10
168.95
 20
-127.425
 30
0.0
 11
168.95
 21
-129.925
 31
0.0
  0
LINE
  5
242
330
1E
100
AcDbEntity
  8
ﾚｲﾔ1
  6
Continuous
 62
     5
100
AcDbLine
 10
168.95
 20
-129.925
 30
0.0
 11
168.325
 21
-130.85
 31
0.0
  0
LINE
  5
243
330
1E
100
AcDbEntity
  8
ﾚｲﾔ1
  6
Continuous
 62
     5
100
AcDbLine
 10
168.325
 20
-130.85
 30
0.0
 11
167.375
 21
-131.475
 31
0.0
  0
LINE
  5
244
330
1E
100
AcDbEntity
  8
ﾚｲﾔ1
  6
Continuous
 62
     5
100
AcDbLine
 10
167.375
 20
-131.475
 30
0.0
 11
166.75
 21
-131.475
 31
0.0
  0
LINE
  5
245
330
1E
100
AcDbEntity
  8
ﾚｲﾔ1
  6
Continuous
 62
     5
100
AcDbLine
 10
178.95
 20
-128.05
 30
0.0
 11
178.0
 21
-128.675
 31
0.0
  0
LINE
  5
246
330
1E
100
AcDbEntity
  8
ﾚｲﾔ1
  6
Continuous
 62
     5
100
AcDbLine
 10
178.0
 20
-128.675
 30
0.0
 11
177.075
 21
-128.975
 31
0.0
  0
LINE
  5
247
330
1E
100
AcDbEntity
  8
ﾚｲﾔ1
  6
Continuous
 62
     5
100
AcDbLine
 10
177.075
 20
-128.975
 30
0.0
 11
176.125
 21
-128.975
 31
0.0
  0
LINE
  5
248
330
1E
100
AcDbEntity
  8
ﾚｲﾔ1
  6
Continuous
 62
     5
100
AcDbLine
 10
176.125
 20
-127.425
 30
0.0
 11
176.125
 21
-130.85
 31
0.0
  0
LINE
  5
249
330
1E
100
AcDbEntity
  8
ﾚｲﾔ1
  6
Continuous
 62
     5
100
AcDbLine
 10
176.125
 20
-130.85
 30
0.0
 11
176.45
 21
-131.175
 31
0.0
  0
LINE
  5
24A
330
1E
100
AcDbEntity
  8
ﾚｲﾔ1
  6
Continuous
 62
     5
100
AcDbLine
 10
176.45
 20
-131.175
 30
0.0
 11
179.25
 21
-131.175
 31
0.0
  0
LINE
  5
24B
330
1E
100
AcDbEntity
  8
ﾚｲﾔ1
  6
Continuous
 62
     5
100
AcDbLine
 10
179.25
 20
-127.725
 30
0.0
 11
179.575
 21
-128.05
 31
0.0
  0
LINE
  5
24C
330
1E
100
AcDbEntity
  8
ﾚｲﾔ1
  6
Continuous
 62
     5
100
AcDbLine
 10
179.575
 20
-127.1
 30
0.0
 11
179.875
 21
-127.425
 31
0.0
  0
LINE
  5
24D
330
1E
100
AcDbEntity
  8
ﾚｲﾔ1
  6
Continuous
 62
     5
100
AcDbLine
 10
181.125
 20
-127.725
 30
0.0
 11
183.95
 21
-127.725
 31
0.0
  0
LINE
  5
24E
330
1E
100
AcDbEntity
  8
ﾚｲﾔ1
  6
Continuous
 62
     5
100
AcDbLine
 10
183.95
 20
-127.725
 30
0.0
 11
183.625
 21
-128.975
 31
0.0
  0
LINE
  5
24F
330
1E
100
AcDbEntity
  8
ﾚｲﾔ1
  6
Continuous
 62
     5
100
AcDbLine
 10
183.625
 20
-128.975
 30
0.0
 11
183.0
 21
-129.925
 31
0.0
  0
LINE
  5
250
330
1E
100
AcDbEntity
  8
ﾚｲﾔ1
  6
Continuous
 62
     5
100
AcDbLine
 10
183.0
 20
-129.925
 30
0.0
 11
182.075
 21
-130.85
 31
0.0
  0
LINE
  5
251
330
1E
100
AcDbEntity
  8
ﾚｲﾔ1
  6
Continuous
 62
     5
100
AcDbLine
 10
182.075
 20
-130.85
 30
0.0
 11
180.825
 21
-131.475
 31
0.0
  0
LINE
  5
252
330
1E
100
AcDbEntity
  8
ﾚｲﾔ1
  6
Continuous
 62
     5
100
AcDbLine
 10
183.0
 20
-129.925
 30
0.0
 11
184.575
 21
-131.475
 31
0.0
  0
LINE
  5
253
330
1E
100
AcDbEntity
  8
ﾚｲﾔ1
  6
Continuous
 62
     5
100
AcDbLine
 10
-10.125
 20
-77.8
 30
0.0
 11
61.29999999999999
 21
-77.8
 31
0.0
  0
LINE
  5
254
330
1E
100
AcDbEntity
  8
ﾚｲﾔ1
  6
Continuous
 62
     5
100
AcDbLine
 10
-10.125
 20
-82.79999999999999
 30
0.0
 11
61.29999999999999
 21
-82.79999999999999
 31
0.0
  0
LINE
  5
255
330
1E
100
AcDbEntity
  8
ﾚｲﾔ1
  6
Continuous
 62
     5
100
AcDbLine
 10
-10.125
 20
-87.79999999999999
 30
0.0
 11
61.29999999999999
 21
-87.79999999999999
 31
0.0
  0
LINE
  5
256
330
1E
100
AcDbEntity
  8
ﾚｲﾔ1
  6
Continuous
 62
     5
100
AcDbLine
 10
-10.125
 20
-92.79999999999999
 30
0.0
 11
61.29999999999999
 21
-92.79999999999999
 31
0.0
  0
LINE
  5
257
330
1E
100
AcDbEntity
  8
ﾚｲﾔ1
  6
Continuous
 62
     5
100
AcDbLine
 10
-10.125
 20
-97.80000000000001
 30
0.0
 11
61.29999999999999
 21
-97.80000000000001
 31
0.0
  0
LINE
  5
258
330
1E
100
AcDbEntity
  8
ﾚｲﾔ1
  6
Continuous
 62
     5
100
AcDbLine
 10
-10.125
 20
-102.8
 30
0.0
 11
61.29999999999999
 21
-102.8
 31
0.0
  0
LINE
  5
259
330
1E
100
AcDbEntity
  8
ﾚｲﾔ1
  6
Continuous
 62
     5
100
AcDbLine
 10
-10.125
 20
-107.8
 30
0.0
 11
61.29999999999999
 21
-107.8
 31
0.0
  0
LINE
  5
25A
330
1E
100
AcDbEntity
  8
ﾚｲﾔ1
  6
Continuous
 62
     5
100
AcDbLine
 10
-10.125
 20
-112.8
 30
0.0
 11
61.29999999999999
 21
-112.8
 31
0.0
  0
LINE
  5
25B
330
1E
100
AcDbEntity
  8
ﾚｲﾔ1
  6
Continuous
 62
     5
100
AcDbLine
 10
-10.125
 20
-117.8
 30
0.0
 11
61.29999999999999
 21
-117.8
 31
0.0
  0
LINE
  5
25C
330
1E
100
AcDbEntity
  8
ﾚｲﾔ1
  6
Continuous
 62
     5
100
AcDbLine
 10
18.45
 20
-77.8
 30
0.0
 11
18.45
 21
-122.8
 31
0.0
  0
CIRCLE
  5
25D
330
1E
100
AcDbEntity
  8
ﾚｲﾔ1
100
AcDbCircle
 10
-100.729835
 20
13.48510000000005
 30
0.0
 40
65.0
  0
LWPOLYLINE
  5
25E
330
1E
100
AcDbEntity
  8
ﾚｲﾔ1
100
AcDbPolyline
 90
        4
 70
     1
 43
0.0
 10
159.6827724999999
 20
78.48510000000006
 10
-0.31722749999999
 20
78.48510000000006
 10
-0.31722749999999
 20
-51.51490000000003
 10
159.6827724999999
 20
-51.51490000000003
  0
CIRCLE
  5
264
330
1E
100
AcDbEntity
  8
ﾚｲﾔ1
100
AcDbCircle
 10
-100.729835
 20
13.48510000000005
 30
0.0
 40
42.5
  0
LINE
  5
265
330
1E
100
AcDbEntity
  8
ﾚｲﾔ1
100
AcDbLine
 10
-130.7818725
 20
-16.56693750000004
 30
0.0
 11
-146.6917749999999
 21
-32.47684
 31
0.0
  0
LINE
  5
266
330
1E
100
AcDbEntity
  8
ﾚｲﾔ1
100
AcDbLine
 10
-70.67779749999999
 20
-16.56693750000004
 30
0.0
 11
-54.76789500000005
 21
-32.47684
 31
0.0
  0
LINE
  5
267
330
1E
100
AcDbEntity
  8
ﾚｲﾔ1
100
AcDbLine
 10
-70.67779749999999
 20
43.53713750000006
 30
0.0
 11
-54.76789500000005
 21
59.44704000000001
 31
0.0
  0
LINE
  5
268
330
1E
100
AcDbEntity
  8
ﾚｲﾔ1
100
AcDbLine
 10
-130.7818725
 20
43.53713750000006
 30
0.0
 11
-146.6917749999999
 21
59.44704000000001
 31
0.0
  0
LINE
  5
269
330
1E
100
AcDbEntity
  8
ﾚｲﾔ1
100
AcDbLine
 10
29.68277249999992
 20
13.48510000000005
 30
0.0
 11
29.68277249999992
 21
-11.56693750000004
 31
0.0
  0
ARC
  5
26A
330
1E
100
AcDbEntity
  8
ﾚｲﾔ1
100
AcDbCircle
 10
34.68277323065904
 20
-11.56693800143266
 30
0.0
 40
5.0
100
AcDbArc
 50
180.0
 51
270.0
  0
LINE
  5
26B
330
1E
100
AcDbEntity
  8
ﾚｲﾔ1
100
AcDbLine
 10
34.68277249999992
 20
-16.56693750000004
 30
0.0
 11
134.6827724999999
 21
-16.56693750000004
 31
0.0
  0
LINE
  5
26C
330
1E
100
AcDbEntity
  8
ﾚｲﾔ1
100
AcDbLine
 10
139.6827724999999
 20
-11.56693750000004
 30
0.0
 11
139.6827724999999
 21
13.48510000000005
 31
0.0
  0
ARC
  5
26D
330
1E
100
AcDbEntity
  8
ﾚｲﾔ1
100
AcDbCircle
 10
134.682773230659
 20
-11.56693800143266
 30
0.0
 40
5.0
100
AcDbArc
 50
-90.0
 51
0.0
  0
LINE
  5
26E
330
1E
100
AcDbEntity
  8
ﾚｲﾔ1
100
AcDbLine
 10
29.68277249999992
 20
-2.424802499999986
 30
0.0
 11
29.68277249999992
 21
-27.47684
 31
0.0
  0
ARC
  5
26F
330
1E
100
AcDbEntity
  8
ﾚｲﾔ1
100
AcDbCircle
 10
34.68277323065904
 20
-27.47684050143262
 30
0.0
 40
5.0
100
AcDbArc
 50
180.0
 51
270.0
  0
LINE
  5
270
330
1E
100
AcDbEntity
  8
ﾚｲﾔ1
100
AcDbLine
 10
34.68277249999992
 20
-32.47684
 30
0.0
 11
134.6827724999999
 21
-32.47684
 31
0.0
  0
LINE
  5
271
330
1E
100
AcDbEntity
  8
ﾚｲﾔ1
100
AcDbLine
 10
139.6827724999999
 20
-27.47684
 30
0.0
 11
139.6827724999999
 21
-2.424802499999986
 31
0.0
  0
ARC
  5
272
330
1E
100
AcDbEntity
  8
ﾚｲﾔ1
100
AcDbCircle
 10
134.682773230659
 20
-27.47684050143262
 30
0.0
 40
5.0
100
AcDbArc
 50
-90.0
 51
0.0
  0
LINE
  5
273
330
1E
100
AcDbEntity
  8
ﾚｲﾔ1
100
AcDbLine
 10
29.68277249999992
 20
13.48510000000005
 30
0.0
 11
29.68277249999992
 21
38.53713750000006
 31
0.0
  0
ARC
  5
274
330
1E
100
AcDbEntity
  8
ﾚｲﾔ1
100
AcDbCircle
 10
34.68277323065904
 20
38.53713800143269
 30
0.0
 40
5.0
100
AcDbArc
 50
90.0
 51
180.0
  0
LINE
  5
275
330
1E
100
AcDbEntity
  8
ﾚｲﾔ1
100
AcDbLine
 10
34.68277249999992
 20
43.53713750000006
 30
0.0
 11
134.6827724999999
 21
43.53713750000006
 31
0.0
  0
LINE
  5
276
330
1E
100
AcDbEntity
  8
ﾚｲﾔ1
100
AcDbLine
 10
139.6827724999999
 20
38.53713750000006
 30
0.0
 11
139.6827724999999
 21
13.48510000000005
 31
0.0
  0
ARC
  5
277
330
1E
100
AcDbEntity
  8
ﾚｲﾔ1
100
AcDbCircle
 10
134.682773230659
 20
38.53713800143269
 30
0.0
 40
5.0
100
AcDbArc
 50
0.0
 51
90.0
  0
LINE
  5
278
330
1E
100
AcDbEntity
  8
ﾚｲﾔ1
100
AcDbLine
 10
29.68277249999992
 20
29.39500250000001
 30
0.0
 11
29.68277249999992
 21
54.44704000000001
 31
0.0
  0
LINE
  5
279
330
1E
100
AcDbEntity
  8
ﾚｲﾔ1
100
AcDbLine
 10
139.6827724999999
 20
54.44704000000001
 30
0.0
 11
139.6827724999999
 21
29.39500250000001
 31
0.0
  0
ARC
  5
27A
330
1E
100
AcDbEntity
  8
ﾚｲﾔ1
100
AcDbCircle
 10
34.68277323065904
 20
54.44704050143264
 30
0.0
 40
5.0
100
AcDbArc
 50
90.0
 51
180.0
  0
LINE
  5
27B
330
1E
100
AcDbEntity
  8
ﾚｲﾔ1
100
AcDbLine
 10
34.68277249999992
 20
59.44704000000001
 30
0.0
 11
134.6827724999999
 21
59.44704000000001
 31
0.0
  0
ARC
  5
27C
330
1E
100
AcDbEntity
  8
ﾚｲﾔ1
100
AcDbCircle
 10
134.682773230659
 20
54.44704050143264
 30
0.0
 40
5.0
100
AcDbArc
 50
0.0
 51
90.0
  0
LINE
  5
27D
330
1E
100
AcDbEntity
  8
ﾚｲﾔ3
100
AcDbLine
 10
-172.1838474999999
 20
13.48510000000005
 30
0.0
 11
166.4651475
 21
13.48510000000005
 31
0.0
  0
LINE
  5
27E
330
1E
100
AcDbEntity
  8
ﾚｲﾔ3
100
AcDbLine
 10
-100.729835
 20
84.96934249999995
 30
0.0
 11
-100.729835
 21
-57.99913999999999
 31
0.0
  0
LINE
  5
27F
330
1E
100
AcDbEntity
  8
ﾚｲﾔ3
100
AcDbLine
 10
-100.729835
 20
13.48510000000005
 30
0.0
 11
-151.639685
 21
-37.42475000000004
 31
0.0
  0
LINE
  5
280
330
1E
100
AcDbEntity
  8
ﾚｲﾔ3
100
AcDbLine
 10
-100.729835
 20
13.48510000000005
 30
0.0
 11
-50.21339500000003
 21
-37.03134
 31
0.0
  0
TEXT
  5
281
330
1E
100
AcDbEntity
  8
文字
 62
     5
100
AcDbText
 10
62.1
 20
-112.4
 30
0.0
 40
4.0
  1
審査
 41
1.3
100
AcDbText
  0
TEXT
  5
282
330
1E
100
AcDbEntity
  8
文字
 62
     5
100
AcDbText
 10
71.7
 20
-112.4
 30
0.0
 40
4.0
  1
検図
 41
1.125
100
AcDbText
  0
TEXT
  5
283
330
1E
100
AcDbEntity
  8
文字
 62
     5
100
AcDbText
 10
81.90000000000001
 20
-112.3
 30
0.0
 40
4.0
  1
設計
 41
1.125
100
AcDbText
  0
TEXT
  5
284
330
1E
100
AcDbEntity
  8
文字
 62
     5
100
AcDbText
 10
92.09999999999999
 20
-112.4
 30
0.0
 40
4.0
  1
製図
 41
1.125
100
AcDbText
  0
TEXT
  5
285
330
1E
100
AcDbEntity
  8
文字
 62
     5
100
AcDbText
 10
103.55
 20
-111.7
 30
0.0
 40
4.0
  1
尺度
 41
1.125
100
AcDbText
  0
TEXT
  5
286
330
1E
100
AcDbEntity
  8
文字
 62
     5
100
AcDbText
 10
115.95
 20
-100.7603012370507
 30
0.0
 40
4.0
  1
名 称
 50
270.0
100
AcDbText
  0
TEXT
  5
287
330
1E
100
AcDbEntity
  8
文字
 62
     5
100
AcDbText
 10
115.85
 20
-117.2
 30
0.0
 40
3.0
  1
設計年月日
 41
0.8
100
AcDbText
  0
TEXT
  5
28B
330
1E
100
AcDbEntity
  8
文字
 62
     5
100
AcDbText
 10
140.95
 20
-121.5
 30
0.0
 40
3.0
  1
番
100
AcDbText
  0
TEXT
  5
28C
330
1E
100
AcDbEntity
  8
文字
 62
     5
100
AcDbText
 10
68.7
 20
-107.1
 30
0.0
 40
2.5
  1
年月日
100
AcDbText
  0
TEXT
  5
28D
330
1E
100
AcDbEntity
  8
文字
 62
     5
100
AcDbText
 10
62.1
 20
-106.9
 30
0.0
 40
2.5
  1
記号
100
AcDbText
  0
TEXT
  5
28E
330
1E
100
AcDbEntity
  8
文字
 62
     5
100
AcDbText
 10
80.5
 20
-106.9
 30
0.0
 40
2.5
  1
訂正理由
 41
2.0
100
AcDbText
  0
TEXT
  5
290
330
1E
100
AcDbEntity
  8
文字
 62
     5
100
AcDbText
 10
108.4
 20
-106.9
 30
0.0
 40
2.5
  1
訂正者
 41
0.8
100
AcDbText
  0
TEXT
  5
292
330
1E
100
AcDbEntity
  8
文字
 62
     5
100
AcDbText
 10
115.85
 20
-97.0
 30
0.0
 40
3.0
  1
番号
100
AcDbText
  0
TEXT
  5
293
330
1E
100
AcDbEntity
  8
文字
 62
     5
100
AcDbText
 10
123.05
 20
-97.2
 30
0.0
 40
3.0
  1
名　　称
100
AcDbText
  0
TEXT
  5
294
330
1E
100
AcDbEntity
  8
文字
 62
     5
100
AcDbText
 10
141.05
 20
-97.1
 30
0.0
 40
3.0
  1
数量
100
AcDbText
  0
TEXT
  5
295
330
1E
100
AcDbEntity
  8
文字
 62
     5
100
AcDbText
 10
149.3
 20
-97.2
 30
0.0
 40
3.0
  1
材質
100
AcDbText
  0
TEXT
  5
296
330
1E
100
AcDbEntity
  8
文字
 62
     5
100
AcDbText
 10
160.2
 20
-97.0
 30
0.0
 40
3.0
  1
記　　事
100
AcDbText
  0
LINE
  5
297
330
1E
100
AcDbEntity
  8
文字
  6
Continuous
 62
     5
100
AcDbLine
 10
36.525
 20
-85.075
 30
0.0
 11
36.75
 21
-85.075
 31
0.0
  0
LINE
  5
298
330
1E
100
AcDbEntity
  8
文字
  6
Continuous
 62
     5
100
AcDbLine
 10
36.75
 20
-85.075
 30
0.0
 11
36.75
 21
-86.85
 31
0.0
  0
LINE
  5
299
330
1E
100
AcDbEntity
  8
文字
  6
Continuous
 62
     5
100
AcDbLine
 10
36.75
 20
-85.525
 30
0.0
 11
37.20000000000001
 21
-85.075
 31
0.0
  0
LINE
  5
29A
330
1E
100
AcDbEntity
  8
文字
  6
Continuous
 62
     5
100
AcDbLine
 10
37.20000000000001
 20
-85.075
 30
0.0
 11
37.425
 21
-85.075
 31
0.0
  0
LINE
  5
29B
330
1E
100
AcDbEntity
  8
文字
  6
Continuous
 62
     5
100
AcDbLine
 10
37.425
 20
-85.075
 30
0.0
 11
37.875
 21
-85.525
 31
0.0
  0
LINE
  5
29C
330
1E
100
AcDbEntity
  8
文字
  6
Continuous
 62
     5
100
AcDbLine
 10
37.875
 20
-85.525
 30
0.0
 11
37.875
 21
-86.85
 31
0.0
  0
LINE
  5
29D
330
1E
100
AcDbEntity
  8
文字
  6
Continuous
 62
     5
100
AcDbLine
 10
37.875
 20
-85.525
 30
0.0
 11
38.325
 21
-85.075
 31
0.0
  0
LINE
  5
29E
330
1E
100
AcDbEntity
  8
文字
  6
Continuous
 62
     5
100
AcDbLine
 10
38.325
 20
-85.075
 30
0.0
 11
38.525
 21
-85.075
 31
0.0
  0
LINE
  5
29F
330
1E
100
AcDbEntity
  8
文字
  6
Continuous
 62
     5
100
AcDbLine
 10
38.525
 20
-85.075
 30
0.0
 11
38.975
 21
-85.525
 31
0.0
  0
LINE
  5
2A0
330
1E
100
AcDbEntity
  8
文字
  6
Continuous
 62
     5
100
AcDbLine
 10
38.975
 20
-85.525
 30
0.0
 11
38.975
 21
-86.85
 31
0.0
  0
LINE
  5
2A1
330
1E
100
AcDbEntity
  8
文字
  6
Continuous
 62
     5
100
AcDbLine
 10
40.54999999999999
 20
-85.075
 30
0.0
 11
40.75
 21
-85.075
 31
0.0
  0
LINE
  5
2A2
330
1E
100
AcDbEntity
  8
文字
  6
Continuous
 62
     5
100
AcDbLine
 10
40.75
 20
-85.075
 30
0.0
 11
40.75
 21
-86.85
 31
0.0
  0
LINE
  5
2A3
330
1E
100
AcDbEntity
  8
文字
  6
Continuous
 62
     5
100
AcDbLine
 10
40.75
 20
-85.525
 30
0.0
 11
41.2
 21
-85.075
 31
0.0
  0
LINE
  5
2A4
330
1E
100
AcDbEntity
  8
文字
  6
Continuous
 62
     5
100
AcDbLine
 10
41.2
 20
-85.075
 30
0.0
 11
41.45
 21
-85.075
 31
0.0
  0
LINE
  5
2A5
330
1E
100
AcDbEntity
  8
文字
  6
Continuous
 62
     5
100
AcDbLine
 10
41.45
 20
-85.075
 30
0.0
 11
41.875
 21
-85.525
 31
0.0
  0
LINE
  5
2A6
330
1E
100
AcDbEntity
  8
文字
  6
Continuous
 62
     5
100
AcDbLine
 10
41.875
 20
-85.525
 30
0.0
 11
41.875
 21
-86.85
 31
0.0
  0
LINE
  5
2A7
330
1E
100
AcDbEntity
  8
文字
  6
Continuous
 62
     5
100
AcDbLine
 10
41.875
 20
-85.525
 30
0.0
 11
42.325
 21
-85.075
 31
0.0
  0
LINE
  5
2A8
330
1E
100
AcDbEntity
  8
文字
  6
Continuous
 62
     5
100
AcDbLine
 10
42.325
 20
-85.075
 30
0.0
 11
42.54999999999999
 21
-85.075
 31
0.0
  0
LINE
  5
2A9
330
1E
100
AcDbEntity
  8
文字
  6
Continuous
 62
     5
100
AcDbLine
 10
42.54999999999999
 20
-85.075
 30
0.0
 11
43.0
 21
-85.525
 31
0.0
  0
LINE
  5
2AA
330
1E
100
AcDbEntity
  8
文字
  6
Continuous
 62
     5
100
AcDbLine
 10
43.0
 20
-85.525
 30
0.0
 11
43.0
 21
-86.85
 31
0.0
  0
LINE
  5
2AB
330
1E
100
AcDbEntity
  8
文字
  6
Continuous
 62
     5
100
AcDbLine
 10
36.525
 20
-90.075
 30
0.0
 11
36.75
 21
-90.075
 31
0.0
  0
LINE
  5
2AC
330
1E
100
AcDbEntity
  8
文字
  6
Continuous
 62
     5
100
AcDbLine
 10
36.75
 20
-90.075
 30
0.0
 11
36.75
 21
-91.85
 31
0.0
  0
LINE
  5
2AD
330
1E
100
AcDbEntity
  8
文字
  6
Continuous
 62
     5
100
AcDbLine
 10
36.75
 20
-90.525
 30
0.0
 11
37.20000000000001
 21
-90.075
 31
0.0
  0
LINE
  5
2AE
330
1E
100
AcDbEntity
  8
文字
  6
Continuous
 62
     5
100
AcDbLine
 10
37.20000000000001
 20
-90.075
 30
0.0
 11
37.425
 21
-90.075
 31
0.0
  0
LINE
  5
2AF
330
1E
100
AcDbEntity
  8
文字
  6
Continuous
 62
     5
100
AcDbLine
 10
37.425
 20
-90.075
 30
0.0
 11
37.875
 21
-90.525
 31
0.0
  0
LINE
  5
2B0
330
1E
100
AcDbEntity
  8
文字
  6
Continuous
 62
     5
100
AcDbLine
 10
37.875
 20
-90.525
 30
0.0
 11
37.875
 21
-91.85
 31
0.0
  0
LINE
  5
2B1
330
1E
100
AcDbEntity
  8
文字
  6
Continuous
 62
     5
100
AcDbLine
 10
37.875
 20
-90.525
 30
0.0
 11
38.325
 21
-90.075
 31
0.0
  0
LINE
  5
2B2
330
1E
100
AcDbEntity
  8
文字
  6
Continuous
 62
     5
100
AcDbLine
 10
38.325
 20
-90.075
 30
0.0
 11
38.525
 21
-90.075
 31
0.0
  0
LINE
  5
2B3
330
1E
100
AcDbEntity
  8
文字
  6
Continuous
 62
     5
100
AcDbLine
 10
38.525
 20
-90.075
 30
0.0
 11
38.975
 21
-90.525
 31
0.0
  0
LINE
  5
2B4
330
1E
100
AcDbEntity
  8
文字
  6
Continuous
 62
     5
100
AcDbLine
 10
38.975
 20
-90.525
 30
0.0
 11
38.975
 21
-91.85
 31
0.0
  0
LINE
  5
2B5
330
1E
100
AcDbEntity
  8
文字
  6
Continuous
 62
     5
100
AcDbLine
 10
40.54999999999999
 20
-90.075
 30
0.0
 11
40.75
 21
-90.075
 31
0.0
  0
LINE
  5
2B6
330
1E
100
AcDbEntity
  8
文字
  6
Continuous
 62
     5
100
AcDbLine
 10
40.75
 20
-90.075
 30
0.0
 11
40.75
 21
-91.85
 31
0.0
  0
LINE
  5
2B7
330
1E
100
AcDbEntity
  8
文字
  6
Continuous
 62
     5
100
AcDbLine
 10
40.75
 20
-90.525
 30
0.0
 11
41.2
 21
-90.075
 31
0.0
  0
LINE
  5
2B8
330
1E
100
AcDbEntity
  8
文字
  6
Continuous
 62
     5
100
AcDbLine
 10
41.2
 20
-90.075
 30
0.0
 11
41.45
 21
-90.075
 31
0.0
  0
LINE
  5
2B9
330
1E
100
AcDbEntity
  8
文字
  6
Continuous
 62
     5
100
AcDbLine
 10
41.45
 20
-90.075
 30
0.0
 11
41.875
 21
-90.525
 31
0.0
  0
LINE
  5
2BA
330
1E
100
AcDbEntity
  8
文字
  6
Continuous
 62
     5
100
AcDbLine
 10
41.875
 20
-90.525
 30
0.0
 11
41.875
 21
-91.85
 31
0.0
  0
LINE
  5
2BB
330
1E
100
AcDbEntity
  8
文字
  6
Continuous
 62
     5
100
AcDbLine
 10
41.875
 20
-90.525
 30
0.0
 11
42.325
 21
-90.075
 31
0.0
  0
LINE
  5
2BC
330
1E
100
AcDbEntity
  8
文字
  6
Continuous
 62
     5
100
AcDbLine
 10
42.325
 20
-90.075
 30
0.0
 11
42.54999999999999
 21
-90.075
 31
0.0
  0
LINE
  5
2BD
330
1E
100
AcDbEntity
  8
文字
  6
Continuous
 62
     5
100
AcDbLine
 10
42.54999999999999
 20
-90.075
 30
0.0
 11
43.0
 21
-90.525
 31
0.0
  0
LINE
  5
2BE
330
1E
100
AcDbEntity
  8
文字
  6
Continuous
 62
     5
100
AcDbLine
 10
43.0
 20
-90.525
 30
0.0
 11
43.0
 21
-91.85
 31
0.0
  0
LINE
  5
2BF
330
1E
100
AcDbEntity
  8
文字
  6
Continuous
 62
     5
100
AcDbLine
 10
36.525
 20
-95.075
 30
0.0
 11
36.75
 21
-95.075
 31
0.0
  0
LINE
  5
2C0
330
1E
100
AcDbEntity
  8
文字
  6
Continuous
 62
     5
100
AcDbLine
 10
36.75
 20
-95.075
 30
0.0
 11
36.75
 21
-96.85
 31
0.0
  0
LINE
  5
2C1
330
1E
100
AcDbEntity
  8
文字
  6
Continuous
 62
     5
100
AcDbLine
 10
36.75
 20
-95.525
 30
0.0
 11
37.20000000000001
 21
-95.075
 31
0.0
  0
LINE
  5
2C2
330
1E
100
AcDbEntity
  8
文字
  6
Continuous
 62
     5
100
AcDbLine
 10
37.20000000000001
 20
-95.075
 30
0.0
 11
37.425
 21
-95.075
 31
0.0
  0
LINE
  5
2C3
330
1E
100
AcDbEntity
  8
文字
  6
Continuous
 62
     5
100
AcDbLine
 10
37.425
 20
-95.075
 30
0.0
 11
37.875
 21
-95.525
 31
0.0
  0
LINE
  5
2C4
330
1E
100
AcDbEntity
  8
文字
  6
Continuous
 62
     5
100
AcDbLine
 10
37.875
 20
-95.525
 30
0.0
 11
37.875
 21
-96.85
 31
0.0
  0
LINE
  5
2C5
330
1E
100
AcDbEntity
  8
文字
  6
Continuous
 62
     5
100
AcDbLine
 10
37.875
 20
-95.525
 30
0.0
 11
38.325
 21
-95.075
 31
0.0
  0
LINE
  5
2C6
330
1E
100
AcDbEntity
  8
文字
  6
Continuous
 62
     5
100
AcDbLine
 10
38.325
 20
-95.075
 30
0.0
 11
38.525
 21
-95.075
 31
0.0
  0
LINE
  5
2C7
330
1E
100
AcDbEntity
  8
文字
  6
Continuous
 62
     5
100
AcDbLine
 10
38.525
 20
-95.075
 30
0.0
 11
38.975
 21
-95.525
 31
0.0
  0
LINE
  5
2C8
330
1E
100
AcDbEntity
  8
文字
  6
Continuous
 62
     5
100
AcDbLine
 10
38.975
 20
-95.525
 30
0.0
 11
38.975
 21
-96.85
 31
0.0
  0
LINE
  5
2C9
330
1E
100
AcDbEntity
  8
文字
  6
Continuous
 62
     5
100
AcDbLine
 10
40.54999999999999
 20
-95.075
 30
0.0
 11
40.75
 21
-95.075
 31
0.0
  0
LINE
  5
2CA
330
1E
100
AcDbEntity
  8
文字
  6
Continuous
 62
     5
100
AcDbLine
 10
40.75
 20
-95.075
 30
0.0
 11
40.75
 21
-96.85
 31
0.0
  0
LINE
  5
2CB
330
1E
100
AcDbEntity
  8
文字
  6
Continuous
 62
     5
100
AcDbLine
 10
40.75
 20
-95.525
 30
0.0
 11
41.2
 21
-95.075
 31
0.0
  0
LINE
  5
2CC
330
1E
100
AcDbEntity
  8
文字
  6
Continuous
 62
     5
100
AcDbLine
 10
41.2
 20
-95.075
 30
0.0
 11
41.45
 21
-95.075
 31
0.0
  0
LINE
  5
2CD
330
1E
100
AcDbEntity
  8
文字
  6
Continuous
 62
     5
100
AcDbLine
 10
41.45
 20
-95.075
 30
0.0
 11
41.875
 21
-95.525
 31
0.0
  0
LINE
  5
2CE
330
1E
100
AcDbEntity
  8
文字
  6
Continuous
 62
     5
100
AcDbLine
 10
41.875
 20
-95.525
 30
0.0
 11
41.875
 21
-96.85
 31
0.0
  0
LINE
  5
2CF
330
1E
100
AcDbEntity
  8
文字
  6
Continuous
 62
     5
100
AcDbLine
 10
41.875
 20
-95.525
 30
0.0
 11
42.325
 21
-95.075
 31
0.0
  0
LINE
  5
2D0
330
1E
100
AcDbEntity
  8
文字
  6
Continuous
 62
     5
100
AcDbLine
 10
42.325
 20
-95.075
 30
0.0
 11
42.54999999999999
 21
-95.075
 31
0.0
  0
LINE
  5
2D1
330
1E
100
AcDbEntity
  8
文字
  6
Continuous
 62
     5
100
AcDbLine
 10
42.54999999999999
 20
-95.075
 30
0.0
 11
43.0
 21
-95.525
 31
0.0
  0
LINE
  5
2D2
330
1E
100
AcDbEntity
  8
文字
  6
Continuous
 62
     5
100
AcDbLine
 10
43.0
 20
-95.525
 30
0.0
 11
43.0
 21
-96.85
 31
0.0
  0
LINE
  5
2D3
330
1E
100
AcDbEntity
  8
文字
  6
Continuous
 62
     5
100
AcDbLine
 10
36.525
 20
-100.075
 30
0.0
 11
36.75
 21
-100.075
 31
0.0
  0
LINE
  5
2D4
330
1E
100
AcDbEntity
  8
文字
  6
Continuous
 62
     5
100
AcDbLine
 10
36.75
 20
-100.075
 30
0.0
 11
36.75
 21
-101.85
 31
0.0
  0
LINE
  5
2D5
330
1E
100
AcDbEntity
  8
文字
  6
Continuous
 62
     5
100
AcDbLine
 10
36.75
 20
-100.525
 30
0.0
 11
37.20000000000001
 21
-100.075
 31
0.0
  0
LINE
  5
2D6
330
1E
100
AcDbEntity
  8
文字
  6
Continuous
 62
     5
100
AcDbLine
 10
37.20000000000001
 20
-100.075
 30
0.0
 11
37.425
 21
-100.075
 31
0.0
  0
LINE
  5
2D7
330
1E
100
AcDbEntity
  8
文字
  6
Continuous
 62
     5
100
AcDbLine
 10
37.425
 20
-100.075
 30
0.0
 11
37.875
 21
-100.525
 31
0.0
  0
LINE
  5
2D8
330
1E
100
AcDbEntity
  8
文字
  6
Continuous
 62
     5
100
AcDbLine
 10
37.875
 20
-100.525
 30
0.0
 11
37.875
 21
-101.85
 31
0.0
  0
LINE
  5
2D9
330
1E
100
AcDbEntity
  8
文字
  6
Continuous
 62
     5
100
AcDbLine
 10
37.875
 20
-100.525
 30
0.0
 11
38.325
 21
-100.075
 31
0.0
  0
LINE
  5
2DA
330
1E
100
AcDbEntity
  8
文字
  6
Continuous
 62
     5
100
AcDbLine
 10
38.325
 20
-100.075
 30
0.0
 11
38.525
 21
-100.075
 31
0.0
  0
LINE
  5
2DB
330
1E
100
AcDbEntity
  8
文字
  6
Continuous
 62
     5
100
AcDbLine
 10
38.525
 20
-100.075
 30
0.0
 11
38.975
 21
-100.525
 31
0.0
  0
LINE
  5
2DC
330
1E
100
AcDbEntity
  8
文字
  6
Continuous
 62
     5
100
AcDbLine
 10
38.975
 20
-100.525
 30
0.0
 11
38.975
 21
-101.85
 31
0.0
  0
LINE
  5
2DD
330
1E
100
AcDbEntity
  8
文字
  6
Continuous
 62
     5
100
AcDbLine
 10
40.54999999999999
 20
-100.075
 30
0.0
 11
40.75
 21
-100.075
 31
0.0
  0
LINE
  5
2DE
330
1E
100
AcDbEntity
  8
文字
  6
Continuous
 62
     5
100
AcDbLine
 10
40.75
 20
-100.075
 30
0.0
 11
40.75
 21
-101.85
 31
0.0
  0
LINE
  5
2DF
330
1E
100
AcDbEntity
  8
文字
  6
Continuous
 62
     5
100
AcDbLine
 10
40.75
 20
-100.525
 30
0.0
 11
41.2
 21
-100.075
 31
0.0
  0
LINE
  5
2E0
330
1E
100
AcDbEntity
  8
文字
  6
Continuous
 62
     5
100
AcDbLine
 10
41.2
 20
-100.075
 30
0.0
 11
41.45
 21
-100.075
 31
0.0
  0
LINE
  5
2E1
330
1E
100
AcDbEntity
  8
文字
  6
Continuous
 62
     5
100
AcDbLine
 10
41.45
 20
-100.075
 30
0.0
 11
41.875
 21
-100.525
 31
0.0
  0
LINE
  5
2E2
330
1E
100
AcDbEntity
  8
文字
  6
Continuous
 62
     5
100
AcDbLine
 10
41.875
 20
-100.525
 30
0.0
 11
41.875
 21
-101.85
 31
0.0
  0
LINE
  5
2E3
330
1E
100
AcDbEntity
  8
文字
  6
Continuous
 62
     5
100
AcDbLine
 10
41.875
 20
-100.525
 30
0.0
 11
42.325
 21
-100.075
 31
0.0
  0
LINE
  5
2E4
330
1E
100
AcDbEntity
  8
文字
  6
Continuous
 62
     5
100
AcDbLine
 10
42.325
 20
-100.075
 30
0.0
 11
42.54999999999999
 21
-100.075
 31
0.0
  0
LINE
  5
2E5
330
1E
100
AcDbEntity
  8
文字
  6
Continuous
 62
     5
100
AcDbLine
 10
42.54999999999999
 20
-100.075
 30
0.0
 11
43.0
 21
-100.525
 31
0.0
  0
LINE
  5
2E6
330
1E
100
AcDbEntity
  8
文字
  6
Continuous
 62
     5
100
AcDbLine
 10
43.0
 20
-100.525
 30
0.0
 11
43.0
 21
-101.85
 31
0.0
  0
LINE
  5
2E7
330
1E
100
AcDbEntity
  8
文字
  6
Continuous
 62
     5
100
AcDbLine
 10
38.75
 20
-105.525
 30
0.0
 11
38.325
 21
-105.075
 31
0.0
  0
LINE
  5
2E8
330
1E
100
AcDbEntity
  8
文字
  6
Continuous
 62
     5
100
AcDbLine
 10
38.325
 20
-105.075
 30
0.0
 11
37.425
 21
-105.075
 31
0.0
  0
LINE
  5
2E9
330
1E
100
AcDbEntity
  8
文字
  6
Continuous
 62
     5
100
AcDbLine
 10
37.425
 20
-105.075
 30
0.0
 11
36.975
 21
-105.525
 31
0.0
  0
LINE
  5
2EA
330
1E
100
AcDbEntity
  8
文字
  6
Continuous
 62
     5
100
AcDbLine
 10
36.975
 20
-105.525
 30
0.0
 11
36.975
 21
-106.4
 31
0.0
  0
LINE
  5
2EB
330
1E
100
AcDbEntity
  8
文字
  6
Continuous
 62
     5
100
AcDbLine
 10
36.975
 20
-106.4
 30
0.0
 11
37.425
 21
-106.85
 31
0.0
  0
LINE
  5
2EC
330
1E
100
AcDbEntity
  8
文字
  6
Continuous
 62
     5
100
AcDbLine
 10
37.425
 20
-106.85
 30
0.0
 11
38.325
 21
-106.85
 31
0.0
  0
LINE
  5
2ED
330
1E
100
AcDbEntity
  8
文字
  6
Continuous
 62
     5
100
AcDbLine
 10
38.325
 20
-106.85
 30
0.0
 11
38.75
 21
-106.4
 31
0.0
  0
LINE
  5
2EE
330
1E
100
AcDbEntity
  8
文字
  6
Continuous
 62
     5
100
AcDbLine
 10
40.54999999999999
 20
-105.075
 30
0.0
 11
40.75
 21
-105.075
 31
0.0
  0
LINE
  5
2EF
330
1E
100
AcDbEntity
  8
文字
  6
Continuous
 62
     5
100
AcDbLine
 10
40.75
 20
-105.075
 30
0.0
 11
40.75
 21
-106.85
 31
0.0
  0
LINE
  5
2F0
330
1E
100
AcDbEntity
  8
文字
  6
Continuous
 62
     5
100
AcDbLine
 10
40.75
 20
-105.525
 30
0.0
 11
41.2
 21
-105.075
 31
0.0
  0
LINE
  5
2F1
330
1E
100
AcDbEntity
  8
文字
  6
Continuous
 62
     5
100
AcDbLine
 10
41.2
 20
-105.075
 30
0.0
 11
41.45
 21
-105.075
 31
0.0
  0
LINE
  5
2F2
330
1E
100
AcDbEntity
  8
文字
  6
Continuous
 62
     5
100
AcDbLine
 10
41.45
 20
-105.075
 30
0.0
 11
41.875
 21
-105.525
 31
0.0
  0
LINE
  5
2F3
330
1E
100
AcDbEntity
  8
文字
  6
Continuous
 62
     5
100
AcDbLine
 10
41.875
 20
-105.525
 30
0.0
 11
41.875
 21
-106.85
 31
0.0
  0
LINE
  5
2F4
330
1E
100
AcDbEntity
  8
文字
  6
Continuous
 62
     5
100
AcDbLine
 10
41.875
 20
-105.525
 30
0.0
 11
42.325
 21
-105.075
 31
0.0
  0
LINE
  5
2F5
330
1E
100
AcDbEntity
  8
文字
  6
Continuous
 62
     5
100
AcDbLine
 10
42.325
 20
-105.075
 30
0.0
 11
42.54999999999999
 21
-105.075
 31
0.0
  0
LINE
  5
2F6
330
1E
100
AcDbEntity
  8
文字
  6
Continuous
 62
     5
100
AcDbLine
 10
42.54999999999999
 20
-105.075
 30
0.0
 11
43.0
 21
-105.525
 31
0.0
  0
LINE
  5
2F7
330
1E
100
AcDbEntity
  8
文字
  6
Continuous
 62
     5
100
AcDbLine
 10
43.0
 20
-105.525
 30
0.0
 11
43.0
 21
-106.85
 31
0.0
  0
LINE
  5
2F8
330
1E
100
AcDbEntity
  8
文字
  6
Continuous
 62
     5
100
AcDbLine
 10
36.525
 20
-110.075
 30
0.0
 11
36.75
 21
-110.075
 31
0.0
  0
LINE
  5
2F9
330
1E
100
AcDbEntity
  8
文字
  6
Continuous
 62
     5
100
AcDbLine
 10
36.75
 20
-110.075
 30
0.0
 11
36.75
 21
-111.85
 31
0.0
  0
LINE
  5
2FA
330
1E
100
AcDbEntity
  8
文字
  6
Continuous
 62
     5
100
AcDbLine
 10
36.75
 20
-110.525
 30
0.0
 11
37.20000000000001
 21
-110.075
 31
0.0
  0
LINE
  5
2FB
330
1E
100
AcDbEntity
  8
文字
  6
Continuous
 62
     5
100
AcDbLine
 10
37.20000000000001
 20
-110.075
 30
0.0
 11
37.425
 21
-110.075
 31
0.0
  0
LINE
  5
2FC
330
1E
100
AcDbEntity
  8
文字
  6
Continuous
 62
     5
100
AcDbLine
 10
37.425
 20
-110.075
 30
0.0
 11
37.875
 21
-110.525
 31
0.0
  0
LINE
  5
2FD
330
1E
100
AcDbEntity
  8
文字
  6
Continuous
 62
     5
100
AcDbLine
 10
37.875
 20
-110.525
 30
0.0
 11
37.875
 21
-111.85
 31
0.0
  0
LINE
  5
2FE
330
1E
100
AcDbEntity
  8
文字
  6
Continuous
 62
     5
100
AcDbLine
 10
37.875
 20
-110.525
 30
0.0
 11
38.325
 21
-110.075
 31
0.0
  0
LINE
  5
2FF
330
1E
100
AcDbEntity
  8
文字
  6
Continuous
 62
     5
100
AcDbLine
 10
38.325
 20
-110.075
 30
0.0
 11
38.525
 21
-110.075
 31
0.0
  0
LINE
  5
300
330
1E
100
AcDbEntity
  8
文字
  6
Continuous
 62
     5
100
AcDbLine
 10
38.525
 20
-110.075
 30
0.0
 11
38.975
 21
-110.525
 31
0.0
  0
LINE
  5
301
330
1E
100
AcDbEntity
  8
文字
  6
Continuous
 62
     5
100
AcDbLine
 10
38.975
 20
-110.525
 30
0.0
 11
38.975
 21
-111.85
 31
0.0
  0
LINE
  5
302
330
1E
100
AcDbEntity
  8
文字
  6
Continuous
 62
     5
100
AcDbLine
 10
40.54999999999999
 20
-110.075
 30
0.0
 11
40.75
 21
-110.075
 31
0.0
  0
LINE
  5
303
330
1E
100
AcDbEntity
  8
文字
  6
Continuous
 62
     5
100
AcDbLine
 10
40.75
 20
-110.075
 30
0.0
 11
40.75
 21
-111.85
 31
0.0
  0
LINE
  5
304
330
1E
100
AcDbEntity
  8
文字
  6
Continuous
 62
     5
100
AcDbLine
 10
40.75
 20
-110.525
 30
0.0
 11
41.2
 21
-110.075
 31
0.0
  0
LINE
  5
305
330
1E
100
AcDbEntity
  8
文字
  6
Continuous
 62
     5
100
AcDbLine
 10
41.2
 20
-110.075
 30
0.0
 11
41.45
 21
-110.075
 31
0.0
  0
LINE
  5
306
330
1E
100
AcDbEntity
  8
文字
  6
Continuous
 62
     5
100
AcDbLine
 10
41.45
 20
-110.075
 30
0.0
 11
41.875
 21
-110.525
 31
0.0
  0
LINE
  5
307
330
1E
100
AcDbEntity
  8
文字
  6
Continuous
 62
     5
100
AcDbLine
 10
41.875
 20
-110.525
 30
0.0
 11
41.875
 21
-111.85
 31
0.0
  0
LINE
  5
308
330
1E
100
AcDbEntity
  8
文字
  6
Continuous
 62
     5
100
AcDbLine
 10
41.875
 20
-110.525
 30
0.0
 11
42.325
 21
-110.075
 31
0.0
  0
LINE
  5
309
330
1E
100
AcDbEntity
  8
文字
  6
Continuous
 62
     5
100
AcDbLine
 10
42.325
 20
-110.075
 30
0.0
 11
42.54999999999999
 21
-110.075
 31
0.0
  0
LINE
  5
30A
330
1E
100
AcDbEntity
  8
文字
  6
Continuous
 62
     5
100
AcDbLine
 10
42.54999999999999
 20
-110.075
 30
0.0
 11
43.0
 21
-110.525
 31
0.0
  0
LINE
  5
30B
330
1E
100
AcDbEntity
  8
文字
  6
Continuous
 62
     5
100
AcDbLine
 10
43.0
 20
-110.525
 30
0.0
 11
43.0
 21
-111.85
 31
0.0
  0
LINE
  5
30C
330
1E
100
AcDbEntity
  8
文字
  6
Continuous
 62
     5
100
AcDbLine
 10
37.20000000000001
 20
-114.175
 30
0.0
 11
37.20000000000001
 21
-116.85
 31
0.0
  0
LINE
  5
30D
330
1E
100
AcDbEntity
  8
文字
  6
Continuous
 62
     5
100
AcDbLine
 10
37.20000000000001
 20
-116.175
 30
0.0
 11
38.75
 21
-115.075
 31
0.0
  0
LINE
  5
30E
330
1E
100
AcDbEntity
  8
文字
  6
Continuous
 62
     5
100
AcDbLine
 10
37.875
 20
-115.725
 30
0.0
 11
38.75
 21
-116.85
 31
0.0
  0
LINE
  5
30F
330
1E
100
AcDbEntity
  8
文字
  6
Continuous
 62
     5
100
AcDbLine
 10
43.0
 20
-115.075
 30
0.0
 11
42.77499999999999
 21
-115.075
 31
0.0
  0
LINE
  5
310
330
1E
100
AcDbEntity
  8
文字
  6
Continuous
 62
     5
100
AcDbLine
 10
42.77499999999999
 20
-115.075
 30
0.0
 11
42.54999999999999
 21
-115.275
 31
0.0
  0
LINE
  5
311
330
1E
100
AcDbEntity
  8
文字
  6
Continuous
 62
     5
100
AcDbLine
 10
42.77499999999999
 20
-116.175
 30
0.0
 11
42.325
 21
-116.625
 31
0.0
  0
LINE
  5
312
330
1E
100
AcDbEntity
  8
文字
  6
Continuous
 62
     5
100
AcDbLine
 10
42.325
 20
-116.625
 30
0.0
 11
41.45
 21
-116.625
 31
0.0
  0
LINE
  5
313
330
1E
100
AcDbEntity
  8
文字
  6
Continuous
 62
     5
100
AcDbLine
 10
41.45
 20
-116.625
 30
0.0
 11
41.0
 21
-116.175
 31
0.0
  0
LINE
  5
314
330
1E
100
AcDbEntity
  8
文字
  6
Continuous
 62
     5
100
AcDbLine
 10
41.0
 20
-116.175
 30
0.0
 11
41.0
 21
-115.525
 31
0.0
  0
LINE
  5
315
330
1E
100
AcDbEntity
  8
文字
  6
Continuous
 62
     5
100
AcDbLine
 10
41.0
 20
-115.525
 30
0.0
 11
41.45
 21
-115.075
 31
0.0
  0
LINE
  5
316
330
1E
100
AcDbEntity
  8
文字
  6
Continuous
 62
     5
100
AcDbLine
 10
41.45
 20
-115.075
 30
0.0
 11
42.325
 21
-115.075
 31
0.0
  0
LINE
  5
317
330
1E
100
AcDbEntity
  8
文字
  6
Continuous
 62
     5
100
AcDbLine
 10
42.325
 20
-115.075
 30
0.0
 11
42.77499999999999
 21
-115.525
 31
0.0
  0
LINE
  5
318
330
1E
100
AcDbEntity
  8
文字
  6
Continuous
 62
     5
100
AcDbLine
 10
42.77499999999999
 20
-115.525
 30
0.0
 11
42.77499999999999
 21
-116.85
 31
0.0
  0
LINE
  5
319
330
1E
100
AcDbEntity
  8
文字
  6
Continuous
 62
     5
100
AcDbLine
 10
42.77499999999999
 20
-116.85
 30
0.0
 11
42.325
 21
-117.3
 31
0.0
  0
LINE
  5
31A
330
1E
100
AcDbEntity
  8
文字
  6
Continuous
 62
     5
100
AcDbLine
 10
42.325
 20
-117.3
 30
0.0
 11
41.45
 21
-117.3
 31
0.0
  0
LINE
  5
31B
330
1E
100
AcDbEntity
  8
文字
  6
Continuous
 62
     5
100
AcDbLine
 10
41.45
 20
-117.3
 30
0.0
 11
41.0
 21
-117.075
 31
0.0
  0
LINE
  5
31C
330
1E
100
AcDbEntity
  8
文字
  6
Continuous
 62
     5
100
AcDbLine
 10
44.325
 20
-117.3
 30
0.0
 11
47.45
 21
-114.175
 31
0.0
  0
LINE
  5
31D
330
1E
100
AcDbEntity
  8
文字
  6
Continuous
 62
     5
100
AcDbLine
 10
50.825
 20
-115.525
 30
0.0
 11
50.375
 21
-115.075
 31
0.0
  0
LINE
  5
31E
330
1E
100
AcDbEntity
  8
文字
  6
Continuous
 62
     5
100
AcDbLine
 10
50.375
 20
-115.075
 30
0.0
 11
49.475
 21
-115.075
 31
0.0
  0
LINE
  5
31F
330
1E
100
AcDbEntity
  8
文字
  6
Continuous
 62
     5
100
AcDbLine
 10
49.475
 20
-115.075
 30
0.0
 11
49.02499999999999
 21
-115.525
 31
0.0
  0
LINE
  5
320
330
1E
100
AcDbEntity
  8
文字
  6
Continuous
 62
     5
100
AcDbLine
 10
49.02499999999999
 20
-115.525
 30
0.0
 11
49.02499999999999
 21
-116.4
 31
0.0
  0
LINE
  5
321
330
1E
100
AcDbEntity
  8
文字
  6
Continuous
 62
     5
100
AcDbLine
 10
49.02499999999999
 20
-116.4
 30
0.0
 11
49.475
 21
-116.85
 31
0.0
  0
LINE
  5
322
330
1E
100
AcDbEntity
  8
文字
  6
Continuous
 62
     5
100
AcDbLine
 10
49.475
 20
-116.85
 30
0.0
 11
50.375
 21
-116.85
 31
0.0
  0
LINE
  5
323
330
1E
100
AcDbEntity
  8
文字
  6
Continuous
 62
     5
100
AcDbLine
 10
50.375
 20
-116.85
 30
0.0
 11
50.825
 21
-116.4
 31
0.0
  0
LINE
  5
324
330
1E
100
AcDbEntity
  8
文字
  6
Continuous
 62
     5
100
AcDbLine
 10
52.6
 20
-115.075
 30
0.0
 11
52.825
 21
-115.075
 31
0.0
  0
LINE
  5
325
330
1E
100
AcDbEntity
  8
文字
  6
Continuous
 62
     5
100
AcDbLine
 10
52.825
 20
-115.075
 30
0.0
 11
52.825
 21
-116.85
 31
0.0
  0
LINE
  5
326
330
1E
100
AcDbEntity
  8
文字
  6
Continuous
 62
     5
100
AcDbLine
 10
52.825
 20
-115.525
 30
0.0
 11
53.25
 21
-115.075
 31
0.0
  0
LINE
  5
327
330
1E
100
AcDbEntity
  8
文字
  6
Continuous
 62
     5
100
AcDbLine
 10
53.25
 20
-115.075
 30
0.0
 11
53.5
 21
-115.075
 31
0.0
  0
LINE
  5
328
330
1E
100
AcDbEntity
  8
文字
  6
Continuous
 62
     5
100
AcDbLine
 10
53.5
 20
-115.075
 30
0.0
 11
53.95
 21
-115.525
 31
0.0
  0
LINE
  5
329
330
1E
100
AcDbEntity
  8
文字
  6
Continuous
 62
     5
100
AcDbLine
 10
53.95
 20
-115.525
 30
0.0
 11
53.95
 21
-116.85
 31
0.0
  0
LINE
  5
32A
330
1E
100
AcDbEntity
  8
文字
  6
Continuous
 62
     5
100
AcDbLine
 10
53.95
 20
-115.525
 30
0.0
 11
54.375
 21
-115.075
 31
0.0
  0
LINE
  5
32B
330
1E
100
AcDbEntity
  8
文字
  6
Continuous
 62
     5
100
AcDbLine
 10
54.375
 20
-115.075
 30
0.0
 11
54.6
 21
-115.075
 31
0.0
  0
LINE
  5
32C
330
1E
100
AcDbEntity
  8
文字
  6
Continuous
 62
     5
100
AcDbLine
 10
54.6
 20
-115.075
 30
0.0
 11
55.04999999999999
 21
-115.525
 31
0.0
  0
LINE
  5
32D
330
1E
100
AcDbEntity
  8
文字
  6
Continuous
 62
     5
100
AcDbLine
 10
55.04999999999999
 20
-115.525
 30
0.0
 11
55.04999999999999
 21
-116.85
 31
0.0
  0
LINE
  5
32E
330
1E
100
AcDbEntity
  8
文字
  6
Continuous
 62
     5
100
AcDbLine
 10
37.20000000000001
 20
-119.175
 30
0.0
 11
37.20000000000001
 21
-121.85
 31
0.0
  0
LINE
  5
32F
330
1E
100
AcDbEntity
  8
文字
  6
Continuous
 62
     5
100
AcDbLine
 10
37.20000000000001
 20
-121.175
 30
0.0
 11
38.75
 21
-120.075
 31
0.0
  0
LINE
  5
330
330
1E
100
AcDbEntity
  8
文字
  6
Continuous
 62
     5
100
AcDbLine
 10
37.875
 20
-120.725
 30
0.0
 11
38.75
 21
-121.85
 31
0.0
  0
LINE
  5
331
330
1E
100
AcDbEntity
  8
文字
  6
Continuous
 62
     5
100
AcDbLine
 10
43.0
 20
-120.075
 30
0.0
 11
42.77499999999999
 21
-120.075
 31
0.0
  0
LINE
  5
332
330
1E
100
AcDbEntity
  8
文字
  6
Continuous
 62
     5
100
AcDbLine
 10
42.77499999999999
 20
-120.075
 30
0.0
 11
42.54999999999999
 21
-120.275
 31
0.0
  0
LINE
  5
333
330
1E
100
AcDbEntity
  8
文字
  6
Continuous
 62
     5
100
AcDbLine
 10
42.77499999999999
 20
-121.175
 30
0.0
 11
42.325
 21
-121.625
 31
0.0
  0
LINE
  5
334
330
1E
100
AcDbEntity
  8
文字
  6
Continuous
 62
     5
100
AcDbLine
 10
42.325
 20
-121.625
 30
0.0
 11
41.45
 21
-121.625
 31
0.0
  0
LINE
  5
335
330
1E
100
AcDbEntity
  8
文字
  6
Continuous
 62
     5
100
AcDbLine
 10
41.45
 20
-121.625
 30
0.0
 11
41.0
 21
-121.175
 31
0.0
  0
LINE
  5
336
330
1E
100
AcDbEntity
  8
文字
  6
Continuous
 62
     5
100
AcDbLine
 10
41.0
 20
-121.175
 30
0.0
 11
41.0
 21
-120.525
 31
0.0
  0
LINE
  5
337
330
1E
100
AcDbEntity
  8
文字
  6
Continuous
 62
     5
100
AcDbLine
 10
41.0
 20
-120.525
 30
0.0
 11
41.45
 21
-120.075
 31
0.0
  0
LINE
  5
338
330
1E
100
AcDbEntity
  8
文字
  6
Continuous
 62
     5
100
AcDbLine
 10
41.45
 20
-120.075
 30
0.0
 11
42.325
 21
-120.075
 31
0.0
  0
LINE
  5
339
330
1E
100
AcDbEntity
  8
文字
  6
Continuous
 62
     5
100
AcDbLine
 10
42.325
 20
-120.075
 30
0.0
 11
42.77499999999999
 21
-120.525
 31
0.0
  0
LINE
  5
33A
330
1E
100
AcDbEntity
  8
文字
  6
Continuous
 62
     5
100
AcDbLine
 10
42.77499999999999
 20
-120.525
 30
0.0
 11
42.77499999999999
 21
-121.85
 31
0.0
  0
LINE
  5
33B
330
1E
100
AcDbEntity
  8
文字
  6
Continuous
 62
     5
100
AcDbLine
 10
42.77499999999999
 20
-121.85
 30
0.0
 11
42.325
 21
-122.3
 31
0.0
  0
LINE
  5
33C
330
1E
100
AcDbEntity
  8
文字
  6
Continuous
 62
     5
100
AcDbLine
 10
41.45
 20
-122.3
 30
0.0
 11
41.0
 21
-122.075
 31
0.0
  0
LINE
  5
33D
330
1E
100
AcDbEntity
  8
文字
  6
Continuous
 62
     5
100
AcDbLine
 10
37.20000000000001
 20
-80.27500000000001
 30
0.0
 11
38.325
 21
-80.27500000000001
 31
0.0
  0
LINE
  5
33E
330
1E
100
AcDbEntity
  8
文字
  6
Continuous
 62
     5
100
AcDbLine
 10
37.625
 20
-79.625
 30
0.0
 11
37.625
 21
-81.62499999999999
 31
0.0
  0
LINE
  5
33F
330
1E
100
AcDbEntity
  8
文字
  6
Continuous
 62
     5
100
AcDbLine
 10
37.625
 20
-81.62499999999999
 30
0.0
 11
37.875
 21
-81.85
 31
0.0
  0
LINE
  5
340
330
1E
100
AcDbEntity
  8
文字
  6
Continuous
 62
     5
100
AcDbLine
 10
37.875
 20
-81.85
 30
0.0
 11
38.325
 21
-81.85
 31
0.0
  0
LINE
  5
341
330
1E
100
AcDbEntity
  8
文字
  6
Continuous
 62
     5
100
AcDbLine
 10
38.325
 20
-81.85
 30
0.0
 11
38.525
 21
-81.62499999999999
 31
0.0
  0
LINE
  5
342
330
1E
100
AcDbEntity
  8
文字
  6
Continuous
 62
     5
100
AcDbLine
 10
38.525
 20
-81.62499999999999
 30
0.0
 11
38.525
 21
-81.17499999999999
 31
0.0
  0
LINE
  5
343
330
1E
100
AcDbEntity
  8
文字
  6
Continuous
 62
     5
100
AcDbLine
 10
41.0
 20
-80.525
 30
0.0
 11
41.45
 21
-80.075
 31
0.0
  0
LINE
  5
344
330
1E
100
AcDbEntity
  8
文字
  6
Continuous
 62
     5
100
AcDbLine
 10
41.45
 20
-80.075
 30
0.0
 11
42.325
 21
-80.075
 31
0.0
  0
LINE
  5
345
330
1E
100
AcDbEntity
  8
文字
  6
Continuous
 62
     5
100
AcDbLine
 10
42.325
 20
-80.075
 30
0.0
 11
42.77499999999999
 21
-80.525
 31
0.0
  0
LINE
  5
346
330
1E
100
AcDbEntity
  8
文字
  6
Continuous
 62
     5
100
AcDbLine
 10
42.77499999999999
 20
-80.525
 30
0.0
 11
42.77499999999999
 21
-81.4
 31
0.0
  0
LINE
  5
347
330
1E
100
AcDbEntity
  8
文字
  6
Continuous
 62
     5
100
AcDbLine
 10
42.77499999999999
 20
-81.4
 30
0.0
 11
42.325
 21
-81.85
 31
0.0
  0
LINE
  5
348
330
1E
100
AcDbEntity
  8
文字
  6
Continuous
 62
     5
100
AcDbLine
 10
42.325
 20
-81.85
 30
0.0
 11
41.45
 21
-81.85
 31
0.0
  0
LINE
  5
349
330
1E
100
AcDbEntity
  8
文字
  6
Continuous
 62
     5
100
AcDbLine
 10
41.45
 20
-81.85
 30
0.0
 11
41.0
 21
-81.4
 31
0.0
  0
LINE
  5
34A
330
1E
100
AcDbEntity
  8
文字
  6
Continuous
 62
     5
100
AcDbLine
 10
41.0
 20
-81.4
 30
0.0
 11
41.0
 21
-80.525
 31
0.0
  0
LINE
  5
34B
330
1E
100
AcDbEntity
  8
文字
  6
Continuous
 62
     5
100
AcDbLine
 10
45.0
 20
-80.075
 30
0.0
 11
45.22499999999999
 21
-80.075
 31
0.0
  0
LINE
  5
34C
330
1E
100
AcDbEntity
  8
文字
  6
Continuous
 62
     5
100
AcDbLine
 10
45.22499999999999
 20
-80.075
 30
0.0
 11
45.22499999999999
 21
-81.85
 31
0.0
  0
LINE
  5
34D
330
1E
100
AcDbEntity
  8
文字
  6
Continuous
 62
     5
100
AcDbLine
 10
45.22499999999999
 20
-80.525
 30
0.0
 11
45.67499999999999
 21
-80.075
 31
0.0
  0
LINE
  5
34E
330
1E
100
AcDbEntity
  8
文字
  6
Continuous
 62
     5
100
AcDbLine
 10
45.67499999999999
 20
-80.075
 30
0.0
 11
46.35
 21
-80.075
 31
0.0
  0
LINE
  5
34F
330
1E
100
AcDbEntity
  8
文字
  6
Continuous
 62
     5
100
AcDbLine
 10
46.35
 20
-80.075
 30
0.0
 11
46.79999999999999
 21
-80.525
 31
0.0
  0
LINE
  5
350
330
1E
100
AcDbEntity
  8
文字
  6
Continuous
 62
     5
100
AcDbLine
 10
46.79999999999999
 20
-80.525
 30
0.0
 11
46.79999999999999
 21
-81.85
 31
0.0
  0
LINE
  5
351
330
1E
100
AcDbEntity
  8
文字
  6
Continuous
 62
     5
100
AcDbLine
 10
41.45
 20
-122.3
 30
0.0
 11
42.325
 21
-122.3
 31
0.0
  0
TEXT
  5
352
330
1E
100
AcDbEntity
  8
文字
 62
     5
100
AcDbText
 10
43.39999999999999
 20
-105.925
 30
0.0
 40
2.5
  1
2
100
AcDbText
  0
TEXT
  5
353
330
1E
100
AcDbEntity
  8
文字
 62
     5
100
AcDbText
 10
55.875
 20
-115.925
 30
0.0
 40
2.5
  1
2
100
AcDbText
  0
TEXT
  5
354
330
1E
100
AcDbEntity
  8
文字
 62
     5
100
AcDbText
 10
-5.572671515898946
 20
-82.34999999999999
 30
0.0
 40
4.0
  1
能    力
100
AcDbText
  0
TEXT
  5
355
330
1E
100
AcDbEntity
  8
文字
 62
     5
100
AcDbText
 10
-6.8375
 20
-87.025
 30
0.0
 40
4.0
  1
ストローク
 41
0.9877232142857145
 72
     5
 11
15.2875
 21
-87.025
 31
0.0
100
AcDbText
  0
TEXT
  5
356
330
1E
100
AcDbEntity
  8
文字
 62
     5
100
AcDbText
 10
-6.105484148252298
 20
-92.34999999999999
 30
0.0
 40
4.0
  1
機    高
100
AcDbText
  0
TEXT
  5
357
330
1E
100
AcDbEntity
  8
文字
 62
     5
100
AcDbText
 10
-5.832828414757386
 20
-97.45
 30
0.0
 40
4.0
  1
外    径
100
AcDbText
  0
TEXT
  5
358
330
1E
100
AcDbEntity
  8
文字
 62
     5
100
AcDbText
 10
-6.613296780605423
 20
-102.6099665292166
 30
0.0
 40
4.0
  1
内    径
100
AcDbText
  0
TEXT
  5
359
330
1E
100
AcDbEntity
  8
文字
 62
     5
100
AcDbText
 10
-8.434391576523694
 20
-107.45
 30
0.0
 40
4.0
  1
受圧面積
 41
1.243566176470588
100
AcDbText
  0
TEXT
  5
35A
330
1E
100
AcDbEntity
  8
文字
 62
     5
100
AcDbText
 10
-7.346110578322305
 20
-112.4449330584331
 30
0.0
 40
4.0
  1
ロッド径
 41
1.220128676470588
100
AcDbText
  0
TEXT
  5
35B
330
1E
100
AcDbEntity
  8
文字
 62
     5
100
AcDbText
 10
-7.625783328928445
 20
-117.275
 30
0.0
 40
4.0
  1
最高使用圧力
 41
0.7900485436893204
 72
     5
 11
14.07421667107155
 21
-117.275
 31
0.0
100
AcDbText
  0
TEXT
  5
35C
330
1E
100
AcDbEntity
  8
文字
 62
     5
100
AcDbText
 10
-7.271110578322304
 20
-122.6599665292165
 30
0.0
 40
4.0
  1
重    量
100
AcDbText
  0
TEXT
  5
35D
330
1E
100
AcDbEntity
  8
文字
100
AcDbText
 10
-112.0
 20
94.15
 30
0.0
 40
5.0
  1
A-A
 41
1.125
100
AcDbText
  0
TEXT
  5
35E
330
1E
100
AcDbEntity
  8
文字
100
AcDbText
 10
104.5
 20
88.125
 30
0.0
 40
5.0
  1
A
 41
1.125
100
AcDbText
  0
TEXT
  5
35F
330
1E
100
AcDbEntity
  8
文字
100
AcDbText
 10
104.5
 20
-66.15000000000001
 30
0.0
 40
5.0
  1
A
 41
1.125
100
AcDbText
  0
TEXT
  5
360
330
1E
100
AcDbEntity
  8
文字
 62
     5
100
AcDbText
 10
123.5
 20
-104.7
 30
0.0
 40
5.0
  1
３０ＴＯＮラムチェアー
 41
0.95
100
AcDbText
  0
LWPOLYLINE
  5
361
330
1E
100
AcDbEntity
  8
ﾚｲﾔ9
100
AcDbPolyline
 90
        3
 70
     0
 43
0.0
 10
-0.31722749999999
 20
-44.51490000000003
 10
7.682772499999918
 20
-44.51490000000003
 10
7.682772499999918
 20
-29.01490000000003
  0
LINE
  5
366
330
1E
100
AcDbEntity
  8
ﾚｲﾔ9
100
AcDbLine
 10
7.682772499999918
 20
-29.01490000000003
 30
0.0
 11
7.682772499999918
 21
13.48510000000005
 31
0.0
  0
LWPOLYLINE
  5
367
330
1E
100
AcDbEntity
  8
ﾚｲﾔ9
100
AcDbPolyline
 90
        3
 70
     0
 43
0.0
 10
-0.31722749999999
 20
71.48510000000006
 10
7.682772499999918
 20
71.48510000000006
 10
7.682772499999918
 20
55.98510000000006
  0
LINE
  5
36C
330
1E
100
AcDbEntity
  8
ﾚｲﾔ9
100
AcDbLine
 10
7.682772499999918
 20
55.98510000000006
 30
0.0
 11
7.682772499999918
 21
13.48510000000005
 31
0.0
  0
LINE
  5
36D
330
1E
100
AcDbEntity
  8
ﾚｲﾔ9
100
AcDbLine
 10
7.682772499999918
 20
55.98510000000006
 30
0.0
 11
159.6827724999999
 21
55.98510000000006
 31
0.0
  0
LINE
  5
36E
330
1E
100
AcDbEntity
  8
ﾚｲﾔ9
100
AcDbLine
 10
7.682772499999918
 20
-29.01490000000003
 30
0.0
 11
159.6827724999999
 21
-29.01490000000003
 31
0.0
  0
INSERT
  5
36F
330
1E
100
AcDbEntity
  8
寸法
100
AcDbBlockReference
  2
*G4
 10
0.0
 20
0.0
 30
0.0
  0
INSERT
  5
371
330
1E
100
AcDbEntity
  8
寸法
100
AcDbBlockReference
  2
*G6
 10
0.0
 20
0.0
 30
0.0
  0
INSERT
  5
372
330
1E
100
AcDbEntity
  8
寸法
100
AcDbBlockReference
  2
*G7
 10
0.0
 20
0.0
 30
0.0
  0
INSERT
  5
373
330
1E
100
AcDbEntity
  8
寸法
100
AcDbBlockReference
  2
*G8
 10
0.0
 20
0.0
 30
0.0
  0
INSERT
  5
374
330
1E
100
AcDbEntity
  8
寸法
100
AcDbBlockReference
  2
*G9
 10
0.0
 20
0.0
 30
0.0
  0
LINE
  5
375
330
1E
100
AcDbEntity
  8
寸法
100
AcDbLine
 10
83.00286250000008
 20
89.19054500000001
 30
0.0
 11
83.00286250000008
 21
81.53151999999991
 31
0.0
  0
INSERT
  5
376
330
1E
100
AcDbEntity
  8
寸法
100
AcDbBlockReference
  2
*G10
 10
0.0
 20
0.0
 30
0.0
  0
LINE
  5
377
330
1E
100
AcDbEntity
  8
寸法
100
AcDbLine
 10
83.00286250000008
 20
-62.22034499999999
 30
0.0
 11
83.00286250000008
 21
-54.56131999999998
 31
0.0
  0
INSERT
  5
378
330
1E
100
AcDbEntity
  8
寸法
100
AcDbBlockReference
  2
*G11
 10
0.0
 20
0.0
 30
0.0
  0
INSERT
  5
379
330
1E
100
AcDbEntity
  8
寸法
100
AcDbBlockReference
  2
*G12
 10
0.0
 20
0.0
 30
0.0
  0
LINE
  5
37A
330
1E
100
AcDbEntity
  8
寸法
  6
ByBlock
100
AcDbLine
 10
-5.317227499999989
 20
71.48510000000006
 30
0.0
 11
-18.37288749999998
 21
71.48510000000006
 31
0.0
  0
LINE
  5
37B
330
1E
100
AcDbEntity
  8
寸法
  6
ByBlock
100
AcDbLine
 10
-18.37288749999998
 20
71.48510000000006
 30
0.0
 11
-18.37288749999998
 21
-43.69419749999997
 31
0.0
  0
LWPOLYLINE
  5
37C
330
1E
100
AcDbEntity
  8
寸法
  6
ByBlock
100
AcDbPolyline
 90
        3
 70
     0
 43
0.0
 10
-17.59642999999996
 20
68.58732249999994
 10
-18.37288749999998
 20
71.48510000000006
 10
-19.14934499999999
 20
68.58732249999994
  0
TEXT
  5
381
330
1E
100
AcDbEntity
  8
寸法
  6
Continuous
100
AcDbText
 10
-19.1
 20
9.799999999999998
 30
0.0
 40
5.0
  1
116
 50
90.0
 41
1.13
100
AcDbText
  0
LINE
  5
382
330
1E
100
AcDbEntity
  8
寸法
  6
ByBlock
100
AcDbLine
 10
-5.317227499999989
 20
-44.51490000000003
 30
0.0
 11
-18.37288749999998
 21
-44.51490000000003
 31
0.0
  0
LWPOLYLINE
  5
383
330
1E
100
AcDbEntity
  8
寸法
  6
ByBlock
100
AcDbPolyline
 90
        3
 70
     0
 43
0.0
 10
-17.59642999999996
 20
-41.6171225
 10
-18.37288749999998
 20
-44.51490000000003
 10
-19.14934499999999
 20
-41.6171225
  0
INSERT
  5
388
330
1E
100
AcDbEntity
  8
ﾊｯﾁﾝｸﾞ
100
AcDbBlockReference
  2
*H0
 10
0.0
 20
0.0
 30
0.0
  0
INSERT
  5
389
330
1E
100
AcDbEntity
  8
ﾊｯﾁﾝｸﾞ
100
AcDbBlockReference
  2
*H1
 10
0.0
 20
0.0
 30
0.0
  0
INSERT
  5
38A
330
1E
100
AcDbEntity
  8
ﾊｯﾁﾝｸﾞ
100
AcDbBlockReference
  2
*H2
 10
0.0
 20
0.0
 30
0.0
  0
INSERT
  5
38B
330
1E
100
AcDbEntity
  8
ﾊｯﾁﾝｸﾞ
100
AcDbBlockReference
  2
*H3
 10
0.0
 20
0.0
 30
0.0
  0
TEXT
  5
38F
330
1E
100
AcDbEntity
  8
文字
 62
     5
100
AcDbText
 10
140.95
 20
-116.8190375937326
 30
0.0
 40
3.0
  1
図
100
AcDbText
  0
TEXT
  5
391
330
1E
100
AcDbEntity
  8
文字
 62
     5
100
AcDbText
 10
115.85
 20
-122.0760019590855
 30
0.0
 40
3.0
  1
重 量
100
AcDbText
  0
DIMENSION
  5
3C2
330
1E
100
AcDbEntity
  8
寸法
100
AcDbDimension
  2
*D14
 10
-58.97753070043371
 20
21.42204435386926
 30
0.0
 11
-78.08159574899947
 21
21.86812271512212
 31
0.0
 70
   163
 71
     5
 42
85.0
  3
Standard
100
AcDbDiametricDimension
 15
-142.4821392995663
 25
5.548155646130851
 35
0.0
 40
0.0
1001
ACAD
1000
DSTYLE
1002
{
1070
    41
1040
3.0
1070
    42
1040
0.5200000000000001
1070
    44
1040
0.5
1070
    73
1070
     0
1070
    74
1070
     0
1070
    77
1070
     1
1070
   140
1040
5.0
1070
   147
1040
0.5
1070
   176
1070
     1
1070
   177
1070
     1
1070
   178
1070
     1
1070
   271
1070
     0
1070
   272
1070
     0
1070
   279
1070
     2
1070
   288
1070
     1
1070
   340
1005
30
1070
   341
1005
3BC
1070
   342
1005
3BC
1070
   371
1070
    -1
1070
   372
1070
    -1
1002
}
  0
ENDSEC
  0
SECTION
  2
OBJECTS
  0
DICTIONARY
  5
C
330
0
100
AcDbDictionary
281
     1
  3
ACAD_COLOR
350
3D1
  3
ACAD_GROUP
350
D
  3
ACAD_LAYOUT
350
19
  3
ACAD_MATERIAL
350
3D0
  3
ACAD_MLINESTYLE
350
16
  3
ACAD_PLOTSETTINGS
350
18
  3
ACAD_PLOTSTYLENAME
350
E
  3
ACDBHEADERROUNDTRIPXREC
350
3D9
  3
AcDbVariableDictionary
350
3D5
  0
DICTIONARY
  5
3D1
102
{ACAD_REACTORS
330
C
102
}
330
C
100
AcDbDictionary
281
     1
  0
DICTIONARY
  5
D
102
{ACAD_REACTORS
330
C
102
}
330
C
100
AcDbDictionary
281
     1
  0
DICTIONARY
  5
19
102
{ACAD_REACTORS
330
C
102
}
330
C
100
AcDbDictionary
281
     1
  3
Model
350
21
  3
ﾚｲｱｳﾄ1
350
1D
  0
DICTIONARY
  5
3D0
102
{ACAD_REACTORS
330
C
102
}
330
C
100
AcDbDictionary
281
     1
  0
DICTIONARY
  5
16
102
{ACAD_REACTORS
330
C
102
}
330
C
100
AcDbDictionary
281
     1
  3
Standard
350
17
  0
DICTIONARY
  5
18
102
{ACAD_REACTORS
330
C
102
}
330
C
100
AcDbDictionary
281
     1
  0
ACDBDICTIONARYWDFLT
  5
E
102
{ACAD_REACTORS
330
C
102
}
330
C
100
AcDbDictionary
281
     1
  3
Normal
350
F
100
AcDbDictionaryWithDefault
340
F
  0
DICTIONARY
  5
3D9
102
{ACAD_REACTORS
330
C
102
}
330
C
100
AcDbDictionary
281
     1
  3
COLORDICT
350
3DB
  3
MATERIALDICT
350
3DA
  0
DICTIONARY
  5
3D5
102
{ACAD_REACTORS
330
C
102
}
330
C
100
AcDbDictionary
281
     1
  3
DIMASSOC
350
3D6
  3
PROJECTNAME
350
3D7
  0
LAYOUT
  5
21
102
{ACAD_XDICTIONARY
360
3DE
102
}
102
{ACAD_REACTORS
330
19
102
}
330
19
100
AcDbPlotSettings
  1

  2
\\SOUKO01\倉庫プリンタ
  4
A3
  6

 40
5.873749732971191
 41
5.873747825622558
 42
5.873748779296875
 43
5.873748779296875
 44
296.9259948730469
 45
419.9466552734374
 46
0.0
 47
2.459999999999999
 48
0.0
 49
0.0
140
0.0
141
0.0
142
1.0
143
1.041516563246305
 70
 11956
 72
     1
 73
     1
 74
     1
  7

 75
     0
147
0.960138355249097
148
210.0128164049387
149
148.5090630292067
100
AcDbLayout
  1
Model
 70
     1
 71
     0
 10
0.0
 20
0.0
 11
12.0
 21
9.0
 12
0.0
 22
0.0
 32
0.0
 14
0.0
 24
0.0
 34
0.0
 15
0.0
 25
0.0
 35
0.0
146
0.0
 13
0.0
 23
0.0
 33
0.0
 16
1.0
 26
0.0
 36
0.0
 17
0.0
 27
1.0
 37
0.0
 76
     0
330
1E
  0
LAYOUT
  5
1D
102
{ACAD_XDICTIONARY
360
3DC
102
}
102
{ACAD_REACTORS
330
19
102
}
330
19
100
AcDbPlotSettings
  1

  2
なし
  4

  6

 40
0.0
 41
0.0
 42
0.0
 43
0.0
 44
0.0
 45
0.0
 46
0.0
 47
0.0
 48
0.0
 49
0.0
140
0.0
141
0.0
142
1.0
143
1.0
 70
   688
 72
     0
 73
     0
 74
     5
  7

 75
    16
147
1.0
148
0.0
149
0.0
100
AcDbLayout
  1
ﾚｲｱｳﾄ1
 70
     1
 71
     1
 10
0.0
 20
0.0
 11
12.0
 21
9.0
 12
0.0
 22
0.0
 32
0.0
 14
1.000000000000000E+20
 24
1.000000000000000E+20
 34
1.000000000000000E+20
 15
-1.000000000000000E+20
 25
-1.000000000000000E+20
 35
-1.000000000000000E+20
146
0.0
 13
0.0
 23
0.0
 33
0.0
 16
1.0
 26
0.0
 36
0.0
 17
0.0
 27
1.0
 37
0.0
 76
     0
330
1A
  0
MLINESTYLE
  5
17
102
{ACAD_REACTORS
330
16
102
}
330
16
100
AcDbMlineStyle
  2
STANDARD
 70
     0
  3

 62
   256
 51
90.0
 52
90.0
 71
     2
 49
0.5
 62
   256
  6
BYLAYER
 49
-0.5
 62
   256
  6
BYLAYER
  0
ACDBPLACEHOLDER
  5
F
102
{ACAD_REACTORS
330
E
102
}
330
E
  0
XRECORD
  5
3DB
102
{ACAD_REACTORS
330
3D9
102
}
330
3D9
100
AcDbXrecord
280
     1
340
3D1
  0
XRECORD
  5
3DA
102
{ACAD_REACTORS
330
3D9
102
}
330
3D9
100
AcDbXrecord
280
     1
340
3D0
  0
DICTIONARYVAR
  5
3D6
102
{ACAD_REACTORS
330
3D5
102
}
330
3D5
100
DictionaryVariables
280
     0
  1
1
  0
DICTIONARYVAR
  5
3D7
102
{ACAD_REACTORS
330
3D5
102
}
330
3D5
100
DictionaryVariables
280
     0
  1

  0
DICTIONARY
  5
3DE
330
21
100
AcDbDictionary
280
     1
281
     1
  3
ACAD_XREC_ROUNDTRIP
360
3DF
  0
DICTIONARY
  5
3DC
330
1D
100
AcDbDictionary
280
     1
281
     1
  3
ACAD_XREC_ROUNDTRIP
360
3DD
  0
XRECORD
  5
3DF
102
{ACAD_REACTORS
330
3DE
102
}
330
3DE
100
AcDbXrecord
280
     1
102
SHADEPLOT
 70
     0
102
SHADEPLOTRESLEVEL
 70
     2
102
SHADEPLOTCUSTOMDPI
 70
   300
  0
XRECORD
  5
3DD
102
{ACAD_REACTORS
330
3DC
102
}
330
3DC
100
AcDbXrecord
280
     1
102
SHADEPLOT
 70
     0
102
SHADEPLOTRESLEVEL
 70
     2
102
SHADEPLOTCUSTOMDPI
 70
   300
  0
ENDSEC
  0
EOF
