  0
SECTION
  2
HEADER
  9
$ACADVER
  1
AC1032
  9
$ACADMAINTVER
 90
        4
  9
$DWGCODEPAGE
  3
ANSI_932
  9
$LASTSAVEDBY
  1
Hiroki Noike
  9
$REQUIREDVERSIONS
160
                 0
  9
$INSBASE
 10
0.0
 20
0.0
 30
0.0
  9
$EXTMIN
 10
39.69100389040591
 20
-2206.40590397108
 30
0.0
  9
$EXTMAX
 10
1964.278474808217
 20
-845.6057960190453
 30
0.0
  9
$LIMMIN
 10
0.0
 20
0.0
  9
$LIMMAX
 10
12.0
 20
9.0
  9
$ORTHOMODE
 70
     1
  9
$REGENMODE
 70
     1
  9
$FILLMODE
 70
     1
  9
$QTEXTMODE
 70
     0
  9
$MIRRTEXT
 70
     1
  9
$LTSCALE
 40
1.0
  9
$ATTMODE
 70
     1
  9
$TEXTSIZE
 40
10.0
  9
$TRACEWID
 40
0.05
  9
$TEXTSTYLE
  7
STANDARD
  9
$CLAYER
  8
寸法
  9
$CELTYPE
  6
ByLayer
  9
$CECOLOR
 62
   256
  9
$CELTSCALE
 40
1.0
  9
$DISPSILH
 70
     0
  9
$DIMSCALE
 40
1.0
  9
$DIMASZ
 40
5.0
  9
$DIMEXO
 40
0.5
  9
$DIMDLI
 40
0.5
  9
$DIMRND
 40
0.0
  9
$DIMDLE
 40
0.0
  9
$DIMEXE
 40
0.5
  9
$DIMTP
 40
0.0
  9
$DIMTM
 40
0.0
  9
$DIMTXT
 40
12.0
  9
$DIMCEN
 40
0.09
  9
$DIMTSZ
 40
0.0
  9
$DIMTOL
 70
     0
  9
$DIMLIM
 70
     0
  9
$DIMTIH
 70
     0
  9
$DIMTOH
 70
     0
  9
$DIMSE1
 70
     0
  9
$DIMSE2
 70
     0
  9
$DIMTAD
 70
     1
  9
$DIMZIN
 70
     0
  9
$DIMBLK
  1
Open30
  9
$DIMASO
 70
     1
  9
$DIMSHO
 70
     1
  9
$DIMPOST
  1

  9
$DIMAPOST
  1

  9
$DIMALT
 70
     0
  9
$DIMALTD
 70
     2
  9
$DIMALTF
 40
25.4
  9
$DIMLFAC
 40
1.0
  9
$DIMTOFL
 70
     0
  9
$DIMTVP
 40
0.0
  9
$DIMTIX
 70
     0
  9
$DIMSOXD
 70
     0
  9
$DIMSAH
 70
     0
  9
$DIMBLK1
  1

  9
$DIMBLK2
  1

  9
$DIMSTYLE
  2
Standard
  9
$DIMCLRD
 70
     1
  9
$DIMCLRE
 70
     1
  9
$DIMCLRT
 70
     1
  9
$DIMTFAC
 40
1.0
  9
$DIMGAP
 40
1.0
  9
$DIMJUST
 70
     0
  9
$DIMSD1
 70
     0
  9
$DIMSD2
 70
     0
  9
$DIMTOLJ
 70
     1
  9
$DIMTZIN
 70
     0
  9
$DIMALTZ
 70
     0
  9
$DIMALTTZ
 70
     0
  9
$DIMUPT
 70
     0
  9
$DIMDEC
 70
     0
  9
$DIMTDEC
 70
     0
  9
$DIMALTU
 70
     2
  9
$DIMALTTD
 70
     2
  9
$DIMTXSTY
  7
STANDARD
  9
$DIMAUNIT
 70
     0
  9
$DIMADEC
 70
     0
  9
$DIMALTRND
 40
0.0
  9
$DIMAZIN
 70
     0
  9
$DIMDSEP
 70
    46
  9
$DIMATFIT
 70
     3
  9
$DIMFRAC
 70
     0
  9
$DIMLDRBLK
  1
Open30
  9
$DIMLUNIT
 70
     2
  9
$DIMLWD
 70
    -2
  9
$DIMLWE
 70
    -2
  9
$DIMTMOVE
 70
     2
  9
$DIMFXL
 40
1.0
  9
$DIMFXLON
 70
     0
  9
$DIMJOGANG
 40
0.7853981633974483
  9
$DIMTFILL
 70
     0
  9
$DIMTFILLCLR
 70
     0
  9
$DIMARCSYM
 70
     0
  9
$DIMLTYPE
  6

  9
$DIMLTEX1
  6

  9
$DIMLTEX2
  6

  9
$DIMTXTDIRECTION
 70
     0
  9
$LUNITS
 70
     2
  9
$LUPREC
 70
     4
  9
$SKETCHINC
 40
0.1
  9
$FILLETRAD
 40
0.0
  9
$AUNITS
 70
     0
  9
$AUPREC
 70
     0
  9
$MENU
  1
acad
  9
$ELEVATION
 40
0.0
  9
$PELEVATION
 40
0.0
  9
$THICKNESS
 40
0.0
  9
$LIMCHECK
 70
     0
  9
$CHAMFERA
 40
0.0
  9
$CHAMFERB
 40
0.0
  9
$CHAMFERC
 40
0.0
  9
$CHAMFERD
 40
0.0
  9
$SKPOLY
 70
     0
  9
$TDCREATE
 40
2449944.925517361
  9
$TDUCREATE
 40
2449944.550517361
  9
$TDUPDATE
 40
2459790.597473518
  9
$TDUUPDATE
 40
2459790.222473518
  9
$TDINDWG
 40
0.0024222685
  9
$TDUSRTIMER
 40
0.0086572222
  9
$USRTIMER
 70
     1
  9
$ANGBASE
 50
0.0
  9
$ANGDIR
 70
     0
  9
$PDMODE
 70
     0
  9
$PDSIZE
 40
15.0
  9
$PLINEWID
 40
0.0
  9
$SPLFRAME
 70
     0
  9
$SPLINETYPE
 70
     6
  9
$SPLINESEGS
 70
     8
  9
$HANDSEED
  5
1252
  9
$SURFTAB1
 70
     6
  9
$SURFTAB2
 70
     6
  9
$SURFTYPE
 70
     6
  9
$SURFU
 70
     6
  9
$SURFV
 70
     6
  9
$UCSBASE
  2

  9
$UCSNAME
  2

  9
$UCSORG
 10
0.0
 20
0.0
 30
0.0
  9
$UCSXDIR
 10
1.0
 20
0.0
 30
0.0
  9
$UCSYDIR
 10
0.0
 20
1.0
 30
0.0
  9
$UCSORTHOREF
  2

  9
$UCSORTHOVIEW
 70
     0
  9
$UCSORGTOP
 10
0.0
 20
0.0
 30
0.0
  9
$UCSORGBOTTOM
 10
0.0
 20
0.0
 30
0.0
  9
$UCSORGLEFT
 10
0.0
 20
0.0
 30
0.0
  9
$UCSORGRIGHT
 10
0.0
 20
0.0
 30
0.0
  9
$UCSORGFRONT
 10
0.0
 20
0.0
 30
0.0
  9
$UCSORGBACK
 10
0.0
 20
0.0
 30
0.0
  9
$PUCSBASE
  2

  9
$PUCSNAME
  2

  9
$PUCSORG
 10
0.0
 20
0.0
 30
0.0
  9
$PUCSXDIR
 10
1.0
 20
0.0
 30
0.0
  9
$PUCSYDIR
 10
0.0
 20
1.0
 30
0.0
  9
$PUCSORTHOREF
  2

  9
$PUCSORTHOVIEW
 70
     0
  9
$PUCSORGTOP
 10
0.0
 20
0.0
 30
0.0
  9
$PUCSORGBOTTOM
 10
0.0
 20
0.0
 30
0.0
  9
$PUCSORGLEFT
 10
0.0
 20
0.0
 30
0.0
  9
$PUCSORGRIGHT
 10
0.0
 20
0.0
 30
0.0
  9
$PUCSORGFRONT
 10
0.0
 20
0.0
 30
0.0
  9
$PUCSORGBACK
 10
0.0
 20
0.0
 30
0.0
  9
$USERI1
 70
     0
  9
$USERI2
 70
     0
  9
$USERI3
 70
     0
  9
$USERI4
 70
     0
  9
$USERI5
 70
     0
  9
$USERR1
 40
0.0
  9
$USERR2
 40
0.0
  9
$USERR3
 40
0.0
  9
$USERR4
 40
0.0
  9
$USERR5
 40
0.0
  9
$WORLDVIEW
 70
     1
  9
$SHADEDGE
 70
     3
  9
$SHADEDIF
 70
    70
  9
$TILEMODE
 70
     1
  9
$MAXACTVP
 70
    16
  9
$PINSBASE
 10
0.0
 20
0.0
 30
0.0
  9
$PLIMCHECK
 70
     0
  9
$PEXTMIN
 10
1.000000000000000E+20
 20
1.000000000000000E+20
 30
1.000000000000000E+20
  9
$PEXTMAX
 10
-1.000000000000000E+20
 20
-1.000000000000000E+20
 30
-1.000000000000000E+20
  9
$PLIMMIN
 10
0.0
 20
0.0
  9
$PLIMMAX
 10
0.0
 20
0.0
  9
$UNITMODE
 70
     0
  9
$VISRETAIN
 70
     0
  9
$PLINEGEN
 70
     0
  9
$PSLTSCALE
 70
     1
  9
$TREEDEPTH
 70
  3020
  9
$CMLSTYLE
  2
Standard
  9
$CMLJUST
 70
     0
  9
$CMLSCALE
 40
1.0
  9
$PROXYGRAPHICS
 70
     1
  9
$MEASUREMENT
 70
     0
  9
$CELWEIGHT
370
    -1
  9
$ENDCAPS
280
     0
  9
$JOINSTYLE
280
     0
  9
$LWDISPLAY
290
     0
  9
$INSUNITS
 70
     0
  9
$HYPERLINKBASE
  1

  9
$STYLESHEET
  1

  9
$XEDIT
290
     1
  9
$CEPSNTYPE
380
     0
  9
$PSTYLEMODE
290
     1
  9
$FINGERPRINTGUID
  2
{4EEFAF9E-2078-4EA8-8DF1-1A24A2783B43}
  9
$VERSIONGUID
  2
{B7C76C62-5758-445C-8C8C-93C2ACBA6380}
  9
$EXTNAMES
290
     1
  9
$PSVPSCALE
 40
0.0
  9
$OLESTARTUP
290
     0
  9
$SORTENTS
280
   127
  9
$INDEXCTL
280
     0
  9
$HIDETEXT
280
     1
  9
$XCLIPFRAME
280
     2
  9
$HALOGAP
280
     0
  9
$OBSCOLOR
 70
   257
  9
$OBSLTYPE
280
     0
  9
$INTERSECTIONDISPLAY
280
     0
  9
$INTERSECTIONCOLOR
 70
   257
  9
$DIMASSOC
280
     1
  9
$PROJECTNAME
  1

  9
$CAMERADISPLAY
290
     0
  9
$LENSLENGTH
 40
50.0
  9
$CAMERAHEIGHT
 40
0.0
  9
$STEPSPERSEC
 40
2.0
  9
$STEPSIZE
 40
6.0
  9
$3DDWFPREC
 40
2.0
  9
$PSOLWIDTH
 40
0.25
  9
$PSOLHEIGHT
 40
4.0
  9
$LOFTANG1
 40
1.570796326794897
  9
$LOFTANG2
 40
1.570796326794897
  9
$LOFTMAG1
 40
0.0
  9
$LOFTMAG2
 40
0.0
  9
$LOFTPARAM
 70
     7
  9
$LOFTNORMALS
280
     1
  9
$LATITUDE
 40
37.795
  9
$LONGITUDE
 40
-122.394
  9
$NORTHDIRECTION
 40
0.0
  9
$TIMEZONE
 70
 -8000
  9
$LIGHTGLYPHDISPLAY
280
     1
  9
$TILEMODELIGHTSYNCH
280
     1
  9
$SOLIDHIST
280
     0
  9
$SHOWHIST
280
     1
  9
$DWFFRAME
280
     2
  9
$DGNFRAME
280
     2
  9
$REALWORLDSCALE
290
     1
  9
$INTERFERECOLOR
 62
   256
  9
$CSHADOW
280
     0
  9
$SHADOWPLANELOCATION
 40
0.0
  0
ENDSEC
  0
SECTION
  2
CLASSES
  0
CLASS
  1
ACDBDICTIONARYWDFLT
  2
AcDbDictionaryWithDefault
  3
ObjectDBX Classes
 90
        0
 91
        3
280
     0
281
     0
  0
CLASS
  1
ACDBPLACEHOLDER
  2
AcDbPlaceHolder
  3
ObjectDBX Classes
 90
        0
 91
        1
280
     0
281
     0
  0
CLASS
  1
LAYOUT
  2
AcDbLayout
  3
ObjectDBX Classes
 90
        0
 91
        1
280
     0
281
     0
  0
CLASS
  1
DICTIONARYVAR
  2
AcDbDictionaryVar
  3
ObjectDBX Classes
 90
        0
 91
        3
280
     0
281
     0
  0
CLASS
  1
SCALE
  2
AcDbScale
  3
ObjectDBX Classes
 90
     1153
 91
        3
280
     0
281
     0
  0
CLASS
  1
VISUALSTYLE
  2
AcDbVisualStyle
  3
ObjectDBX Classes
 90
     4095
 91
        3
280
     0
281
     0
  0
CLASS
  1
MATERIAL
  2
AcDbMaterial
  3
ObjectDBX Classes
 90
     1153
 91
        3
280
     0
281
     0
  0
CLASS
  1
TABLESTYLE
  2
AcDbTableStyle
  3
ObjectDBX Classes
 90
     4095
 91
        3
280
     0
281
     0
  0
CLASS
  1
MLEADERSTYLE
  2
AcDbMLeaderStyle
  3
ACDB_MLEADERSTYLE_CLASS
 90
     4095
 91
        3
280
     0
281
     0
  0
CLASS
  1
BREAKDATA
  2
AcDbBreakData
  3
ObjectDBX Classes
 90
     1024
 91
        3
280
     0
281
     0
  0
CLASS
  1
CELLSTYLEMAP
  2
AcDbCellStyleMap
  3
ObjectDBX Classes
 90
     1152
 91
        3
280
     0
281
     0
  0
ENDSEC
  0
SECTION
  2
TABLES
  0
TABLE
  2
VPORT
  5
8
330
0
100
AcDbSymbolTable
 70
     1
  0
VPORT
  5
5D3
330
8
100
AcDbSymbolTableRecord
100
AcDbViewportTableRecord
  2
*Active
 70
     0
 10
0.0
 20
0.0
 11
1.0
 21
1.0
 12
1699.28689871823
 22
-1871.477449444287
 13
0.0
 23
0.0
 14
1.0
 24
1.0
 15
0.0
 25
0.0
 16
0.0
 26
0.0
 36
1.0
 17
0.0
 27
0.0
 37
0.0
 40
2636.802225786353
 41
2.082079343365253
 42
50.0
 43
0.0
 44
0.0
 50
0.0
 51
0.0
 71
    16
 72
   100
 73
     1
 74
     0
 75
     0
 76
     0
 77
     0
 78
     0
281
     0
 65
     1
110
0.0
120
0.0
130
0.0
111
1.0
121
0.0
131
0.0
112
0.0
122
1.0
132
0.0
 79
     0
146
0.0
348
B3B
 60
     3
 61
     5
292
     1
282
     1
141
0.0
142
0.0
 63
   256
  0
ENDTAB
  0
TABLE
  2
LTYPE
  5
5
330
0
100
AcDbSymbolTable
 70
    11
  0
LTYPE
  5
13
330
5
100
AcDbSymbolTableRecord
100
AcDbLinetypeTableRecord
  2
ByBlock
 70
     0
  3

 72
    65
 73
     0
 40
0.0
  0
LTYPE
  5
14
330
5
100
AcDbSymbolTableRecord
100
AcDbLinetypeTableRecord
  2
ByLayer
 70
     0
  3

 72
    65
 73
     0
 40
0.0
  0
LTYPE
  5
15
330
5
100
AcDbSymbolTableRecord
100
AcDbLinetypeTableRecord
  2
CONTINUOUS
 70
     0
  3
実線
 72
    65
 73
     0
 40
0.0
  0
LTYPE
  5
31
330
5
100
AcDbSymbolTableRecord
100
AcDbLinetypeTableRecord
  2
DASHED
 70
     0
  3
破線A
 72
    65
 73
     2
 40
74.99999999999999
 49
50.0
 74
     0
 49
-25.0
 74
     0
  0
LTYPE
  5
32
330
5
100
AcDbSymbolTableRecord
100
AcDbLinetypeTableRecord
  2
DASHEDX2
 70
     0
  3
破線B
 72
    65
 73
     2
 40
150.0
 49
100.0
 74
     0
 49
-50.0
 74
     0
  0
LTYPE
  5
33
330
5
100
AcDbSymbolTableRecord
100
AcDbLinetypeTableRecord
  2
DASHDOT
 70
     0
  3
１点鎖線A
 72
    65
 73
     4
 40
100.0
 49
50.0
 74
     0
 49
-25.0
 74
     0
 49
0.0
 74
     0
 49
-25.0
 74
     0
  0
LTYPE
  5
34
330
5
100
AcDbSymbolTableRecord
100
AcDbLinetypeTableRecord
  2
DASHDOTX2
 70
     0
  3
１点鎖線B
 72
    65
 73
     4
 40
200.0
 49
100.0
 74
     0
 49
-50.0
 74
     0
 49
0.0
 74
     0
 49
-50.0
 74
     0
  0
LTYPE
  5
35
330
5
100
AcDbSymbolTableRecord
100
AcDbLinetypeTableRecord
  2
DIVIDE2
 70
     0
  3
２点鎖線A
 72
    65
 73
     6
 40
62.49999999999999
 49
25.0
 74
     0
 49
-12.5
 74
     0
 49
0.0
 74
     0
 49
-12.5
 74
     0
 49
0.0
 74
     0
 49
-12.5
 74
     0
  0
LTYPE
  5
36
330
5
100
AcDbSymbolTableRecord
100
AcDbLinetypeTableRecord
  2
DIVIDE
 70
     0
  3
２点鎖線B
 72
    65
 73
     6
 40
125.0
 49
50.0
 74
     0
 49
-25.0
 74
     0
 49
0.0
 74
     0
 49
-25.0
 74
     0
 49
0.0
 74
     0
 49
-25.0
 74
     0
  0
LTYPE
  5
37
330
5
100
AcDbSymbolTableRecord
100
AcDbLinetypeTableRecord
  2
DOT
 70
     0
  3
点線A
 72
    65
 73
     2
 40
25.0
 49
0.0
 74
     0
 49
-25.0
 74
     0
  0
LTYPE
  5
38
330
5
100
AcDbSymbolTableRecord
100
AcDbLinetypeTableRecord
  2
DOTX2
 70
     0
  3
点線B
 72
    65
 73
     2
 40
50.0
 49
0.0
 74
     0
 49
-50.0
 74
     0
  0
LTYPE
  5
627
330
5
100
AcDbSymbolTableRecord
100
AcDbLinetypeTableRecord
  2
CENTER1
 70
     0
  3
----- - ----- - ----- - ----- - 
 72
    65
 73
     4
 40
10.0
 49
6.25
 74
     0
 49
-1.25
 74
     0
 49
1.25
 74
     0
 49
-1.25
 74
     0
  0
LTYPE
  5
B5A
330
5
100
AcDbSymbolTableRecord
100
AcDbLinetypeTableRecord
  2
CENTER2
 70
     0
  3
Center (.5x) ___ _ ___ _ ___ _ ___ _ ___ _ ___
 72
    65
 73
     4
 40
28.57499999999999
 49
19.05
 74
     0
 49
-3.174999999999999
 74
     0
 49
3.174999999999999
 74
     0
 49
-3.174999999999999
 74
     0
  0
ENDTAB
  0
TABLE
  2
LAYER
  5
2
102
{ACAD_XDICTIONARY
360
750
102
}
330
0
100
AcDbSymbolTable
 70
    17
  0
LAYER
  5
10
330
2
100
AcDbSymbolTableRecord
100
AcDbLayerTableRecord
  2
ﾚｲﾔ1
 70
     0
 62
     7
  6
CONTINUOUS
370
    -3
390
F
347
B52
348
0
  0
LAYER
  5
44
330
2
100
AcDbSymbolTableRecord
100
AcDbLayerTableRecord
  2
枠
 70
     0
 62
     5
  6
CONTINUOUS
370
    -3
390
F
347
B52
348
0
  0
LAYER
  5
4D
330
2
100
AcDbSymbolTableRecord
100
AcDbLayerTableRecord
  2
寸法
 70
     0
 62
     1
  6
CONTINUOUS
370
    -3
390
F
347
B52
348
0
  0
LAYER
  5
52
330
2
100
AcDbSymbolTableRecord
100
AcDbLayerTableRecord
  2
0
 70
     0
 62
     7
  6
CONTINUOUS
370
    -3
390
F
347
B52
348
0
  0
LAYER
  5
52B
330
2
100
AcDbSymbolTableRecord
100
AcDbLayerTableRecord
  2
下図
 70
     0
 62
     8
  6
CONTINUOUS
290
     0
370
    -3
390
F
347
B52
348
0
  0
LAYER
  5
54A
330
2
100
AcDbSymbolTableRecord
100
AcDbLayerTableRecord
  2
Defpoints
 70
     0
 62
     7
  6
CONTINUOUS
290
     0
370
    -3
390
F
347
B52
348
0
  0
LAYER
  5
621
330
2
100
AcDbSymbolTableRecord
100
AcDbLayerTableRecord
  2
図面枠
 70
     0
 62
     5
  6
CONTINUOUS
370
    -3
390
F
347
B52
348
0
  0
LAYER
  5
624
330
2
100
AcDbSymbolTableRecord
100
AcDbLayerTableRecord
  2
隠れ線
 70
     0
 62
     1
  6
DASHED
370
    -3
390
F
347
B52
348
0
  0
LAYER
  5
A1D
330
2
100
AcDbSymbolTableRecord
100
AcDbLayerTableRecord
  2
LEVEL003
 70
     0
 62
     1
  6
CONTINUOUS
370
    -3
390
F
347
B52
348
0
  0
LAYER
  5
A1F
330
2
100
AcDbSymbolTableRecord
100
AcDbLayerTableRecord
  2
LEVEL020
 70
     0
 62
     7
  6
CONTINUOUS
370
    -3
390
F
347
B52
348
0
  0
LAYER
  5
B58
330
2
100
AcDbSymbolTableRecord
100
AcDbLayerTableRecord
  2
CEN
 70
     0
 62
     1
  6
CENTER2
370
    -3
390
F
347
B52
348
0
  0
LAYER
  5
B5B
330
2
100
AcDbSymbolTableRecord
100
AcDbLayerTableRecord
  2
DIM
 70
     0
 62
     2
  6
CONTINUOUS
370
    -3
390
F
347
B52
348
0
  0
LAYER
  5
B5C
330
2
100
AcDbSymbolTableRecord
100
AcDbLayerTableRecord
  2
L1
 70
     0
 62
     7
  6
CONTINUOUS
370
    -3
390
F
347
B52
348
0
  0
LAYER
  5
B5D
330
2
100
AcDbSymbolTableRecord
100
AcDbLayerTableRecord
  2
L2
 70
     0
 62
     5
  6
CONTINUOUS
370
    -3
390
F
347
B52
348
0
  0
LAYER
  5
B5E
330
2
100
AcDbSymbolTableRecord
100
AcDbLayerTableRecord
  2
WAKU1
 70
     0
 62
     9
  6
CONTINUOUS
370
    -3
390
F
347
B52
348
0
  0
LAYER
  5
B5F
330
2
100
AcDbSymbolTableRecord
100
AcDbLayerTableRecord
  2
WAKU2
 70
     0
 62
     2
  6
CONTINUOUS
370
    -3
390
F
347
B52
348
0
  0
LAYER
  5
B60
330
2
100
AcDbSymbolTableRecord
100
AcDbLayerTableRecord
  2
TX
 70
     0
 62
     3
  6
CONTINUOUS
370
    -3
390
F
347
B52
348
0
  0
ENDTAB
  0
TABLE
  2
STYLE
  5
3
330
0
100
AcDbSymbolTable
 70
    13
  0
STYLE
  5
11
330
3
100
AcDbSymbolTableRecord
100
AcDbTextStyleTableRecord
  2
STANDARD
 70
     0
 40
10.0
 41
1.0
 50
0.0
 71
     0
 42
10.0
  3
TXT
  4
BIGFONT
  0
STYLE
  5
26
330
3
100
AcDbSymbolTableRecord
100
AcDbTextStyleTableRecord
  2
TATE
 70
     4
 40
10.0
 41
1.0
 50
0.0
 71
     0
 42
10.0
  3
TXT
  4
BIGFONT
  0
STYLE
  5
27
330
3
100
AcDbSymbolTableRecord
100
AcDbTextStyleTableRecord
  2
TextStyle01
 70
     0
 40
0.0
 41
1.0
 50
0.0
 71
     0
 42
0.0
  3
TXT
  4
BIGFONT
  0
STYLE
  5
28
330
3
100
AcDbSymbolTableRecord
100
AcDbTextStyleTableRecord
  2
TextStyle02
 70
     0
 40
0.0
 41
1.0
 50
0.0
 71
     0
 42
0.0
  3
TXT
  4
BIGFONT
  0
STYLE
  5
29
330
3
100
AcDbSymbolTableRecord
100
AcDbTextStyleTableRecord
  2
TextStyle03
 70
     0
 40
0.0
 41
1.0
 50
0.0
 71
     0
 42
0.0
  3
TXT
  4
BIGFONT
  0
STYLE
  5
2A
330
3
100
AcDbSymbolTableRecord
100
AcDbTextStyleTableRecord
  2
TextStyle04
 70
     0
 40
0.0
 41
1.0
 50
0.0
 71
     0
 42
0.0
  3
TXT
  4
BIGFONT
  0
STYLE
  5
2B
330
3
100
AcDbSymbolTableRecord
100
AcDbTextStyleTableRecord
  2
TextStyle05
 70
     0
 40
0.0
 41
1.0
 50
0.0
 71
     0
 42
0.0
  3
TXT
  4
BIGFONT
  0
STYLE
  5
2C
330
3
100
AcDbSymbolTableRecord
100
AcDbTextStyleTableRecord
  2
TextStyle06
 70
     0
 40
0.0
 41
1.0
 50
0.0
 71
     0
 42
0.0
  3

  4

  0
STYLE
  5
2D
330
3
100
AcDbSymbolTableRecord
100
AcDbTextStyleTableRecord
  2
TextStyle07
 70
     0
 40
0.0
 41
1.0
 50
0.0
 71
     0
 42
0.0
  3

  4

  0
STYLE
  5
2E
330
3
100
AcDbSymbolTableRecord
100
AcDbTextStyleTableRecord
  2
TextStyle08
 70
     0
 40
0.0
 41
1.0
 50
0.0
 71
     0
 42
0.0
  3

  4

  0
STYLE
  5
2F
330
3
100
AcDbSymbolTableRecord
100
AcDbTextStyleTableRecord
  2
TextStyle09
 70
     0
 40
0.0
 41
1.0
 50
0.0
 71
     0
 42
0.0
  3

  4

  0
STYLE
  5
30
330
3
100
AcDbSymbolTableRecord
100
AcDbTextStyleTableRecord
  2
TextStyle10
 70
     0
 40
0.0
 41
1.0
 50
0.0
 71
     0
 42
0.0
  3

  4

  0
STYLE
  5
62B
330
3
100
AcDbSymbolTableRecord
100
AcDbTextStyleTableRecord
  2
DIMFONT1
 70
     0
 40
0.0
 41
1.193548387096774
 50
0.0
 71
     0
 42
10.0
  3
msgothic.ttc
  4

1001
ACAD
1000
MS PGothic
1071
    32818
  0
ENDTAB
  0
TABLE
  2
VIEW
  5
6
330
0
100
AcDbSymbolTable
 70
     0
  0
ENDTAB
  0
TABLE
  2
UCS
  5
7
330
0
100
AcDbSymbolTable
 70
     0
  0
ENDTAB
  0
TABLE
  2
APPID
  5
9
330
0
100
AcDbSymbolTable
 70
     5
  0
APPID
  5
12
330
9
100
AcDbSymbolTableRecord
100
AcDbRegAppTableRecord
  2
ACAD
 70
     0
  0
APPID
  5
A95
330
9
100
AcDbSymbolTableRecord
100
AcDbRegAppTableRecord
  2
ENABLE_CUSTOM_SPLIT
 70
     0
  0
APPID
  5
A98
330
9
100
AcDbSymbolTableRecord
100
AcDbRegAppTableRecord
  2
PLOTTRANSPARENCY
 70
     0
  0
APPID
  5
11EC
330
9
100
AcDbSymbolTableRecord
100
AcDbRegAppTableRecord
  2
FX_DIMP_FAV_VERSION
 70
     0
  0
APPID
  5
121B
330
9
100
AcDbSymbolTableRecord
100
AcDbRegAppTableRecord
  2
FX_DIMP_RECENT_VERSION
 70
     0
  0
ENDTAB
  0
TABLE
  2
DIMSTYLE
  5
A
330
0
100
AcDbSymbolTable
 70
     4
100
AcDbDimStyleTable
  0
DIMSTYLE
105
507
102
{ACAD_REACTORS
330
11ED
330
11FC
330
120B
330
121D
330
122D
330
123C
102
}
330
A
100
AcDbSymbolTableRecord
100
AcDbDimStyleTableRecord
  2
Standard
 70
     0
178
     0
340
11
  0
DIMSTYLE
105
62A
330
A
100
AcDbSymbolTableRecord
100
AcDbDimStyleTableRecord
  2
DIM001
 70
     0
 40
10.0
 41
1.0
 42
0.0
 44
1.0
 45
1.0
 73
     0
 74
     0
 77
     3
140
1.216216216216216
147
0.2
172
     1
176
     7
177
     7
271
     0
178
     7
271
     0
273
     6
340
62B
  0
DIMSTYLE
105
62C
330
A
100
AcDbSymbolTableRecord
100
AcDbDimStyleTableRecord
  2
DIM002
 70
     0
 40
10.0
 41
1.0
 42
0.0
 44
0.0
 45
1.0
 73
     0
 74
     0
 77
     3
140
1.216216216216216
147
0.2
172
     1
176
     7
177
     7
271
     0
178
     7
271
     0
273
     6
340
62B
  0
DIMSTYLE
105
B6A
102
{ACAD_REACTORS
330
BBC
330
BC9
330
C8B
330
C9B
330
CF7
330
D04
102
}
330
A
100
AcDbSymbolTableRecord
100
AcDbDimStyleTableRecord
  2
STANDARD-004
 70
     0
 40
4.0
 41
3.0
 42
1.25
 43
10.0
 44
0.75
 73
     0
 74
     0
 77
     3
 78
     8
140
4.5
141
0.0
147
0.5
172
     1
176
     2
177
     2
271
     3
178
     3
271
     3
272
     3
279
     2
340
11
341
B63
342
B63
  0
ENDTAB
  0
TABLE
  2
BLOCK_RECORD
  5
1
330
0
100
AcDbSymbolTable
 70
    38
  0
BLOCK_RECORD
  5
1E
102
{ACAD_XDICTIONARY
360
B33
102
}
330
1
100
AcDbSymbolTableRecord
100
AcDbBlockTableRecord
  2
*Model_Space
340
21
 70
     0
280
     1
281
     0
  0
BLOCK_RECORD
  5
1A
330
1
100
AcDbSymbolTableRecord
100
AcDbBlockTableRecord
  2
*Paper_Space
340
1D
 70
     0
280
     1
281
     0
  0
BLOCK_RECORD
  5
543
330
1
100
AcDbSymbolTableRecord
100
AcDbBlockTableRecord
  2
_Open30
340
0
102
{BLKREFS
331
55A
331
55B
331
570
331
571
331
586
331
587
331
59C
331
59D
331
A8D
331
A8E
331
11F5
331
11F4
331
1204
331
1203
331
1213
331
1212
331
1225
331
1224
331
1235
331
1234
331
1244
331
1243
102
}
 70
     0
280
     1
281
     0
  0
BLOCK_RECORD
  5
54B
330
1
100
AcDbSymbolTableRecord
100
AcDbBlockTableRecord
  2
*D1
340
0
 70
     0
280
     1
281
     0
  0
BLOCK_RECORD
  5
561
330
1
100
AcDbSymbolTableRecord
100
AcDbBlockTableRecord
  2
*D2
340
0
 70
     0
280
     1
281
     0
  0
BLOCK_RECORD
  5
577
330
1
100
AcDbSymbolTableRecord
100
AcDbBlockTableRecord
  2
*D3
340
0
 70
     0
280
     1
281
     0
  0
BLOCK_RECORD
  5
58D
330
1
100
AcDbSymbolTableRecord
100
AcDbBlockTableRecord
  2
*D4
340
0
 70
     0
280
     1
281
     0
  0
BLOCK_RECORD
  5
636
330
1
100
AcDbSymbolTableRecord
100
AcDbBlockTableRecord
  2
*D5
340
0
 70
     0
280
     1
281
     0
  0
BLOCK_RECORD
  5
649
330
1
100
AcDbSymbolTableRecord
100
AcDbBlockTableRecord
  2
*D6
340
0
 70
     0
280
     1
281
     0
  0
BLOCK_RECORD
  5
656
330
1
100
AcDbSymbolTableRecord
100
AcDbBlockTableRecord
  2
*D7
340
0
 70
     0
280
     1
281
     0
  0
BLOCK_RECORD
  5
663
330
1
100
AcDbSymbolTableRecord
100
AcDbBlockTableRecord
  2
*D8
340
0
 70
     0
280
     1
281
     0
  0
BLOCK_RECORD
  5
670
330
1
100
AcDbSymbolTableRecord
100
AcDbBlockTableRecord
  2
*D9
340
0
 70
     0
280
     1
281
     0
  0
BLOCK_RECORD
  5
691
330
1
100
AcDbSymbolTableRecord
100
AcDbBlockTableRecord
  2
A$C031367A2
340
0
 70
     0
280
     1
281
     0
  0
BLOCK_RECORD
  5
6DC
330
1
100
AcDbSymbolTableRecord
100
AcDbBlockTableRecord
  2
*D11
340
0
 70
     0
280
     1
281
     0
  0
BLOCK_RECORD
  5
814
330
1
100
AcDbSymbolTableRecord
100
AcDbBlockTableRecord
  2
*D12
340
0
 70
     0
280
     1
281
     0
  0
BLOCK_RECORD
  5
820
330
1
100
AcDbSymbolTableRecord
100
AcDbBlockTableRecord
  2
*D13
340
0
 70
     0
280
     1
281
     0
  0
BLOCK_RECORD
  5
82C
330
1
100
AcDbSymbolTableRecord
100
AcDbBlockTableRecord
  2
*D14
340
0
 70
     0
280
     1
281
     0
  0
BLOCK_RECORD
  5
838
330
1
100
AcDbSymbolTableRecord
100
AcDbBlockTableRecord
  2
*D15
340
0
 70
     0
280
     1
281
     0
  0
BLOCK_RECORD
  5
844
330
1
100
AcDbSymbolTableRecord
100
AcDbBlockTableRecord
  2
*D16
340
0
 70
     0
280
     1
281
     0
  0
BLOCK_RECORD
  5
850
330
1
100
AcDbSymbolTableRecord
100
AcDbBlockTableRecord
  2
*D17
340
0
 70
     0
280
     1
281
     0
  0
BLOCK_RECORD
  5
A87
330
1
100
AcDbSymbolTableRecord
100
AcDbBlockTableRecord
  2
*D18
340
0
 70
     0
280
     1
281
     0
  0
BLOCK_RECORD
  5
B63
330
1
100
AcDbSymbolTableRecord
100
AcDbBlockTableRecord
  2
_OPEN
340
0
102
{BLKREFS
331
BC2
331
BC3
331
BCF
331
BD0
331
C91
331
C92
331
CA1
331
CA2
331
CFD
331
CFE
331
D0A
331
D0B
331
11A9
331
11AA
331
11B5
331
11B6
331
11C1
331
11C2
331
11CD
331
11CE
331
11D9
331
11DA
331
11E5
331
11E6
102
}
 70
     0
280
     1
281
     0
  0
BLOCK_RECORD
  5
BBD
330
1
100
AcDbSymbolTableRecord
100
AcDbBlockTableRecord
  2
*D21
340
0
 70
     0
280
     1
281
     0
  0
BLOCK_RECORD
  5
BCA
330
1
100
AcDbSymbolTableRecord
100
AcDbBlockTableRecord
  2
*D22
340
0
 70
     0
280
     1
281
     0
  0
BLOCK_RECORD
  5
C8C
330
1
100
AcDbSymbolTableRecord
100
AcDbBlockTableRecord
  2
*D23
340
0
 70
     0
280
     1
281
     0
  0
BLOCK_RECORD
  5
C9C
330
1
100
AcDbSymbolTableRecord
100
AcDbBlockTableRecord
  2
*D24
340
0
 70
     0
280
     1
281
     0
  0
BLOCK_RECORD
  5
CF8
330
1
100
AcDbSymbolTableRecord
100
AcDbBlockTableRecord
  2
*D25
340
0
 70
     0
280
     1
281
     0
  0
BLOCK_RECORD
  5
D05
330
1
100
AcDbSymbolTableRecord
100
AcDbBlockTableRecord
  2
*D26
340
0
 70
     0
280
     1
281
     0
  0
BLOCK_RECORD
  5
11A3
330
1
100
AcDbSymbolTableRecord
100
AcDbBlockTableRecord
  2
*D27
340
0
 70
     0
280
     1
281
     0
  0
BLOCK_RECORD
  5
11AF
330
1
100
AcDbSymbolTableRecord
100
AcDbBlockTableRecord
  2
*D28
340
0
 70
     0
280
     1
281
     0
  0
BLOCK_RECORD
  5
11BB
330
1
100
AcDbSymbolTableRecord
100
AcDbBlockTableRecord
  2
*D29
340
0
 70
     0
280
     1
281
     0
  0
BLOCK_RECORD
  5
11C7
330
1
100
AcDbSymbolTableRecord
100
AcDbBlockTableRecord
  2
*D30
340
0
 70
     0
280
     1
281
     0
  0
BLOCK_RECORD
  5
11D3
330
1
100
AcDbSymbolTableRecord
100
AcDbBlockTableRecord
  2
*D31
340
0
 70
     0
280
     1
281
     0
  0
BLOCK_RECORD
  5
11DF
330
1
100
AcDbSymbolTableRecord
100
AcDbBlockTableRecord
  2
*D32
340
0
 70
     0
280
     1
281
     0
  0
BLOCK_RECORD
  5
11EE
330
1
100
AcDbSymbolTableRecord
100
AcDbBlockTableRecord
  2
*D33
340
0
 70
     0
280
     1
281
     0
  0
BLOCK_RECORD
  5
11FD
330
1
100
AcDbSymbolTableRecord
100
AcDbBlockTableRecord
  2
*D34
340
0
 70
     0
280
     1
281
     0
  0
BLOCK_RECORD
  5
120C
330
1
100
AcDbSymbolTableRecord
100
AcDbBlockTableRecord
  2
*D35
340
0
 70
     0
280
     1
281
     0
  0
BLOCK_RECORD
  5
121E
330
1
100
AcDbSymbolTableRecord
100
AcDbBlockTableRecord
  2
*D36
340
0
 70
     0
280
     1
281
     0
  0
BLOCK_RECORD
  5
122E
330
1
100
AcDbSymbolTableRecord
100
AcDbBlockTableRecord
  2
*D37
340
0
 70
     0
280
     1
281
     0
  0
BLOCK_RECORD
  5
123D
330
1
100
AcDbSymbolTableRecord
100
AcDbBlockTableRecord
  2
*D38
340
0
 70
     0
280
     1
281
     0
  0
ENDTAB
  0
ENDSEC
  0
SECTION
  2
BLOCKS
  0
BLOCK
  5
55
330
1E
100
AcDbEntity
  8
0
100
AcDbBlockBegin
  2
*Model_Space
 70
     0
 10
0.0
 20
0.0
 30
0.0
  3
*Model_Space
  1

  0
ENDBLK
  5
56
330
1E
100
AcDbEntity
  8
0
100
AcDbBlockEnd
  0
BLOCK
  5
53
330
1A
100
AcDbEntity
 67
     1
  8
0
100
AcDbBlockBegin
  2
*Paper_Space
 70
     0
 10
0.0
 20
0.0
 30
0.0
  3
*Paper_Space
  1

  0
ENDBLK
  5
54
330
1A
100
AcDbEntity
 67
     1
  8
0
100
AcDbBlockEnd
  0
BLOCK
  5
547
330
543
100
AcDbEntity
  8
0
100
AcDbBlockBegin
  2
_Open30
 70
     0
 10
0.0
 20
0.0
 30
0.0
  3
_Open30
  1

  0
LINE
  5
544
330
543
100
AcDbEntity
  8
寸法
 62
     0
370
    -2
100
AcDbLine
 10
-1.0
 20
0.26794919
 30
0.0
 11
0.0
 21
0.0
 31
0.0
  0
LINE
  5
545
330
543
100
AcDbEntity
  8
寸法
 62
     0
370
    -2
100
AcDbLine
 10
0.0
 20
0.0
 30
0.0
 11
-1.0
 21
-0.26794919
 31
0.0
  0
LINE
  5
546
330
543
100
AcDbEntity
  8
寸法
 62
     0
370
    -2
100
AcDbLine
 10
0.0
 20
0.0
 30
0.0
 11
-1.0
 21
0.0
 31
0.0
  0
ENDBLK
  5
548
330
543
100
AcDbEntity
  8
0
100
AcDbBlockEnd
  0
BLOCK
  5
555
330
54B
100
AcDbEntity
  8
0
100
AcDbBlockBegin
  2
*D1
 70
     1
 10
0.0
 20
0.0
 30
0.0
  3
*D1
  1

  0
LINE
  5
557
330
54B
100
AcDbEntity
  8
寸法
 62
     1
370
    -2
100
AcDbLine
 10
-1129.059914626533
 20
-1478.26024793356
 30
0.0
 11
-1129.059914626533
 21
-1400.357744390803
 31
0.0
  0
LINE
  5
558
330
54B
100
AcDbEntity
  8
寸法
 62
     1
370
    -2
100
AcDbLine
 10
-369.1578759901695
 20
-1519.623884297197
 30
0.0
 11
-369.1578759901695
 21
-1400.357744390803
 31
0.0
  0
LINE
  5
559
330
54B
100
AcDbEntity
  8
寸法
 62
     1
370
    -2
100
AcDbLine
 10
-1124.059914626533
 20
-1400.857744390803
 30
0.0
 11
-374.1578759901695
 21
-1400.857744390803
 31
0.0
  0
INSERT
  5
55A
330
54B
100
AcDbEntity
  8
寸法
 62
     1
370
    -2
100
AcDbBlockReference
  2
_Open30
 10
-1129.059914626533
 20
-1400.857744390803
 30
0.0
 41
5.0
 42
5.0
 43
5.0
 50
180.0
  0
INSERT
  5
55B
330
54B
100
AcDbEntity
  8
寸法
 62
     1
370
    -2
100
AcDbBlockReference
  2
_Open30
 10
-369.1578759901695
 20
-1400.857744390803
 30
0.0
 41
5.0
 42
5.0
 43
5.0
  0
MTEXT
  5
55C
330
54B
100
AcDbEntity
  8
寸法
 62
     1
100
AcDbMText
 10
-749.1088953083511
 20
-1394.857744390803
 30
0.0
 40
10.0
 41
0.0
 46
0.0
 71
     5
 72
     1
  1
\A1;837
 73
     1
 44
1.0
  0
POINT
  5
55D
330
54B
100
AcDbEntity
  8
Defpoints
 62
     0
100
AcDbPoint
 10
-1129.059914626533
 20
-1478.76024793356
 30
0.0
  0
POINT
  5
55E
330
54B
100
AcDbEntity
  8
Defpoints
 62
     0
100
AcDbPoint
 10
-369.1578759901695
 20
-1520.123884297197
 30
0.0
  0
POINT
  5
55F
330
54B
100
AcDbEntity
  8
Defpoints
 62
     0
100
AcDbPoint
 10
-369.1578759901695
 20
-1400.857744390803
 30
0.0
  0
ENDBLK
  5
556
330
54B
100
AcDbEntity
  8
0
100
AcDbBlockEnd
  0
BLOCK
  5
56B
330
561
100
AcDbEntity
  8
0
100
AcDbBlockBegin
  2
*D2
 70
     1
 10
0.0
 20
0.0
 30
0.0
  3
*D2
  1

  0
LINE
  5
56D
330
561
100
AcDbEntity
  8
寸法
 62
     1
370
    -2
100
AcDbLine
 10
-1097.188432050774
 20
-1449.209463085075
 30
0.0
 11
-1097.188432050774
 21
-1425.827718388105
 31
0.0
  0
LINE
  5
56E
330
561
100
AcDbEntity
  8
寸法
 62
     1
370
    -2
100
AcDbLine
 10
-557.5857585659264
 20
-1453.866313842651
 30
0.0
 11
-557.5857585659264
 21
-1425.827718388105
 31
0.0
  0
LINE
  5
56F
330
561
100
AcDbEntity
  8
寸法
 62
     1
370
    -2
100
AcDbLine
 10
-1092.188432050774
 20
-1426.327718388105
 30
0.0
 11
-562.5857585659264
 21
-1426.327718388105
 31
0.0
  0
INSERT
  5
570
330
561
100
AcDbEntity
  8
寸法
 62
     1
370
    -2
100
AcDbBlockReference
  2
_Open30
 10
-1097.188432050774
 20
-1426.327718388105
 30
0.0
 41
5.0
 42
5.0
 43
5.0
 50
180.0
  0
INSERT
  5
571
330
561
100
AcDbEntity
  8
寸法
 62
     1
370
    -2
100
AcDbBlockReference
  2
_Open30
 10
-557.5857585659264
 20
-1426.327718388105
 30
0.0
 41
5.0
 42
5.0
 43
5.0
  0
MTEXT
  5
572
330
561
100
AcDbEntity
  8
寸法
 62
     1
100
AcDbMText
 10
-827.3870953083504
 20
-1420.327718388105
 30
0.0
 40
10.0
 41
0.0
 46
0.0
 71
     5
 72
     1
  1
\A1;580
 73
     1
 44
1.0
  0
POINT
  5
573
330
561
100
AcDbEntity
  8
Defpoints
 62
     0
100
AcDbPoint
 10
-1097.188432050774
 20
-1449.709463085075
 30
0.0
  0
POINT
  5
574
330
561
100
AcDbEntity
  8
Defpoints
 62
     0
100
AcDbPoint
 10
-557.5857585659264
 20
-1454.366313842651
 30
0.0
  0
POINT
  5
575
330
561
100
AcDbEntity
  8
Defpoints
 62
     0
100
AcDbPoint
 10
-557.5857585659264
 20
-1426.327718388105
 30
0.0
  0
ENDBLK
  5
56C
330
561
100
AcDbEntity
  8
0
100
AcDbBlockEnd
  0
BLOCK
  5
581
330
577
100
AcDbEntity
  8
0
100
AcDbBlockBegin
  2
*D3
 70
     1
 10
0.0
 20
0.0
 30
0.0
  3
*D3
  1

  0
LINE
  5
583
330
577
100
AcDbEntity
  8
寸法
 62
     1
370
    -2
100
AcDbLine
 10
-1121.552068414413
 20
-1455.426914600227
 30
0.0
 11
-1254.4880658487
 21
-1455.426914600227
 31
0.0
  0
LINE
  5
584
330
577
100
AcDbEntity
  8
寸法
 62
     1
370
    -2
100
AcDbLine
 10
-1097.74173280835
 20
-1682.211244145682
 30
0.0
 11
-1254.4880658487
 21
-1682.211244145682
 31
0.0
  0
LINE
  5
585
330
577
100
AcDbEntity
  8
寸法
 62
     1
370
    -2
100
AcDbLine
 10
-1253.9880658487
 20
-1460.426914600227
 30
0.0
 11
-1253.9880658487
 21
-1677.211244145682
 31
0.0
  0
INSERT
  5
586
330
577
100
AcDbEntity
  8
寸法
 62
     1
370
    -2
100
AcDbBlockReference
  2
_Open30
 10
-1253.9880658487
 20
-1455.426914600227
 30
0.0
 41
5.0
 42
5.0
 43
5.0
 50
90.0
  0
INSERT
  5
587
330
577
100
AcDbEntity
  8
寸法
 62
     1
370
    -2
100
AcDbBlockReference
  2
_Open30
 10
-1253.9880658487
 20
-1682.211244145682
 30
0.0
 41
5.0
 42
5.0
 43
5.0
 50
270.0
  0
MTEXT
  5
588
330
577
100
AcDbEntity
  8
寸法
 62
     1
100
AcDbMText
 10
-1259.9880658487
 20
-1568.819079372955
 30
0.0
 40
10.0
 41
0.0
 46
0.0
 71
     5
 72
     1
  1
\A1;240
 11
0.0
 21
1.0
 31
0.0
 73
     1
 44
1.0
  0
POINT
  5
589
330
577
100
AcDbEntity
  8
Defpoints
 62
     0
100
AcDbPoint
 10
-1121.052068414413
 20
-1455.426914600227
 30
0.0
  0
POINT
  5
58A
330
577
100
AcDbEntity
  8
Defpoints
 62
     0
100
AcDbPoint
 10
-1097.24173280835
 20
-1682.211244145682
 30
0.0
  0
POINT
  5
58B
330
577
100
AcDbEntity
  8
Defpoints
 62
     0
100
AcDbPoint
 10
-1253.9880658487
 20
-1682.211244145682
 30
0.0
  0
ENDBLK
  5
582
330
577
100
AcDbEntity
  8
0
100
AcDbBlockEnd
  0
BLOCK
  5
597
330
58D
100
AcDbEntity
  8
0
100
AcDbBlockBegin
  2
*D4
 70
     1
 10
0.0
 20
0.0
 30
0.0
  3
*D4
  1

  0
LINE
  5
599
330
58D
100
AcDbEntity
  8
寸法
 62
     1
370
    -2
100
AcDbLine
 10
-1117.007360838653
 20
-1815.485400206287
 30
0.0
 11
-1254.475398104501
 21
-1815.485400206287
 31
0.0
  0
LINE
  5
59A
330
58D
100
AcDbEntity
  8
寸法
 62
     1
370
    -2
100
AcDbLine
 10
-1121.552068414413
 20
-2016.362162327499
 30
0.0
 11
-1254.475398104501
 21
-2016.362162327499
 31
0.0
  0
LINE
  5
59B
330
58D
100
AcDbEntity
  8
寸法
 62
     1
370
    -2
100
AcDbLine
 10
-1253.975398104501
 20
-1820.485400206287
 30
0.0
 11
-1253.975398104501
 21
-2011.362162327499
 31
0.0
  0
INSERT
  5
59C
330
58D
100
AcDbEntity
  8
寸法
 62
     1
370
    -2
100
AcDbBlockReference
  2
_Open30
 10
-1253.975398104501
 20
-1815.485400206287
 30
0.0
 41
5.0
 42
5.0
 43
5.0
 50
90.0
  0
INSERT
  5
59D
330
58D
100
AcDbEntity
  8
寸法
 62
     1
370
    -2
100
AcDbBlockReference
  2
_Open30
 10
-1253.975398104501
 20
-2016.362162327499
 30
0.0
 41
5.0
 42
5.0
 43
5.0
 50
270.0
  0
MTEXT
  5
59E
330
58D
100
AcDbEntity
  8
寸法
 62
     1
100
AcDbMText
 10
-1259.975398104501
 20
-1915.923781266893
 30
0.0
 40
10.0
 41
0.0
 46
0.0
 71
     5
 72
     1
  1
\A1;245
 11
0.0
 21
1.0
 31
0.0
 73
     1
 44
1.0
  0
POINT
  5
59F
330
58D
100
AcDbEntity
  8
Defpoints
 62
     0
100
AcDbPoint
 10
-1116.507360838653
 20
-1815.485400206287
 30
0.0
  0
POINT
  5
5A0
330
58D
100
AcDbEntity
  8
Defpoints
 62
     0
100
AcDbPoint
 10
-1121.052068414413
 20
-2016.362162327499
 30
0.0
  0
POINT
  5
5A1
330
58D
100
AcDbEntity
  8
Defpoints
 62
     0
100
AcDbPoint
 10
-1253.975398104501
 20
-2016.362162327499
 30
0.0
  0
ENDBLK
  5
598
330
58D
100
AcDbEntity
  8
0
100
AcDbBlockEnd
  0
BLOCK
  5
637
330
636
100
AcDbEntity
  8
0
100
AcDbBlockBegin
  2
*D5
 70
     1
 10
0.0
 20
0.0
 30
0.0
  3
*D5
  1

  0
LINE
  5
638
330
636
100
AcDbEntity
  8
ﾚｲﾔ1
 62
     1
370
    -2
100
AcDbLine
 10
220.208287389778
 20
805.2403067041942
 30
0.0
 11
220.208287389778
 21
1163.537441698878
 31
0.0
  0
LINE
  5
639
330
636
100
AcDbEntity
  8
ﾚｲﾔ1
 62
     1
370
    -2
100
AcDbLine
 10
972.3202697432716
 20
826.496772054827
 30
0.0
 11
972.3202697432716
 21
1163.537441698878
 31
0.0
  0
LINE
  5
63A
330
636
100
AcDbEntity
  8
ﾚｲﾔ1
 62
     1
370
    -2
100
AcDbLine
 10
240.208287389778
 20
1163.037441698878
 30
0.0
 11
952.3202697432716
 21
1163.037441698878
 31
0.0
  0
SOLID
  5
63B
330
636
100
AcDbEntity
  8
ﾚｲﾔ1
 62
     1
100
AcDbTrace
 10
240.208287389778
 20
1166.370775032211
 30
0.0
 11
240.208287389778
 21
1159.704108365545
 31
0.0
 12
220.208287389778
 22
1163.037441698878
 32
0.0
 13
220.208287389778
 23
1163.037441698878
 33
0.0
  0
SOLID
  5
63C
330
636
100
AcDbEntity
  8
ﾚｲﾔ1
 62
     1
100
AcDbTrace
 10
952.3202697432716
 20
1159.704108365545
 30
0.0
 11
952.3202697432716
 21
1166.370775032211
 31
0.0
 12
972.3202697432716
 22
1163.037441698878
 32
0.0
 13
972.3202697432716
 23
1163.037441698878
 33
0.0
  0
MTEXT
  5
63D
330
636
100
AcDbEntity
  8
ﾚｲﾔ1
 62
     1
100
AcDbMText
 10
596.2642785665248
 20
1173.537441698878
 30
0.0
 40
20.0
 41
0.0
 46
0.0
 71
     5
 72
     1
  1
\A1;752
  7
TextStyle01
 73
     1
 44
1.0
  0
POINT
  5
63E
330
636
100
AcDbEntity
  8
Defpoints
 62
     0
100
AcDbPoint
 10
220.208287389778
 20
805.1778067041942
 30
0.0
  0
POINT
  5
63F
330
636
100
AcDbEntity
  8
Defpoints
 62
     0
100
AcDbPoint
 10
972.3202697432716
 20
826.434272054827
 30
0.0
  0
POINT
  5
640
330
636
100
AcDbEntity
  8
Defpoints
 62
     0
100
AcDbPoint
 10
972.3202697432716
 20
1163.037441698878
 30
0.0
  0
ENDBLK
  5
641
330
636
100
AcDbEntity
  8
0
100
AcDbBlockEnd
  0
BLOCK
  5
64A
330
649
100
AcDbEntity
  8
0
100
AcDbBlockBegin
  2
*D6
 70
     1
 10
0.0
 20
0.0
 30
0.0
  3
*D6
  1

  0
LINE
  5
64B
330
649
100
AcDbEntity
  8
ﾚｲﾔ1
 62
     1
370
    -2
100
AcDbLine
 10
1129.967831483606
 20
989.4967439503048
 30
0.0
 11
1129.967831483606
 21
1179.472445596122
 31
0.0
  0
LINE
  5
64C
330
649
100
AcDbEntity
  8
ﾚｲﾔ1
 62
     1
370
    -2
100
AcDbLine
 10
1299.967858088517
 20
1044.453709149838
 30
0.0
 11
1299.967858088517
 21
1179.472445596122
 31
0.0
  0
LINE
  5
64D
330
649
100
AcDbEntity
  8
ﾚｲﾔ1
 62
     1
370
    -2
100
AcDbLine
 10
1149.967831483606
 20
1178.972445596122
 30
0.0
 11
1279.967858088517
 21
1178.972445596122
 31
0.0
  0
SOLID
  5
64E
330
649
100
AcDbEntity
  8
ﾚｲﾔ1
 62
     1
100
AcDbTrace
 10
1149.967831483606
 20
1182.305778929455
 30
0.0
 11
1149.967831483606
 21
1175.639112262789
 31
0.0
 12
1129.967831483606
 22
1178.972445596122
 32
0.0
 13
1129.967831483606
 23
1178.972445596122
 33
0.0
  0
SOLID
  5
64F
330
649
100
AcDbEntity
  8
ﾚｲﾔ1
 62
     1
100
AcDbTrace
 10
1279.967858088517
 20
1175.639112262789
 30
0.0
 11
1279.967858088517
 21
1182.305778929455
 31
0.0
 12
1299.967858088517
 22
1178.972445596122
 32
0.0
 13
1299.967858088517
 23
1178.972445596122
 33
0.0
  0
MTEXT
  5
650
330
649
100
AcDbEntity
  8
ﾚｲﾔ1
 62
     1
100
AcDbMText
 10
1214.967844786062
 20
1189.472445596122
 30
0.0
 40
20.0
 41
0.0
 46
0.0
 71
     5
 72
     1
  1
\A1;170
  7
TextStyle01
 73
     1
 44
1.0
  0
POINT
  5
651
330
649
100
AcDbEntity
  8
Defpoints
 62
     0
100
AcDbPoint
 10
1129.967831483606
 20
989.4342439503048
 30
0.0
  0
POINT
  5
652
330
649
100
AcDbEntity
  8
Defpoints
 62
     0
100
AcDbPoint
 10
1299.967858088517
 20
1044.391209149838
 30
0.0
  0
POINT
  5
653
330
649
100
AcDbEntity
  8
Defpoints
 62
     0
100
AcDbPoint
 10
1299.967858088517
 20
1178.972445596122
 30
0.0
  0
ENDBLK
  5
654
330
649
100
AcDbEntity
  8
0
100
AcDbBlockEnd
  0
BLOCK
  5
657
330
656
100
AcDbEntity
  8
0
100
AcDbBlockBegin
  2
*D7
 70
     1
 10
0.0
 20
0.0
 30
0.0
  3
*D7
  1

  0
LINE
  5
658
330
656
100
AcDbEntity
  8
ﾚｲﾔ1
 62
     1
370
    -2
100
AcDbLine
 10
1422.974607164324
 20
926.4371047652639
 30
0.0
 11
1495.962248801892
 21
926.4371047652639
 31
0.0
  0
LINE
  5
659
330
656
100
AcDbEntity
  8
ﾚｲﾔ1
 62
     1
370
    -2
100
AcDbLine
 10
1422.974607164324
 20
601.437076878628
 30
0.0
 11
1495.962248801892
 21
601.437076878628
 31
0.0
  0
LINE
  5
65A
330
656
100
AcDbEntity
  8
ﾚｲﾔ1
 62
     1
370
    -2
100
AcDbLine
 10
1495.462248801892
 20
906.4371047652639
 30
0.0
 11
1495.462248801892
 21
621.437076878628
 31
0.0
  0
SOLID
  5
65B
330
656
100
AcDbEntity
  8
ﾚｲﾔ1
 62
     1
100
AcDbTrace
 10
1498.795582135225
 20
906.4371047652639
 30
0.0
 11
1492.128915468558
 21
906.4371047652639
 31
0.0
 12
1495.462248801892
 22
926.4371047652639
 32
0.0
 13
1495.462248801892
 23
926.4371047652639
 33
0.0
  0
SOLID
  5
65C
330
656
100
AcDbEntity
  8
ﾚｲﾔ1
 62
     1
100
AcDbTrace
 10
1492.128915468558
 20
621.437076878628
 30
0.0
 11
1498.795582135225
 21
621.437076878628
 31
0.0
 12
1495.462248801892
 22
601.437076878628
 32
0.0
 13
1495.462248801892
 23
601.437076878628
 33
0.0
  0
MTEXT
  5
65D
330
656
100
AcDbEntity
  8
ﾚｲﾔ1
 62
     1
100
AcDbMText
 10
1484.962248801892
 20
763.937090821946
 30
0.0
 40
20.0
 41
0.0
 46
0.0
 71
     5
 72
     1
  1
\A1;φ325
  7
TextStyle01
 11
0.0
 21
1.0
 31
0.0
 73
     1
 44
1.0
  0
POINT
  5
65E
330
656
100
AcDbEntity
  8
Defpoints
 62
     0
100
AcDbPoint
 10
1422.912107164324
 20
926.4371047652639
 30
0.0
  0
POINT
  5
65F
330
656
100
AcDbEntity
  8
Defpoints
 62
     0
100
AcDbPoint
 10
1422.912107164324
 20
601.437076878628
 30
0.0
  0
POINT
  5
660
330
656
100
AcDbEntity
  8
Defpoints
 62
     0
100
AcDbPoint
 10
1495.462248801892
 20
601.437076878628
 30
0.0
  0
ENDBLK
  5
661
330
656
100
AcDbEntity
  8
0
100
AcDbBlockEnd
  0
BLOCK
  5
664
330
663
100
AcDbEntity
  8
0
100
AcDbBlockBegin
  2
*D8
 70
     1
 10
0.0
 20
0.0
 30
0.0
  3
*D8
  1

  0
LINE
  5
665
330
663
100
AcDbEntity
  8
ﾚｲﾔ1
 62
     1
370
    -2
100
AcDbLine
 10
1322.238455322245
 20
991.4342715558819
 30
0.0
 11
1580.829067445012
 21
991.4342715558819
 31
0.0
  0
LINE
  5
666
330
663
100
AcDbEntity
  8
ﾚｲﾔ1
 62
     1
370
    -2
100
AcDbLine
 10
1310.695178173505
 20
536.4343038243742
 30
0.0
 11
1580.829067445012
 21
536.4343038243742
 31
0.0
  0
LINE
  5
667
330
663
100
AcDbEntity
  8
ﾚｲﾔ1
 62
     1
370
    -2
100
AcDbLine
 10
1580.329067445012
 20
971.4342715558819
 30
0.0
 11
1580.329067445012
 21
556.4343038243742
 31
0.0
  0
SOLID
  5
668
330
663
100
AcDbEntity
  8
ﾚｲﾔ1
 62
     1
100
AcDbTrace
 10
1583.662400778345
 20
971.4342715558819
 30
0.0
 11
1576.995734111679
 21
971.4342715558819
 31
0.0
 12
1580.329067445012
 22
991.4342715558819
 32
0.0
 13
1580.329067445012
 23
991.4342715558819
 33
0.0
  0
SOLID
  5
669
330
663
100
AcDbEntity
  8
ﾚｲﾔ1
 62
     1
100
AcDbTrace
 10
1576.995734111679
 20
556.4343038243742
 30
0.0
 11
1583.662400778345
 21
556.4343038243742
 31
0.0
 12
1580.329067445012
 22
536.4343038243742
 32
0.0
 13
1580.329067445012
 23
536.4343038243742
 33
0.0
  0
MTEXT
  5
66A
330
663
100
AcDbEntity
  8
ﾚｲﾔ1
 62
     1
100
AcDbMText
 10
1569.829067445012
 20
763.934287690128
 30
0.0
 40
20.0
 41
0.0
 46
0.0
 71
     5
 72
     1
  1
\A1;φ455
  7
TextStyle01
 11
0.0
 21
1.0
 31
0.0
 73
     1
 44
1.0
  0
POINT
  5
66B
330
663
100
AcDbEntity
  8
Defpoints
 62
     0
100
AcDbPoint
 10
1322.175955322245
 20
991.4342715558819
 30
0.0
  0
POINT
  5
66C
330
663
100
AcDbEntity
  8
Defpoints
 62
     0
100
AcDbPoint
 10
1310.632678173505
 20
536.4343038243742
 30
0.0
  0
POINT
  5
66D
330
663
100
AcDbEntity
  8
Defpoints
 62
     0
100
AcDbPoint
 10
1580.329067445012
 20
536.4343038243742
 30
0.0
  0
ENDBLK
  5
66E
330
663
100
AcDbEntity
  8
0
100
AcDbBlockEnd
  0
BLOCK
  5
671
330
670
100
AcDbEntity
  8
0
100
AcDbBlockBegin
  2
*D9
 70
     1
 10
0.0
 20
0.0
 30
0.0
  3
*D9
  1

  0
LINE
  5
672
330
670
100
AcDbEntity
  8
ﾚｲﾔ1
 62
     1
370
    -2
100
AcDbLine
 10
1129.787103636681
 20
878.9342804718422
 30
0.0
 11
1089.147754312533
 21
878.9342804718422
 31
0.0
  0
LINE
  5
673
330
670
100
AcDbEntity
  8
ﾚｲﾔ1
 62
     1
370
    -2
100
AcDbLine
 10
1129.787103636681
 20
648.9342636378142
 30
0.0
 11
1089.147754312533
 21
648.9342636378142
 31
0.0
  0
LINE
  5
674
330
670
100
AcDbEntity
  8
ﾚｲﾔ1
 62
     1
370
    -2
100
AcDbLine
 10
1089.647754312533
 20
858.9342804718422
 30
0.0
 11
1089.647754312533
 21
668.9342636378142
 31
0.0
  0
SOLID
  5
675
330
670
100
AcDbEntity
  8
ﾚｲﾔ1
 62
     1
100
AcDbTrace
 10
1092.981087645867
 20
858.9342804718422
 30
0.0
 11
1086.3144209792
 21
858.9342804718422
 31
0.0
 12
1089.647754312533
 22
878.9342804718422
 32
0.0
 13
1089.647754312533
 23
878.9342804718422
 33
0.0
  0
SOLID
  5
676
330
670
100
AcDbEntity
  8
ﾚｲﾔ1
 62
     1
100
AcDbTrace
 10
1086.3144209792
 20
668.9342636378142
 30
0.0
 11
1092.981087645867
 21
668.9342636378142
 31
0.0
 12
1089.647754312533
 22
648.9342636378142
 32
0.0
 13
1089.647754312533
 23
648.9342636378142
 33
0.0
  0
MTEXT
  5
677
330
670
100
AcDbEntity
  8
ﾚｲﾔ1
 62
     1
100
AcDbMText
 10
1079.147754312533
 20
763.9342720548282
 30
0.0
 40
20.0
 41
0.0
 46
0.0
 71
     5
 72
     1
  1
\A1;φ230
  7
TextStyle01
 11
0.0
 21
1.0
 31
0.0
 73
     1
 44
1.0
  0
POINT
  5
678
330
670
100
AcDbEntity
  8
Defpoints
 62
     0
100
AcDbPoint
 10
1129.849603636681
 20
878.9342804718422
 30
0.0
  0
POINT
  5
679
330
670
100
AcDbEntity
  8
Defpoints
 62
     0
100
AcDbPoint
 10
1129.849603636681
 20
648.9342636378142
 30
0.0
  0
POINT
  5
67A
330
670
100
AcDbEntity
  8
Defpoints
 62
     0
100
AcDbPoint
 10
1089.647754312533
 20
648.9342636378142
 30
0.0
  0
ENDBLK
  5
67B
330
670
100
AcDbEntity
  8
0
100
AcDbBlockEnd
  0
BLOCK
  5
692
330
691
100
AcDbEntity
  8
0
100
AcDbBlockBegin
  2
A$C031367A2
 70
     0
 10
0.0
 20
0.0
 30
0.0
  3
A$C031367A2
  1

  0
LWPOLYLINE
  5
693
330
691
100
AcDbEntity
  8
ﾚｲﾔ1
100
AcDbPolyline
 90
        3
 70
     0
 43
0.0
 10
22.02042897116098
 20
25.49406091246169
 10
19.47578184749636
 20
19.1368403130507
 10
19.47578184749636
 20
19.1368403130507
  0
SPLINE
  5
694
330
691
100
AcDbEntity
  8
ﾚｲﾔ1
100
AcDbSpline
210
0.0
220
0.0
230
1.0
 70
  1064
 71
     3
 72
     9
 73
     5
 74
     3
 42
0.000000001
 43
0.0000000001
 44
0.0000000001
 40
0.0
 40
0.0
 40
0.0
 40
0.0
 40
0.9324697840356793
 40
2.051071547332551
 40
2.051071547332551
 40
2.051071547332551
 40
2.051071547332551
 10
18.38360207643382
 20
39.73913847812878
 30
0.0
 10
18.10458745596521
 20
39.93170530326331
 30
0.0
 10
17.49086360224827
 20
40.35527756560965
 30
0.0
 10
17.66086396354296
 20
41.09608424831922
 30
0.0
 10
17.75357779605292
 20
41.50010119381227
 30
0.0
 11
18.38360207643382
 21
39.73913847812878
 31
0.0
 11
17.7085418650513
 21
40.38240639210221
 31
0.0
 11
17.75357779605292
 21
41.50010119381227
 31
0.0
  0
SPLINE
  5
695
330
691
100
AcDbEntity
  8
ﾚｲﾔ1
100
AcDbSpline
210
0.0
220
0.0
230
1.0
 70
  1064
 71
     3
 72
     9
 73
     5
 74
     3
 42
0.000000001
 43
0.0000000001
 44
0.0000000001
 40
0.0
 40
0.0
 40
0.0
 40
0.0
 40
0.9984583633105163
 40
2.019620187255365
 40
2.019620187255365
 40
2.019620187255365
 40
2.019620187255365
 10
13.97127641761563
 20
28.71594893302177
 30
0.0
 10
13.61406284034437
 20
28.83161016744479
 30
0.0
 10
12.89151317945845
 20
29.06556260102358
 30
0.0
 10
12.50298651980571
 20
28.41039919671687
 30
0.0
 10
12.30653938834712
 20
28.07913500103018
 30
0.0
 11
13.97127641761563
 21
28.71594893302177
 31
0.0
 11
12.98127453721008
 21
28.84562306327985
 31
0.0
 11
12.30653938834712
 21
28.07913500103018
 31
0.0
  0
LWPOLYLINE
  5
696
330
691
100
AcDbEntity
  8
ﾚｲﾔ1
100
AcDbPolyline
 90
        3
 70
     0
 43
0.0
 10
13.97127641761563
 20
28.71594893302177
 10
13.97127641761563
 20
28.71594893302177
 10
63.15570085899162
 20
9.028571056697956
  0
ARC
  5
697
330
691
100
AcDbEntity
  8
ﾚｲﾔ1
100
AcDbCircle
 10
65.52556671178354
 20
14.47463932736832
 30
0.0
 40
5.939353817463866
100
AcDbArc
 50
246.4836515327686
 51
69.88620053548829
  0
LINE
  5
698
330
691
100
AcDbEntity
  8
ﾚｲﾔ1
100
AcDbLine
 10
101.8979487245815
 20
-0.0000000590196123
 30
0.0
 11
-0.0000004654502845
 21
40.78737223030543
 31
0.0
  0
LWPOLYLINE
  5
699
330
691
100
AcDbEntity
  8
ﾚｲﾔ1
100
AcDbPolyline
 90
        4
 70
     0
 43
0.0
 10
67.89543256459547
 20
19.92070759802914
 10
67.89543256459547
 20
19.92070759802914
 10
18.38360207643382
 20
39.73913847812878
 10
18.38360207643382
 20
39.73913847812878
  0
SPLINE
  5
69A
330
691
100
AcDbEntity
  8
ﾚｲﾔ1
100
AcDbSpline
210
0.0
220
0.0
230
1.0
 70
  1064
 71
     3
 72
     9
 73
     5
 74
     3
 42
0.000000001
 43
0.0000000001
 44
0.0000000001
 40
0.0
 40
0.0
 40
0.0
 40
0.0
 40
1.453122156493452
 40
2.746440558141731
 40
2.746440558141731
 40
2.746440558141731
 40
2.746440558141731
 10
29.0845256859102
 20
43.14209577498991
 30
0.0
 10
29.05070196137348
 20
43.65212758513732
 30
0.0
 10
28.98677419832896
 20
44.61610163444337
 30
0.0
 10
28.22132782916925
 20
45.19489526792768
 30
0.0
 10
27.86087368725294
 20
45.46745330845147
 30
0.0
 11
29.0845256859102
 21
43.14209577498991
 31
0.0
 11
28.7866718986379
 21
44.56436407706928
 31
0.0
 11
27.86087368725294
 21
45.46745330845147
 31
0.0
  0
SPLINE
  5
69B
330
691
100
AcDbEntity
  8
ﾚｲﾔ1
100
AcDbSpline
210
0.0
220
0.0
230
1.0
 70
  1064
 71
     3
 72
     9
 73
     5
 74
     3
 42
0.000000001
 43
0.0000000001
 44
0.0000000001
 40
0.0
 40
0.0
 40
0.0
 40
0.0
 40
1.419442939185153
 40
2.89347623760774
 40
2.89347623760774
 40
2.89347623760774
 40
2.89347623760774
 10
16.99433649803359
 20
18.31988796581822
 30
0.0
 10
17.49350982496534
 20
18.16095240294534
 30
0.0
 10
18.51105418694846
 20
17.83696877402434
 30
0.0
 10
19.15018652049692
 20
18.6981340168446
 30
0.0
 10
19.47578184749636
 20
19.1368403130507
 30
0.0
 11
16.99433649803359
 21
18.31988796581822
 31
0.0
 11
18.4007894913766
 21
18.12829403293131
 31
0.0
 11
19.47578184749636
 21
19.1368403130507
 31
0.0
  0
LWPOLYLINE
  5
69C
330
691
100
AcDbEntity
  8
ﾚｲﾔ1
100
AcDbPolyline
 90
        5
 70
     0
 43
0.0
 10
16.99433649803359
 20
18.31988796581822
 10
9.204249792911469
 20
21.08495769174192
 10
20.30147698428664
 20
48.80884940204009
 10
27.86087368725294
 20
45.46745330845147
 10
27.86087368725294
 20
45.46745330845147
  0
LWPOLYLINE
  5
69D
330
691
100
AcDbEntity
  8
ﾚｲﾔ1
100
AcDbPolyline
 90
        2
 70
     0
 43
0.0
 10
29.0845256859102
 20
43.14209577499127
 10
26.43275462997917
 20
36.51725045756871
  0
ENDBLK
  5
69E
330
691
100
AcDbEntity
  8
0
100
AcDbBlockEnd
  0
BLOCK
  5
6DD
330
6DC
100
AcDbEntity
  8
0
100
AcDbBlockBegin
  2
*D11
 70
     1
 10
0.0
 20
0.0
 30
0.0
  3
*D11
  1

  0
LINE
  5
6DE
330
6DC
100
AcDbEntity
  8
ﾚｲﾔ1
 62
     1
370
    -2
100
AcDbLine
 10
1127.91207670978
 20
535.3384088935782
 30
0.0
 11
1127.91207670978
 21
306.4815241773808
 31
0.0
  0
LINE
  5
6DF
330
6DC
100
AcDbEntity
  8
ﾚｲﾔ1
 62
     1
370
    -2
100
AcDbLine
 10
1422.912107164324
 20
510.4033580456721
 30
0.0
 11
1422.912107164324
 21
306.4815241773808
 31
0.0
  0
LINE
  5
6E0
330
6DC
100
AcDbEntity
  8
ﾚｲﾔ1
 62
     1
370
    -2
100
AcDbLine
 10
1147.91207670978
 20
306.9815241773808
 30
0.0
 11
1402.912107164324
 21
306.9815241773808
 31
0.0
  0
SOLID
  5
6E1
330
6DC
100
AcDbEntity
  8
ﾚｲﾔ1
 62
     1
100
AcDbTrace
 10
1147.91207670978
 20
310.3148575107141
 30
0.0
 11
1147.91207670978
 21
303.6481908440475
 31
0.0
 12
1127.91207670978
 22
306.9815241773808
 32
0.0
 13
1127.91207670978
 23
306.9815241773808
 33
0.0
  0
SOLID
  5
6E2
330
6DC
100
AcDbEntity
  8
ﾚｲﾔ1
 62
     1
100
AcDbTrace
 10
1402.912107164324
 20
303.6481908440475
 30
0.0
 11
1402.912107164324
 21
310.3148575107141
 31
0.0
 12
1422.912107164324
 22
306.9815241773808
 32
0.0
 13
1422.912107164324
 23
306.9815241773808
 33
0.0
  0
MTEXT
  5
6E3
330
6DC
100
AcDbEntity
  8
ﾚｲﾔ1
 62
     1
100
AcDbMText
 10
1275.412091937052
 20
317.4815241773808
 30
0.0
 40
20.0
 41
0.0
 46
0.0
 71
     5
 72
     1
  1
\A1;295
  7
TextStyle01
 73
     1
 44
1.0
  0
POINT
  5
6E4
330
6DC
100
AcDbEntity
  8
Defpoints
 62
     0
100
AcDbPoint
 10
1127.91207670978
 20
535.4009088935782
 30
0.0
  0
POINT
  5
6E5
330
6DC
100
AcDbEntity
  8
Defpoints
 62
     0
100
AcDbPoint
 10
1422.912107164324
 20
510.4658580456721
 30
0.0
  0
POINT
  5
6E6
330
6DC
100
AcDbEntity
  8
Defpoints
 62
     0
100
AcDbPoint
 10
1422.912107164324
 20
306.9815241773808
 30
0.0
  0
ENDBLK
  5
6E7
330
6DC
100
AcDbEntity
  8
0
100
AcDbBlockEnd
  0
BLOCK
  5
815
330
814
100
AcDbEntity
  8
0
100
AcDbBlockBegin
  2
*D12
 70
     1
 10
0.0
 20
0.0
 30
0.0
  3
*D12
  1

  0
LINE
  5
817
330
814
100
AcDbEntity
  8
ﾚｲﾔ1
 62
     1
370
    -2
100
AcDbLine
 10
-1356.246405772751
 20
-1582.830271371823
 30
0.0
 11
-1356.246405772751
 21
-1224.533136377139
 31
0.0
  0
LINE
  5
818
330
814
100
AcDbEntity
  8
ﾚｲﾔ1
 62
     1
370
    -2
100
AcDbLine
 10
-604.134423419257
 20
-1561.57380602119
 30
0.0
 11
-604.134423419257
 21
-1224.533136377139
 31
0.0
  0
LINE
  5
819
330
814
100
AcDbEntity
  8
ﾚｲﾔ1
 62
     1
370
    -2
100
AcDbLine
 10
-1336.246405772751
 20
-1225.033136377139
 30
0.0
 11
-624.134423419257
 21
-1225.033136377139
 31
0.0
  0
SOLID
  5
81A
330
814
100
AcDbEntity
  8
ﾚｲﾔ1
 62
     1
100
AcDbTrace
 10
-1336.246405772751
 20
-1221.699803043806
 30
0.0
 11
-1336.246405772751
 21
-1228.366469710473
 31
0.0
 12
-1356.246405772751
 22
-1225.033136377139
 32
0.0
 13
-1356.246405772751
 23
-1225.033136377139
 33
0.0
  0
SOLID
  5
81B
330
814
100
AcDbEntity
  8
ﾚｲﾔ1
 62
     1
100
AcDbTrace
 10
-624.134423419257
 20
-1228.366469710473
 30
0.0
 11
-624.134423419257
 21
-1221.699803043806
 31
0.0
 12
-604.134423419257
 22
-1225.033136377139
 32
0.0
 13
-604.134423419257
 23
-1225.033136377139
 33
0.0
  0
MTEXT
  5
81C
330
814
100
AcDbEntity
  8
ﾚｲﾔ1
 62
     1
100
AcDbMText
 10
-980.1904145960038
 20
-1214.533136377139
 30
0.0
 40
20.0
 41
0.0
 46
0.0
 71
     5
 72
     1
  1
\A1;752
  7
TextStyle01
 73
     1
 44
1.0
  0
POINT
  5
81D
330
814
100
AcDbEntity
  8
Defpoints
 62
     0
100
AcDbPoint
 10
-1356.246405772751
 20
-1582.892771371823
 30
0.0
  0
POINT
  5
81E
330
814
100
AcDbEntity
  8
Defpoints
 62
     0
100
AcDbPoint
 10
-604.134423419257
 20
-1561.63630602119
 30
0.0
  0
POINT
  5
81F
330
814
100
AcDbEntity
  8
Defpoints
 62
     0
100
AcDbPoint
 10
-604.134423419257
 20
-1225.033136377139
 30
0.0
  0
ENDBLK
  5
816
330
814
100
AcDbEntity
  8
0
100
AcDbBlockEnd
  0
BLOCK
  5
821
330
820
100
AcDbEntity
  8
0
100
AcDbBlockBegin
  2
*D13
 70
     1
 10
0.0
 20
0.0
 30
0.0
  3
*D13
  1

  0
LINE
  5
823
330
820
100
AcDbEntity
  8
ﾚｲﾔ1
 62
     1
370
    -2
100
AcDbLine
 10
-446.4868616789231
 20
-1398.573834125712
 30
0.0
 11
-446.4868616789231
 21
-1208.598132479895
 31
0.0
  0
LINE
  5
824
330
820
100
AcDbEntity
  8
ﾚｲﾔ1
 62
     1
370
    -2
100
AcDbLine
 10
-276.4868350740112
 20
-1343.616868926179
 30
0.0
 11
-276.4868350740112
 21
-1208.598132479895
 31
0.0
  0
LINE
  5
825
330
820
100
AcDbEntity
  8
ﾚｲﾔ1
 62
     1
370
    -2
100
AcDbLine
 10
-426.4868616789231
 20
-1209.098132479895
 30
0.0
 11
-296.4868350740112
 21
-1209.098132479895
 31
0.0
  0
SOLID
  5
826
330
820
100
AcDbEntity
  8
ﾚｲﾔ1
 62
     1
100
AcDbTrace
 10
-426.4868616789231
 20
-1205.764799146562
 30
0.0
 11
-426.4868616789231
 21
-1212.431465813229
 31
0.0
 12
-446.4868616789231
 22
-1209.098132479895
 32
0.0
 13
-446.4868616789231
 23
-1209.098132479895
 33
0.0
  0
SOLID
  5
827
330
820
100
AcDbEntity
  8
ﾚｲﾔ1
 62
     1
100
AcDbTrace
 10
-296.4868350740112
 20
-1212.431465813229
 30
0.0
 11
-296.4868350740112
 21
-1205.764799146562
 31
0.0
 12
-276.4868350740112
 22
-1209.098132479895
 32
0.0
 13
-276.4868350740112
 23
-1209.098132479895
 33
0.0
  0
MTEXT
  5
828
330
820
100
AcDbEntity
  8
ﾚｲﾔ1
 62
     1
100
AcDbMText
 10
-361.4868483764672
 20
-1198.598132479895
 30
0.0
 40
20.0
 41
0.0
 46
0.0
 71
     5
 72
     1
  1
\A1;170
  7
TextStyle01
 73
     1
 44
1.0
  0
POINT
  5
829
330
820
100
AcDbEntity
  8
Defpoints
 62
     0
100
AcDbPoint
 10
-446.4868616789231
 20
-1398.636334125712
 30
0.0
  0
POINT
  5
82A
330
820
100
AcDbEntity
  8
Defpoints
 62
     0
100
AcDbPoint
 10
-276.4868350740112
 20
-1343.679368926179
 30
0.0
  0
POINT
  5
82B
330
820
100
AcDbEntity
  8
Defpoints
 62
     0
100
AcDbPoint
 10
-276.4868350740112
 20
-1209.098132479895
 30
0.0
  0
ENDBLK
  5
822
330
820
100
AcDbEntity
  8
0
100
AcDbBlockEnd
  0
BLOCK
  5
82D
330
82C
100
AcDbEntity
  8
0
100
AcDbBlockBegin
  2
*D14
 70
     1
 10
0.0
 20
0.0
 30
0.0
  3
*D14
  1

  0
LINE
  5
82F
330
82C
100
AcDbEntity
  8
ﾚｲﾔ1
 62
     1
370
    -2
100
AcDbLine
 10
-153.4800859982042
 20
-1461.633473310753
 30
0.0
 11
-80.4924443606369
 21
-1461.633473310753
 31
0.0
  0
LINE
  5
830
330
82C
100
AcDbEntity
  8
ﾚｲﾔ1
 62
     1
370
    -2
100
AcDbLine
 10
-153.4800859982051
 20
-1786.633501197389
 30
0.0
 11
-80.49244436063691
 21
-1786.633501197389
 31
0.0
  0
LINE
  5
831
330
82C
100
AcDbEntity
  8
ﾚｲﾔ1
 62
     1
370
    -2
100
AcDbLine
 10
-80.9924443606369
 20
-1481.633473310753
 30
0.0
 11
-80.99244436063691
 21
-1766.633501197389
 31
0.0
  0
SOLID
  5
832
330
82C
100
AcDbEntity
  8
ﾚｲﾔ1
 62
     1
100
AcDbTrace
 10
-77.65911102730357
 20
-1481.633473310753
 30
0.0
 11
-84.32577769397022
 21
-1481.633473310753
 31
0.0
 12
-80.9924443606369
 22
-1461.633473310753
 32
0.0
 13
-80.9924443606369
 23
-1461.633473310753
 33
0.0
  0
SOLID
  5
833
330
82C
100
AcDbEntity
  8
ﾚｲﾔ1
 62
     1
100
AcDbTrace
 10
-84.32577769397024
 20
-1766.633501197389
 30
0.0
 11
-77.65911102730358
 21
-1766.633501197389
 31
0.0
 12
-80.99244436063691
 22
-1786.633501197389
 32
0.0
 13
-80.99244436063691
 23
-1786.633501197389
 33
0.0
  0
MTEXT
  5
834
330
82C
100
AcDbEntity
  8
ﾚｲﾔ1
 62
     1
100
AcDbMText
 10
-91.49244436063691
 20
-1624.133487254071
 30
0.0
 40
20.0
 41
0.0
 46
0.0
 71
     5
 72
     1
  1
\A1;φ325
  7
TextStyle01
 11
4.372570306412074E-17
 21
1.0
 31
0.0
 73
     1
 44
1.0
  0
POINT
  5
835
330
82C
100
AcDbEntity
  8
Defpoints
 62
     0
100
AcDbPoint
 10
-153.5425859982042
 20
-1461.633473310753
 30
0.0
  0
POINT
  5
836
330
82C
100
AcDbEntity
  8
Defpoints
 62
     0
100
AcDbPoint
 10
-153.5425859982051
 20
-1786.633501197389
 30
0.0
  0
POINT
  5
837
330
82C
100
AcDbEntity
  8
Defpoints
 62
     0
100
AcDbPoint
 10
-80.99244436063691
 20
-1786.633501197389
 30
0.0
  0
ENDBLK
  5
82E
330
82C
100
AcDbEntity
  8
0
100
AcDbBlockEnd
  0
BLOCK
  5
839
330
838
100
AcDbEntity
  8
0
100
AcDbBlockBegin
  2
*D15
 70
     1
 10
0.0
 20
0.0
 30
0.0
  3
*D15
  1

  0
LINE
  5
83B
330
838
100
AcDbEntity
  8
ﾚｲﾔ1
 62
     1
370
    -2
100
AcDbLine
 10
-254.2162378402841
 20
-1396.636306520135
 30
0.0
 11
4.37437428248316
 21
-1396.636306520135
 31
0.0
  0
LINE
  5
83C
330
838
100
AcDbEntity
  8
ﾚｲﾔ1
 62
     1
370
    -2
100
AcDbLine
 10
-265.759514989024
 20
-1851.636274251643
 30
0.0
 11
4.374374282483132
 21
-1851.636274251643
 31
0.0
  0
LINE
  5
83D
330
838
100
AcDbEntity
  8
ﾚｲﾔ1
 62
     1
370
    -2
100
AcDbLine
 10
3.874374282483158
 20
-1416.636306520135
 30
0.0
 11
3.874374282483133
 21
-1831.636274251643
 31
0.0
  0
SOLID
  5
83E
330
838
100
AcDbEntity
  8
ﾚｲﾔ1
 62
     1
100
AcDbTrace
 10
7.207707615816492
 20
-1416.636306520135
 30
0.0
 11
0.5410409491498247
 21
-1416.636306520135
 31
0.0
 12
3.87437428248316
 22
-1396.636306520135
 32
0.0
 13
3.87437428248316
 23
-1396.636306520135
 33
0.0
  0
SOLID
  5
83F
330
838
100
AcDbEntity
  8
ﾚｲﾔ1
 62
     1
100
AcDbTrace
 10
0.5410409491497994
 20
-1831.636274251643
 30
0.0
 11
7.207707615816466
 21
-1831.636274251643
 31
0.0
 12
3.874374282483132
 22
-1851.636274251643
 32
0.0
 13
3.874374282483132
 23
-1851.636274251643
 33
0.0
  0
MTEXT
  5
840
330
838
100
AcDbEntity
  8
ﾚｲﾔ1
 62
     1
100
AcDbMText
 10
-6.625625717516854
 20
-1624.136290385889
 30
0.0
 40
20.0
 41
0.0
 46
0.0
 71
     5
 72
     1
  1
\A1;φ455
  7
TextStyle01
 11
6.148927957081382E-17
 21
1.0
 31
0.0
 73
     1
 44
1.0
  0
POINT
  5
841
330
838
100
AcDbEntity
  8
Defpoints
 62
     0
100
AcDbPoint
 10
-254.2787378402841
 20
-1396.636306520135
 30
0.0
  0
POINT
  5
842
330
838
100
AcDbEntity
  8
Defpoints
 62
     0
100
AcDbPoint
 10
-265.822014989024
 20
-1851.636274251643
 30
0.0
  0
POINT
  5
843
330
838
100
AcDbEntity
  8
Defpoints
 62
     0
100
AcDbPoint
 10
3.874374282483132
 20
-1851.636274251643
 30
0.0
  0
ENDBLK
  5
83A
330
838
100
AcDbEntity
  8
0
100
AcDbBlockEnd
  0
BLOCK
  5
845
330
844
100
AcDbEntity
  8
0
100
AcDbBlockBegin
  2
*D16
 70
     1
 10
0.0
 20
0.0
 30
0.0
  3
*D16
  1

  0
LINE
  5
847
330
844
100
AcDbEntity
  8
ﾚｲﾔ1
 62
     1
370
    -2
100
AcDbLine
 10
-446.6675895258481
 20
-1509.136297604175
 30
0.0
 11
-487.3069388499953
 21
-1509.136297604175
 31
0.0
  0
LINE
  5
848
330
844
100
AcDbEntity
  8
ﾚｲﾔ1
 62
     1
370
    -2
100
AcDbLine
 10
-446.6675895258481
 20
-1739.136314438203
 30
0.0
 11
-487.3069388499953
 21
-1739.136314438203
 31
0.0
  0
LINE
  5
849
330
844
100
AcDbEntity
  8
ﾚｲﾔ1
 62
     1
370
    -2
100
AcDbLine
 10
-486.8069388499953
 20
-1529.136297604175
 30
0.0
 11
-486.8069388499953
 21
-1719.136314438203
 31
0.0
  0
SOLID
  5
84A
330
844
100
AcDbEntity
  8
ﾚｲﾔ1
 62
     1
100
AcDbTrace
 10
-483.473605516662
 20
-1529.136297604175
 30
0.0
 11
-490.1402721833286
 21
-1529.136297604175
 31
0.0
 12
-486.8069388499953
 22
-1509.136297604175
 32
0.0
 13
-486.8069388499953
 23
-1509.136297604175
 33
0.0
  0
SOLID
  5
84B
330
844
100
AcDbEntity
  8
ﾚｲﾔ1
 62
     1
100
AcDbTrace
 10
-490.1402721833286
 20
-1719.136314438203
 30
0.0
 11
-483.473605516662
 21
-1719.136314438203
 31
0.0
 12
-486.8069388499953
 22
-1739.136314438203
 32
0.0
 13
-486.8069388499953
 23
-1739.136314438203
 33
0.0
  0
MTEXT
  5
84C
330
844
100
AcDbEntity
  8
ﾚｲﾔ1
 62
     1
100
AcDbMText
 10
-497.3069388499953
 20
-1624.136306021189
 30
0.0
 40
20.0
 41
0.0
 46
0.0
 71
     5
 72
     1
  1
\A1;φ230
  7
TextStyle01
 11
0.0
 21
1.0
 31
0.0
 73
     1
 44
1.0
  0
POINT
  5
84D
330
844
100
AcDbEntity
  8
Defpoints
 62
     0
100
AcDbPoint
 10
-446.6050895258481
 20
-1509.136297604175
 30
0.0
  0
POINT
  5
84E
330
844
100
AcDbEntity
  8
Defpoints
 62
     0
100
AcDbPoint
 10
-446.6050895258481
 20
-1739.136314438203
 30
0.0
  0
POINT
  5
84F
330
844
100
AcDbEntity
  8
Defpoints
 62
     0
100
AcDbPoint
 10
-486.8069388499953
 20
-1739.136314438203
 30
0.0
  0
ENDBLK
  5
846
330
844
100
AcDbEntity
  8
0
100
AcDbBlockEnd
  0
BLOCK
  5
851
330
850
100
AcDbEntity
  8
0
100
AcDbBlockBegin
  2
*D17
 70
     1
 10
0.0
 20
0.0
 30
0.0
  3
*D17
  1

  0
LINE
  5
853
330
850
100
AcDbEntity
  8
ﾚｲﾔ1
 62
     1
370
    -2
100
AcDbLine
 10
-448.5426164527489
 20
-1852.732169182439
 30
0.0
 11
-448.5426164527489
 21
-2081.589053898636
 31
0.0
  0
LINE
  5
854
330
850
100
AcDbEntity
  8
ﾚｲﾔ1
 62
     1
370
    -2
100
AcDbLine
 10
-153.5425859982051
 20
-1877.667220030345
 30
0.0
 11
-153.5425859982051
 21
-2081.589053898636
 31
0.0
  0
LINE
  5
855
330
850
100
AcDbEntity
  8
ﾚｲﾔ1
 62
     1
370
    -2
100
AcDbLine
 10
-428.5426164527489
 20
-2081.089053898636
 30
0.0
 11
-173.5425859982051
 21
-2081.089053898636
 31
0.0
  0
SOLID
  5
856
330
850
100
AcDbEntity
  8
ﾚｲﾔ1
 62
     1
100
AcDbTrace
 10
-428.5426164527489
 20
-2077.755720565303
 30
0.0
 11
-428.5426164527489
 21
-2084.42238723197
 31
0.0
 12
-448.5426164527489
 22
-2081.089053898636
 32
0.0
 13
-448.5426164527489
 23
-2081.089053898636
 33
0.0
  0
SOLID
  5
857
330
850
100
AcDbEntity
  8
ﾚｲﾔ1
 62
     1
100
AcDbTrace
 10
-173.5425859982051
 20
-2084.42238723197
 30
0.0
 11
-173.5425859982051
 21
-2077.755720565303
 31
0.0
 12
-153.5425859982051
 22
-2081.089053898636
 32
0.0
 13
-153.5425859982051
 23
-2081.089053898636
 33
0.0
  0
MTEXT
  5
858
330
850
100
AcDbEntity
  8
ﾚｲﾔ1
 62
     1
100
AcDbMText
 10
-301.042601225477
 20
-2070.589053898636
 30
0.0
 40
20.0
 41
0.0
 46
0.0
 71
     5
 72
     1
  1
\A1;295
  7
TextStyle01
 73
     1
 44
1.0
  0
POINT
  5
859
330
850
100
AcDbEntity
  8
Defpoints
 62
     0
100
AcDbPoint
 10
-448.5426164527489
 20
-1852.669669182439
 30
0.0
  0
POINT
  5
85A
330
850
100
AcDbEntity
  8
Defpoints
 62
     0
100
AcDbPoint
 10
-153.5425859982051
 20
-1877.604720030345
 30
0.0
  0
POINT
  5
85B
330
850
100
AcDbEntity
  8
Defpoints
 62
     0
100
AcDbPoint
 10
-153.5425859982051
 20
-2081.089053898636
 30
0.0
  0
ENDBLK
  5
852
330
850
100
AcDbEntity
  8
0
100
AcDbBlockEnd
  0
BLOCK
  5
A88
330
A87
100
AcDbEntity
  8
0
100
AcDbBlockBegin
  2
*D18
 70
     1
 10
0.0
 20
0.0
 30
0.0
  3
*D18
  1

  0
LINE
  5
A8A
330
A87
100
AcDbEntity
  8
寸法
 62
     1
370
    -2
100
AcDbLine
 10
-1129.059914626533
 20
-1478.26024793356
 30
0.0
 11
-1129.059914626533
 21
-1401.027617365803
 31
0.0
  0
LINE
  5
A8B
330
A87
100
AcDbEntity
  8
寸法
 62
     1
370
    -2
100
AcDbLine
 10
-369.1578759901695
 20
-1519.123884297197
 30
0.0
 11
-369.1578759901695
 21
-1401.027617365803
 31
0.0
  0
LINE
  5
A8C
330
A87
100
AcDbEntity
  8
寸法
 62
     1
370
    -2
100
AcDbLine
 10
-1124.059914626533
 20
-1401.527617365803
 30
0.0
 11
-374.1578759901695
 21
-1401.527617365803
 31
0.0
  0
INSERT
  5
A8D
330
A87
100
AcDbEntity
  8
寸法
 62
     1
370
    -2
100
AcDbBlockReference
  2
_Open30
 10
-1129.059914626533
 20
-1401.527617365803
 30
0.0
 41
5.0
 42
5.0
 43
5.0
 50
180.0
  0
INSERT
  5
A8E
330
A87
100
AcDbEntity
  8
寸法
 62
     1
370
    -2
100
AcDbBlockReference
  2
_Open30
 10
-369.1578759901695
 20
-1401.527617365803
 30
0.0
 41
5.0
 42
5.0
 43
5.0
  0
MTEXT
  5
A8F
330
A87
100
AcDbEntity
  8
寸法
 62
     1
100
AcDbMText
 10
-749.1088953083511
 20
-1395.527617365803
 30
0.0
 40
10.0
 41
0.0
 46
0.0
 71
     5
 72
     1
  1
\A1;760
 73
     1
 44
1.0
  0
POINT
  5
A90
330
A87
100
AcDbEntity
  8
Defpoints
 62
     0
100
AcDbPoint
 10
-1129.059914626533
 20
-1478.76024793356
 30
0.0
  0
POINT
  5
A91
330
A87
100
AcDbEntity
  8
Defpoints
 62
     0
100
AcDbPoint
 10
-369.1578759901695
 20
-1519.623884297197
 30
0.0
  0
POINT
  5
A92
330
A87
100
AcDbEntity
  8
Defpoints
 62
     0
100
AcDbPoint
 10
-369.1578759901695
 20
-1401.527617365803
 30
0.0
  0
ENDBLK
  5
A89
330
A87
100
AcDbEntity
  8
0
100
AcDbBlockEnd
  0
BLOCK
  5
B64
330
B63
100
AcDbEntity
  8
0
100
AcDbBlockBegin
  2
_OPEN
 70
     0
 10
0.0
 20
0.0
 30
0.0
  3
_OPEN
  1

  0
LINE
  5
B65
330
B63
100
AcDbEntity
  8
0
  6
ByBlock
 62
     0
100
AcDbLine
 10
-1.0
 20
0.1666666666666666
 30
0.0
 11
0.0
 21
0.0
 31
0.0
  0
LINE
  5
B67
330
B63
100
AcDbEntity
  8
0
  6
ByBlock
 62
     0
100
AcDbLine
 10
0.0
 20
0.0
 30
0.0
 11
-1.0
 21
-0.1666666666666666
 31
0.0
  0
LINE
  5
B68
330
B63
100
AcDbEntity
  8
0
  6
ByBlock
 62
     0
100
AcDbLine
 10
0.0
 20
0.0
 30
0.0
 11
-1.0
 21
0.0
 31
0.0
  0
ENDBLK
  5
B69
330
B63
100
AcDbEntity
  8
0
100
AcDbBlockEnd
  0
BLOCK
  5
BBE
330
BBD
100
AcDbEntity
  8
0
 62
     2
100
AcDbBlockBegin
  2
*D21
 70
     1
 10
0.0
 20
0.0
 30
0.0
  3
*D21
  1

  0
LINE
  5
BBF
330
BBD
100
AcDbEntity
  8
DIM
 62
     2
100
AcDbLine
 10
422.8525277181351
 20
325.142441887097
 30
0.0
 11
422.8525277181351
 21
267.1424418870969
 31
0.0
  0
LINE
  5
BC0
330
BBD
100
AcDbEntity
  8
DIM
 62
     2
100
AcDbLine
 10
1124.852527718134
 20
362.642441887097
 30
0.0
 11
1124.852527718134
 21
267.1424418870969
 31
0.0
  0
LINE
  5
BC1
330
BBD
100
AcDbEntity
  8
DIM
 62
     2
100
AcDbLine
 10
434.8525277181352
 20
270.142441887097
 30
0.0
 11
1112.852527718134
 21
270.142441887097
 31
0.0
  0
INSERT
  5
BC2
330
BBD
100
AcDbEntity
  8
DIM
 62
     2
100
AcDbBlockReference
  2
_OPEN
 10
422.8525277181351
 20
270.142441887097
 30
0.0
 41
12.0
 42
12.0
 43
12.0
 50
180.0
  0
INSERT
  5
BC3
330
BBD
100
AcDbEntity
  8
DIM
 62
     2
100
AcDbBlockReference
  2
_OPEN
 10
1124.852527718134
 20
270.142441887097
 30
0.0
 41
12.0
 42
12.0
 43
12.0
  0
MTEXT
  5
BC4
330
BBD
100
AcDbEntity
  8
DIM
 62
     3
100
AcDbMText
 10
773.8525277181349
 20
281.142441887097
 30
0.0
 40
18.0
 41
0.0
 46
0.0
 71
     5
 72
     1
  1
\A1;705
 73
     1
 44
1.0
  0
POINT
  5
BC5
330
BBD
100
AcDbEntity
  8
Defpoints
 62
     0
100
AcDbPoint
 10
422.8525277181351
 20
330.1424418870969
 30
0.0
  0
POINT
  5
BC6
330
BBD
100
AcDbEntity
  8
Defpoints
 62
     0
100
AcDbPoint
 10
1124.852527718134
 20
367.6424418870969
 30
0.0
  0
POINT
  5
BC7
330
BBD
100
AcDbEntity
  8
Defpoints
 62
     0
100
AcDbPoint
 10
1124.852527718134
 20
270.142441887097
 30
0.0
  0
ENDBLK
  5
BC8
330
BBD
100
AcDbEntity
  8
0
 62
     2
100
AcDbBlockEnd
  0
BLOCK
  5
BCB
330
BCA
100
AcDbEntity
  8
0
 62
     2
100
AcDbBlockBegin
  2
*D22
 70
     1
 10
0.0
 20
0.0
 30
0.0
  3
*D22
  1

  0
LINE
  5
BCC
330
BCA
100
AcDbEntity
  8
DIM
 62
     2
100
AcDbLine
 10
220.8527658845905
 20
622.9986953714337
 30
0.0
 11
220.8527658845905
 21
227.142441887097
 31
0.0
  0
LINE
  5
BCD
330
BCA
100
AcDbEntity
  8
DIM
 62
     2
100
AcDbLine
 10
1223.440984986255
 20
593.5629129531583
 30
0.0
 11
1223.440984986255
 21
227.142441887097
 31
0.0
  0
LINE
  5
BCE
330
BCA
100
AcDbEntity
  8
DIM
 62
     2
100
AcDbLine
 10
232.8527658845905
 20
230.1424418870969
 30
0.0
 11
1211.440984986255
 21
230.1424418870969
 31
0.0
  0
INSERT
  5
BCF
330
BCA
100
AcDbEntity
  8
DIM
 62
     2
100
AcDbBlockReference
  2
_OPEN
 10
220.8527658845905
 20
230.1424418870969
 30
0.0
 41
12.0
 42
12.0
 43
12.0
 50
180.0
  0
INSERT
  5
BD0
330
BCA
100
AcDbEntity
  8
DIM
 62
     2
100
AcDbBlockReference
  2
_OPEN
 10
1223.440984986255
 20
230.1424418870969
 30
0.0
 41
12.0
 42
12.0
 43
12.0
  0
MTEXT
  5
BD1
330
BCA
100
AcDbEntity
  8
DIM
 62
     3
100
AcDbMText
 10
722.1468754354227
 20
241.142441887097
 30
0.0
 40
18.0
 41
0.0
 46
0.0
 71
     5
 72
     1
  1
\A1;(1090)
 73
     1
 44
1.0
  0
POINT
  5
BD2
330
BCA
100
AcDbEntity
  8
Defpoints
 62
     0
100
AcDbPoint
 10
220.8527658845905
 20
627.9986953714337
 30
0.0
  0
POINT
  5
BD3
330
BCA
100
AcDbEntity
  8
Defpoints
 62
     0
100
AcDbPoint
 10
1223.440984986255
 20
598.5629129531583
 30
0.0
  0
POINT
  5
BD4
330
BCA
100
AcDbEntity
  8
Defpoints
 62
     0
100
AcDbPoint
 10
1223.440984986255
 20
230.1424418870969
 30
0.0
  0
ENDBLK
  5
BD5
330
BCA
100
AcDbEntity
  8
0
 62
     2
100
AcDbBlockEnd
  0
BLOCK
  5
C8D
330
C8C
100
AcDbEntity
  8
0
 62
     2
100
AcDbBlockBegin
  2
*D23
 70
     1
 10
0.0
 20
0.0
 30
0.0
  3
*D23
  1

  0
LINE
  5
C8E
330
C8C
100
AcDbEntity
  8
DIM
 62
     2
100
AcDbLine
 10
761.3875474815245
 20
385.2424418870971
 30
0.0
 11
763.3875474815245
 21
385.2424418870971
 31
0.0
  0
LINE
  5
C8F
330
C8C
100
AcDbEntity
  8
DIM
 62
     2
100
AcDbLine
 10
761.3875474815245
 20
525.0424418870969
 30
0.0
 11
763.3875474815245
 21
525.0424418870969
 31
0.0
  0
LINE
  5
C90
330
C8C
100
AcDbEntity
  8
DIM
 62
     2
100
AcDbLine
 10
766.3875474815244
 20
397.2424418870971
 30
0.0
 11
766.3875474815244
 21
513.0424418870969
 31
0.0
  0
INSERT
  5
C91
330
C8C
100
AcDbEntity
  8
DIM
 62
     2
100
AcDbBlockReference
  2
_OPEN
 10
766.3875474815244
 20
385.2424418870971
 30
0.0
 41
12.0
 42
12.0
 43
12.0
 50
270.0
  0
INSERT
  5
C92
330
C8C
100
AcDbEntity
  8
DIM
 62
     2
100
AcDbBlockReference
  2
_OPEN
 10
766.3875474815244
 20
525.0424418870969
 30
0.0
 41
12.0
 42
12.0
 43
12.0
 50
90.0
  0
MTEXT
  5
C93
330
C8C
100
AcDbEntity
  8
DIM
 62
     3
100
AcDbMText
 10
755.3875474815243
 20
455.142441887097
 30
0.0
 40
18.0
 41
0.0
 46
0.0
 71
     5
 72
     1
  1
\A1;%%C139.8
 11
1.000000000000000E-16
 21
1.0
 31
0.0
 73
     1
 44
1.0
  0
POINT
  5
C94
330
C8C
100
AcDbEntity
  8
Defpoints
 62
     0
100
AcDbPoint
 10
766.3875474815244
 20
385.2424418870971
 30
0.0
  0
POINT
  5
C95
330
C8C
100
AcDbEntity
  8
Defpoints
 62
     0
100
AcDbPoint
 10
766.3875474815244
 20
525.0424418870969
 30
0.0
  0
POINT
  5
C96
330
C8C
100
AcDbEntity
  8
Defpoints
 62
     0
100
AcDbPoint
 10
766.3875474815244
 20
525.0424418870969
 30
0.0
  0
ENDBLK
  5
C97
330
C8C
100
AcDbEntity
  8
0
 62
     2
100
AcDbBlockEnd
  0
BLOCK
  5
C9D
330
C9C
100
AcDbEntity
  8
0
 62
     2
100
AcDbBlockBegin
  2
*D24
 70
     1
 10
0.0
 20
0.0
 30
0.0
  3
*D24
  1

  0
LINE
  5
C9E
330
C9C
100
AcDbEntity
  8
DIM
 62
     2
100
AcDbLine
 10
1012.852527718134
 20
656.7861884027607
 30
0.0
 11
1286.440984986255
 21
656.7861884027604
 31
0.0
  0
LINE
  5
C9F
330
C9C
100
AcDbEntity
  8
DIM
 62
     2
100
AcDbLine
 10
1154.852527718134
 20
367.6424418870969
 30
0.0
 11
1286.440984986254
 21
367.6424418870969
 31
0.0
  0
LINE
  5
CA0
330
C9C
100
AcDbEntity
  8
DIM
 62
     2
100
AcDbLine
 10
1283.440984986254
 20
644.7861884027604
 30
0.0
 11
1283.440984986254
 21
379.6424418870969
 31
0.0
  0
INSERT
  5
CA1
330
C9C
100
AcDbEntity
  8
DIM
 62
     2
100
AcDbBlockReference
  2
_OPEN
 10
1283.440984986254
 20
656.7861884027604
 30
0.0
 41
12.0
 42
12.0
 43
12.0
 50
90.0
  0
INSERT
  5
CA2
330
C9C
100
AcDbEntity
  8
DIM
 62
     2
100
AcDbBlockReference
  2
_OPEN
 10
1283.440984986254
 20
367.6424418870969
 30
0.0
 41
12.0
 42
12.0
 43
12.0
 50
270.0
  0
MTEXT
  5
CA3
330
C9C
100
AcDbEntity
  8
DIM
 62
     3
100
AcDbMText
 10
1272.440984986254
 20
512.214315144929
 30
0.0
 40
18.0
 41
0.0
 46
0.0
 71
     5
 72
     1
  1
\A1;330
 11
1.000000000000000E-16
 21
1.0
 31
0.0
 73
     1
 44
1.0
  0
POINT
  5
CA4
330
C9C
100
AcDbEntity
  8
Defpoints
 62
     0
100
AcDbPoint
 10
1007.852527718134
 20
656.7861884027607
 30
0.0
  0
POINT
  5
CA5
330
C9C
100
AcDbEntity
  8
Defpoints
 62
     0
100
AcDbPoint
 10
1149.852527718134
 20
367.6424418870969
 30
0.0
  0
POINT
  5
CA6
330
C9C
100
AcDbEntity
  8
Defpoints
 62
     0
100
AcDbPoint
 10
1283.440984986254
 20
367.6424418870969
 30
0.0
  0
ENDBLK
  5
CA7
330
C9C
100
AcDbEntity
  8
0
 62
     2
100
AcDbBlockEnd
  0
BLOCK
  5
CF9
330
CF8
100
AcDbEntity
  8
0
 62
     2
100
AcDbBlockBegin
  2
*D25
 70
     1
 10
0.0
 20
0.0
 30
0.0
  3
*D25
  1

  0
LINE
  5
CFA
330
CF8
100
AcDbEntity
  8
DIM
 62
     2
100
AcDbLine
 10
1148.852527718134
 20
835.3189173271609
 30
0.0
 11
1286.440984986255
 21
835.3189173271606
 31
0.0
  0
LINE
  5
CFB
330
CF8
100
AcDbEntity
  8
DIM
 62
     2
100
AcDbLine
 10
1148.852527718134
 20
1035.318917327161
 30
0.0
 11
1286.440984986255
 21
1035.318917327161
 31
0.0
  0
LINE
  5
CFC
330
CF8
100
AcDbEntity
  8
DIM
 62
     2
100
AcDbLine
 10
1283.440984986255
 20
847.3189173271608
 30
0.0
 11
1283.440984986255
 21
1023.318917327161
 31
0.0
  0
INSERT
  5
CFD
330
CF8
100
AcDbEntity
  8
DIM
 62
     2
100
AcDbBlockReference
  2
_OPEN
 10
1283.440984986255
 20
835.3189173271606
 30
0.0
 41
12.0
 42
12.0
 43
12.0
 50
270.0
  0
INSERT
  5
CFE
330
CF8
100
AcDbEntity
  8
DIM
 62
     2
100
AcDbBlockReference
  2
_OPEN
 10
1283.440984986255
 20
1035.318917327161
 30
0.0
 41
12.0
 42
12.0
 43
12.0
 50
90.0
  0
MTEXT
  5
CFF
330
CF8
100
AcDbEntity
  8
DIM
 62
     3
100
AcDbMText
 10
1272.440984986254
 20
935.318917327161
 30
0.0
 40
18.0
 41
0.0
 46
0.0
 71
     5
 72
     1
  1
\A1;200
 11
1.000000000000000E-16
 21
1.0
 31
0.0
 73
     1
 44
1.0
  0
POINT
  5
D00
330
CF8
100
AcDbEntity
  8
Defpoints
 62
     0
100
AcDbPoint
 10
1143.852527718134
 20
835.3189173271609
 30
0.0
  0
POINT
  5
D01
330
CF8
100
AcDbEntity
  8
Defpoints
 62
     0
100
AcDbPoint
 10
1143.852527718134
 20
1035.318917327161
 30
0.0
  0
POINT
  5
D02
330
CF8
100
AcDbEntity
  8
Defpoints
 62
     0
100
AcDbPoint
 10
1283.440984986255
 20
1035.318917327161
 30
0.0
  0
ENDBLK
  5
D03
330
CF8
100
AcDbEntity
  8
0
 62
     2
100
AcDbBlockEnd
  0
BLOCK
  5
D06
330
D05
100
AcDbEntity
  8
0
 62
     2
100
AcDbBlockBegin
  2
*D26
 70
     1
 10
0.0
 20
0.0
 30
0.0
  3
*D26
  1

  0
LINE
  5
D07
330
D05
100
AcDbEntity
  8
DIM
 62
     2
100
AcDbLine
 10
1124.852527718134
 20
1066.280255827285
 30
0.0
 11
1326.440984986255
 21
1066.280255827285
 31
0.0
  0
LINE
  5
D08
330
D05
100
AcDbEntity
  8
DIM
 62
     2
100
AcDbLine
 10
1203.440984986255
 20
736.2802558272853
 30
0.0
 11
1326.440984986255
 21
736.2802558272851
 31
0.0
  0
LINE
  5
D09
330
D05
100
AcDbEntity
  8
DIM
 62
     2
100
AcDbLine
 10
1323.440984986254
 20
1054.280255827285
 30
0.0
 11
1323.440984986254
 21
748.2802558272851
 31
0.0
  0
INSERT
  5
D0A
330
D05
100
AcDbEntity
  8
DIM
 62
     2
100
AcDbBlockReference
  2
_OPEN
 10
1323.440984986254
 20
1066.280255827285
 30
0.0
 41
12.0
 42
12.0
 43
12.0
 50
90.0
  0
INSERT
  5
D0B
330
D05
100
AcDbEntity
  8
DIM
 62
     2
100
AcDbBlockReference
  2
_OPEN
 10
1323.440984986254
 20
736.2802558272851
 30
0.0
 41
12.0
 42
12.0
 43
12.0
 50
270.0
  0
MTEXT
  5
D0C
330
D05
100
AcDbEntity
  8
DIM
 62
     3
100
AcDbMText
 10
1312.440984986254
 20
901.2802558272851
 30
0.0
 40
18.0
 41
0.0
 46
0.0
 71
     5
 72
     1
  1
\A1;(330)
 11
1.000000000000000E-16
 21
1.0
 31
0.0
 73
     1
 44
1.0
  0
POINT
  5
D0D
330
D05
100
AcDbEntity
  8
Defpoints
 62
     0
100
AcDbPoint
 10
1119.852527718134
 20
1066.280255827285
 30
0.0
  0
POINT
  5
D0E
330
D05
100
AcDbEntity
  8
Defpoints
 62
     0
100
AcDbPoint
 10
1198.440984986254
 20
736.2802558272853
 30
0.0
  0
POINT
  5
D0F
330
D05
100
AcDbEntity
  8
Defpoints
 62
     0
100
AcDbPoint
 10
1323.440984986254
 20
736.2802558272851
 30
0.0
  0
ENDBLK
  5
D10
330
D05
100
AcDbEntity
  8
0
 62
     2
100
AcDbBlockEnd
  0
BLOCK
  5
11A4
330
11A3
100
AcDbEntity
  8
0
100
AcDbBlockBegin
  2
*D27
 70
     1
 10
0.0
 20
0.0
 30
0.0
  3
*D27
  1

  0
LINE
  5
11A6
330
11A3
100
AcDbEntity
  8
DIM
 62
     2
 48
4.0
370
    -2
100
AcDbLine
 10
1193.22109259384
 20
-1911.367939613823
 30
0.0
 11
1193.22109259384
 21
-1969.367939613823
 31
0.0
  0
LINE
  5
11A7
330
11A3
100
AcDbEntity
  8
DIM
 62
     2
 48
4.0
370
    -2
100
AcDbLine
 10
491.2210925938416
 20
-1873.867939613823
 30
0.0
 11
491.2210925938416
 21
-1969.367939613823
 31
0.0
  0
LINE
  5
11A8
330
11A3
100
AcDbEntity
  8
DIM
 62
     2
 48
4.0
370
    -2
100
AcDbLine
 10
1181.22109259384
 20
-1966.367939613823
 30
0.0
 11
503.2210925938416
 21
-1966.367939613823
 31
0.0
  0
INSERT
  5
11A9
330
11A3
100
AcDbEntity
  8
DIM
 62
     2
370
    -2
100
AcDbBlockReference
  2
_OPEN
 10
1193.22109259384
 20
-1966.367939613823
 30
0.0
 41
12.0
 42
12.0
 43
12.0
  0
INSERT
  5
11AA
330
11A3
100
AcDbEntity
  8
DIM
 62
     2
370
    -2
100
AcDbBlockReference
  2
_OPEN
 10
491.2210925938416
 20
-1966.367939613823
 30
0.0
 41
12.0
 42
12.0
 43
12.0
 50
180.0
  0
MTEXT
  5
11AB
330
11A3
100
AcDbEntity
  8
DIM
 62
     3
100
AcDbMText
 10
842.2210925938409
 20
-1959.367939613823
 30
0.0
 40
10.0
 41
0.0
 46
0.0
 71
     5
 72
     1
  1
\A1;705
 73
     1
 44
1.0
  0
POINT
  5
11AC
330
11A3
100
AcDbEntity
  8
Defpoints
 62
     0
100
AcDbPoint
 10
1193.22109259384
 20
-1906.367939613823
 30
0.0
  0
POINT
  5
11AD
330
11A3
100
AcDbEntity
  8
Defpoints
 62
     0
100
AcDbPoint
 10
491.2210925938416
 20
-1868.867939613823
 30
0.0
  0
POINT
  5
11AE
330
11A3
100
AcDbEntity
  8
Defpoints
 62
     0
100
AcDbPoint
 10
491.2210925938416
 20
-1966.367939613823
 30
0.0
  0
ENDBLK
  5
11A5
330
11A3
100
AcDbEntity
  8
0
100
AcDbBlockEnd
  0
BLOCK
  5
11B0
330
11AF
100
AcDbEntity
  8
0
100
AcDbBlockBegin
  2
*D28
 70
     1
 10
0.0
 20
0.0
 30
0.0
  3
*D28
  1

  0
LINE
  5
11B2
330
11AF
100
AcDbEntity
  8
DIM
 62
     2
 48
4.0
370
    -2
100
AcDbLine
 10
1395.220854427385
 20
-1613.511686129486
 30
0.0
 11
1395.220854427385
 21
-2009.367939613823
 31
0.0
  0
LINE
  5
11B3
330
11AF
100
AcDbEntity
  8
DIM
 62
     2
 48
4.0
370
    -2
100
AcDbLine
 10
392.6326353257205
 20
-1642.947468547761
 30
0.0
 11
392.6326353257205
 21
-2009.367939613823
 31
0.0
  0
LINE
  5
11B4
330
11AF
100
AcDbEntity
  8
DIM
 62
     2
 48
4.0
370
    -2
100
AcDbLine
 10
1383.220854427385
 20
-2006.367939613823
 30
0.0
 11
404.6326353257205
 21
-2006.367939613823
 31
0.0
  0
INSERT
  5
11B5
330
11AF
100
AcDbEntity
  8
DIM
 62
     2
370
    -2
100
AcDbBlockReference
  2
_OPEN
 10
1395.220854427385
 20
-2006.367939613823
 30
0.0
 41
12.0
 42
12.0
 43
12.0
 50
360.0
  0
INSERT
  5
11B6
330
11AF
100
AcDbEntity
  8
DIM
 62
     2
370
    -2
100
AcDbBlockReference
  2
_OPEN
 10
392.6326353257205
 20
-2006.367939613823
 30
0.0
 41
12.0
 42
12.0
 43
12.0
 50
180.0
  0
MTEXT
  5
11B7
330
11AF
100
AcDbEntity
  8
DIM
 62
     3
100
AcDbMText
 10
893.9267448765527
 20
-1999.367939613823
 30
0.0
 40
10.0
 41
0.0
 46
0.0
 71
     5
 72
     1
  1
\A1;(1090)
 73
     1
 44
1.0
  0
POINT
  5
11B8
330
11AF
100
AcDbEntity
  8
Defpoints
 62
     0
100
AcDbPoint
 10
1395.220854427385
 20
-1608.511686129486
 30
0.0
  0
POINT
  5
11B9
330
11AF
100
AcDbEntity
  8
Defpoints
 62
     0
100
AcDbPoint
 10
392.6326353257205
 20
-1637.947468547761
 30
0.0
  0
POINT
  5
11BA
330
11AF
100
AcDbEntity
  8
Defpoints
 62
     0
100
AcDbPoint
 10
392.6326353257205
 20
-2006.367939613823
 30
0.0
  0
ENDBLK
  5
11B1
330
11AF
100
AcDbEntity
  8
0
100
AcDbBlockEnd
  0
BLOCK
  5
11BC
330
11BB
100
AcDbEntity
  8
0
100
AcDbBlockBegin
  2
*D29
 70
     1
 10
0.0
 20
0.0
 30
0.0
  3
*D29
  1

  0
LINE
  5
11BE
330
11BB
100
AcDbEntity
  8
DIM
 62
     2
 48
4.0
370
    -2
100
AcDbLine
 10
854.6860728304509
 20
-1851.267939613822
 30
0.0
 11
852.6860728304509
 21
-1851.267939613822
 31
0.0
  0
LINE
  5
11BF
330
11BB
100
AcDbEntity
  8
DIM
 62
     2
 48
4.0
370
    -2
100
AcDbLine
 10
854.6860728304509
 20
-1711.467939613823
 30
0.0
 11
852.6860728304509
 21
-1711.467939613823
 31
0.0
  0
LINE
  5
11C0
330
11BB
100
AcDbEntity
  8
DIM
 62
     2
 48
4.0
370
    -2
100
AcDbLine
 10
849.6860728304509
 20
-1839.267939613822
 30
0.0
 11
849.6860728304509
 21
-1723.467939613823
 31
0.0
  0
INSERT
  5
11C1
330
11BB
100
AcDbEntity
  8
DIM
 62
     2
370
    -2
100
AcDbBlockReference
  2
_OPEN
 10
849.6860728304509
 20
-1851.267939613822
 30
0.0
 41
12.0
 42
12.0
 43
12.0
 50
270.0
  0
INSERT
  5
11C2
330
11BB
100
AcDbEntity
  8
DIM
 62
     2
370
    -2
100
AcDbBlockReference
  2
_OPEN
 10
849.6860728304509
 20
-1711.467939613823
 30
0.0
 41
12.0
 42
12.0
 43
12.0
 50
90.0
  0
MTEXT
  5
11C3
330
11BB
100
AcDbEntity
  8
DIM
 62
     3
100
AcDbMText
 10
842.6860728304509
 20
-1781.367939613823
 30
0.0
 40
10.0
 41
0.0
 46
0.0
 71
     5
 72
     1
  1
\A1;%%C139.8
 11
0.0
 21
1.0
 31
0.0
 73
     1
 44
1.0
  0
POINT
  5
11C4
330
11BB
100
AcDbEntity
  8
Defpoints
 62
     0
100
AcDbPoint
 10
849.6860728304509
 20
-1851.267939613822
 30
0.0
  0
POINT
  5
11C5
330
11BB
100
AcDbEntity
  8
Defpoints
 62
     0
100
AcDbPoint
 10
849.6860728304509
 20
-1711.467939613823
 30
0.0
  0
POINT
  5
11C6
330
11BB
100
AcDbEntity
  8
Defpoints
 62
     0
100
AcDbPoint
 10
849.6860728304509
 20
-1711.467939613823
 30
0.0
  0
ENDBLK
  5
11BD
330
11BB
100
AcDbEntity
  8
0
100
AcDbBlockEnd
  0
BLOCK
  5
11C8
330
11C7
100
AcDbEntity
  8
0
100
AcDbBlockBegin
  2
*D30
 70
     1
 10
0.0
 20
0.0
 30
0.0
  3
*D30
  1

  0
LINE
  5
11CA
330
11C7
100
AcDbEntity
  8
DIM
 62
     2
 48
4.0
370
    -2
100
AcDbLine
 10
603.2210925938416
 20
-1579.724193098159
 30
0.0
 11
329.6326353257213
 21
-1579.724193098159
 31
0.0
  0
LINE
  5
11CB
330
11C7
100
AcDbEntity
  8
DIM
 62
     2
 48
4.0
370
    -2
100
AcDbLine
 10
461.2210925938414
 20
-1868.867939613823
 30
0.0
 11
329.6326353257214
 21
-1868.867939613823
 31
0.0
  0
LINE
  5
11CC
330
11C7
100
AcDbEntity
  8
DIM
 62
     2
 48
4.0
370
    -2
100
AcDbLine
 10
332.6326353257213
 20
-1591.724193098159
 30
0.0
 11
332.6326353257214
 21
-1856.867939613823
 31
0.0
  0
INSERT
  5
11CD
330
11C7
100
AcDbEntity
  8
DIM
 62
     2
370
    -2
100
AcDbBlockReference
  2
_OPEN
 10
332.6326353257213
 20
-1579.724193098159
 30
0.0
 41
12.0
 42
12.0
 43
12.0
 50
90.00000000000001
  0
INSERT
  5
11CE
330
11C7
100
AcDbEntity
  8
DIM
 62
     2
370
    -2
100
AcDbBlockReference
  2
_OPEN
 10
332.6326353257214
 20
-1868.867939613823
 30
0.0
 41
12.0
 42
12.0
 43
12.0
 50
270.0
  0
MTEXT
  5
11CF
330
11C7
100
AcDbEntity
  8
DIM
 62
     3
100
AcDbMText
 10
325.6326353257214
 20
-1724.296066355991
 30
0.0
 40
10.0
 41
0.0
 46
0.0
 71
     5
 72
     1
  1
\A1;330
 11
-1.965922470944004E-16
 21
1.0
 31
0.0
 73
     1
 44
1.0
  0
POINT
  5
11D0
330
11C7
100
AcDbEntity
  8
Defpoints
 62
     0
100
AcDbPoint
 10
608.2210925938416
 20
-1579.724193098159
 30
0.0
  0
POINT
  5
11D1
330
11C7
100
AcDbEntity
  8
Defpoints
 62
     0
100
AcDbPoint
 10
466.2210925938414
 20
-1868.867939613823
 30
0.0
  0
POINT
  5
11D2
330
11C7
100
AcDbEntity
  8
Defpoints
 62
     0
100
AcDbPoint
 10
332.6326353257214
 20
-1868.867939613823
 30
0.0
  0
ENDBLK
  5
11C9
330
11C7
100
AcDbEntity
  8
0
100
AcDbBlockEnd
  0
BLOCK
  5
11D4
330
11D3
100
AcDbEntity
  8
0
100
AcDbBlockBegin
  2
*D31
 70
     1
 10
0.0
 20
0.0
 30
0.0
  3
*D31
  1

  0
LINE
  5
11D6
330
11D3
100
AcDbEntity
  8
DIM
 62
     2
 48
4.0
370
    -2
100
AcDbLine
 10
535.4172852593683
 20
-1353.101083722614
 30
0.0
 11
397.8288279912472
 21
-1353.101083722614
 31
0.0
  0
LINE
  5
11D7
330
11D3
100
AcDbEntity
  8
DIM
 62
     2
 48
4.0
370
    -2
100
AcDbLine
 10
535.4172852593683
 20
-1153.101083722613
 30
0.0
 11
397.8288279912472
 21
-1153.101083722613
 31
0.0
  0
LINE
  5
11D8
330
11D3
100
AcDbEntity
  8
DIM
 62
     2
 48
4.0
370
    -2
100
AcDbLine
 10
400.8288279912472
 20
-1341.101083722614
 30
0.0
 11
400.8288279912472
 21
-1165.101083722613
 31
0.0
  0
INSERT
  5
11D9
330
11D3
100
AcDbEntity
  8
DIM
 62
     2
370
    -2
100
AcDbBlockReference
  2
_OPEN
 10
400.8288279912472
 20
-1353.101083722614
 30
0.0
 41
12.0
 42
12.0
 43
12.0
 50
270.0
  0
INSERT
  5
11DA
330
11D3
100
AcDbEntity
  8
DIM
 62
     2
370
    -2
100
AcDbBlockReference
  2
_OPEN
 10
400.8288279912472
 20
-1153.101083722613
 30
0.0
 41
12.0
 42
12.0
 43
12.0
 50
90.00000000000001
  0
MTEXT
  5
11DB
330
11D3
100
AcDbEntity
  8
DIM
 62
     3
100
AcDbMText
 10
393.8288279912472
 20
-1253.101083722614
 30
0.0
 40
10.0
 41
0.0
 46
0.0
 71
     5
 72
     1
  1
\A1;200
 11
-2.842170943040397E-16
 21
1.0
 31
0.0
 73
     1
 44
1.0
  0
POINT
  5
11DC
330
11D3
100
AcDbEntity
  8
Defpoints
 62
     0
100
AcDbPoint
 10
540.4172852593683
 20
-1353.101083722614
 30
0.0
  0
POINT
  5
11DD
330
11D3
100
AcDbEntity
  8
Defpoints
 62
     0
100
AcDbPoint
 10
540.4172852593683
 20
-1153.101083722613
 30
0.0
  0
POINT
  5
11DE
330
11D3
100
AcDbEntity
  8
Defpoints
 62
     0
100
AcDbPoint
 10
400.8288279912472
 20
-1153.101083722613
 30
0.0
  0
ENDBLK
  5
11D5
330
11D3
100
AcDbEntity
  8
0
100
AcDbBlockEnd
  0
BLOCK
  5
11E0
330
11DF
100
AcDbEntity
  8
0
100
AcDbBlockBegin
  2
*D32
 70
     1
 10
0.0
 20
0.0
 30
0.0
  3
*D32
  1

  0
LINE
  5
11E2
330
11DF
100
AcDbEntity
  8
DIM
 62
     2
 48
4.0
370
    -2
100
AcDbLine
 10
559.4172852593683
 20
-1122.139745222489
 30
0.0
 11
357.828827991248
 21
-1122.139745222489
 31
0.0
  0
LINE
  5
11E3
330
11DF
100
AcDbEntity
  8
DIM
 62
     2
 48
4.0
370
    -2
100
AcDbLine
 10
480.8288279912481
 20
-1452.139745222489
 30
0.0
 11
357.8288279912481
 21
-1452.139745222489
 31
0.0
  0
LINE
  5
11E4
330
11DF
100
AcDbEntity
  8
DIM
 62
     2
 48
4.0
370
    -2
100
AcDbLine
 10
360.828827991248
 20
-1134.139745222489
 30
0.0
 11
360.8288279912481
 21
-1440.139745222489
 31
0.0
  0
INSERT
  5
11E5
330
11DF
100
AcDbEntity
  8
DIM
 62
     2
370
    -2
100
AcDbBlockReference
  2
_OPEN
 10
360.828827991248
 20
-1122.139745222489
 30
0.0
 41
12.0
 42
12.0
 43
12.0
 50
90.00000000000001
  0
INSERT
  5
11E6
330
11DF
100
AcDbEntity
  8
DIM
 62
     2
370
    -2
100
AcDbBlockReference
  2
_OPEN
 10
360.8288279912481
 20
-1452.139745222489
 30
0.0
 41
12.0
 42
12.0
 43
12.0
 50
270.0
  0
MTEXT
  5
11E7
330
11DF
100
AcDbEntity
  8
DIM
 62
     3
100
AcDbMText
 10
353.8288279912481
 20
-1287.139745222489
 30
0.0
 40
10.0
 41
0.0
 46
0.0
 71
     5
 72
     1
  1
\A1;(330)
 11
-1.722527844266911E-16
 21
1.0
 31
0.0
 73
     1
 44
1.0
  0
POINT
  5
11E8
330
11DF
100
AcDbEntity
  8
Defpoints
 62
     0
100
AcDbPoint
 10
564.4172852593683
 20
-1122.139745222489
 30
0.0
  0
POINT
  5
11E9
330
11DF
100
AcDbEntity
  8
Defpoints
 62
     0
100
AcDbPoint
 10
485.8288279912481
 20
-1452.139745222489
 30
0.0
  0
POINT
  5
11EA
330
11DF
100
AcDbEntity
  8
Defpoints
 62
     0
100
AcDbPoint
 10
360.8288279912481
 20
-1452.139745222489
 30
0.0
  0
ENDBLK
  5
11E1
330
11DF
100
AcDbEntity
  8
0
100
AcDbBlockEnd
  0
BLOCK
  5
11EF
330
11EE
100
AcDbEntity
  8
0
100
AcDbBlockBegin
  2
*D33
 70
     1
 10
0.0
 20
0.0
 30
0.0
  3
*D33
  1

  0
LINE
  5
11F1
330
11EE
100
AcDbEntity
  8
寸法
 62
     1
370
    -2
100
AcDbLine
 10
1193.22109259384
 20
-1917.917827795965
 30
0.0
 11
1193.22109259384
 21
-1966.867939613823
 31
0.0
  0
LINE
  5
11F2
330
11EE
100
AcDbEntity
  8
寸法
 62
     1
370
    -2
100
AcDbLine
 10
491.2210925938416
 20
-1886.22419309816
 30
0.0
 11
491.2210925938415
 21
-1966.867939613823
 31
0.0
  0
LINE
  5
11F3
330
11EE
100
AcDbEntity
  8
寸法
 62
     1
370
    -2
100
AcDbLine
 10
1188.22109259384
 20
-1966.367939613823
 30
0.0
 11
496.2210925938415
 21
-1966.367939613823
 31
0.0
  0
INSERT
  5
11F4
330
11EE
100
AcDbEntity
  8
寸法
 62
     1
370
    -2
100
AcDbBlockReference
  2
_Open30
 10
1193.22109259384
 20
-1966.367939613823
 30
0.0
 41
5.0
 42
5.0
 43
5.0
  0
INSERT
  5
11F5
330
11EE
100
AcDbEntity
  8
寸法
 62
     1
370
    -2
100
AcDbBlockReference
  2
_Open30
 10
491.2210925938415
 20
-1966.367939613823
 30
0.0
 41
5.0
 42
5.0
 43
5.0
 50
180.0
  0
MTEXT
  5
11F6
330
11EE
100
AcDbEntity
  8
寸法
 62
     1
100
AcDbMText
 10
842.2210925938409
 20
-1960.367939613823
 30
0.0
 40
10.0
 41
0.0
 46
0.0
 71
     5
 72
     1
  1
\A1;702
 73
     1
 44
1.0
  0
POINT
  5
11F7
330
11EE
100
AcDbEntity
  8
Defpoints
 62
     0
100
AcDbPoint
 10
1193.22109259384
 20
-1906.367939613823
 30
0.0
  0
POINT
  5
11F8
330
11EE
100
AcDbEntity
  8
Defpoints
 62
     0
100
AcDbPoint
 10
491.2210925938415
 20
-1868.867939613823
 30
0.0
  0
POINT
  5
11F9
330
11EE
100
AcDbEntity
  8
Defpoints
 62
     0
100
AcDbPoint
 10
491.2210925938415
 20
-1966.367939613823
 30
0.0
  0
ENDBLK
  5
11F0
330
11EE
100
AcDbEntity
  8
0
100
AcDbBlockEnd
  0
BLOCK
  5
11FE
330
11FD
100
AcDbEntity
  8
0
100
AcDbBlockBegin
  2
*D34
 70
     1
 10
0.0
 20
0.0
 30
0.0
  3
*D34
  1

  0
LINE
  5
1200
330
11FD
100
AcDbEntity
  8
寸法
 62
     1
370
    -2
100
AcDbLine
 10
1395.220854427385
 20
-1608.367939613822
 30
0.0
 11
1395.220854427385
 21
-2006.867939613823
 31
0.0
  0
LINE
  5
1201
330
11FD
100
AcDbEntity
  8
寸法
 62
     1
370
    -2
100
AcDbLine
 10
392.6326353257205
 20
-1638.447468547761
 30
0.0
 11
392.6326353257205
 21
-2006.867939613823
 31
0.0
  0
LINE
  5
1202
330
11FD
100
AcDbEntity
  8
寸法
 62
     1
370
    -2
100
AcDbLine
 10
1390.220854427385
 20
-2006.367939613823
 30
0.0
 11
397.6326353257205
 21
-2006.367939613823
 31
0.0
  0
INSERT
  5
1203
330
11FD
100
AcDbEntity
  8
寸法
 62
     1
370
    -2
100
AcDbBlockReference
  2
_Open30
 10
1395.220854427385
 20
-2006.367939613823
 30
0.0
 41
5.0
 42
5.0
 43
5.0
  0
INSERT
  5
1204
330
11FD
100
AcDbEntity
  8
寸法
 62
     1
370
    -2
100
AcDbBlockReference
  2
_Open30
 10
392.6326353257205
 20
-2006.367939613823
 30
0.0
 41
5.0
 42
5.0
 43
5.0
 50
180.0
  0
MTEXT
  5
1205
330
11FD
100
AcDbEntity
  8
寸法
 62
     1
100
AcDbMText
 10
893.9267448765527
 20
-2000.367939613823
 30
0.0
 40
10.0
 41
0.0
 46
0.0
 71
     5
 72
     1
  1
\A1;1003
 73
     1
 44
1.0
  0
POINT
  5
1206
330
11FD
100
AcDbEntity
  8
Defpoints
 62
     0
100
AcDbPoint
 10
1395.220854427385
 20
-1607.867939613822
 30
0.0
  0
POINT
  5
1207
330
11FD
100
AcDbEntity
  8
Defpoints
 62
     0
100
AcDbPoint
 10
392.6326353257205
 20
-1637.947468547761
 30
0.0
  0
POINT
  5
1208
330
11FD
100
AcDbEntity
  8
Defpoints
 62
     0
100
AcDbPoint
 10
392.6326353257205
 20
-2006.367939613823
 30
0.0
  0
ENDBLK
  5
11FF
330
11FD
100
AcDbEntity
  8
0
100
AcDbBlockEnd
  0
BLOCK
  5
120D
330
120C
100
AcDbEntity
  8
0
100
AcDbBlockBegin
  2
*D35
 70
     1
 10
0.0
 20
0.0
 30
0.0
  3
*D35
  1

  0
LINE
  5
120F
330
120C
100
AcDbEntity
  8
寸法
 62
     1
370
    -2
100
AcDbLine
 10
607.7210925938416
 20
-1579.724193098159
 30
0.0
 11
332.1326353257214
 21
-1579.724193098159
 31
0.0
  0
LINE
  5
1210
330
120C
100
AcDbEntity
  8
寸法
 62
     1
370
    -2
100
AcDbLine
 10
465.7210925938414
 20
-1868.867939613823
 30
0.0
 11
332.1326353257214
 21
-1868.867939613823
 31
0.0
  0
LINE
  5
1211
330
120C
100
AcDbEntity
  8
寸法
 62
     1
370
    -2
100
AcDbLine
 10
332.6326353257214
 20
-1584.724193098159
 30
0.0
 11
332.6326353257214
 21
-1863.867939613823
 31
0.0
  0
INSERT
  5
1212
330
120C
100
AcDbEntity
  8
寸法
 62
     1
370
    -2
100
AcDbBlockReference
  2
_Open30
 10
332.6326353257214
 20
-1579.724193098159
 30
0.0
 41
5.0
 42
5.0
 43
5.0
 50
90.0
  0
INSERT
  5
1213
330
120C
100
AcDbEntity
  8
寸法
 62
     1
370
    -2
100
AcDbBlockReference
  2
_Open30
 10
332.6326353257214
 20
-1868.867939613823
 30
0.0
 41
5.0
 42
5.0
 43
5.0
 50
270.0
  0
MTEXT
  5
1214
330
120C
100
AcDbEntity
  8
寸法
 62
     1
100
AcDbMText
 10
326.6326353257214
 20
-1724.296066355991
 30
0.0
 40
10.0
 41
0.0
 46
0.0
 71
     5
 72
     1
  1
\A1;290^J
 11
0.0
 21
1.0
 31
0.0
 73
     1
 44
1.0
  0
POINT
  5
1215
330
120C
100
AcDbEntity
  8
Defpoints
 62
     0
100
AcDbPoint
 10
608.2210925938416
 20
-1579.724193098159
 30
0.0
  0
POINT
  5
1216
330
120C
100
AcDbEntity
  8
Defpoints
 62
     0
100
AcDbPoint
 10
466.2210925938414
 20
-1868.867939613823
 30
0.0
  0
POINT
  5
1217
330
120C
100
AcDbEntity
  8
Defpoints
 62
     0
100
AcDbPoint
 10
332.6326353257214
 20
-1868.867939613823
 30
0.0
  0
ENDBLK
  5
120E
330
120C
100
AcDbEntity
  8
0
100
AcDbBlockEnd
  0
BLOCK
  5
121F
330
121E
100
AcDbEntity
  8
0
100
AcDbBlockBegin
  2
*D36
 70
     1
 10
0.0
 20
0.0
 30
0.0
  3
*D36
  1

  0
LINE
  5
1221
330
121E
100
AcDbEntity
  8
寸法
 62
     1
370
    -2
100
AcDbLine
 10
849.1860728304509
 20
-1711.467939613823
 30
0.0
 11
849.1860728304509
 21
-1711.467939613823
 31
0.0
  0
LINE
  5
1222
330
121E
100
AcDbEntity
  8
寸法
 62
     1
370
    -2
100
AcDbLine
 10
849.1860728304509
 20
-1851.267939613822
 30
0.0
 11
849.1860728304509
 21
-1851.267939613822
 31
0.0
  0
LINE
  5
1223
330
121E
100
AcDbEntity
  8
寸法
 62
     1
370
    -2
100
AcDbLine
 10
849.6860728304509
 20
-1716.467939613823
 30
0.0
 11
849.6860728304509
 21
-1846.267939613822
 31
0.0
  0
INSERT
  5
1224
330
121E
100
AcDbEntity
  8
寸法
 62
     1
370
    -2
100
AcDbBlockReference
  2
_Open30
 10
849.6860728304509
 20
-1711.467939613823
 30
0.0
 41
5.0
 42
5.0
 43
5.0
 50
90.0
  0
INSERT
  5
1225
330
121E
100
AcDbEntity
  8
寸法
 62
     1
370
    -2
100
AcDbBlockReference
  2
_Open30
 10
849.6860728304509
 20
-1851.267939613822
 30
0.0
 41
5.0
 42
5.0
 43
5.0
 50
270.0
  0
MTEXT
  5
1226
330
121E
100
AcDbEntity
  8
寸法
 62
     1
100
AcDbMText
 10
843.6860728304509
 20
-1781.367939613823
 30
0.0
 40
10.0
 41
0.0
 46
0.0
 71
     5
 72
     1
  1
\A1;Φ140
 11
0.0
 21
1.0
 31
0.0
 73
     1
 44
1.0
  0
POINT
  5
1227
330
121E
100
AcDbEntity
  8
Defpoints
 62
     0
100
AcDbPoint
 10
849.6860728304509
 20
-1711.467939613823
 30
0.0
  0
POINT
  5
1228
330
121E
100
AcDbEntity
  8
Defpoints
 62
     0
100
AcDbPoint
 10
849.6860728304509
 20
-1851.267939613822
 30
0.0
  0
POINT
  5
1229
330
121E
100
AcDbEntity
  8
Defpoints
 62
     0
100
AcDbPoint
 10
849.6860728304509
 20
-1851.267939613822
 30
0.0
  0
ENDBLK
  5
1220
330
121E
100
AcDbEntity
  8
0
100
AcDbBlockEnd
  0
BLOCK
  5
122F
330
122E
100
AcDbEntity
  8
0
100
AcDbBlockBegin
  2
*D37
 70
     1
 10
0.0
 20
0.0
 30
0.0
  3
*D37
  1

  0
LINE
  5
1231
330
122E
100
AcDbEntity
  8
寸法
 62
     1
370
    -2
100
AcDbLine
 10
539.9172852593683
 20
-1153.101083722613
 30
0.0
 11
400.3288279912472
 21
-1153.101083722613
 31
0.0
  0
LINE
  5
1232
330
122E
100
AcDbEntity
  8
寸法
 62
     1
370
    -2
100
AcDbLine
 10
539.9172852593683
 20
-1353.101083722614
 30
0.0
 11
400.3288279912472
 21
-1353.101083722614
 31
0.0
  0
LINE
  5
1233
330
122E
100
AcDbEntity
  8
寸法
 62
     1
370
    -2
100
AcDbLine
 10
400.8288279912472
 20
-1158.101083722613
 30
0.0
 11
400.8288279912472
 21
-1348.101083722614
 31
0.0
  0
INSERT
  5
1234
330
122E
100
AcDbEntity
  8
寸法
 62
     1
370
    -2
100
AcDbBlockReference
  2
_Open30
 10
400.8288279912472
 20
-1153.101083722613
 30
0.0
 41
5.0
 42
5.0
 43
5.0
 50
90.0
  0
INSERT
  5
1235
330
122E
100
AcDbEntity
  8
寸法
 62
     1
370
    -2
100
AcDbBlockReference
  2
_Open30
 10
400.8288279912472
 20
-1353.101083722614
 30
0.0
 41
5.0
 42
5.0
 43
5.0
 50
270.0
  0
MTEXT
  5
1236
330
122E
100
AcDbEntity
  8
寸法
 62
     1
100
AcDbMText
 10
394.8288279912472
 20
-1253.101083722614
 30
0.0
 40
10.0
 41
0.0
 46
0.0
 71
     5
 72
     1
  1
\A1;200
 11
0.0
 21
1.0
 31
0.0
 73
     1
 44
1.0
  0
POINT
  5
1237
330
122E
100
AcDbEntity
  8
Defpoints
 62
     0
100
AcDbPoint
 10
540.4172852593683
 20
-1153.101083722613
 30
0.0
  0
POINT
  5
1238
330
122E
100
AcDbEntity
  8
Defpoints
 62
     0
100
AcDbPoint
 10
540.4172852593683
 20
-1353.101083722614
 30
0.0
  0
POINT
  5
1239
330
122E
100
AcDbEntity
  8
Defpoints
 62
     0
100
AcDbPoint
 10
400.8288279912472
 20
-1353.101083722614
 30
0.0
  0
ENDBLK
  5
1230
330
122E
100
AcDbEntity
  8
0
100
AcDbBlockEnd
  0
BLOCK
  5
123E
330
123D
100
AcDbEntity
  8
0
100
AcDbBlockBegin
  2
*D38
 70
     1
 10
0.0
 20
0.0
 30
0.0
  3
*D38
  1

  0
LINE
  5
1240
330
123D
100
AcDbEntity
  8
寸法
 62
     1
370
    -2
100
AcDbLine
 10
485.3288279912481
 20
-1452.139745222489
 30
0.0
 11
360.328827991248
 21
-1452.139745222489
 31
0.0
  0
LINE
  5
1241
330
123D
100
AcDbEntity
  8
寸法
 62
     1
370
    -2
100
AcDbLine
 10
547.3176163888261
 20
-1122.139745222489
 30
0.0
 11
360.328827991248
 21
-1122.139745222489
 31
0.0
  0
LINE
  5
1242
330
123D
100
AcDbEntity
  8
寸法
 62
     1
370
    -2
100
AcDbLine
 10
360.828827991248
 20
-1447.139745222489
 30
0.0
 11
360.828827991248
 21
-1127.139745222489
 31
0.0
  0
INSERT
  5
1243
330
123D
100
AcDbEntity
  8
寸法
 62
     1
370
    -2
100
AcDbBlockReference
  2
_Open30
 10
360.828827991248
 20
-1452.139745222489
 30
0.0
 41
5.0
 42
5.0
 43
5.0
 50
270.0
  0
INSERT
  5
1244
330
123D
100
AcDbEntity
  8
寸法
 62
     1
370
    -2
100
AcDbBlockReference
  2
_Open30
 10
360.828827991248
 20
-1122.139745222489
 30
0.0
 41
5.0
 42
5.0
 43
5.0
 50
90.0
  0
MTEXT
  5
1245
330
123D
100
AcDbEntity
  8
寸法
 62
     1
100
AcDbMText
 10
354.828827991248
 20
-1287.139745222489
 30
0.0
 40
10.0
 41
0.0
 46
0.0
 71
     5
 72
     1
  1
\A1;330
 11
0.0
 21
1.0
 31
0.0
 73
     1
 44
1.0
  0
POINT
  5
1246
330
123D
100
AcDbEntity
  8
Defpoints
 62
     0
100
AcDbPoint
 10
485.8288279912481
 20
-1452.139745222489
 30
0.0
  0
POINT
  5
1247
330
123D
100
AcDbEntity
  8
Defpoints
 62
     0
100
AcDbPoint
 10
564.4172852593676
 20
-1122.139745222489
 30
0.0
  0
POINT
  5
1248
330
123D
100
AcDbEntity
  8
Defpoints
 62
     0
100
AcDbPoint
 10
360.828827991248
 20
-1122.139745222489
 30
0.0
  0
ENDBLK
  5
123F
330
123D
100
AcDbEntity
  8
0
100
AcDbBlockEnd
  0
ENDSEC
  0
SECTION
  2
ENTITIES
  0
LWPOLYLINE
  5
A99
330
1E
100
AcDbEntity
  8
ﾚｲﾔ1
100
AcDbPolyline
 90
        4
 70
     1
 43
0.0
 10
39.69100389040597
 20
-845.6057960190453
 10
1964.278474808217
 20
-845.6057960190453
 10
1964.278474808217
 20
-2206.40590397108
 10
39.69100389040597
 20
-2206.40590397108
  0
LINE
  5
A9A
330
1E
100
AcDbEntity
  8
図面枠
  6
Continuous
100
AcDbLine
 10
140.1329913481768
 20
-915.6709792276208
 30
0.0
 11
1847.74942439495
 21
-915.6709792276208
 31
0.0
  0
LINE
  5
A9B
330
1E
100
AcDbEntity
  8
図面枠
  6
Continuous
100
AcDbLine
 10
1861.266177163134
 20
-902.1542264594398
 30
0.0
 11
126.6162385799933
 21
-902.1542264594398
 31
0.0
  0
LINE
  5
A9C
330
1E
100
AcDbEntity
  8
ﾚｲﾔ1
100
AcDbLine
 10
1447.089490005499
 20
-1130.492008243657
 30
0.0
 11
1797.537800884035
 21
-1130.492008243657
 31
0.0
  0
LINE
  5
A9D
330
1E
100
AcDbEntity
  8
ﾚｲﾔ1
100
AcDbLine
 10
1447.089490005499
 20
-1098.41600824375
 30
0.0
 11
1797.537800884035
 21
-1098.41600824375
 31
0.0
  0
LINE
  5
A9E
330
1E
100
AcDbEntity
  8
ﾚｲﾔ1
100
AcDbLine
 10
1447.089490005499
 20
-1130.492008243657
 30
0.0
 11
1797.537800884035
 21
-1130.492008243657
 31
0.0
  0
MTEXT
  5
A9F
330
1E
100
AcDbEntity
  8
ﾚｲﾔ1
100
AcDbMText
 10
1448.31522946957
 20
-1118.478960014717
 30
0.0
 40
10.69199999999999
 41
1721.152180503884
 46
0.0
 71
     1
 72
     5
  1
重　　量
 73
     1
 44
1.0
  0
MTEXT
  5
AA0
330
1E
100
AcDbEntity
  8
ﾚｲﾔ1
100
AcDbMText
 10
1448.683924636179
 20
-1082.691544755582
 30
0.0
 40
12.474
 41
1721.152180503884
 46
10.395
 71
     1
 72
     5
  1
{有 効  油 量}
 73
     1
 44
1.0
  0
TEXT
  5
AA1
330
1E
100
AcDbEntity
  8
ﾚｲﾔ1
100
AcDbText
 10
1782.14412034265
 20
-1094.580302046825
 30
0.0
 40
11.88
  1
L
 50
360.0
100
AcDbText
  0
TEXT
  5
AA2
330
1E
100
AcDbEntity
  8
ﾚｲﾔ1
100
AcDbText
 10
1773.365711551763
 20
-1127.310537939055
 30
0.0
 40
11.88
  1
Kg
 50
360.0
100
AcDbText
  0
TEXT
  5
AA3
330
1E
100
AcDbEntity
  8
ﾚｲﾔ1
100
AcDbText
 10
1706.541767359074
 20
-1127.575972125228
 30
0.0
 40
11.88
  1
33
 50
360.0
100
AcDbText
  0
TEXT
  5
AA4
330
1E
100
AcDbEntity
  8
ﾚｲﾔ1
100
AcDbText
 10
1715.638376775897
 20
-1094.408541612559
 30
0.0
 40
11.88
  1
8
 50
360.0
100
AcDbText
  0
TEXT
  5
AA5
330
1E
100
AcDbEntity
  8
ﾚｲﾔ1
100
AcDbText
 10
1765.871182661609
 20
-966.2588531515316
 30
0.0
 40
11.88
  1
MPa
 50
360.0
100
AcDbText
  0
TEXT
  5
AA6
330
1E
100
AcDbEntity
  8
ﾚｲﾔ1
100
AcDbText
 10
1694.816526962165
 20
-965.9123201342891
 30
0.0
 40
11.88
  1
73
 50
360.0
100
AcDbText
  0
MTEXT
  5
AA7
330
1E
100
AcDbEntity
  8
ﾚｲﾔ1
100
AcDbMText
 10
1449.486598656628
 20
-926.2107476478984
 30
0.0
 40
10.69199999999999
 41
1721.152180503884
 46
0.0
 71
     1
 72
     5
  1
仕  様
 73
     1
 44
1.0
  0
LINE
  5
AA8
330
1E
100
AcDbEntity
  8
ﾚｲﾔ1
100
AcDbLine
 10
1447.089490005499
 20
-1034.264008243704
 30
0.0
 11
1797.537800884035
 21
-1034.264008243704
 31
0.0
  0
LINE
  5
AA9
330
1E
100
AcDbEntity
  8
ﾚｲﾔ1
100
AcDbLine
 10
1447.089490005499
 20
-938.0317122340812
 30
0.0
 11
1492.529341097854
 21
-938.0462838480094
 31
0.0
  0
LINE
  5
AAA
330
1E
100
AcDbEntity
  8
ﾚｲﾔ1
100
AcDbLine
 10
1447.089490005499
 20
-1066.340008243611
 30
0.0
 11
1797.537800884035
 21
-1066.340008243611
 31
0.0
  0
LINE
  5
AAB
330
1E
100
AcDbEntity
  8
ﾚｲﾔ1
100
AcDbLine
 10
1447.089490005499
 20
-1002.188008243796
 30
0.0
 11
1797.537800884035
 21
-1002.188008243796
 31
0.0
  0
LINE
  5
AAC
330
1E
100
AcDbEntity
  8
ﾚｲﾔ1
100
AcDbLine
 10
1447.089490005499
 20
-970.1120082436571
 30
0.0
 11
1797.537800884035
 21
-970.1120082436571
 31
0.0
  0
MTEXT
  5
AAD
330
1E
100
AcDbEntity
  8
ﾚｲﾔ1
100
AcDbMText
 10
1449.215925890733
 20
-986.458059694633
 30
0.0
 40
12.474
 41
1721.152180503883
 46
10.395
 71
     1
 72
     5
  1
{吐 出 量(高圧)}
 73
     1
 44
1.0
  0
MTEXT
  5
AAE
330
1E
100
AcDbEntity
  8
ﾚｲﾔ1
100
AcDbMText
 10
1448.352199540744
 20
-1019.996110644608
 30
0.0
 40
12.474
 41
1721.152180503884
 46
10.395
 71
     1
 72
     5
  1
{吐 出 量(低圧)}
 73
     1
 44
1.0
  0
MTEXT
  5
AAF
330
1E
100
AcDbEntity
  8
ﾚｲﾔ1
100
AcDbMText
 10
1448.986042736282
 20
-955.9116145233934
 30
0.0
 40
12.474
 41
1721.152180503884
 46
10.395
 71
     1
 72
     5
  1
{最 高 使 用 圧 力}
 73
     1
 44
1.0
  0
TEXT
  5
AB0
330
1E
100
AcDbEntity
  8
ﾚｲﾔ1
100
AcDbText
 10
1773.365711551763
 20
-998.6678235999502
 30
0.0
 40
11.88
  1
CC
 50
360.0
100
AcDbText
  0
TEXT
  5
AB1
330
1E
100
AcDbEntity
  8
ﾚｲﾔ1
100
AcDbText
 10
1773.365711551763
 20
-1030.935685172515
 30
0.0
 40
11.88
  1
CC
 50
360.0
100
AcDbText
  0
TEXT
  5
AB2
330
1E
100
AcDbEntity
  8
ﾚｲﾔ1
100
AcDbText
 10
1773.621337508737
 20
-1063.121727314412
 30
0.0
 40
11.88
  1
mm
 50
360.0
100
AcDbText
  0
TEXT
  5
AB3
330
1E
100
AcDbEntity
  8
ﾚｲﾔ1
100
AcDbText
 10
1694.816526962165
 20
-1063.438549461792
 30
0.0
 40
11.88
  1
820
 50
360.0
100
AcDbText
  0
TEXT
  5
AB4
330
1E
100
AcDbEntity
  8
ﾚｲﾔ1
100
AcDbText
 10
1694.816526962165
 20
-998.7936609726432
 30
0.0
 40
11.88
  1
3.9
 50
360.0
100
AcDbText
  0
TEXT
  5
AB5
330
1E
100
AcDbEntity
  8
ﾚｲﾔ1
100
AcDbText
 10
1694.816526962165
 20
-1030.943052273618
 30
0.0
 40
11.88
  1
42.5
 50
360.0
100
AcDbText
  0
MTEXT
  5
AB6
330
1E
100
AcDbEntity
  8
ﾚｲﾔ1
100
AcDbMText
 10
1448.593841941014
 20
-1051.171676820363
 30
0.0
 40
12.474
 41
1721.152180503884
 46
10.395
 71
     1
 72
     5
  1
{全        長}
 73
     1
 44
1.0
  0
LINE
  5
AB7
330
1E
100
AcDbEntity
  8
図面枠
  6
Continuous
100
AcDbLine
 10
1861.266177163134
 20
-902.1542264594398
 30
0.0
 11
1861.266177163134
 21
-2127.673144107785
 31
0.0
  0
LINE
  5
AB8
330
1E
100
AcDbEntity
  8
図面枠
  6
Continuous
100
AcDbLine
 10
1847.74942439495
 20
-915.6709792276208
 30
0.0
 11
1847.74942439495
 21
-2114.156391339605
 31
0.0
  0
MTEXT
  5
AB9
330
1E
100
AcDbEntity
  8
図面枠
370
    30
100
AcDbMText
 10
1553.32350665011
 20
-2131.284830660199
 30
0.0
 40
19.8245707266644
 41
327.1922716520711
 46
0.0
 71
     1
 72
     5
  1
株式会社　関東油機サービス
 73
     1
 44
1.0
  0
LINE
  5
ABA
330
1E
100
AcDbEntity
  8
図面枠
  6
Continuous
100
AcDbLine
 10
1847.74942439495
 20
-2001.516784938102
 30
0.0
 11
1527.852942214685
 21
-2001.516784938102
 31
0.0
  0
LINE
  5
ABB
330
1E
100
AcDbEntity
  8
図面枠
  6
Continuous
100
AcDbLine
 10
1550.380863494981
 20
-2001.516784938102
 30
0.0
 11
1847.74942439495
 21
-2001.516784938102
 31
0.0
  0
LINE
  5
ABC
330
1E
100
AcDbEntity
  8
図面枠
  6
Continuous
100
AcDbLine
 10
1847.74942439495
 20
-2069.100548779003
 30
0.0
 11
1658.514885640425
 21
-2069.100548779003
 31
0.0
  0
LINE
  5
ABD
330
1E
100
AcDbEntity
  8
図面枠
  6
Continuous
100
AcDbLine
 10
1658.514885640425
 20
-2114.156391339605
 30
0.0
 11
1847.74942439495
 21
-2114.156391339605
 31
0.0
  0
LINE
  5
ABE
330
1E
100
AcDbEntity
  8
図面枠
  6
Continuous
100
AcDbLine
 10
1847.74942439495
 20
-2069.100548779003
 30
0.0
 11
1550.380863494981
 21
-2069.100548779003
 31
0.0
  0
LINE
  5
ABF
330
1E
100
AcDbEntity
  8
図面枠
  6
Continuous
100
AcDbLine
 10
1563.89761626317
 20
-2038.012017412188
 30
0.0
 11
1833.331554775559
 21
-2038.012017412188
 31
0.0
  0
TEXT
  5
AC0
330
1E
100
AcDbEntity
  8
図面枠
100
AcDbText
 10
1530.435971606865
 20
-2030.956639851252
 30
0.0
 40
20.27512915227041
  1
名
100
AcDbText
  0
LINE
  5
AC1
330
1E
100
AcDbEntity
  8
図面枠
  6
Continuous
100
AcDbLine
 10
1527.852942214685
 20
-2001.516784938102
 30
0.0
 11
1527.852942214685
 21
-2069.100548779003
 31
0.0
  0
LINE
  5
AC2
330
1E
100
AcDbEntity
  8
図面枠
  6
Continuous
100
AcDbLine
 10
1550.380863494981
 20
-2069.100548779003
 30
0.0
 11
1550.380863494981
 21
-2001.516784938102
 31
0.0
  0
LINE
  5
AC3
330
1E
100
AcDbEntity
  8
図面枠
  6
Continuous
100
AcDbLine
 10
1527.852942214685
 20
-2001.516784938102
 30
0.0
 11
1527.852942214685
 21
-2024.044706218403
 31
0.0
  0
LINE
  5
AC4
330
1E
100
AcDbEntity
  8
図面枠
  6
Continuous
100
AcDbLine
 10
1550.380863494981
 20
-2069.100548779003
 30
0.0
 11
1550.380863494981
 21
-2001.516784938102
 31
0.0
  0
LINE
  5
AC5
330
1E
100
AcDbEntity
  8
図面枠
  6
Continuous
100
AcDbLine
 10
1527.852942214685
 20
-2114.156391339605
 30
0.0
 11
1590.931121799525
 21
-2114.156391339605
 31
0.0
  0
LINE
  5
AC6
330
1E
100
AcDbEntity
  8
図面枠
  6
Continuous
100
AcDbLine
 10
1590.931121799525
 20
-2069.100548779003
 30
0.0
 11
1527.852942214685
 21
-2069.100548779003
 31
0.0
  0
LINE
  5
AC7
330
1E
100
AcDbEntity
  8
図面枠
  6
Continuous
100
AcDbLine
 10
1527.852942214685
 20
-2091.628470059301
 30
0.0
 11
1640.492548616187
 21
-2091.628470059301
 31
0.0
  0
MTEXT
  5
AC8
330
1E
100
AcDbEntity
  8
ﾚｲﾔ1
100
AcDbMText
 10
1561.126668316583
 20
-2020.229787045661
 30
0.0
 40
12.96
 41
277.3107577498283
 46
10.8
 71
     1
 72
     5
  1
{複動型手動ポンプ}
 73
     1
 44
1.0
  0
MTEXT
  5
AC9
330
1E
100
AcDbEntity
  8
ﾚｲﾔ1
100
AcDbMText
 10
1562.856222714628
 20
-2047.052614232085
 30
0.0
 40
16.2
 41
277.3107577498286
 46
16.2
 71
     1
 72
     5
  1
{HPW-8}
 73
     1
 44
1.0
  0
LINE
  5
ACA
330
1E
100
AcDbEntity
  8
図面枠
  6
Continuous
100
AcDbLine
 10
1527.852942214685
 20
-2114.156391339605
 30
0.0
 11
1527.852942214685
 21
-2069.100548779003
 31
0.0
  0
LINE
  5
ACB
330
1E
100
AcDbEntity
  8
図面枠
  6
Continuous
100
AcDbLine
 10
1527.852942214685
 20
-2069.100548779003
 30
0.0
 11
1527.852942214685
 21
-2114.156391339605
 31
0.0
  0
TEXT
  5
ACC
330
1E
100
AcDbEntity
  8
図面枠
100
AcDbText
 10
1535.82482069545
 20
-2089.557833029207
 30
0.0
 40
18.02233702424036
  1
尺度
 41
1.125
100
AcDbText
  0
TEXT
  5
ACD
330
1E
100
AcDbEntity
  8
図面枠
100
AcDbText
 10
1530.435971606865
 20
-2062.879223358519
 30
0.0
 40
20.27512915227041
  1
称
100
AcDbText
  0
LINE
  5
ACE
330
1E
100
AcDbEntity
  8
図面枠
  6
Continuous
100
AcDbLine
 10
1527.852942214685
 20
-2046.572627498703
 30
0.0
 11
1527.852942214685
 21
-2069.100548779003
 31
0.0
  0
LINE
  5
ACF
330
1E
100
AcDbEntity
  8
図面枠
  6
Continuous
100
AcDbLine
 10
1527.852942214685
 20
-2069.100548779003
 30
0.0
 11
1550.380863494981
 21
-2069.100548779003
 31
0.0
  0
LINE
  5
AD0
330
1E
100
AcDbEntity
  8
図面枠
  6
Continuous
100
AcDbLine
 10
1527.852942214685
 20
-2024.044706218403
 30
0.0
 11
1527.852942214685
 21
-2046.572627498703
 31
0.0
  0
TEXT
  5
AD1
330
1E
100
AcDbEntity
  8
図面枠
100
AcDbText
 10
1538.941283252781
 20
-2111.72905703784
 30
0.0
 40
13.51675276818028
  1
１：4
100
AcDbText
  0
LINE
  5
AD2
330
1E
100
AcDbEntity
  8
図面枠
  6
Continuous
100
AcDbLine
 10
1590.931121799525
 20
-2069.100548779003
 30
0.0
 11
1590.931121799525
 21
-2114.156391339605
 31
0.0
  0
LINE
  5
AD3
330
1E
100
AcDbEntity
  8
図面枠
  6
Continuous
100
AcDbLine
 10
1590.931121799525
 20
-2114.156391339605
 30
0.0
 11
1590.931121799525
 21
-2069.100548779003
 31
0.0
  0
TEXT
  5
AD4
330
1E
100
AcDbEntity
  8
図面枠
100
AcDbText
 10
1643.421178382621
 20
-2087.01740946855
 30
0.0
 40
13.51675276818028
  1
図
100
AcDbText
  0
TEXT
  5
AD5
330
1E
100
AcDbEntity
  8
図面枠
100
AcDbText
 10
1643.421178382621
 20
-2108.299131806729
 30
0.0
 40
13.51675276818028
  1
番
100
AcDbText
  0
LINE
  5
AD6
330
1E
100
AcDbEntity
  8
図面枠
  6
Continuous
100
AcDbLine
 10
1640.492548616187
 20
-2114.156391339605
 30
0.0
 11
1658.514885640425
 21
-2114.156391339605
 31
0.0
  0
LINE
  5
AD7
330
1E
100
AcDbEntity
  8
図面枠
  6
Continuous
100
AcDbLine
 10
1658.514885640425
 20
-2069.100548779003
 30
0.0
 11
1658.514885640425
 21
-2114.156391339605
 31
0.0
  0
LINE
  5
AD8
330
1E
100
AcDbEntity
  8
図面枠
  6
Continuous
100
AcDbLine
 10
1658.514885640425
 20
-2069.100548779003
 30
0.0
 11
1640.492548616187
 21
-2069.100548779003
 31
0.0
  0
LINE
  5
AD9
330
1E
100
AcDbEntity
  8
図面枠
  6
Continuous
100
AcDbLine
 10
1658.514885640425
 20
-2114.156391339605
 30
0.0
 11
1658.514885640425
 21
-2069.100548779003
 31
0.0
  0
LINE
  5
ADA
330
1E
100
AcDbEntity
  8
図面枠
  6
Continuous
100
AcDbLine
 10
1640.492548616187
 20
-2069.100548779003
 30
0.0
 11
1590.931121799525
 21
-2069.100548779003
 31
0.0
  0
LINE
  5
ADB
330
1E
100
AcDbEntity
  8
図面枠
  6
Continuous
100
AcDbLine
 10
1640.492548616187
 20
-2069.100548779003
 30
0.0
 11
1640.492548616187
 21
-2114.156391339605
 31
0.0
  0
LINE
  5
ADC
330
1E
100
AcDbEntity
  8
図面枠
  6
Continuous
100
AcDbLine
 10
1640.492548616187
 20
-2114.156391339605
 30
0.0
 11
1640.492548616187
 21
-2069.100548779003
 31
0.0
  0
LINE
  5
ADD
330
1E
100
AcDbEntity
  8
図面枠
  6
Continuous
100
AcDbLine
 10
1590.931121799525
 20
-2114.156391339605
 30
0.0
 11
1640.492548616187
 21
-2114.156391339605
 31
0.0
  0
LINE
  5
ADE
330
1E
100
AcDbEntity
  8
図面枠
  6
Continuous
100
AcDbLine
 10
1550.380863494981
 20
-2001.516784938102
 30
0.0
 11
1527.852942214685
 21
-2001.516784938102
 31
0.0
  0
LINE
  5
ADF
330
1E
100
AcDbEntity
  8
図面枠
  6
Continuous
100
AcDbLine
 10
1847.74942439495
 20
-2114.156391339605
 30
0.0
 11
1847.74942439495
 21
-2069.100548779003
 31
0.0
  0
LINE
  5
AE0
330
1E
100
AcDbEntity
  8
図面枠
  6
Continuous
100
AcDbLine
 10
1847.74942439495
 20
-2001.516784938102
 30
0.0
 11
1847.74942439495
 21
-2069.100548779003
 31
0.0
  0
LINE
  5
AE1
330
1E
100
AcDbEntity
  8
図面枠
  6
Continuous
100
AcDbLine
 10
1861.266177163134
 20
-2127.673144107785
 30
0.0
 11
126.6162385799933
 21
-2127.673144107785
 31
0.0
  0
LINE
  5
AE2
330
1E
100
AcDbEntity
  8
図面枠
  6
Continuous
100
AcDbLine
 10
1847.74942439495
 20
-2114.156391339605
 30
0.0
 11
140.1329913481768
 21
-2114.156391339605
 31
0.0
  0
LINE
  5
AE3
330
1E
100
AcDbEntity
  8
図面枠
  6
Continuous
100
AcDbLine
 10
126.6162385799933
 20
-902.1542264594398
 30
0.0
 11
126.6162385799933
 21
-2127.673144107785
 31
0.0
  0
LINE
  5
AE4
330
1E
100
AcDbEntity
  8
図面枠
  6
Continuous
100
AcDbLine
 10
140.1329913481768
 20
-2114.156391339605
 30
0.0
 11
140.1329913481768
 21
-915.6709792276208
 31
0.0
  0
LINE
  5
EFC
330
1E
100
AcDbEntity
  8
L1
 48
4.0
100
AcDbLine
 10
1189.22109259384
 20
-1624.867939613822
 30
0.0
 11
641.2210925938407
 21
-1624.867939613822
 31
0.0
  0
LINE
  5
EFD
330
1E
100
AcDbEntity
  8
L1
 48
4.0
100
AcDbLine
 10
1189.22109259384
 20
-1590.867939613822
 30
0.0
 11
641.2210925938407
 21
-1590.867939613822
 31
0.0
  0
LINE
  5
EFE
330
1E
100
AcDbEntity
  8
L1
 48
4.0
100
AcDbLine
 10
581.2210925938416
 20
-1730.567939613823
 30
0.0
 11
590.2210925938416
 21
-1730.567939613823
 31
0.0
  0
LINE
  5
EFF
330
1E
100
AcDbEntity
  8
L1
 48
4.0
100
AcDbLine
 10
581.2210925938416
 20
-1832.167939613823
 30
0.0
 11
590.2210925938407
 21
-1832.167939613823
 31
0.0
  0
LINE
  5
F00
330
1E
100
AcDbEntity
  8
CEN
 48
4.0
100
AcDbLine
 10
465.3957842801635
 20
-1607.867939613822
 30
0.0
 11
1402.075645980573
 21
-1607.867939613822
 31
0.0
  0
LINE
  5
F01
102
{ACAD_REACTORS
330
122B
102
}
330
1E
100
AcDbEntity
  8
CEN
 48
4.0
100
AcDbLine
 10
412.8528791774995
 20
-1781.367939613823
 30
0.0
 11
1220.704754113785
 21
-1781.367939613823
 31
0.0
  0
LINE
  5
F02
330
1E
100
AcDbEntity
  8
CEN
 48
4.0
100
AcDbLine
 10
1470.271838646099
 20
-1253.101083722613
 30
0.0
 11
520.0228453652098
 21
-1253.101083722614
 31
0.0
  0
LINE
  5
F03
330
1E
100
AcDbEntity
  8
L1
 48
4.0
100
AcDbLine
 10
649.4172852593683
 20
-1202.301083722613
 30
0.0
 11
658.4172852593683
 21
-1202.301083722613
 31
0.0
  0
LINE
  5
F04
330
1E
100
AcDbEntity
  8
L1
 48
4.0
100
AcDbLine
 10
649.4172852593683
 20
-1303.901083722613
 30
0.0
 11
658.4172852593674
 21
-1303.901083722614
 31
0.0
  0
LINE
  5
F05
330
1E
100
AcDbEntity
  8
L1
 48
4.0
100
AcDbLine
 10
1257.417285259367
 20
-1270.101083722614
 30
0.0
 11
709.4172852593674
 21
-1270.101083722614
 31
0.0
  0
LINE
  5
F06
330
1E
100
AcDbEntity
  8
L1
 48
4.0
100
AcDbLine
 10
1257.417285259367
 20
-1236.101083722614
 30
0.0
 11
709.4172852593674
 21
-1236.101083722614
 31
0.0
  0
LINE
  5
F07
330
1E
100
AcDbEntity
  8
L1
 48
4.0
100
AcDbLine
 10
1208.864319461245
 20
-1767.517939613822
 30
0.0
 11
1210.22109259384
 21
-1769.867939613823
 31
0.0
  0
ARC
  5
F08
330
1E
100
AcDbEntity
  8
L1
 48
4.0
100
AcDbCircle
 10
1205.124536931334
 20
-1770.980439613823
 30
0.0
 40
5.096555662506436
100
AcDbArc
 50
317.2047561097442
 51
42.79524389025578
  0
LINE
  5
F09
330
1E
100
AcDbEntity
  8
L1
 48
4.0
100
AcDbLine
 10
1200.22109259384
 20
-1795.367939613823
 30
0.0
 11
1200.22109259384
 21
-1767.367939613823
 31
0.0
  0
LINE
  5
F0A
330
1E
100
AcDbEntity
  8
L1
 48
4.0
100
AcDbLine
 10
1200.22109259384
 20
-1767.517939613823
 30
0.0
 11
1200.22109259384
 21
-1795.217939613823
 31
0.0
  0
LINE
  5
F0B
330
1E
100
AcDbEntity
  8
L1
 48
4.0
100
AcDbLine
 10
1196.22109259384
 20
-1898.367939613823
 30
0.0
 11
1196.22109259384
 21
-1751.724193098159
 31
0.0
  0
LINE
  5
F0C
330
1E
100
AcDbEntity
  8
L1
 48
4.0
100
AcDbLine
 10
1190.22109259384
 20
-1898.367939613823
 30
0.0
 11
1190.22109259384
 21
-1714.467939613823
 31
0.0
  0
LINE
  5
F0D
102
{ACAD_REACTORS
330
11FB
102
}
330
1E
100
AcDbEntity
  8
CEN
 48
4.0
100
AcDbLine
 10
1193.22109259384
 20
-1917.417827795965
 30
0.0
 11
1193.22109259384
 21
-1875.615147868676
 31
0.0
  0
LINE
  5
F0E
330
1E
100
AcDbEntity
  8
L1
 48
4.0
100
AcDbLine
 10
1170.22109259384
 20
-1900.367939613823
 30
0.0
 11
1216.22109259384
 21
-1900.367939613823
 31
0.0
  0
LINE
  5
F0F
330
1E
100
AcDbEntity
  8
L1
 48
4.0
100
AcDbLine
 10
1168.22109259384
 20
-1906.367939613823
 30
0.0
 11
1218.22109259384
 21
-1906.367939613823
 31
0.0
  0
ARC
  5
F10
330
1E
100
AcDbEntity
  8
L1
 48
4.0
100
AcDbCircle
 10
1216.22109259384
 20
-1902.367939613823
 30
0.0
 40
2.0
100
AcDbArc
 50
0.0
 51
90.0
  0
LINE
  5
F11
330
1E
100
AcDbEntity
  8
L1
 48
4.0
100
AcDbLine
 10
1218.22109259384
 20
-1902.367939613823
 30
0.0
 11
1218.22109259384
 21
-1906.367939613823
 31
0.0
  0
ARC
  5
F12
330
1E
100
AcDbEntity
  8
L1
 48
4.0
100
AcDbCircle
 10
1198.22109259384
 20
-1898.367939613823
 30
0.0
 40
2.0
100
AcDbArc
 50
180.0
 51
270.0
  0
ARC
  5
F13
330
1E
100
AcDbEntity
  8
L1
 48
4.0
100
AcDbCircle
 10
1188.22109259384
 20
-1898.367939613823
 30
0.0
 40
2.0
100
AcDbArc
 50
270.0
 51
0.0
  0
ARC
  5
F14
330
1E
100
AcDbEntity
  8
L1
 48
4.0
100
AcDbCircle
 10
1170.22109259384
 20
-1902.367939613823
 30
0.0
 40
2.0
100
AcDbArc
 50
90.0
 51
180.0
  0
LINE
  5
F15
330
1E
100
AcDbEntity
  8
L1
 48
4.0
100
AcDbLine
 10
1168.22109259384
 20
-1902.367939613823
 30
0.0
 11
1168.22109259384
 21
-1906.367939613823
 31
0.0
  0
ARC
  5
F16
330
1E
100
AcDbEntity
  8
L1
 48
4.0
100
AcDbCircle
 10
1187.22109259384
 20
-1848.267939613823
 30
0.0
 40
3.0
100
AcDbArc
 50
270.0
 51
0.0
  0
ARC
  5
F17
330
1E
100
AcDbEntity
  8
L1
 48
4.0
100
AcDbCircle
 10
1205.124536931334
 20
-1791.755439613823
 30
0.0
 40
5.096555662506189
100
AcDbArc
 50
317.2047561097407
 51
42.79524389025202
  0
LINE
  5
F18
330
1E
100
AcDbEntity
  8
L1
 48
4.0
100
AcDbLine
 10
1210.22109259384
 20
-1769.867939613823
 30
0.0
 11
1210.22109259384
 21
-1792.867939613823
 31
0.0
  0
LINE
  5
F19
330
1E
100
AcDbEntity
  8
L1
 48
4.0
100
AcDbLine
 10
1196.22109259384
 20
-1795.367939613823
 30
0.0
 11
1200.22109259384
 21
-1795.367939613823
 31
0.0
  0
LINE
  5
F1A
330
1E
100
AcDbEntity
  8
L1
 48
4.0
100
AcDbLine
 10
1208.864319461245
 20
-1795.217939613823
 30
0.0
 11
1210.22109259384
 21
-1792.867939613823
 31
0.0
  0
LINE
  5
F1B
330
1E
100
AcDbEntity
  8
L1
 48
4.0
100
AcDbLine
 10
1200.22109259384
 20
-1795.217939613823
 30
0.0
 11
1208.864319461245
 21
-1795.217939613823
 31
0.0
  0
LINE
  5
F1C
330
1E
100
AcDbEntity
  8
L1
 48
4.0
100
AcDbLine
 10
1200.22109259384
 20
-1774.442939613823
 30
0.0
 11
1208.864319461245
 21
-1774.442939613823
 31
0.0
  0
LINE
  5
F1D
330
1E
100
AcDbEntity
  8
L1
 48
4.0
100
AcDbLine
 10
1200.22109259384
 20
-1788.292939613823
 30
0.0
 11
1208.864319461245
 21
-1788.292939613823
 31
0.0
  0
ARC
  5
F1E
330
1E
100
AcDbEntity
  8
L1
 48
4.0
100
AcDbCircle
 10
1191.870029642708
 20
-1781.367939613823
 30
0.0
 40
18.35106295113209
100
AcDbArc
 50
337.8296048630376
 51
22.17039513696086
  0
ELLIPSE
  5
F1F
330
1E
100
AcDbEntity
  8
L1
 48
4.0
100
AcDbEllipse
 10
1110.22109259384
 20
-1711.467939613823
 30
0.0
 11
15.99999999999997
 21
1.999000000000000E-13
 31
0.0
210
0.0
220
0.0
230
-1.0
 40
0.3124999999999964
 41
0.3558592171873178
 42
2.848539109142246
  0
LINE
  5
F20
330
1E
100
AcDbEntity
  8
L1
 48
4.0
100
AcDbLine
 10
1286.417285259367
 20
-1270.101083722614
 30
0.0
 11
1286.417285259367
 21
-1348.101083722614
 31
0.0
  0
LINE
  5
F21
330
1E
100
AcDbEntity
  8
L1
 48
4.0
100
AcDbLine
 10
1231.138044856548
 20
-1624.867939613822
 30
0.0
 11
1209.22109259384
 21
-1624.867939613822
 31
0.0
  0
LINE
  5
F22
330
1E
100
AcDbEntity
  8
L1
 48
4.0
100
AcDbLine
 10
1231.138044856548
 20
-1590.867939613822
 30
0.0
 11
1209.22109259384
 21
-1590.867939613822
 31
0.0
  0
LINE
  5
F23
330
1E
100
AcDbEntity
  8
L1
 48
4.0
100
AcDbLine
 10
1359.220854427385
 20
-1586.867939613822
 30
0.0
 11
1245.220854427385
 21
-1586.867939613822
 31
0.0
  0
LINE
  5
F24
330
1E
100
AcDbEntity
  8
L1
 48
4.0
100
AcDbLine
 10
1359.220854427385
 20
-1603.867939613822
 30
0.0
 11
1245.220854427385
 21
-1603.867939613822
 31
0.0
  0
LINE
  5
F25
330
1E
100
AcDbEntity
  8
L1
 48
4.0
100
AcDbLine
 10
1359.220854427385
 20
-1611.867939613822
 30
0.0
 11
1245.220854427385
 21
-1611.867939613822
 31
0.0
  0
LINE
  5
F26
330
1E
100
AcDbEntity
  8
L1
 48
4.0
100
AcDbLine
 10
1359.220854427385
 20
-1596.867939613822
 30
0.0
 11
1245.220854427385
 21
-1596.867939613822
 31
0.0
  0
LINE
  5
F27
330
1E
100
AcDbEntity
  8
L1
 48
4.0
100
AcDbLine
 10
1359.220854427385
 20
-1588.867939613822
 30
0.0
 11
1245.220854427385
 21
-1588.867939613822
 31
0.0
  0
LINE
  5
F28
330
1E
100
AcDbEntity
  8
L1
 48
4.0
100
AcDbLine
 10
1359.220854427385
 20
-1626.867939613822
 30
0.0
 11
1245.220854427385
 21
-1626.867939613822
 31
0.0
  0
LINE
  5
F29
330
1E
100
AcDbEntity
  8
L1
 48
4.0
100
AcDbLine
 10
1359.220854427385
 20
-1618.867939613822
 30
0.0
 11
1245.220854427385
 21
-1618.867939613822
 31
0.0
  0
LINE
  5
F2A
330
1E
100
AcDbEntity
  8
L1
 48
4.0
100
AcDbLine
 10
1359.220854427385
 20
-1628.867939613822
 30
0.0
 11
1245.220854427385
 21
-1628.867939613822
 31
0.0
  0
ARC
  5
F2B
330
1E
100
AcDbEntity
  8
L1
 48
4.0
100
AcDbCircle
 10
1373.220854427385
 20
-1607.867939613822
 30
0.0
 40
21.99999999999997
100
AcDbArc
 50
270.0
 51
90.0
  0
LINE
  5
F2C
330
1E
100
AcDbEntity
  8
L1
 48
4.0
100
AcDbLine
 10
1359.220854427385
 20
-1629.867939613822
 30
0.0
 11
1359.220854427385
 21
-1626.867939613822
 31
0.0
  0
LINE
  5
F2D
330
1E
100
AcDbEntity
  8
L1
 48
4.0
100
AcDbLine
 10
1373.220854427385
 20
-1585.867939613822
 30
0.0
 11
1373.220854427385
 21
-1629.867939613822
 31
0.0
  0
LINE
  5
F2E
330
1E
100
AcDbEntity
  8
L1
 48
4.0
100
AcDbLine
 10
1373.220854427385
 20
-1629.867939613822
 30
0.0
 11
1359.220854427385
 21
-1629.867939613822
 31
0.0
  0
ARC
  5
F2F
330
1E
100
AcDbEntity
  8
L1
 48
4.0
100
AcDbCircle
 10
1359.220854427385
 20
-1607.867939613822
 30
0.0
 40
4.0
100
AcDbArc
 50
270.0
 51
90.0
  0
LINE
  5
F30
330
1E
100
AcDbEntity
  8
L1
 48
4.0
100
AcDbLine
 10
1359.220854427385
 20
-1618.867939613822
 30
0.0
 11
1359.220854427385
 21
-1611.867939613822
 31
0.0
  0
ARC
  5
F31
330
1E
100
AcDbEntity
  8
L1
 48
4.0
100
AcDbCircle
 10
1359.220854427385
 20
-1622.867939613822
 30
0.0
 40
4.0
100
AcDbArc
 50
270.0
 51
90.0
  0
LINE
  5
F32
330
1E
100
AcDbEntity
  8
L1
 48
4.0
100
AcDbLine
 10
1373.220854427385
 20
-1585.867939613822
 30
0.0
 11
1359.220854427385
 21
-1585.867939613822
 31
0.0
  0
ARC
  5
F33
330
1E
100
AcDbEntity
  8
L1
 48
4.0
100
AcDbCircle
 10
1359.220854427385
 20
-1592.867939613822
 30
0.0
 40
4.0
100
AcDbArc
 50
270.0
 51
90.0
  0
LINE
  5
F34
330
1E
100
AcDbEntity
  8
L1
 48
4.0
100
AcDbLine
 10
1359.220854427385
 20
-1588.867939613822
 30
0.0
 11
1359.220854427385
 21
-1585.867939613822
 31
0.0
  0
LINE
  5
F35
330
1E
100
AcDbEntity
  8
L1
 48
4.0
100
AcDbLine
 10
1359.220854427385
 20
-1603.867939613822
 30
0.0
 11
1359.220854427385
 21
-1596.867939613822
 31
0.0
  0
LINE
  5
F36
330
1E
100
AcDbEntity
  8
L1
 48
4.0
100
AcDbLine
 10
1245.220854427385
 20
-1629.867939613822
 30
0.0
 11
1245.220854427385
 21
-1626.867939613822
 31
0.0
  0
LINE
  5
F37
330
1E
100
AcDbEntity
  8
L1
 48
4.0
100
AcDbLine
 10
1231.138044856548
 20
-1585.867939613822
 30
0.0
 11
1231.138044856548
 21
-1629.867939613822
 31
0.0
  0
LINE
  5
F38
330
1E
100
AcDbEntity
  8
L1
 48
4.0
100
AcDbLine
 10
1245.220854427385
 20
-1629.867939613822
 30
0.0
 11
1231.138044856548
 21
-1629.867939613822
 31
0.0
  0
ARC
  5
F39
330
1E
100
AcDbEntity
  8
L1
 48
4.0
100
AcDbCircle
 10
1245.220854427385
 20
-1607.867939613822
 30
0.0
 40
4.0
100
AcDbArc
 50
90.0
 51
270.0
  0
LINE
  5
F3A
330
1E
100
AcDbEntity
  8
L1
 48
4.0
100
AcDbLine
 10
1245.220854427385
 20
-1618.867939613822
 30
0.0
 11
1245.220854427385
 21
-1611.867939613822
 31
0.0
  0
ARC
  5
F3B
330
1E
100
AcDbEntity
  8
L1
 48
4.0
100
AcDbCircle
 10
1245.220854427385
 20
-1622.867939613822
 30
0.0
 40
4.0
100
AcDbArc
 50
90.0
 51
270.0
  0
LINE
  5
F3C
330
1E
100
AcDbEntity
  8
L1
 48
4.0
100
AcDbLine
 10
1245.220854427385
 20
-1585.867939613822
 30
0.0
 11
1231.138044856548
 21
-1585.867939613822
 31
0.0
  0
ARC
  5
F3D
330
1E
100
AcDbEntity
  8
L1
 48
4.0
100
AcDbCircle
 10
1245.220854427385
 20
-1592.867939613822
 30
0.0
 40
4.0
100
AcDbArc
 50
90.0
 51
270.0
  0
LINE
  5
F3E
330
1E
100
AcDbEntity
  8
L1
 48
4.0
100
AcDbLine
 10
1245.220854427385
 20
-1588.867939613822
 30
0.0
 11
1245.220854427385
 21
-1585.867939613822
 31
0.0
  0
LINE
  5
F3F
330
1E
100
AcDbEntity
  8
L1
 48
4.0
100
AcDbLine
 10
1245.220854427385
 20
-1603.867939613822
 30
0.0
 11
1245.220854427385
 21
-1596.867939613822
 31
0.0
  0
ARC
  5
F40
330
1E
100
AcDbEntity
  8
L1
 48
4.0
100
AcDbCircle
 10
1094.22109259384
 20
-1709.467939613823
 30
0.0
 40
2.0
100
AcDbArc
 50
270.0
 51
0.0
  0
LINE
  5
F41
330
1E
100
AcDbEntity
  8
L1
 48
4.0
100
AcDbLine
 10
1202.22109259384
 20
-1752.867939613822
 30
0.0
 11
1202.22109259384
 21
-1635.167939613822
 31
0.0
  0
LINE
  5
F42
330
1E
100
AcDbEntity
  8
L1
 48
4.0
100
AcDbLine
 10
1196.22109259384
 20
-1635.167939613822
 30
0.0
 11
1196.22109259384
 21
-1752.867939613822
 31
0.0
  0
LINE
  5
F43
330
1E
100
AcDbEntity
  8
L1
 48
4.0
100
AcDbLine
 10
1190.22109259384
 20
-1736.367939613823
 30
0.0
 11
1196.22109259384
 21
-1736.367939613823
 31
0.0
  0
LINE
  5
F44
330
1E
100
AcDbEntity
  8
CEN
 48
4.0
100
AcDbLine
 10
1182.123874915501
 20
-1742.867939613822
 30
0.0
 11
1218.351048648291
 21
-1742.867939613822
 31
0.0
  0
ARC
  5
F45
330
1E
100
AcDbEntity
  8
L1
 48
4.0
100
AcDbCircle
 10
1202.22109259384
 20
-1742.867939613822
 30
0.0
 40
4.0
100
AcDbArc
 50
270.0
 51
90.0
  0
LINE
  5
F46
330
1E
100
AcDbEntity
  8
L1
 48
4.0
100
AcDbLine
 10
1196.22109259384
 20
-1752.867939613822
 30
0.0
 11
1202.22109259384
 21
-1752.867939613822
 31
0.0
  0
LINE
  5
F47
330
1E
100
AcDbEntity
  8
L1
 48
4.0
100
AcDbLine
 10
1196.22109259384
 20
-1767.367939613823
 30
0.0
 11
1200.22109259384
 21
-1767.367939613823
 31
0.0
  0
LINE
  5
F48
330
1E
100
AcDbEntity
  8
L1
 48
4.0
100
AcDbLine
 10
1200.22109259384
 20
-1767.517939613823
 30
0.0
 11
1208.864319461245
 21
-1767.517939613823
 31
0.0
  0
ARC
  5
F49
330
1E
100
AcDbEntity
  8
L1
 48
4.0
100
AcDbCircle
 10
1187.22109259384
 20
-1714.467939613823
 30
0.0
 40
3.0
100
AcDbArc
 50
0.0
 51
90.0
  0
LINE
  5
F4A
330
1E
100
AcDbEntity
  8
L1
 48
4.0
100
AcDbLine
 10
1095.22109259384
 20
-1706.467939613823
 30
0.0
 11
1095.22109259384
 21
-1702.467939613823
 31
0.0
  0
LINE
  5
F4B
330
1E
100
AcDbEntity
  8
L1
 48
4.0
100
AcDbLine
 10
1125.22109259384
 20
-1706.467939613823
 30
0.0
 11
1125.22109259384
 21
-1702.467939613823
 31
0.0
  0
HATCH
  5
F4C
330
1E
100
AcDbEntity
  8
L2
 48
4.0
100
AcDbHatch
 10
0.0
 20
0.0
 30
0.0
210
0.0
220
0.0
230
1.0
  2
_USER
 70
     0
 71
     0
 91
        2
 92
        7
 72
     0
 73
     1
 93
        4
 10
1110.22109259384
 20
-1702.467939613823
 10
1110.22109259384
 20
-1706.467939613823
 10
1095.22109259384
 20
-1706.467939613823
 10
1095.22109259384
 20
-1702.467939613823
 97
        0
 92
        7
 72
     0
 73
     1
 93
        4
 10
1110.22109259384
 20
-1706.467939613823
 10
1110.22109259384
 20
-1702.467939613823
 10
1125.22109259384
 20
-1702.467939613823
 10
1125.22109259384
 20
-1706.467939613823
 97
        0
 75
     0
 76
     0
 52
30.0
 41
0.3
 77
     1
 78
     2
 53
30.0
 43
1115.239794378351
 44
1149.44795882177
 45
-0.15
 46
0.2598076211353316
 79
     0
 53
120.0
 43
1115.239794378351
 44
1149.44795882177
 45
-0.2598076211353316
 46
-0.1499999999999999
 79
     0
 47
0.0661159364977263
 98
        2
 10
1104.822706541641
 20
-1704.091950578824
 10
1112.036832886931
 20
-1704.951457814229
  0
LINE
  5
F4D
102
{ACAD_REACTORS
330
F54
102
}
330
1E
100
AcDbEntity
  8
CEN
 48
4.0
100
AcDbLine
 10
1110.22109259384
 20
-1723.472480520746
 30
0.0
 11
1110.22109259384
 21
-1684.460181321072
 31
0.0
  0
LINE
  5
F4E
330
1E
100
AcDbEntity
  8
L1
 48
4.0
100
AcDbLine
 10
1095.22109259384
 20
-1706.467939613823
 30
0.0
 11
1125.22109259384
 21
-1706.467939613823
 31
0.0
  0
ARC
  5
F4F
330
1E
100
AcDbEntity
  8
L1
 48
4.0
100
AcDbCircle
 10
1126.22109259384
 20
-1709.467939613823
 30
0.0
 40
2.0
100
AcDbArc
 50
180.0
 51
270.0
  0
ARC
  5
F50
330
1E
100
AcDbEntity
  8
L1
 48
4.0
100
AcDbCircle
 10
1122.22109259384
 20
-1708.467939613823
 30
0.0
 40
2.0
100
AcDbArc
 50
0.0
 51
90.0
  0
LINE
  5
F51
330
1E
100
AcDbEntity
  8
L1
 48
4.0
100
AcDbLine
 10
1124.22109259384
 20
-1709.467939613823
 30
0.0
 11
1124.22109259384
 21
-1708.467939613823
 31
0.0
  0
ARC
  5
F52
330
1E
100
AcDbEntity
  8
L1
 48
4.0
100
AcDbCircle
 10
1098.22109259384
 20
-1708.467939613823
 30
0.0
 40
2.0
100
AcDbArc
 50
90.0
 51
180.0
  0
LINE
  5
F53
330
1E
100
AcDbEntity
  8
L1
 48
4.0
100
AcDbLine
 10
1096.22109259384
 20
-1709.467939613823
 30
0.0
 11
1096.22109259384
 21
-1708.467939613823
 31
0.0
  0
HATCH
  5
F54
330
1E
100
AcDbEntity
  8
L2
 48
4.0
100
AcDbHatch
 10
0.0
 20
0.0
 30
0.0
210
0.0
220
0.0
230
1.0
  2
_USER
 70
     0
 71
     1
 91
        2
 92
        7
 72
     0
 73
     1
 93
        4
 10
1110.22109259384
 20
-1701.467939613823
 10
1110.22109259384
 20
-1693.467939613823
 10
1095.22109259384
 20
-1693.467939613823
 10
1095.22109259384
 20
-1701.467939613823
 97
        4
330
F4D
330
F55
330
F5C
330
F57
 92
        7
 72
     0
 73
     1
 93
        4
 10
1125.22109259384
 20
-1701.467939613823
 10
1125.22109259384
 20
-1693.467939613823
 10
1110.22109259384
 20
-1693.467939613823
 10
1110.22109259384
 20
-1701.467939613823
 97
        4
330
F5A
330
F55
330
F4D
330
F57
 75
     0
 76
     0
 52
45.0
 41
2.000000000000002
 77
     1
 78
     2
 53
45.0
 43
1115.239794378351
 44
1149.44795882177
 45
-1.414213562373096
 46
1.414213562373096
 79
     0
 53
135.0
 43
1115.239794378351
 44
1149.44795882177
 45
-1.414213562373096
 46
-1.414213562373096
 79
     0
 47
0.0660921378787684
 98
        2
 10
1107.338409615031
 20
-1698.935644659495
 10
1115.807010367805
 20
-1698.473000898155
  0
LINE
  5
F55
102
{ACAD_REACTORS
330
F54
102
}
330
1E
100
AcDbEntity
  8
L1
 48
4.0
100
AcDbLine
 10
1095.22109259384
 20
-1693.467939613823
 30
0.0
 11
1125.22109259384
 21
-1693.467939613823
 31
0.0
  0
ARC
  5
F56
330
1E
100
AcDbEntity
  8
L1
 48
4.0
100
AcDbCircle
 10
1110.22109259384
 20
-1725.090716215507
 30
0.0
 40
35.0
100
AcDbArc
 50
64.62306647485094
 51
115.3769335251491
  0
LINE
  5
F57
102
{ACAD_REACTORS
330
F54
102
}
330
1E
100
AcDbEntity
  8
L1
 48
4.0
100
AcDbLine
 10
1095.22109259384
 20
-1701.467939613823
 30
0.0
 11
1125.22109259384
 21
-1701.467939613823
 31
0.0
  0
LINE
  5
F58
330
1E
100
AcDbEntity
  8
L1
 48
4.0
100
AcDbLine
 10
1095.22109259384
 20
-1702.467939613823
 30
0.0
 11
1125.22109259384
 21
-1702.467939613823
 31
0.0
  0
LINE
  5
F59
330
1E
100
AcDbEntity
  8
L1
 48
4.0
100
AcDbLine
 10
1124.22109259384
 20
-1702.467939613823
 30
0.0
 11
1125.22109259384
 21
-1701.467939613823
 31
0.0
  0
LINE
  5
F5A
102
{ACAD_REACTORS
330
F54
102
}
330
1E
100
AcDbEntity
  8
L1
 48
4.0
100
AcDbLine
 10
1125.22109259384
 20
-1701.467939613823
 30
0.0
 11
1125.22109259384
 21
-1693.467939613823
 31
0.0
  0
LINE
  5
F5B
330
1E
100
AcDbEntity
  8
L1
 48
4.0
100
AcDbLine
 10
1095.22109259384
 20
-1701.467939613823
 30
0.0
 11
1096.22109259384
 21
-1702.467939613823
 31
0.0
  0
LINE
  5
F5C
102
{ACAD_REACTORS
330
F54
102
}
330
1E
100
AcDbEntity
  8
L1
 48
4.0
100
AcDbLine
 10
1095.22109259384
 20
-1701.467939613823
 30
0.0
 11
1095.22109259384
 21
-1693.467939613823
 31
0.0
  0
LINE
  5
F5D
330
1E
100
AcDbEntity
  8
L1
 48
4.0
100
AcDbLine
 10
1209.22109259384
 20
-1629.167939613822
 30
0.0
 11
1209.22109259384
 21
-1586.567939613822
 31
0.0
  0
LINE
  5
F5E
330
1E
100
AcDbEntity
  8
L1
 48
4.0
100
AcDbLine
 10
1209.22109259384
 20
-1629.167939613822
 30
0.0
 11
1209.22109259384
 21
-1586.567939613823
 31
0.0
  0
LINE
  5
F5F
330
1E
100
AcDbEntity
  8
L1
 48
4.0
100
AcDbLine
 10
1189.22109259384
 20
-1586.567939613823
 30
0.0
 11
1189.22109259384
 21
-1629.167939613822
 31
0.0
  0
ARC
  5
F60
330
1E
100
AcDbEntity
  8
L1
 48
4.0
100
AcDbCircle
 10
1193.22109259384
 20
-1635.167939613822
 30
0.0
 40
3.0
100
AcDbArc
 50
0.0
 51
90.0
  0
LINE
  5
F61
330
1E
100
AcDbEntity
  8
L1
 48
4.0
100
AcDbLine
 10
1192.22109259384
 20
-1632.167939613822
 30
0.0
 11
1206.22109259384
 21
-1632.167939613822
 31
0.0
  0
ARC
  5
F62
330
1E
100
AcDbEntity
  8
L1
 48
4.0
100
AcDbCircle
 10
1205.22109259384
 20
-1635.167939613822
 30
0.0
 40
3.0
100
AcDbArc
 50
90.0
 51
180.0
  0
ARC
  5
F63
330
1E
100
AcDbEntity
  8
L1
 48
4.0
100
AcDbCircle
 10
1206.22109259384
 20
-1629.167939613822
 30
0.0
 40
3.0
100
AcDbArc
 50
270.0
 51
0.0
  0
ARC
  5
F64
330
1E
100
AcDbEntity
  8
L1
 48
4.0
100
AcDbCircle
 10
1192.22109259384
 20
-1629.167939613822
 30
0.0
 40
3.0
100
AcDbArc
 50
180.0
 51
270.0
  0
LINE
  5
F65
330
1E
100
AcDbEntity
  8
L1
 48
4.0
100
AcDbLine
 10
1192.22109259384
 20
-1583.567939613823
 30
0.0
 11
1206.22109259384
 21
-1583.567939613823
 31
0.0
  0
ARC
  5
F66
330
1E
100
AcDbEntity
  8
L1
 48
4.0
100
AcDbCircle
 10
1206.22109259384
 20
-1586.567939613823
 30
0.0
 40
3.0
100
AcDbArc
 50
0.0
 51
90.0
  0
ARC
  5
F67
330
1E
100
AcDbEntity
  8
L1
 48
4.0
100
AcDbCircle
 10
1192.22109259384
 20
-1586.567939613823
 30
0.0
 40
3.0
100
AcDbArc
 50
90.0
 51
180.0
  0
LINE
  5
F68
330
1E
100
AcDbEntity
  8
L1
 48
4.0
100
AcDbLine
 10
1236.417285259367
 20
-1348.101083722614
 30
0.0
 11
1241.417285259367
 21
-1353.101083722614
 31
0.0
  0
LINE
  5
F69
330
1E
100
AcDbEntity
  8
L1
 48
4.0
100
AcDbLine
 10
1281.417285259367
 20
-1353.101083722614
 30
0.0
 11
1286.417285259367
 21
-1348.101083722614
 31
0.0
  0
LINE
  5
F6A
330
1E
100
AcDbEntity
  8
L1
 48
4.0
100
AcDbLine
 10
1281.417285259367
 20
-1353.101083722614
 30
0.0
 11
1241.417285259367
 21
-1353.101083722614
 31
0.0
  0
LINE
  5
F6B
330
1E
100
AcDbEntity
  8
CEN
 48
4.0
100
AcDbLine
 10
1279.902491214936
 20
-1328.101083722614
 30
0.0
 11
1242.932079303797
 21
-1328.101083722614
 31
0.0
  0
CIRCLE
  5
F6C
330
1E
100
AcDbEntity
  8
L1
 48
4.0
100
AcDbCircle
 10
1261.417285259367
 20
-1328.101083722614
 30
0.0
 40
6.75
  0
LINE
  5
F6D
330
1E
100
AcDbEntity
  8
CEN
 48
4.0
100
AcDbLine
 10
1261.417285259367
 20
-1309.615877767044
 30
0.0
 11
1261.417285259367
 21
-1346.586289678183
 31
0.0
  0
LINE
  5
F6E
330
1E
100
AcDbEntity
  8
L1
 48
4.0
100
AcDbLine
 10
1236.417285259367
 20
-1323.001083722613
 30
0.0
 11
1236.417285259367
 21
-1348.101083722614
 31
0.0
  0
LINE
  5
F6F
330
1E
100
AcDbEntity
  8
L1
 48
4.0
100
AcDbLine
 10
1299.334237522075
 20
-1236.101083722614
 30
0.0
 11
1277.417285259367
 21
-1236.101083722614
 31
0.0
  0
LINE
  5
F70
330
1E
100
AcDbEntity
  8
L1
 48
4.0
100
AcDbLine
 10
1299.334237522075
 20
-1270.101083722614
 30
0.0
 11
1277.417285259367
 21
-1270.101083722614
 31
0.0
  0
LINE
  5
F71
330
1E
100
AcDbEntity
  8
L1
 48
4.0
100
AcDbLine
 10
1427.417047092912
 20
-1232.101083722614
 30
0.0
 11
1313.417047092912
 21
-1232.101083722614
 31
0.0
  0
LINE
  5
F72
330
1E
100
AcDbEntity
  8
L1
 48
4.0
100
AcDbLine
 10
1427.417047092912
 20
-1274.101083722614
 30
0.0
 11
1313.417047092912
 21
-1274.101083722614
 31
0.0
  0
LINE
  5
F73
330
1E
100
AcDbEntity
  8
L1
 48
4.0
100
AcDbLine
 10
1427.417047092912
 20
-1249.101083722614
 30
0.0
 11
1313.417047092912
 21
-1249.101083722614
 31
0.0
  0
LINE
  5
F74
330
1E
100
AcDbEntity
  8
L1
 48
4.0
100
AcDbLine
 10
1427.417047092912
 20
-1257.101083722614
 30
0.0
 11
1313.417047092912
 21
-1257.101083722614
 31
0.0
  0
LINE
  5
F75
330
1E
100
AcDbEntity
  8
L1
 48
4.0
100
AcDbLine
 10
1427.417047092912
 20
-1242.101083722614
 30
0.0
 11
1313.417047092912
 21
-1242.101083722614
 31
0.0
  0
LINE
  5
F76
330
1E
100
AcDbEntity
  8
L1
 48
4.0
100
AcDbLine
 10
1427.417047092912
 20
-1234.101083722614
 30
0.0
 11
1313.417047092912
 21
-1234.101083722614
 31
0.0
  0
LINE
  5
F77
330
1E
100
AcDbEntity
  8
L1
 48
4.0
100
AcDbLine
 10
1427.417047092912
 20
-1272.101083722614
 30
0.0
 11
1313.417047092912
 21
-1272.101083722614
 31
0.0
  0
LINE
  5
F78
330
1E
100
AcDbEntity
  8
L1
 48
4.0
100
AcDbLine
 10
1427.417047092912
 20
-1264.101083722614
 30
0.0
 11
1313.417047092912
 21
-1264.101083722614
 31
0.0
  0
ARC
  5
F79
330
1E
100
AcDbEntity
  8
L1
 48
4.0
100
AcDbCircle
 10
1441.417047092912
 20
-1253.101083722614
 30
0.0
 40
21.99999999999997
100
AcDbArc
 50
270.0
 51
90.0
  0
LINE
  5
F7A
330
1E
100
AcDbEntity
  8
L1
 48
4.0
100
AcDbLine
 10
1441.417047092912
 20
-1231.101083722614
 30
0.0
 11
1441.417047092912
 21
-1275.101083722614
 31
0.0
  0
ARC
  5
F7B
330
1E
100
AcDbEntity
  8
L1
 48
4.0
100
AcDbCircle
 10
1427.417047092912
 20
-1253.101083722614
 30
0.0
 40
4.0
100
AcDbArc
 50
270.0
 51
90.0
  0
LINE
  5
F7C
330
1E
100
AcDbEntity
  8
L1
 48
4.0
100
AcDbLine
 10
1441.417047092912
 20
-1275.101083722614
 30
0.0
 11
1427.417047092912
 21
-1275.101083722614
 31
0.0
  0
LINE
  5
F7D
330
1E
100
AcDbEntity
  8
L1
 48
4.0
100
AcDbLine
 10
1427.417047092912
 20
-1275.101083722614
 30
0.0
 11
1427.417047092912
 21
-1272.101083722614
 31
0.0
  0
LINE
  5
F7E
330
1E
100
AcDbEntity
  8
L1
 48
4.0
100
AcDbLine
 10
1427.417047092912
 20
-1264.101083722614
 30
0.0
 11
1427.417047092912
 21
-1257.101083722614
 31
0.0
  0
ARC
  5
F7F
330
1E
100
AcDbEntity
  8
L1
 48
4.0
100
AcDbCircle
 10
1427.417047092912
 20
-1268.101083722614
 30
0.0
 40
4.0
100
AcDbArc
 50
270.0
 51
90.0
  0
LINE
  5
F80
330
1E
100
AcDbEntity
  8
L1
 48
4.0
100
AcDbLine
 10
1427.417047092912
 20
-1234.101083722614
 30
0.0
 11
1427.417047092912
 21
-1231.101083722614
 31
0.0
  0
LINE
  5
F81
330
1E
100
AcDbEntity
  8
L1
 48
4.0
100
AcDbLine
 10
1427.417047092912
 20
-1249.101083722614
 30
0.0
 11
1427.417047092912
 21
-1242.101083722614
 31
0.0
  0
ARC
  5
F82
330
1E
100
AcDbEntity
  8
L1
 48
4.0
100
AcDbCircle
 10
1427.417047092912
 20
-1238.101083722614
 30
0.0
 40
4.0
100
AcDbArc
 50
270.0
 51
90.0
  0
LINE
  5
F83
330
1E
100
AcDbEntity
  8
L1
 48
4.0
100
AcDbLine
 10
1441.417047092912
 20
-1231.101083722614
 30
0.0
 11
1427.417047092912
 21
-1231.101083722614
 31
0.0
  0
LINE
  5
F84
330
1E
100
AcDbEntity
  8
L1
 48
4.0
100
AcDbLine
 10
1299.334237522075
 20
-1231.101083722614
 30
0.0
 11
1299.334237522075
 21
-1275.101083722614
 31
0.0
  0
ARC
  5
F85
330
1E
100
AcDbEntity
  8
L1
 48
4.0
100
AcDbCircle
 10
1313.417047092912
 20
-1253.101083722614
 30
0.0
 40
4.0
100
AcDbArc
 50
90.0
 51
270.0
  0
LINE
  5
F86
330
1E
100
AcDbEntity
  8
L1
 48
4.0
100
AcDbLine
 10
1313.417047092912
 20
-1275.101083722614
 30
0.0
 11
1299.334237522075
 21
-1275.101083722614
 31
0.0
  0
LINE
  5
F87
330
1E
100
AcDbEntity
  8
L1
 48
4.0
100
AcDbLine
 10
1313.417047092912
 20
-1275.101083722614
 30
0.0
 11
1313.417047092912
 21
-1272.101083722614
 31
0.0
  0
LINE
  5
F88
330
1E
100
AcDbEntity
  8
L1
 48
4.0
100
AcDbLine
 10
1313.417047092912
 20
-1264.101083722614
 30
0.0
 11
1313.417047092912
 21
-1257.101083722614
 31
0.0
  0
ARC
  5
F89
330
1E
100
AcDbEntity
  8
L1
 48
4.0
100
AcDbCircle
 10
1313.417047092912
 20
-1268.101083722614
 30
0.0
 40
4.0
100
AcDbArc
 50
90.0
 51
270.0
  0
LINE
  5
F8A
330
1E
100
AcDbEntity
  8
L1
 48
4.0
100
AcDbLine
 10
1313.417047092912
 20
-1234.101083722614
 30
0.0
 11
1313.417047092912
 21
-1231.101083722614
 31
0.0
  0
LINE
  5
F8B
330
1E
100
AcDbEntity
  8
L1
 48
4.0
100
AcDbLine
 10
1313.417047092912
 20
-1249.101083722614
 30
0.0
 11
1313.417047092912
 21
-1242.101083722614
 31
0.0
  0
ARC
  5
F8C
330
1E
100
AcDbEntity
  8
L1
 48
4.0
100
AcDbCircle
 10
1313.417047092912
 20
-1238.101083722614
 30
0.0
 40
4.0
100
AcDbArc
 50
90.0
 51
270.0
  0
LINE
  5
F8D
330
1E
100
AcDbEntity
  8
L1
 48
4.0
100
AcDbLine
 10
1313.417047092912
 20
-1231.101083722614
 30
0.0
 11
1299.334237522075
 21
-1231.101083722614
 31
0.0
  0
LINE
  5
F8E
330
1E
100
AcDbEntity
  8
L1
 48
4.0
100
AcDbLine
 10
1286.417285259367
 20
-1158.101083722614
 30
0.0
 11
1286.417285259367
 21
-1236.101083722614
 31
0.0
  0
LINE
  5
F8F
330
1E
100
AcDbEntity
  8
L1
 48
4.0
100
AcDbLine
 10
1258.417285259367
 20
-1229.565015745114
 30
0.0
 11
1258.417285259367
 21
-1186.201083722614
 31
0.0
  0
LINE
  5
F90
330
1E
100
AcDbEntity
  8
L1
 48
4.0
100
AcDbLine
 10
1257.417285259367
 20
-1231.801083722613
 30
0.0
 11
1257.417285259367
 21
-1274.401083722613
 31
0.0
  0
LINE
  5
F91
330
1E
100
AcDbEntity
  8
L1
 48
4.0
100
AcDbLine
 10
1277.417285259367
 20
-1274.401083722613
 30
0.0
 11
1277.417285259367
 21
-1231.801083722613
 31
0.0
  0
LINE
  5
F92
330
1E
100
AcDbEntity
  8
L1
 48
4.0
100
AcDbLine
 10
1260.417285259367
 20
-1277.401083722613
 30
0.0
 11
1274.417285259367
 21
-1277.401083722613
 31
0.0
  0
ARC
  5
F93
330
1E
100
AcDbEntity
  8
L1
 48
4.0
100
AcDbCircle
 10
1274.417285259367
 20
-1274.401083722613
 30
0.0
 40
3.0
100
AcDbArc
 50
270.0
 51
0.0
  0
LINE
  5
F94
330
1E
100
AcDbEntity
  8
L1
 48
4.0
100
AcDbLine
 10
1258.417285259367
 20
-1320.001083722614
 30
0.0
 11
1258.417285259367
 21
-1276.637151700113
 31
0.0
  0
ARC
  5
F95
330
1E
100
AcDbEntity
  8
L1
 48
4.0
100
AcDbCircle
 10
1260.417285259367
 20
-1274.401083722613
 30
0.0
 40
3.0
100
AcDbArc
 50
180.0
 51
270.0
  0
LINE
  5
F96
330
1E
100
AcDbEntity
  8
L1
 48
4.0
100
AcDbLine
 10
1260.417285259367
 20
-1228.801083722613
 30
0.0
 11
1274.417285259367
 21
-1228.801083722613
 31
0.0
  0
ARC
  5
F97
330
1E
100
AcDbEntity
  8
L1
 48
4.0
100
AcDbCircle
 10
1274.417285259367
 20
-1231.801083722613
 30
0.0
 40
3.0
100
AcDbArc
 50
0.0
 51
90.0
  0
ARC
  5
F98
330
1E
100
AcDbEntity
  8
L1
 48
4.0
100
AcDbCircle
 10
1260.417285259367
 20
-1231.801083722613
 30
0.0
 40
3.0
100
AcDbArc
 50
90.0
 51
180.0
  0
LINE
  5
F99
330
1E
100
AcDbEntity
  8
CEN
 48
4.0
100
AcDbLine
 10
1261.417285259367
 20
-1196.586289678183
 30
0.0
 11
1261.417285259367
 21
-1159.615877767044
 31
0.0
  0
LINE
  5
F9A
330
1E
100
AcDbEntity
  8
L1
 48
4.0
100
AcDbLine
 10
1236.417285259367
 20
-1158.101083722614
 30
0.0
 11
1236.417285259367
 21
-1183.201083722614
 31
0.0
  0
LINE
  5
F9B
330
1E
100
AcDbEntity
  8
CEN
 48
4.0
100
AcDbLine
 10
1279.902491214936
 20
-1178.101083722614
 30
0.0
 11
1242.932079303797
 21
-1178.101083722614
 31
0.0
  0
CIRCLE
  5
F9C
330
1E
100
AcDbEntity
  8
L1
 48
4.0
100
AcDbCircle
 10
1261.417285259367
 20
-1178.101083722614
 30
0.0
 40
6.75
  0
LINE
  5
F9D
330
1E
100
AcDbEntity
  8
L1
 48
4.0
100
AcDbLine
 10
1281.417285259367
 20
-1153.101083722614
 30
0.0
 11
1241.417285259367
 21
-1153.101083722614
 31
0.0
  0
LINE
  5
F9E
330
1E
100
AcDbEntity
  8
L1
 48
4.0
100
AcDbLine
 10
1281.417285259367
 20
-1153.101083722614
 30
0.0
 11
1286.417285259367
 21
-1158.101083722614
 31
0.0
  0
LINE
  5
F9F
330
1E
100
AcDbEntity
  8
L1
 48
4.0
100
AcDbLine
 10
1241.417285259367
 20
-1153.101083722614
 30
0.0
 11
1236.417285259367
 21
-1158.101083722614
 31
0.0
  0
ARC
  5
FA0
330
1E
100
AcDbEntity
  8
L1
 48
4.0
100
AcDbCircle
 10
467.2840800025133
 20
-1761.367939613823
 30
0.0
 40
21.01554979850208
100
AcDbArc
 50
158.2132107017399
 51
201.78678929826
  0
LINE
  5
FA1
330
1E
100
AcDbEntity
  8
L1
 48
4.0
100
AcDbLine
 10
446.2685302040115
 20
-1748.367939613823
 30
0.0
 11
446.2685302040115
 21
-1774.367939613823
 31
0.0
  0
LINE
  5
FA2
330
1E
100
AcDbEntity
  8
L1
 48
4.0
100
AcDbLine
 10
444.2685302040115
 20
-1774.367939613823
 30
0.0
 11
444.2685302040115
 21
-1748.367939613823
 31
0.0
  0
LINE
  5
FA3
330
1E
100
AcDbEntity
  8
L1
 48
4.0
100
AcDbLine
 10
429.2685302040115
 20
-1749.367939613823
 30
0.0
 11
429.2685302040115
 21
-1773.367939613823
 31
0.0
  0
LINE
  5
FA4
330
1E
100
AcDbEntity
  8
L1
 48
4.0
100
AcDbLine
 10
430.2685302040115
 20
-1748.367939613823
 30
0.0
 11
430.2685302040115
 21
-1774.367939613823
 31
0.0
  0
LINE
  5
FA5
330
1E
100
AcDbEntity
  8
L1
 48
4.0
100
AcDbLine
 10
464.2210925938414
 20
-1771.845439613823
 30
0.0
 11
464.2210925938414
 21
-1755.964527769479
 31
0.0
  0
LINE
  5
FA6
330
1E
100
AcDbEntity
  8
L1
 48
4.0
100
AcDbLine
 10
466.2210925938414
 20
-1759.428629384617
 30
0.0
 11
466.2210925938414
 21
-1771.845439613823
 31
0.0
  0
LINE
  5
FA7
330
1E
100
AcDbEntity
  8
L1
 48
4.0
100
AcDbLine
 10
461.2685302040115
 20
-1750.850539697777
 30
0.0
 11
461.2685302040115
 21
-1774.367939613823
 31
0.0
  0
LINE
  5
FA8
330
1E
100
AcDbEntity
  8
L1
 48
4.0
100
AcDbLine
 10
465.7210925938414
 20
-1743.551496981902
 30
0.0
 11
481.1405360102403
 21
-1770.258756403539
 31
0.0
  0
LINE
  5
FA9
330
1E
100
AcDbEntity
  8
L1
 48
4.0
100
AcDbLine
 10
459.8016491774424
 20
-1748.3098272311
 30
0.0
 11
474.6405360102403
 21
-1774.011533153272
 31
0.0
  0
LINE
  5
FAA
330
1E
100
AcDbEntity
  8
L1
 48
4.0
100
AcDbLine
 10
499.4794228430383
 20
-1761.011533153272
 30
0.0
 11
476.9627623446431
 21
-1774.011533153272
 31
0.0
  0
ARC
  5
FAB
330
1E
100
AcDbEntity
  8
L1
 48
4.0
100
AcDbCircle
 10
475.8016491774424
 20
-1746.000426154343
 30
0.0
 40
24.83888683279685
100
AcDbArc
 50
282.4120462259993
 51
317.5879537740001
  0
LINE
  5
FAC
330
1E
100
AcDbEntity
  8
L1
 48
4.0
100
AcDbLine
 10
500.5512196127625
 20
-1778.867939613823
 30
0.0
 11
492.5512196127634
 21
-1765.011533153272
 31
0.0
  0
LINE
  5
FAD
330
1E
100
AcDbEntity
  8
L1
 48
4.0
100
AcDbLine
 10
466.2210925938414
 20
-1807.367939613823
 30
0.0
 11
466.2210925938414
 21
-1759.428629384617
 31
0.0
  0
ARC
  5
FAE
330
1E
100
AcDbEntity
  8
L1
 48
4.0
100
AcDbCircle
 10
440.2055427953385
 20
-1761.367939613823
 30
0.0
 40
21.01554979850208
100
AcDbArc
 50
338.2132107017399
 51
21.78678929826131
  0
ARC
  5
FAF
330
1E
100
AcDbEntity
  8
L1
 48
4.0
100
AcDbCircle
 10
440.2529804055093
 20
-1761.367939613823
 30
0.0
 40
21.01554979850208
100
AcDbArc
 50
338.2132107017399
 51
21.78678929826131
  0
LINE
  5
FB0
330
1E
100
AcDbEntity
  8
L1
 48
4.0
100
AcDbLine
 10
466.2210925938414
 20
-1841.367939613823
 30
0.0
 11
466.2210925938414
 21
-1759.428629384617
 31
0.0
  0
LINE
  5
FB2
330
1E
100
AcDbEntity
  8
L1
 48
4.0
100
AcDbLine
 10
561.2210925938416
 20
-1723.867939613823
 30
0.0
 11
561.2210925938416
 21
-1838.867939613823
 31
0.0
  0
LINE
  5
FB3
330
1E
100
AcDbEntity
  8
L1
 48
4.0
100
AcDbLine
 10
581.2210925938416
 20
-1726.867939613823
 30
0.0
 11
581.2210925938416
 21
-1835.867939613823
 31
0.0
  0
LINE
  5
FB4
330
1E
100
AcDbEntity
  8
CEN
 48
4.0
100
AcDbLine
 10
408.2210925938396
 20
-1628.947468547762
 30
0.0
 11
504.6273030231196
 21
-1795.927923176448
 31
0.0
  0
LINE
  5
FB6
330
1E
100
AcDbEntity
  8
L1
 48
4.0
100
AcDbLine
 10
578.2210925938416
 20
-1838.867939613823
 30
0.0
 11
466.2210925938414
 21
-1838.867939613823
 31
0.0
  0
LWPOLYLINE
  5
FB7
330
1E
100
AcDbEntity
  8
L1
 48
4.0
100
AcDbPolyline
 90
        6
 70
     1
 43
0.0
 10
530.1585925938416
 20
-1814.54798955902
 10
534.0960925938416
 20
-1821.367939613823
 10
530.1585925938416
 20
-1828.187889668625
 10
522.2835925938416
 20
-1828.187889668625
 10
518.3460925938416
 20
-1821.367939613823
 10
522.2835925938416
 20
-1814.54798955902
  0
CIRCLE
  5
FB8
330
1E
100
AcDbEntity
  8
L1
 48
4.0
100
AcDbCircle
 10
526.2210925938416
 20
-1821.367939613823
 30
0.0
 40
11.875
  0
LWPOLYLINE
  5
FB9
330
1E
100
AcDbEntity
  8
L1
 48
4.0
100
AcDbPolyline
 90
        6
 70
     1
 43
0.0
 10
533.0771270404684
 20
-1809.492939613823
 10
539.9331614870944
 20
-1821.367939613823
 10
533.0771270404684
 20
-1833.242939613823
 10
519.3650581472148
 20
-1833.242939613823
 10
512.5090237005875
 20
-1821.367939613823
 10
519.3650581472148
 20
-1809.492939613823
  0
LINE
  5
FBA
330
1E
100
AcDbEntity
  8
CEN
 48
4.0
100
AcDbLine
 10
543.7210925938416
 20
-1821.367939613823
 30
0.0
 11
508.7210925938416
 21
-1821.367939613823
 31
0.0
  0
LINE
  5
FBB
330
1E
100
AcDbEntity
  8
CEN
 48
4.0
100
AcDbLine
 10
526.2210925938416
 20
-1803.867939613823
 30
0.0
 11
526.2210925938416
 21
-1838.867939613823
 31
0.0
  0
ARC
  5
FBC
330
1E
100
AcDbEntity
  8
L1
 48
4.0
100
AcDbCircle
 10
578.2210925938416
 20
-1835.867939613823
 30
0.0
 40
3.0
100
AcDbArc
 50
270.0
 51
0.0
  0
LINE
  5
FBD
330
1E
100
AcDbEntity
  8
L1
 48
4.0
100
AcDbLine
 10
516.2210925938416
 20
-1838.867939613823
 30
0.0
 11
516.2210925938416
 21
-1868.867939613823
 31
0.0
  0
LINE
  5
FBE
102
{ACAD_REACTORS
330
11FB
102
}
330
1E
100
AcDbEntity
  8
CEN
 48
4.0
100
AcDbLine
 10
491.2210925938416
 20
-1842.271318856897
 30
0.0
 11
491.2210925938416
 21
-1885.72419309816
 31
0.0
  0
LINE
  5
FBF
330
1E
100
AcDbEntity
  8
L1
 48
4.0
100
AcDbLine
 10
466.2210925938414
 20
-1868.867939613823
 30
0.0
 11
466.2210925938414
 21
-1776.284882868953
 31
0.0
  0
LINE
  5
FC0
330
1E
100
AcDbEntity
  8
L1
 48
4.0
100
AcDbLine
 10
466.2210925938414
 20
-1868.867939613823
 30
0.0
 11
516.2210925938416
 21
-1868.867939613823
 31
0.0
  0
ARC
  5
FC1
330
1E
100
AcDbEntity
  8
L1
 48
4.0
100
AcDbCircle
 10
455.4517262419265
 20
-1813.067939613823
 30
0.0
 40
5.816803962085553
100
AcDbArc
 50
317.8965511292542
 51
42.103448870741
  0
LINE
  5
FC2
330
1E
100
AcDbEntity
  8
L1
 48
4.0
100
AcDbLine
 10
461.2685302040115
 20
-1814.367939613823
 30
0.0
 11
459.7674195041184
 21
-1816.967939613823
 31
0.0
  0
ARC
  5
FC3
330
1E
100
AcDbEntity
  8
L1
 48
4.0
100
AcDbCircle
 10
440.2055427953385
 20
-1801.367939613823
 30
0.0
 40
21.01554979850208
100
AcDbArc
 50
338.2132107017387
 51
21.78678929826005
  0
ARC
  5
FC4
330
1E
100
AcDbEntity
  8
L1
 48
4.0
100
AcDbCircle
 10
440.2529804055093
 20
-1801.367939613823
 30
0.0
 40
21.01554979850208
100
AcDbArc
 50
338.2132107017387
 51
21.78678929826005
  0
LINE
  5
FC5
330
1E
100
AcDbEntity
  8
L1
 48
4.0
100
AcDbLine
 10
459.7674195041184
 20
-1785.767939613823
 30
0.0
 11
461.2685302040115
 21
-1788.367939613823
 31
0.0
  0
ARC
  5
FC6
330
1E
100
AcDbEntity
  8
L1
 48
4.0
100
AcDbCircle
 10
455.4517262419265
 20
-1773.067939613823
 30
0.0
 40
5.816803962085553
100
AcDbArc
 50
317.896551129259
 51
42.103448870741
  0
LINE
  5
FC7
330
1E
100
AcDbEntity
  8
L1
 48
4.0
100
AcDbLine
 10
461.2685302040115
 20
-1774.367939613823
 30
0.0
 11
459.7674195041184
 21
-1776.967939613823
 31
0.0
  0
ARC
  5
FC8
330
1E
100
AcDbEntity
  8
L1
 48
4.0
100
AcDbCircle
 10
455.4517262419265
 20
-1789.667939613823
 30
0.0
 40
5.816803962085479
100
AcDbArc
 50
317.896551129259
 51
42.103448870741
  0
LINE
  5
FC9
330
1E
100
AcDbEntity
  8
CEN
 48
4.0
100
AcDbLine
 10
481.2210925938416
 20
-1801.367939613823
 30
0.0
 11
423.3842065215274
 21
-1801.367939613823
 31
0.0
  0
LINE
  5
FCA
330
1E
100
AcDbEntity
  8
L1
 48
4.0
100
AcDbLine
 10
466.2210925938414
 20
-1832.683439613822
 30
0.0
 11
466.2210925938414
 21
-1814.052439613822
 31
0.0
  0
LINE
  5
FCB
330
1E
100
AcDbEntity
  8
L1
 48
4.0
100
AcDbLine
 10
466.2210925938414
 20
-1847.367939613823
 30
0.0
 11
466.2210925938414
 21
-1782.525755745823
 31
0.0
  0
LINE
  5
FCC
330
1E
100
AcDbEntity
  8
L1
 48
4.0
100
AcDbLine
 10
466.2210925938414
 20
-1862.867939613823
 30
0.0
 11
516.2210925938416
 21
-1862.867939613823
 31
0.0
  0
ARC
  5
FCD
330
1E
100
AcDbEntity
  8
L1
 48
4.0
100
AcDbCircle
 10
496.2210925938416
 20
-1781.367939613823
 30
0.0
 40
4.999999999999058
100
AcDbArc
 50
209.9999999999941
 51
29.99999999999412
  0
ARC
  5
FCE
330
1E
100
AcDbEntity
  8
L1
 48
4.0
100
AcDbCircle
 10
496.2210925938416
 20
-1781.367939613823
 30
0.0
 40
6.0
100
AcDbArc
 50
176.4426902380847
 51
63.55730976193019
  0
ARC
  5
FCF
330
1E
100
AcDbEntity
  8
L1
 48
4.0
100
AcDbCircle
 10
496.2210925938416
 20
-1781.367939613823
 30
0.0
 40
11.5
100
AcDbArc
 50
145.7714617405449
 51
94.22853825944753
  0
LWPOLYLINE
  5
FD0
330
1E
100
AcDbEntity
  8
L1
 48
4.0
100
AcDbPolyline
 90
        7
 70
     0
 43
0.0
 10
495.3550671900566
 20
-1769.867939613823
 10
502.8606206895215
 20
-1769.867939613823
 10
509.5001487852023
 20
-1781.367939613823
 10
502.8606206895215
 20
-1792.867939613823
 10
489.5815644981603
 20
-1792.867939613823
 10
482.9420364024795
 20
-1781.367939613823
 10
486.6948131522122
 20
-1774.867939613823
  0
LINE
  5
FD1
330
1E
100
AcDbEntity
  8
CEN
 48
4.0
100
AcDbLine
 10
481.6611090312153
 20
-1789.774150043101
 30
0.0
 11
510.7810761564665
 21
-1772.961729184544
 31
0.0
  0
LINE
  5
FD2
330
1E
100
AcDbEntity
  8
L1
 48
4.0
100
AcDbLine
 10
464.2210925938414
 20
-1811.845439613823
 30
0.0
 11
464.2210925938414
 21
-1790.890439613823
 31
0.0
  0
LINE
  5
FD3
330
1E
100
AcDbEntity
  8
L1
 48
4.0
100
AcDbLine
 10
466.2210925938414
 20
-1790.890439613823
 30
0.0
 11
466.2210925938414
 21
-1811.845439613823
 31
0.0
  0
LINE
  5
FD4
330
1E
100
AcDbEntity
  8
L1
 48
4.0
100
AcDbLine
 10
461.2685302040115
 20
-1788.367939613823
 30
0.0
 11
461.2685302040115
 21
-1814.367939613823
 31
0.0
  0
LINE
  5
FD5
330
1E
100
AcDbEntity
  8
L1
 48
4.0
100
AcDbLine
 10
466.2210925938414
 20
-1792.683439613822
 30
0.0
 11
466.2210925938414
 21
-1774.052439613822
 31
0.0
  0
LINE
  5
FD6
330
1E
100
AcDbEntity
  8
L2
 48
4.0
100
AcDbLine
 10
464.2210925938414
 20
-1810.845439613823
 30
0.0
 11
462.4890417862725
 21
-1811.845439613823
 31
0.0
  0
LINE
  5
FD7
330
1E
100
AcDbEntity
  8
L1
 48
4.0
100
AcDbLine
 10
466.2210925938414
 20
-1811.845439613823
 30
0.0
 11
461.2210925938414
 21
-1811.845439613823
 31
0.0
  0
LINE
  5
FD8
330
1E
100
AcDbEntity
  8
L2
 48
4.0
100
AcDbLine
 10
466.2210925938414
 20
-1810.845439613823
 30
0.0
 11
464.2210925938414
 21
-1810.845439613823
 31
0.0
  0
LINE
  5
FD9
330
1E
100
AcDbEntity
  8
L1
 48
4.0
100
AcDbLine
 10
474.6405360102403
 20
-1774.011533153272
 30
0.0
 11
476.9627623446431
 21
-1774.011533153272
 31
0.0
  0
ARC
  5
FDA
330
1E
100
AcDbEntity
  8
L1
 48
4.0
100
AcDbCircle
 10
475.1485230208914
 20
-1767.385838965839
 30
0.0
 40
6.64513914589945
100
AcDbArc
 50
265.6157525319583
 51
334.3842474680495
  0
LINE
  5
FDB
330
1E
100
AcDbEntity
  8
L1
 48
4.0
100
AcDbLine
 10
491.8909655749185
 20
-1783.867939613823
 30
0.0
 11
483.8909655749185
 21
-1770.011533153272
 31
0.0
  0
LINE
  5
FDC
330
1E
100
AcDbEntity
  8
L1
 48
4.0
100
AcDbLine
 10
466.2210925938414
 20
-1771.845439613823
 30
0.0
 11
461.2685302040115
 21
-1771.845439613823
 31
0.0
  0
LINE
  5
FDD
330
1E
100
AcDbEntity
  8
L1
 48
4.0
100
AcDbLine
 10
466.2210925938414
 20
-1788.683439613822
 30
0.0
 11
466.2210925938414
 21
-1782.525755745824
 31
0.0
  0
LINE
  5
FDE
330
1E
100
AcDbEntity
  8
L2
 48
4.0
100
AcDbLine
 10
466.2210925938414
 20
-1770.845439613823
 30
0.0
 11
464.2210925938414
 21
-1770.845439613823
 31
0.0
  0
LINE
  5
FDF
330
1E
100
AcDbEntity
  8
L2
 48
4.0
100
AcDbLine
 10
464.2210925938414
 20
-1770.845439613823
 30
0.0
 11
462.4890417862725
 21
-1771.845439613823
 31
0.0
  0
LINE
  5
FE0
330
1E
100
AcDbEntity
  8
L2
 48
4.0
100
AcDbLine
 10
464.2210925938414
 20
-1791.890439613823
 30
0.0
 11
462.4890417862725
 21
-1790.890439613823
 31
0.0
  0
LINE
  5
FE1
330
1E
100
AcDbEntity
  8
L1
 48
4.0
100
AcDbLine
 10
466.2210925938414
 20
-1790.890439613823
 30
0.0
 11
461.2210925938414
 21
-1790.890439613823
 31
0.0
  0
LINE
  5
FE2
330
1E
100
AcDbEntity
  8
L2
 48
4.0
100
AcDbLine
 10
466.2210925938414
 20
-1791.890439613823
 30
0.0
 11
464.2210925938414
 21
-1791.890439613823
 31
0.0
  0
LINE
  5
FE3
330
1E
100
AcDbEntity
  8
L1
 48
4.0
100
AcDbLine
 10
446.2685302040115
 20
-1814.367939613823
 30
0.0
 11
447.7696409039054
 21
-1816.967939613823
 31
0.0
  0
ARC
  5
FE4
330
1E
100
AcDbEntity
  8
L1
 48
4.0
100
AcDbCircle
 10
452.0853341660975
 20
-1813.067939613823
 30
0.0
 40
5.816803962085553
100
AcDbArc
 50
137.896551129259
 51
222.1034488707458
  0
LINE
  5
FE5
330
1E
100
AcDbEntity
  8
L1
 48
4.0
100
AcDbLine
 10
459.7674195041184
 20
-1816.967939613823
 30
0.0
 11
447.7696409039054
 21
-1816.967939613823
 31
0.0
  0
LINE
  5
FE6
330
1E
100
AcDbEntity
  8
L1
 48
4.0
100
AcDbLine
 10
444.2685302040115
 20
-1814.367939613823
 30
0.0
 11
444.2685302040115
 21
-1788.367939613823
 31
0.0
  0
LINE
  5
FE7
330
1E
100
AcDbEntity
  8
L1
 48
4.0
100
AcDbLine
 10
429.2685302040115
 20
-1789.367939613823
 30
0.0
 11
429.2685302040115
 21
-1813.367939613823
 31
0.0
  0
LINE
  5
FE8
330
1E
100
AcDbEntity
  8
L1
 48
4.0
100
AcDbLine
 10
430.2685302040115
 20
-1788.367939613823
 30
0.0
 11
430.2685302040115
 21
-1814.367939613823
 31
0.0
  0
ARC
  5
FE9
330
1E
100
AcDbEntity
  8
L1
 48
4.0
100
AcDbCircle
 10
452.0853341660975
 20
-1789.667939613823
 30
0.0
 40
5.816803962085479
100
AcDbArc
 50
137.896551129259
 51
222.103448870741
  0
LINE
  5
FEA
330
1E
100
AcDbEntity
  8
L1
 48
4.0
100
AcDbLine
 10
446.2685302040115
 20
-1788.367939613823
 30
0.0
 11
446.2685302040115
 21
-1814.367939613823
 31
0.0
  0
LINE
  5
FEB
330
1E
100
AcDbEntity
  8
L1
 48
4.0
100
AcDbLine
 10
430.2685302040115
 20
-1814.367939613823
 30
0.0
 11
446.2685302040115
 21
-1814.367939613823
 31
0.0
  0
LINE
  5
FEC
330
1E
100
AcDbEntity
  8
L2
 48
4.0
100
AcDbLine
 10
429.2685302040115
 20
-1813.367939613823
 30
0.0
 11
444.2685302040115
 21
-1813.367939613823
 31
0.0
  0
LINE
  5
FED
330
1E
100
AcDbEntity
  8
L1
 48
4.0
100
AcDbLine
 10
459.7674195041184
 20
-1793.567939613823
 30
0.0
 11
447.7696409039054
 21
-1793.567939613823
 31
0.0
  0
LINE
  5
FEE
330
1E
100
AcDbEntity
  8
L1
 48
4.0
100
AcDbLine
 10
459.7674195041184
 20
-1809.167939613823
 30
0.0
 11
447.7696409039054
 21
-1809.167939613823
 31
0.0
  0
ARC
  5
FEF
330
1E
100
AcDbEntity
  8
L1
 48
4.0
100
AcDbCircle
 10
467.2840800025133
 20
-1801.367939613823
 30
0.0
 40
21.01554979850208
100
AcDbArc
 50
158.2132107017399
 51
201.7867892982613
  0
LINE
  5
FF0
330
1E
100
AcDbEntity
  8
L2
 48
4.0
100
AcDbLine
 10
446.2685302040115
 20
-1814.367939613823
 30
0.0
 11
444.2685302040115
 21
-1813.367939613823
 31
0.0
  0
LINE
  5
FF1
330
1E
100
AcDbEntity
  8
L1
 48
4.0
100
AcDbLine
 10
429.2685302040115
 20
-1813.367939613823
 30
0.0
 11
430.2685302040115
 21
-1814.367939613823
 31
0.0
  0
LINE
  5
FF2
330
1E
100
AcDbEntity
  8
L1
 48
4.0
100
AcDbLine
 10
430.2685302040115
 20
-1774.367939613823
 30
0.0
 11
446.2685302040115
 21
-1774.367939613823
 31
0.0
  0
LINE
  5
FF3
330
1E
100
AcDbEntity
  8
L2
 48
4.0
100
AcDbLine
 10
429.2685302040115
 20
-1773.367939613823
 30
0.0
 11
444.2685302040115
 21
-1773.367939613823
 31
0.0
  0
LINE
  5
FF4
330
1E
100
AcDbEntity
  8
L1
 48
4.0
100
AcDbLine
 10
430.2685302040115
 20
-1788.367939613823
 30
0.0
 11
446.2685302040115
 21
-1788.367939613823
 31
0.0
  0
LINE
  5
FF5
330
1E
100
AcDbEntity
  8
L2
 48
4.0
100
AcDbLine
 10
429.2685302040115
 20
-1789.367939613823
 30
0.0
 11
444.2685302040115
 21
-1789.367939613823
 31
0.0
  0
LINE
  5
FF6
330
1E
100
AcDbEntity
  8
L1
 48
4.0
100
AcDbLine
 10
447.7696409039054
 20
-1785.767939613823
 30
0.0
 11
446.2685302040115
 21
-1788.367939613823
 31
0.0
  0
LINE
  5
FF7
330
1E
100
AcDbEntity
  8
L1
 48
4.0
100
AcDbLine
 10
459.7674195041184
 20
-1785.767939613823
 30
0.0
 11
447.7696409039054
 21
-1785.767939613823
 31
0.0
  0
ARC
  5
FF8
330
1E
100
AcDbEntity
  8
L1
 48
4.0
100
AcDbCircle
 10
452.0853341660975
 20
-1773.067939613823
 30
0.0
 40
5.816803962085553
100
AcDbArc
 50
137.896551129259
 51
222.103448870741
  0
LINE
  5
FF9
330
1E
100
AcDbEntity
  8
L1
 48
4.0
100
AcDbLine
 10
446.2685302040115
 20
-1774.367939613823
 30
0.0
 11
447.7696409039054
 21
-1776.967939613823
 31
0.0
  0
LINE
  5
FFA
330
1E
100
AcDbEntity
  8
L1
 48
4.0
100
AcDbLine
 10
459.7674195041184
 20
-1776.967939613823
 30
0.0
 11
447.7696409039054
 21
-1776.967939613823
 31
0.0
  0
LINE
  5
FFB
330
1E
100
AcDbEntity
  8
L1
 48
4.0
100
AcDbLine
 10
459.7674195041184
 20
-1769.167939613823
 30
0.0
 11
447.7696409039054
 21
-1769.167939613823
 31
0.0
  0
LINE
  5
FFC
330
1E
100
AcDbEntity
  8
L2
 48
4.0
100
AcDbLine
 10
446.2685302040115
 20
-1774.367939613823
 30
0.0
 11
444.2685302040115
 21
-1773.367939613823
 31
0.0
  0
LINE
  5
FFD
330
1E
100
AcDbEntity
  8
L2
 48
4.0
100
AcDbLine
 10
446.2685302040115
 20
-1788.367939613823
 30
0.0
 11
444.2685302040115
 21
-1789.367939613823
 31
0.0
  0
LINE
  5
FFE
330
1E
100
AcDbEntity
  8
L1
 48
4.0
100
AcDbLine
 10
429.2685302040115
 20
-1773.367939613823
 30
0.0
 11
430.2685302040115
 21
-1774.367939613823
 31
0.0
  0
LINE
  5
FFF
330
1E
100
AcDbEntity
  8
L1
 48
4.0
100
AcDbLine
 10
430.2685302040115
 20
-1788.367939613823
 30
0.0
 11
429.2685302040115
 21
-1789.367939613823
 31
0.0
  0
ELLIPSE
  5
1000
102
{ACAD_REACTORS
330
123B
102
}
330
1E
100
AcDbEntity
  8
L1
 48
4.0
100
AcDbEllipse
 10
522.6349076520864
 20
-1402.139745222489
 30
0.0
 11
0.0
 21
-50.0
 31
0.0
210
0.0
220
0.0
230
-1.0
 40
0.5
 41
0.0
 42
6.283185307179586
  0
ELLIPSE
  5
1001
102
{ACAD_REACTORS
330
123B
102
}
330
1E
100
AcDbEntity
  8
L1
 48
4.0
100
AcDbEllipse
 10
501.4172852593683
 20
-1402.139745222489
 30
0.0
 11
0.0
 21
50.0
 31
0.0
210
0.0
220
0.0
230
-1.0
 40
0.5
 41
3.141592653589793
 42
6.283185307179586
  0
ELLIPSE
  5
1002
102
{ACAD_REACTORS
330
123B
102
}
330
1E
100
AcDbEntity
  8
L1
 48
4.0
100
AcDbEllipse
 10
485.8288279912481
 20
-1402.139745222489
 30
0.0
 11
0.0
 21
50.0
 31
0.0
210
0.0
220
0.0
230
-1.0
 40
0.5
 41
3.141592653589793
 42
6.283185307179586
  0
LINE
  5
1003
330
1E
100
AcDbEntity
  8
L1
 48
4.0
100
AcDbLine
 10
392.6326353257205
 20
-1637.947468547761
 30
0.0
 11
442.6326353257205
 21
-1724.550008926205
 31
0.0
  0
LINE
  5
1004
330
1E
100
AcDbEntity
  8
L1
 48
4.0
100
AcDbLine
 10
429.4387149865595
 20
-1616.697468547762
 30
0.0
 11
392.6326353257205
 21
-1637.947468547761
 31
0.0
  0
LINE
  5
1007
330
1E
100
AcDbEntity
  8
CEN
 48
4.0
100
AcDbLine
 10
586.1554089570832
 20
-1402.139745222489
 30
0.0
 11
444.0046008189593
 21
-1402.139745222489
 31
0.0
  0
LINE
  5
1008
330
1E
100
AcDbEntity
  8
L1
 48
4.0
100
AcDbLine
 10
629.4172852593683
 20
-1276.101083722614
 30
0.0
 11
629.4172852593683
 21
-1310.601083722614
 31
0.0
  0
LINE
  5
1009
330
1E
100
AcDbEntity
  8
L1
 48
4.0
100
AcDbLine
 10
649.4172852593683
 20
-1276.101083722614
 30
0.0
 11
649.4172852593683
 21
-1307.601083722614
 31
0.0
  0
LINE
  5
100A
330
1E
100
AcDbEntity
  8
L1
 48
4.0
100
AcDbLine
 10
534.4172852593683
 20
-1293.101083722614
 30
0.0
 11
534.4172852593683
 21
-1347.101083722614
 31
0.0
  0
ARC
  5
100B
330
1E
100
AcDbEntity
  8
L1
 48
4.0
100
AcDbCircle
 10
608.2210925938416
 20
-1581.724193098159
 30
0.0
 40
2.0
100
AcDbArc
 50
90.0
 51
180.0
  0
ARC
  5
100C
330
1E
100
AcDbEntity
  8
L1
 48
4.0
100
AcDbCircle
 10
639.2210925938407
 20
-1581.724193098159
 30
0.0
 40
2.0
100
AcDbArc
 50
0.0
 51
90.0
  0
LINE
  5
100D
330
1E
100
AcDbEntity
  8
CEN
 48
4.0
100
AcDbLine
 10
623.7210925938407
 20
-1590.224193098159
 30
0.0
 11
623.7210925938407
 21
-1549.941984015237
 31
0.0
  0
LINE
  5
100E
330
1E
100
AcDbEntity
  8
L1
 48
4.0
100
AcDbLine
 10
604.2210925938416
 20
-1584.867939613822
 30
0.0
 11
492.4376274524166
 21
-1584.867939613822
 31
0.0
  0
LINE
  5
100F
330
1E
100
AcDbEntity
  8
L1
 48
4.0
100
AcDbLine
 10
578.2210925938416
 20
-1723.867939613823
 30
0.0
 11
491.2210925938416
 21
-1723.867939613823
 31
0.0
  0
CIRCLE
  5
1010
330
1E
100
AcDbEntity
  8
L1
 48
4.0
100
AcDbCircle
 10
521.2210925938416
 20
-1645.867939613823
 30
0.0
 40
6.0
  0
ARC
  5
1011
330
1E
100
AcDbEntity
  8
L1
 48
4.0
100
AcDbCircle
 10
521.2210925938416
 20
-1645.867939613823
 30
0.0
 40
13.0
100
AcDbArc
 50
302.2042275039714
 51
237.7957724960245
  0
LINE
  5
1012
330
1E
100
AcDbEntity
  8
L1
 48
4.0
100
AcDbLine
 10
548.2210925938416
 20
-1695.867939613823
 30
0.0
 11
494.2210925938416
 21
-1695.867939613823
 31
0.0
  0
LINE
  5
1013
330
1E
100
AcDbEntity
  8
L1
 48
4.0
100
AcDbLine
 10
548.2210925938416
 20
-1668.867939613823
 30
0.0
 11
494.2210925938416
 21
-1668.867939613823
 31
0.0
  0
LINE
  5
1014
330
1E
100
AcDbEntity
  8
L1
 48
4.0
100
AcDbLine
 10
546.2210925938416
 20
-1720.867939613823
 30
0.0
 11
496.2210925938416
 21
-1720.867939613823
 31
0.0
  0
LINE
  5
1015
330
1E
100
AcDbEntity
  8
L1
 48
4.0
100
AcDbLine
 10
501.2210925938416
 20
-1656.867939613823
 30
0.0
 11
554.6740872100495
 21
-1656.867939613823
 31
0.0
  0
LINE
  5
1016
330
1E
100
AcDbEntity
  8
L1
 48
4.0
100
AcDbLine
 10
458.2210925938414
 20
-1610.867939613823
 30
0.0
 11
554.6740872100504
 21
-1610.867939613822
 31
0.0
  0
LINE
  5
1017
330
1E
100
AcDbEntity
  8
CEN
 48
4.0
100
AcDbLine
 10
542.2210925938416
 20
-1645.867939613823
 30
0.0
 11
497.9938404844024
 21
-1645.867939613823
 31
0.0
  0
LINE
  5
1018
330
1E
100
AcDbEntity
  8
L1
 48
4.0
100
AcDbLine
 10
477.7218986998787
 20
-1598.341027679242
 30
0.0
 11
604.2210925938384
 21
-1598.341027679242
 31
0.0
  0
LINE
  5
1019
330
1E
100
AcDbEntity
  8
L1
 48
4.0
100
AcDbLine
 10
540.2210925938416
 20
-1666.867939613823
 30
0.0
 11
502.2210925938416
 21
-1666.867939613823
 31
0.0
  0
LINE
  5
101A
330
1E
100
AcDbEntity
  8
L1
 48
4.0
100
AcDbLine
 10
551.2210925938416
 20
-1692.867939613823
 30
0.0
 11
551.2210925938416
 21
-1671.867939613823
 31
0.0
  0
LINE
  5
101B
330
1E
100
AcDbEntity
  8
L2
 48
4.0
100
AcDbLine
 10
545.2042961938414
 20
-1720.867939613823
 30
0.0
 11
545.2042961938414
 21
-1723.867939613823
 31
0.0
  0
LINE
  5
101C
330
1E
100
AcDbEntity
  8
L1
 48
4.0
100
AcDbLine
 10
546.2210925938416
 20
-1698.867939613823
 30
0.0
 11
546.2210925938416
 21
-1723.867939613823
 31
0.0
  0
ARC
  5
101D
330
1E
100
AcDbEntity
  8
L1
 48
4.0
100
AcDbCircle
 10
578.2210925938416
 20
-1726.867939613823
 30
0.0
 40
3.0
100
AcDbArc
 50
0.0
 51
90.0
  0
ARC
  5
101E
330
1E
100
AcDbEntity
  8
L1
 48
4.0
100
AcDbCircle
 10
549.2210925938416
 20
-1698.867939613823
 30
0.0
 40
3.0
100
AcDbArc
 50
90.0
 51
180.0
  0
LINE
  5
101F
330
1E
100
AcDbEntity
  8
L2
 48
4.0
100
AcDbLine
 10
545.2042961938414
 20
-1720.867939613823
 30
0.0
 11
546.2210925938416
 21
-1719.106796588069
 31
0.0
  0
ARC
  5
1020
330
1E
100
AcDbEntity
  8
L1
 48
4.0
100
AcDbCircle
 10
548.2210925938416
 20
-1692.867939613823
 30
0.0
 40
3.0
100
AcDbArc
 50
270.0
 51
0.0
  0
LINE
  5
1021
330
1E
100
AcDbEntity
  8
L1
 48
4.0
100
AcDbLine
 10
604.2210925938352
 20
-1630.867939613823
 30
0.0
 11
556.6740872100481
 21
-1630.867939613823
 31
0.0
  0
LINE
  5
1022
330
1E
100
AcDbEntity
  8
L1
 48
4.0
100
AcDbLine
 10
554.6740872100495
 20
-1617.394851548404
 30
0.0
 11
604.2210925938375
 21
-1617.394851548404
 31
0.0
  0
LINE
  5
1023
330
1E
100
AcDbEntity
  8
L1
 48
4.0
100
AcDbLine
 10
605.7376043458253
 20
-1634.894373463631
 30
0.0
 11
556.6780345829056
 21
-1652.162581215345
 31
0.0
  0
LINE
  5
1024
330
1E
100
AcDbEntity
  8
L1
 48
4.0
100
AcDbLine
 10
641.2210925938407
 20
-1581.724193098159
 30
0.0
 11
641.2210925938407
 21
-1632.724193098159
 31
0.0
  0
LINE
  5
1025
330
1E
100
AcDbEntity
  8
L1
 48
4.0
100
AcDbLine
 10
606.2210925938416
 20
-1581.724193098159
 30
0.0
 11
606.2210925938352
 21
-1632.724193098159
 31
0.0
  0
LINE
  5
1026
330
1E
100
AcDbEntity
  8
L1
 48
4.0
100
AcDbLine
 10
639.2210925938407
 20
-1634.724193098159
 30
0.0
 11
606.7336569729696
 21
-1634.724193098159
 31
0.0
  0
ARC
  5
1027
330
1E
100
AcDbEntity
  8
L1
 48
4.0
100
AcDbCircle
 10
639.2210925938407
 20
-1632.724193098159
 30
0.0
 40
2.0
100
AcDbArc
 50
270.0
 51
0.0
  0
ARC
  5
1028
330
1E
100
AcDbEntity
  8
L1
 48
4.0
100
AcDbCircle
 10
608.2210925938416
 20
-1632.724193098159
 30
0.0
 40
2.0
100
AcDbArc
 50
180.0
 51
270.0
  0
ARC
  5
1029
330
1E
100
AcDbEntity
  8
L1
 48
4.0
100
AcDbCircle
 10
604.2210925938352
 20
-1632.867939613823
 30
0.0
 40
2.0
100
AcDbArc
 50
359.999999999987
 51
90.0
  0
ARC
  5
102A
330
1E
100
AcDbEntity
  8
L1
 48
4.0
100
AcDbCircle
 10
606.7336569729696
 20
-1637.724193098159
 30
0.0
 40
3.0
100
AcDbArc
 50
90.0
 51
109.3912779321817
  0
ARC
  5
102B
330
1E
100
AcDbEntity
  8
L1
 48
4.0
100
AcDbCircle
 10
604.2210925938375
 20
-1619.394851548404
 30
0.0
 40
2.0
100
AcDbArc
 50
0.0
 51
90.0
  0
ARC
  5
102C
330
1E
100
AcDbEntity
  8
L1
 48
4.0
100
AcDbCircle
 10
604.2210925938384
 20
-1596.341027679242
 30
0.0
 40
2.0
100
AcDbArc
 50
270.0
 51
0.0
  0
ARC
  5
102D
330
1E
100
AcDbEntity
  8
L1
 48
4.0
100
AcDbCircle
 10
604.2210925938416
 20
-1582.867939613822
 30
0.0
 40
2.0
100
AcDbArc
 50
270.0
 51
0.0
  0
LINE
  5
102E
330
1E
100
AcDbEntity
  8
L1
 48
4.0
100
AcDbLine
 10
538.3232342210968
 20
-1610.867939613822
 30
0.0
 11
538.3232342210945
 21
-1656.867939613823
 31
0.0
  0
LINE
  5
102F
330
1E
100
AcDbEntity
  8
L1
 48
4.0
100
AcDbLine
 10
554.6740872100504
 20
-1610.867939613822
 30
0.0
 11
554.6740872100495
 21
-1656.867939613823
 31
0.0
  0
ARC
  5
1030
330
1E
100
AcDbEntity
  8
L1
 48
4.0
100
AcDbCircle
 10
548.2210925938416
 20
-1671.867939613823
 30
0.0
 40
3.0
100
AcDbArc
 50
0.0
 51
90.0
  0
ARC
  5
1031
330
1E
100
AcDbEntity
  8
L1
 48
4.0
100
AcDbCircle
 10
557.6740872100495
 20
-1654.992400849873
 30
0.0
 40
3.0
100
AcDbArc
 50
109.3912779321796
 51
180.0
  0
LINE
  5
1032
330
1E
100
AcDbEntity
  8
L1
 48
4.0
100
AcDbLine
 10
540.2210925938416
 20
-1656.867939613823
 30
0.0
 11
540.2210925938416
 21
-1668.867939613823
 31
0.0
  0
ARC
  5
1033
330
1E
100
AcDbEntity
  8
L1
 48
4.0
100
AcDbCircle
 10
556.6740872100481
 20
-1632.867939613823
 30
0.0
 40
2.0
100
AcDbArc
 50
90.0
 51
180.0
  0
ARC
  5
1034
330
1E
100
AcDbEntity
  8
L1
 48
4.0
100
AcDbCircle
 10
554.6740872100495
 20
-1607.867939613822
 30
0.0
 40
3.0
100
AcDbArc
 50
270.0
 51
0.0
  0
LINE
  5
1035
330
1E
100
AcDbEntity
  8
L1
 48
4.0
100
AcDbLine
 10
491.2210925938416
 20
-1671.867939613823
 30
0.0
 11
491.2210925938416
 21
-1692.867939613823
 31
0.0
  0
LINE
  5
1036
330
1E
100
AcDbEntity
  8
L1
 48
4.0
100
AcDbLine
 10
489.2210925938416
 20
-1723.867939613823
 30
0.0
 11
489.2210925938416
 21
-1653.267939613822
 31
0.0
  0
LINE
  5
1037
330
1E
100
AcDbEntity
  8
CEN
 48
4.0
100
AcDbLine
 10
407.2403304803074
 20
-1687.248738736983
 30
0.0
 11
461.1841194471515
 21
-1656.104277655868
 31
0.0
  0
LINE
  5
1038
330
1E
100
AcDbEntity
  8
L1
 48
4.0
100
AcDbLine
 10
463.2210925938414
 20
-1675.21026296405
 30
0.0
 11
463.2210925938414
 21
-1645.147786359367
 31
0.0
  0
LINE
  5
1039
330
1E
100
AcDbEntity
  8
L1
 48
4.0
100
AcDbLine
 10
408.2210925938414
 20
-1628.947468547762
 30
0.0
 11
458.2210925938414
 21
-1715.550008926205
 31
0.0
  0
LINE
  5
103A
330
1E
100
AcDbEntity
  8
L1
 48
4.0
100
AcDbLine
 10
479.4387149865597
 20
-1703.300008926205
 30
0.0
 11
429.4387149865595
 21
-1616.697468547762
 31
0.0
  0
LINE
  5
103B
330
1E
100
AcDbEntity
  8
CEN
 48
4.0
100
AcDbLine
 10
521.2210925938416
 20
-1754.92566574427
 30
0.0
 11
521.2210925938416
 21
-1626.011686129486
 31
0.0
  0
LINE
  5
103C
330
1E
100
AcDbEntity
  8
CEN
 48
4.0
100
AcDbLine
 10
476.2210925938416
 20
-1745.640687504384
 30
0.0
 11
476.2210925938416
 21
-1609.238938238924
 31
0.0
  0
LINE
  5
103D
330
1E
100
AcDbEntity
  8
CEN
 48
4.0
100
AcDbLine
 10
497.9938404844024
 20
-1723.867939613823
 30
0.0
 11
454.4483447032794
 21
-1723.867939613823
 31
0.0
  0
LINE
  5
103E
330
1E
100
AcDbEntity
  8
L1
 48
4.0
100
AcDbLine
 10
479.4387149865597
 20
-1703.300008926205
 30
0.0
 11
442.6326353257205
 21
-1724.550008926205
 31
0.0
  0
LINE
  5
103F
330
1E
100
AcDbEntity
  8
L1
 48
4.0
100
AcDbLine
 10
475.6133974392542
 20
-1721.674364579188
 30
0.0
 11
454.8287877484283
 21
-1733.674364579188
 31
0.0
  0
ARC
  5
1040
330
1E
100
AcDbEntity
  8
L1
 48
4.0
100
AcDbCircle
 10
476.6851942089806
 20
-1747.530771039741
 30
0.0
 40
22.928203230278
100
AcDbArc
 50
102.4120462260125
 51
137.5879537739904
  0
LINE
  5
1041
330
1E
100
AcDbEntity
  8
L1
 48
4.0
100
AcDbLine
 10
459.7569909787035
 20
-1732.066669424601
 30
0.0
 11
464.6851942089795
 21
-1740.602567809463
 31
0.0
  0
ARC
  5
1042
330
1E
100
AcDbEntity
  8
L1
 48
4.0
100
AcDbCircle
 10
455.4517262419265
 20
-1749.667939613823
 30
0.0
 40
5.816803962085479
100
AcDbArc
 50
317.896551129259
 51
349.8511222816264
  0
LINE
  5
1043
330
1E
100
AcDbEntity
  8
L1
 48
4.0
100
AcDbLine
 10
459.7674195041184
 20
-1745.767939613823
 30
0.0
 11
460.5183140908225
 21
-1747.068527189123
 31
0.0
  0
ARC
  5
1044
330
1E
100
AcDbEntity
  8
L1
 48
4.0
100
AcDbCircle
 10
455.4517262419265
 20
-1749.667939613823
 30
0.0
 40
5.816803962085479
100
AcDbArc
 50
27.93433918045977
 51
42.103448870741
  0
ARC
  5
1045
330
1E
100
AcDbEntity
  8
L1
 48
4.0
100
AcDbCircle
 10
465.7936621667905
 20
-1751.1827446688
 30
0.0
 40
6.64513914589945
100
AcDbArc
 50
85.61575253195832
 51
154.3842474680452
  0
LINE
  5
1046
330
1E
100
AcDbEntity
  8
CEN
 48
4.0
100
AcDbLine
 10
481.2210925938416
 20
-1761.367939613823
 30
0.0
 11
422.4522712443184
 21
-1761.367939613823
 31
0.0
  0
ARC
  5
1047
330
1E
100
AcDbEntity
  8
L1
 48
4.0
100
AcDbCircle
 10
459.1541052957325
 20
-1737.950644020816
 30
0.0
 40
6.133974596216804
100
AcDbArc
 50
265.6157525319728
 51
334.3842474680408
  0
ARC
  5
1048
330
1E
100
AcDbEntity
  8
L1
 48
4.0
100
AcDbCircle
 10
477.2880798919496
 20
-1727.790389982973
 30
0.0
 40
6.133974596216573
100
AcDbArc
 50
85.61575253196396
 51
154.3842474680399
  0
ARC
  5
1049
330
1E
100
AcDbEntity
  8
L1
 48
4.0
100
AcDbCircle
 10
476.2210925938416
 20
-1723.867939613823
 30
0.0
 40
6.5
100
AcDbArc
 50
321.9236952724744
 51
128.4218508525357
  0
LINE
  5
104A
330
1E
100
AcDbEntity
  8
L1
 48
4.0
100
AcDbLine
 10
491.2210925938416
 20
-1708.867939613823
 30
0.0
 11
491.2210925938416
 21
-1741.867939613823
 31
0.0
  0
LINE
  5
104B
330
1E
100
AcDbEntity
  8
L1
 48
4.0
100
AcDbLine
 10
467.2948737619927
 20
-1710.311258926205
 30
0.0
 11
474.2948737619927
 21
-1722.435614579188
 31
0.0
  0
LINE
  5
104C
330
1E
100
AcDbEntity
  8
L2
 48
4.0
100
AcDbLine
 10
497.2378889938414
 20
-1720.867939613823
 30
0.0
 11
497.2378889938404
 21
-1723.867939613823
 31
0.0
  0
LINE
  5
104D
330
1E
100
AcDbEntity
  8
L1
 48
4.0
100
AcDbLine
 10
496.2210925938416
 20
-1698.784019396922
 30
0.0
 11
496.2210925938416
 21
-1723.867939613823
 31
0.0
  0
ARC
  5
104E
330
1E
100
AcDbEntity
  8
L1
 48
4.0
100
AcDbCircle
 10
476.2210925938416
 20
-1723.867939613823
 30
0.0
 40
13.0
100
AcDbArc
 50
313.4941488758571
 51
124.1995375786263
  0
LINE
  5
104F
330
1E
100
AcDbEntity
  8
L1
 48
4.0
100
AcDbLine
 10
478.7210925938416
 20
-1736.045943482437
 30
0.0
 11
494.1405360102403
 21
-1762.753202904074
 31
0.0
  0
LINE
  5
1050
330
1E
100
AcDbEntity
  8
L1
 48
4.0
100
AcDbLine
 10
485.8016491774424
 20
-1733.29872023217
 30
0.0
 11
500.6405360102403
 21
-1759.000426154341
 31
0.0
  0
ARC
  5
1051
330
1E
100
AcDbEntity
  8
L1
 48
4.0
100
AcDbCircle
 10
494.6485230208914
 20
-1756.127508716642
 30
0.0
 40
6.645139145899514
100
AcDbArc
 50
265.6157525319583
 51
334.3842474680495
  0
LINE
  5
1052
330
1E
100
AcDbEntity
  8
L1
 48
4.0
100
AcDbLine
 10
500.6405360102403
 20
-1759.000426154341
 30
0.0
 11
499.4794228430383
 21
-1761.011533153272
 31
0.0
  0
LINE
  5
1053
330
1E
100
AcDbEntity
  8
L1
 48
4.0
100
AcDbLine
 10
483.4794228430383
 20
-1733.29872023217
 30
0.0
 11
460.9627623446434
 21
-1746.29872023217
 31
0.0
  0
LINE
  5
1054
330
1E
100
AcDbEntity
  8
L1
 48
4.0
100
AcDbLine
 10
461.2915664312804
 20
-1750.890439613823
 30
0.0
 11
461.2210925938414
 21
-1750.890439613823
 31
0.0
  0
LINE
  5
1055
330
1E
100
AcDbEntity
  8
L1
 48
4.0
100
AcDbLine
 10
459.8016491774424
 20
-1748.3098272311
 30
0.0
 11
460.9627623446434
 21
-1746.29872023217
 31
0.0
  0
LINE
  5
1056
330
1E
100
AcDbEntity
  8
L1
 48
4.0
100
AcDbLine
 10
477.7569909787035
 20
-1721.674364579188
 30
0.0
 11
475.6133974392542
 21
-1721.674364579188
 31
0.0
  0
LINE
  5
1057
330
1E
100
AcDbEntity
  8
L1
 48
4.0
100
AcDbLine
 10
471.7569909787035
 20
-1725.138466194325
 30
0.0
 11
476.6851942089784
 21
-1733.674364579188
 31
0.0
  0
ARC
  5
1058
330
1E
100
AcDbEntity
  8
L1
 48
4.0
100
AcDbCircle
 10
459.7569909787014
 20
-1718.210262964048
 30
0.0
 40
22.928203230278
100
AcDbArc
 50
282.412046226012
 51
317.5879537739905
  0
LINE
  5
1059
330
1E
100
AcDbEntity
  8
L1
 48
4.0
100
AcDbLine
 10
481.6133974392542
 20
-1732.066669424601
 30
0.0
 11
460.8287877484274
 21
-1744.066669424601
 31
0.0
  0
ARC
  5
105A
330
1E
100
AcDbEntity
  8
L1
 48
4.0
100
AcDbCircle
 10
484.6405360102394
 20
-1761.309827231099
 30
0.0
 40
24.83888683279685
100
AcDbArc
 50
102.4120462259994
 51
137.5879537739999
  0
LINE
  5
105B
330
1E
100
AcDbEntity
  8
L1
 48
4.0
100
AcDbLine
 10
491.2210925938416
 20
-1741.867939613823
 30
0.0
 11
490.7490902941836
 21
-1741.867939613823
 31
0.0
  0
LINE
  5
105C
330
1E
100
AcDbEntity
  8
L1
 48
4.0
100
AcDbLine
 10
491.2210925938416
 20
-1741.867939613823
 30
0.0
 11
490.7490902941836
 21
-1741.867939613823
 31
0.0
  0
LINE
  5
105D
330
1E
100
AcDbEntity
  8
L1
 48
4.0
100
AcDbLine
 10
477.7569909787035
 20
-1721.674364579188
 30
0.0
 11
482.6851942089784
 21
-1730.21026296405
 31
0.0
  0
LINE
  5
105E
330
1E
100
AcDbEntity
  8
L1
 48
4.0
100
AcDbLine
 10
480.2885522427941
 20
-1735.140970232169
 30
0.0
 11
479.2885522427955
 21
-1733.408919424601
 31
0.0
  0
ARC
  5
105F
330
1E
100
AcDbEntity
  8
L1
 48
4.0
100
AcDbCircle
 10
477.1541052957327
 20
-1727.558339175402
 30
0.0
 40
6.133974596216573
100
AcDbArc
 50
265.6157525319555
 51
334.3842474680256
  0
LINE
  5
1060
330
1E
100
AcDbEntity
  8
L1
 48
4.0
100
AcDbLine
 10
482.6851942089784
 20
-1730.21026296405
 30
0.0
 11
481.6133974392542
 21
-1732.066669424601
 31
0.0
  0
LINE
  5
1061
330
1E
100
AcDbEntity
  8
L1
 48
4.0
100
AcDbLine
 10
485.8016491774424
 20
-1733.29872023217
 30
0.0
 11
483.4794228430383
 21
-1733.29872023217
 31
0.0
  0
ARC
  5
1062
330
1E
100
AcDbEntity
  8
L1
 48
4.0
100
AcDbCircle
 10
485.2936621667905
 20
-1739.924414419602
 30
0.0
 40
6.645139145899514
100
AcDbArc
 50
85.61575253195832
 51
154.3842474680412
  0
LINE
  5
1063
330
1E
100
AcDbEntity
  8
L1
 48
4.0
100
AcDbLine
 10
463.1536329448863
 20
-1742.724419424601
 30
0.0
 11
464.1536329448863
 21
-1744.45647023217
 31
0.0
  0
ARC
  5
1064
330
1E
100
AcDbEntity
  8
L1
 48
4.0
100
AcDbCircle
 10
494.2210925938416
 20
-1692.867939613823
 30
0.0
 40
3.0
100
AcDbArc
 50
180.0
 51
260.4059317731302
  0
ARC
  5
1065
330
1E
100
AcDbEntity
  8
L1
 48
4.0
100
AcDbCircle
 10
493.2210925938407
 20
-1698.784019396923
 30
0.0
 40
3.0
100
AcDbArc
 50
0.0
 51
80.40593177314021
  0
LINE
  5
1066
330
1E
100
AcDbEntity
  8
L2
 48
4.0
100
AcDbLine
 10
497.2378889938414
 20
-1720.867939613823
 30
0.0
 11
496.2210925938416
 21
-1719.106796588069
 31
0.0
  0
LINE
  5
1067
330
1E
100
AcDbEntity
  8
L1
 48
4.0
100
AcDbLine
 10
489.2210925938416
 20
-1706.867939613823
 30
0.0
 11
491.2210925938416
 21
-1708.867939613823
 31
0.0
  0
LINE
  5
1068
330
1E
100
AcDbEntity
  8
L1
 48
4.0
100
AcDbLine
 10
449.1473114256894
 20
-1720.788758926205
 30
0.0
 11
456.1473114256894
 21
-1732.913114579188
 31
0.0
  0
LINE
  5
1069
330
1E
100
AcDbEntity
  8
L1
 48
4.0
100
AcDbLine
 10
430.2685302040115
 20
-1748.367939613823
 30
0.0
 11
446.2685302040115
 21
-1748.367939613823
 31
0.0
  0
LINE
  5
106A
330
1E
100
AcDbEntity
  8
L2
 48
4.0
100
AcDbLine
 10
429.2685302040115
 20
-1749.367939613823
 30
0.0
 11
444.2685302040115
 21
-1749.367939613823
 31
0.0
  0
LINE
  5
106B
330
1E
100
AcDbEntity
  8
L1
 48
4.0
100
AcDbLine
 10
447.7696409039054
 20
-1745.767939613823
 30
0.0
 11
446.2685302040115
 21
-1748.367939613823
 31
0.0
  0
ARC
  5
106C
330
1E
100
AcDbEntity
  8
L1
 48
4.0
100
AcDbCircle
 10
452.0853341660975
 20
-1749.667939613823
 30
0.0
 40
5.816803962085479
100
AcDbArc
 50
137.896551129259
 51
222.103448870741
  0
LINE
  5
106D
330
1E
100
AcDbEntity
  8
L1
 48
4.0
100
AcDbLine
 10
459.7674195041184
 20
-1753.567939613823
 30
0.0
 11
447.7696409039054
 21
-1753.567939613823
 31
0.0
  0
LINE
  5
106E
330
1E
100
AcDbEntity
  8
L1
 48
4.0
100
AcDbLine
 10
459.7674195041184
 20
-1745.767939613823
 30
0.0
 11
447.7696409039054
 21
-1745.767939613823
 31
0.0
  0
LINE
  5
106F
330
1E
100
AcDbEntity
  8
L2
 48
4.0
100
AcDbLine
 10
446.2685302040115
 20
-1748.367939613823
 30
0.0
 11
444.2685302040115
 21
-1749.367939613823
 31
0.0
  0
LINE
  5
1070
330
1E
100
AcDbEntity
  8
L1
 48
4.0
100
AcDbLine
 10
430.2685302040115
 20
-1748.367939613823
 30
0.0
 11
429.2685302040115
 21
-1749.367939613823
 31
0.0
  0
ARC
  5
1071
330
1E
100
AcDbEntity
  8
L1
 48
4.0
100
AcDbCircle
 10
459.2880798919493
 20
-1738.182694828387
 30
0.0
 40
6.133974596216804
100
AcDbArc
 50
85.61575253195794
 51
154.384247468027
  0
LINE
  5
1072
330
1E
100
AcDbEntity
  8
L1
 48
4.0
100
AcDbLine
 10
453.7569909787035
 20
-1735.530771039739
 30
0.0
 11
454.8287877484274
 21
-1733.674364579188
 31
0.0
  0
LINE
  5
1073
330
1E
100
AcDbEntity
  8
L1
 48
4.0
100
AcDbLine
 10
453.7569909787035
 20
-1735.530771039738
 30
0.0
 11
458.6851942089784
 21
-1744.066669424601
 31
0.0
  0
LINE
  5
1074
330
1E
100
AcDbEntity
  8
CEN
 48
4.0
100
AcDbLine
 10
497.9938404844024
 20
-1631.867939613823
 30
0.0
 11
454.4483447032794
 21
-1631.867939613823
 31
0.0
  0
ARC
  5
1075
330
1E
100
AcDbEntity
  8
L1
 48
4.0
100
AcDbCircle
 10
459.2210925938414
 20
-1631.867939613823
 30
0.0
 40
2.0
100
AcDbArc
 50
0.0
 51
90.0
  0
CIRCLE
  5
1076
330
1E
100
AcDbEntity
  8
L1
 48
4.0
100
AcDbCircle
 10
476.2210925938416
 20
-1631.867939613823
 30
0.0
 40
6.0
  0
CIRCLE
  5
1077
330
1E
100
AcDbEntity
  8
L1
 48
4.0
100
AcDbCircle
 10
476.2210925938416
 20
-1631.867939613823
 30
0.0
 40
13.0
  0
LINE
  5
1078
330
1E
100
AcDbEntity
  8
CEN
 48
4.0
100
AcDbLine
 10
476.2210925938416
 20
-1613.408929799703
 30
0.0
 11
476.2210925938416
 21
-1652.614442459269
 31
0.0
  0
ARC
  5
1079
330
1E
100
AcDbEntity
  8
L1
 48
4.0
100
AcDbCircle
 10
494.2210925938416
 20
-1671.867939613823
 30
0.0
 40
3.0
100
AcDbArc
 50
90.0
 51
180.0
  0
LINE
  5
107A
330
1E
100
AcDbEntity
  8
L1
 48
4.0
100
AcDbLine
 10
464.7843531660094
 20
-1645.936917785473
 30
0.0
 11
501.2210925938416
 21
-1656.867939613823
 31
0.0
  0
LINE
  5
107B
330
1E
100
AcDbEntity
  8
L1
 48
4.0
100
AcDbLine
 10
502.2210925938416
 20
-1656.867939613823
 30
0.0
 11
502.2210925938416
 21
-1668.867939613823
 31
0.0
  0
ARC
  5
107C
330
1E
100
AcDbEntity
  8
L1
 48
4.0
100
AcDbCircle
 10
466.2210925938414
 20
-1641.147786359367
 30
0.0
 40
5.0
100
AcDbArc
 50
180.0
 51
253.3007557660119
  0
LINE
  5
107D
330
1E
100
AcDbEntity
  8
L1
 48
4.0
100
AcDbLine
 10
461.2210925938414
 20
-1631.867939613823
 30
0.0
 11
461.2210925938414
 21
-1641.147786359367
 31
0.0
  0
LINE
  5
107E
330
1E
100
AcDbEntity
  8
L1
 48
4.0
100
AcDbLine
 10
461.2210925938414
 20
-1641.147786359367
 30
0.0
 11
461.2210925938414
 21
-1631.867939613823
 31
0.0
  0
LINE
  5
107F
330
1E
100
AcDbEntity
  8
L1
 48
4.0
100
AcDbLine
 10
466.0736664217384
 20
-1609.989259957383
 30
0.0
 11
490.3163071088575
 21
-1585.746619270263
 31
0.0
  0
ARC
  5
1080
330
1E
100
AcDbEntity
  8
L1
 48
4.0
100
AcDbCircle
 10
463.9523460781784
 20
-1607.867939613823
 30
0.0
 40
3.0
100
AcDbArc
 50
270.0
 51
315.0000000000015
  0
ARC
  5
1081
330
1E
100
AcDbEntity
  8
L1
 48
4.0
100
AcDbCircle
 10
492.4376274524166
 20
-1587.867939613822
 30
0.0
 40
3.0
100
AcDbArc
 50
90.0
 51
135.0000000000031
  0
LINE
  5
1082
330
1E
100
AcDbEntity
  8
L1
 48
4.0
100
AcDbLine
 10
455.2210925938414
 20
-1613.867939613823
 30
0.0
 11
455.2210925938414
 21
-1627.867939613823
 31
0.0
  0
ARC
  5
1083
330
1E
100
AcDbEntity
  8
L1
 48
4.0
100
AcDbCircle
 10
457.2210925938414
 20
-1627.867939613823
 30
0.0
 40
2.0
100
AcDbArc
 50
180.0
 51
270.0
  0
LINE
  5
1084
330
1E
100
AcDbEntity
  8
L1
 48
4.0
100
AcDbLine
 10
457.2210925938414
 20
-1629.867939613823
 30
0.0
 11
459.2210925938414
 21
-1629.867939613823
 31
0.0
  0
ARC
  5
1085
330
1E
100
AcDbEntity
  8
L1
 48
4.0
100
AcDbCircle
 10
458.2210925938414
 20
-1613.867939613823
 30
0.0
 40
3.0
100
AcDbArc
 50
90.0
 51
180.0
  0
LINE
  5
1086
330
1E
100
AcDbEntity
  8
L1
 48
4.0
100
AcDbLine
 10
582.5422852593683
 20
-1322.101083722614
 30
0.0
 11
606.2922852593683
 21
-1322.101083722614
 31
0.0
  0
LINE
  5
1087
330
1E
100
AcDbEntity
  8
L1
 48
4.0
100
AcDbLine
 10
586.5422852593683
 20
-1326.101083722614
 30
0.0
 11
602.2922852593683
 21
-1326.101083722614
 31
0.0
  0
ARC
  5
1088
330
1E
100
AcDbEntity
  8
L1
 48
4.0
100
AcDbCircle
 10
594.4172852593683
 20
-1299.411715942654
 30
0.0
 40
22.68936777995965
100
AcDbArc
 50
252.412046226007
 51
287.5879537739919
  0
LINE
  5
1089
330
1E
100
AcDbEntity
  8
L1
 48
4.0
100
AcDbLine
 10
582.5422852593683
 20
-1313.101083722614
 30
0.0
 11
606.2922852593683
 21
-1313.101083722614
 31
0.0
  0
ARC
  5
108A
330
1E
100
AcDbEntity
  8
L1
 48
4.0
100
AcDbCircle
 10
594.4172852593683
 20
-1335.790451502573
 30
0.0
 40
22.68936777995965
100
AcDbArc
 50
72.4120462260081
 51
107.587953773993
  0
ARC
  5
108B
330
1E
100
AcDbEntity
  8
L1
 48
4.0
100
AcDbCircle
 10
594.4172852593683
 20
-1311.054450352744
 30
0.0
 40
15.04663336986966
100
AcDbArc
 50
252.4120462260062
 51
287.5879537739918
  0
LINE
  5
108C
330
1E
100
AcDbEntity
  8
L1
 48
4.0
100
AcDbLine
 10
534.4172852593683
 20
-1310.601083722614
 30
0.0
 11
646.4172852593683
 21
-1310.601083722614
 31
0.0
  0
LINE
  5
108D
330
1E
100
AcDbEntity
  8
L1
 48
4.0
100
AcDbLine
 10
628.7210925938407
 20
-1568.867939613822
 30
0.0
 11
618.7210925938407
 21
-1568.867939613822
 31
0.0
  0
LINE
  5
108E
330
1E
100
AcDbEntity
  8
L1
 48
4.0
100
AcDbLine
 10
631.2210925938407
 20
-1555.867939613822
 30
0.0
 11
616.2210925938407
 21
-1555.867939613822
 31
0.0
  0
LINE
  5
108F
330
1E
100
AcDbEntity
  8
L1
 48
4.0
100
AcDbLine
 10
632.7210925938407
 20
-1565.867939613822
 30
0.0
 11
614.7210925938416
 21
-1565.867939613822
 31
0.0
  0
LINE
  5
1090
330
1E
100
AcDbEntity
  8
L1
 48
4.0
100
AcDbLine
 10
639.2210925938407
 20
-1579.724193098159
 30
0.0
 11
608.2210925938416
 21
-1579.724193098159
 31
0.0
  0
LINE
  5
1091
330
1E
100
AcDbEntity
  8
L1
 48
4.0
100
AcDbLine
 10
631.2210925938407
 20
-1555.867939613822
 30
0.0
 11
632.7210925938407
 21
-1565.867939613822
 31
0.0
  0
LINE
  5
1092
330
1E
100
AcDbEntity
  8
L1
 48
4.0
100
AcDbLine
 10
632.7210925938402
 20
-1565.867939613823
 30
0.0
 11
646.1827468952165
 21
-1553.992171703062
 31
0.0
  0
LINE
  5
1093
330
1E
100
AcDbEntity
  8
L1
 48
4.0
100
AcDbLine
 10
628.7210925938407
 20
-1566.269863402469
 30
0.0
 11
627.2210925938407
 21
-1568.867939613823
 31
0.0
  0
LINE
  5
1094
330
1E
100
AcDbEntity
  8
L1
 48
4.0
100
AcDbLine
 10
628.7210925938407
 20
-1565.867939613822
 30
0.0
 11
628.7210925938407
 21
-1579.724193098159
 31
0.0
  0
LINE
  5
1095
330
1E
100
AcDbEntity
  8
L2
 48
4.0
100
AcDbLine
 10
627.2210925938407
 20
-1568.867939613823
 30
0.0
 11
627.2210925938407
 21
-1579.724193098159
 31
0.0
  0
ARC
  5
1096
330
1E
100
AcDbEntity
  8
L1
 48
4.0
100
AcDbCircle
 10
641.2210925938407
 20
-1548.367939613823
 30
0.0
 40
7.5
100
AcDbArc
 50
311.4184905033993
 51
163.7397952916924
  0
LINE
  5
1097
330
1E
100
AcDbEntity
  8
L1
 48
4.0
100
AcDbLine
 10
631.2210925938407
 20
-1555.867939613823
 30
0.0
 11
634.0210925938404
 21
-1546.267939613822
 31
0.0
  0
LINE
  5
1098
330
1E
100
AcDbEntity
  8
L1
 48
4.0
100
AcDbLine
 10
616.2210925938407
 20
-1555.867939613822
 30
0.0
 11
614.7210925938416
 21
-1565.867939613822
 31
0.0
  0
LINE
  5
1099
330
1E
100
AcDbEntity
  8
L1
 48
4.0
100
AcDbLine
 10
614.7210925938416
 20
-1565.867939613822
 30
0.0
 11
601.2594382924644
 21
-1553.992171703062
 31
0.0
  0
LINE
  5
109A
330
1E
100
AcDbEntity
  8
L1
 48
4.0
100
AcDbLine
 10
618.7210925938407
 20
-1566.269863402469
 30
0.0
 11
620.2210925938407
 21
-1568.867939613823
 31
0.0
  0
LINE
  5
109B
330
1E
100
AcDbEntity
  8
L2
 48
4.0
100
AcDbLine
 10
620.2210925938407
 20
-1579.724193098159
 30
0.0
 11
620.2210925938407
 21
-1568.867939613822
 31
0.0
  0
LINE
  5
109C
330
1E
100
AcDbEntity
  8
L1
 48
4.0
100
AcDbLine
 10
618.7210925938407
 20
-1579.724193098159
 30
0.0
 11
618.7210925938407
 21
-1565.867939613822
 31
0.0
  0
ARC
  5
109D
330
1E
100
AcDbEntity
  8
L1
 48
4.0
100
AcDbCircle
 10
606.2210925938416
 20
-1548.367939613822
 30
0.0
 40
7.5
100
AcDbArc
 50
16.26020470831119
 51
228.5815094965909
  0
LINE
  5
109E
330
1E
100
AcDbEntity
  8
L1
 48
4.0
100
AcDbLine
 10
616.2210925938407
 20
-1555.867939613822
 30
0.0
 11
613.4210925938405
 21
-1546.267939613822
 31
0.0
  0
ARC
  5
109F
330
1E
100
AcDbEntity
  8
L1
 48
4.0
100
AcDbCircle
 10
646.4172852593683
 20
-1307.601083722614
 30
0.0
 40
3.0
100
AcDbArc
 50
270.0
 51
0.0
  0
LINE
  5
10A0
330
1E
100
AcDbEntity
  8
CEN
 48
4.0
100
AcDbLine
 10
594.4172852593683
 20
-1303.490512862799
 30
0.0
 11
594.4172852593683
 21
-1333.175816561885
 31
0.0
  0
LINE
  5
10A1
330
1E
100
AcDbEntity
  8
L1
 48
4.0
100
AcDbLine
 10
602.2922852593683
 20
-1326.101083722614
 30
0.0
 11
603.5105519991039
 21
-1325.397717092482
 31
0.0
  0
ARC
  5
10A2
330
1E
100
AcDbEntity
  8
L1
 48
4.0
100
AcDbCircle
 10
601.23723531417
 20
-1322.075662893847
 30
0.0
 40
4.025420828766883
100
AcDbArc
 50
235.6157525319665
 51
304.3842474680334
  0
LINE
  5
10A3
330
1E
100
AcDbEntity
  8
L1
 48
4.0
100
AcDbLine
 10
603.1672852593683
 20
-1313.101083722614
 30
0.0
 11
603.1672852593683
 21
-1310.601083722614
 31
0.0
  0
LINE
  5
10A4
330
1E
100
AcDbEntity
  8
L1
 48
4.0
100
AcDbLine
 10
608.1293541526211
 20
-1321.040451502574
 30
0.0
 11
608.1293541526211
 21
-1314.161715942653
 31
0.0
  0
LINE
  5
10A5
330
1E
100
AcDbEntity
  8
L1
 48
4.0
100
AcDbLine
 10
606.2922852593683
 20
-1322.101083722614
 30
0.0
 11
608.1293541526211
 21
-1321.040451502574
 31
0.0
  0
LINE
  5
10A6
330
1E
100
AcDbEntity
  8
L1
 48
4.0
100
AcDbLine
 10
601.2733197059952
 20
-1321.040451502574
 30
0.0
 11
601.2733197059952
 21
-1314.161715942653
 31
0.0
  0
ARC
  5
10A7
330
1E
100
AcDbEntity
  8
L1
 48
4.0
100
AcDbCircle
 10
604.7013369293081
 20
-1316.031004695109
 30
0.0
 40
6.070079027504799
100
AcDbArc
 50
235.6157525319567
 51
304.3842474680433
  0
ARC
  5
10A8
330
1E
100
AcDbEntity
  8
L1
 48
4.0
100
AcDbCircle
 10
604.7013369293081
 20
-1319.171162750118
 30
0.0
 40
6.070079027504799
100
AcDbArc
 50
55.61575253195666
 51
124.3842474680434
  0
LINE
  5
10A9
330
1E
100
AcDbEntity
  8
L1
 48
4.0
100
AcDbLine
 10
606.2922852593683
 20
-1313.101083722614
 30
0.0
 11
608.1293541526211
 21
-1314.161715942653
 31
0.0
  0
LINE
  5
10AA
330
1E
100
AcDbEntity
  8
L1
 48
4.0
100
AcDbLine
 10
603.5105519991039
 20
-1325.397717092482
 30
0.0
 11
603.5105519991039
 21
-1322.101083722614
 31
0.0
  0
LINE
  5
10AB
330
1E
100
AcDbEntity
  8
L1
 48
4.0
100
AcDbLine
 10
598.9639186292361
 20
-1325.397717092482
 30
0.0
 11
598.9639186292361
 21
-1322.101083722614
 31
0.0
  0
LINE
  5
10AC
102
{ACAD_REACTORS
330
123B
102
}
330
1E
100
AcDbEntity
  8
CEN
 48
4.0
100
AcDbLine
 10
522.6349076520864
 20
-1468.547474246142
 30
0.0
 11
522.6349076520864
 21
-1338.05865949075
 31
0.0
  0
LINE
  5
10AD
330
1E
100
AcDbEntity
  8
L1
 48
4.0
100
AcDbLine
 10
485.8288279912481
 20
-1452.139745222489
 30
0.0
 11
522.6349076520864
 21
-1452.139745222489
 31
0.0
  0
LINE
  5
10AE
330
1E
100
AcDbEntity
  8
L1
 48
4.0
100
AcDbLine
 10
517.550980466568
 20
-1407.223672408007
 30
0.0
 11
539.6552164633681
 21
-1385.119436411208
 31
0.0
  0
LINE
  5
10AF
330
1E
100
AcDbEntity
  8
L1
 48
4.0
100
AcDbLine
 10
558.4172852593683
 20
-1389.139745222489
 30
0.0
 11
558.4172852593683
 21
-1326.601083722614
 31
0.0
  0
LINE
  5
10B0
330
1E
100
AcDbEntity
  8
L1
 48
4.0
100
AcDbLine
 10
570.4172852593683
 20
-1406.139745222489
 30
0.0
 11
570.4172852593683
 21
-1326.601083722614
 31
0.0
  0
LINE
  5
10B1
330
1E
100
AcDbEntity
  8
L1
 48
4.0
100
AcDbLine
 10
578.4172852593683
 20
-1353.101083722614
 30
0.0
 11
584.4172852593674
 21
-1347.101083722613
 31
0.0
  0
LINE
  5
10B2
330
1E
100
AcDbEntity
  8
CEN
 48
4.0
100
AcDbLine
 10
564.4172852593683
 20
-1415.637113448362
 30
0.0
 11
564.4172852593683
 21
-1303.490512862799
 31
0.0
  0
LWPOLYLINE
  5
10B3
330
1E
100
AcDbEntity
  8
L1
 48
4.0
100
AcDbPolyline
 90
        5
 70
     0
 43
0.0
 10
546.775123061233
 20
-1389.139745222489
 10
561.3311751763022
 20
-1389.139745222489
 10
568.8367286757671
 20
-1402.139745222489
 10
561.3311751763022
 20
-1415.139745222489
 10
546.775123061233
 20
-1415.139745222489
  0
LINE
  5
10B4
330
1E
100
AcDbEntity
  8
L1
 48
4.0
100
AcDbLine
 10
568.8367286757671
 20
-1402.139745222489
 30
0.0
 11
541.1239157546652
 21
-1402.139745222489
 31
0.0
  0
LINE
  5
10B5
330
1E
100
AcDbEntity
  8
L1
 48
4.0
100
AcDbLine
 10
568.8367286757671
 20
-1402.139745222489
 30
0.0
 11
538.8145146779061
 21
-1402.139745222489
 31
0.0
  0
LINE
  5
10B6
330
1E
100
AcDbEntity
  8
L1
 48
4.0
100
AcDbLine
 10
569.4172852593683
 20
-1407.139745222489
 30
0.0
 11
565.9499773298194
 21
-1407.139745222489
 31
0.0
  0
ARC
  5
10B7
330
1E
100
AcDbEntity
  8
L1
 48
4.0
100
AcDbCircle
 10
569.4172852593683
 20
-1406.139745222489
 30
0.0
 40
1.0
100
AcDbArc
 50
270.0
 51
0.0
  0
LINE
  5
10B8
330
1E
100
AcDbEntity
  8
L1
 48
4.0
100
AcDbLine
 10
578.4172852593683
 20
-1353.101083722614
 30
0.0
 11
570.4172852593683
 21
-1353.101083722614
 31
0.0
  0
ARC
  5
10B9
330
1E
100
AcDbEntity
  8
L1
 48
4.0
100
AcDbCircle
 10
538.9867348440384
 20
-1402.139745222489
 30
0.0
 40
12.99999999999999
100
AcDbArc
 50
308.699650159768
 51
51.30034984022199
  0
LWPOLYLINE
  5
10BA
330
1E
100
AcDbEntity
  8
L1
 48
4.0
100
AcDbPolyline
 90
        3
 70
     0
 43
0.0
 10
546.858232954055
 20
-1389.773579880722
 10
553.9978418429682
 20
-1402.139745222489
 10
546.858232954055
 20
-1414.505910564256
  0
ARC
  5
10BB
330
1E
100
AcDbEntity
  8
L1
 48
4.0
100
AcDbCircle
 10
537.0249804139539
 20
-1402.139745222489
 30
0.0
 40
12.0
100
AcDbArc
 50
330.3967811166463
 51
29.60321888340136
  0
LINE
  5
10BC
330
1E
100
AcDbEntity
  8
L1
 48
4.0
100
AcDbLine
 10
547.4585482337934
 20
-1396.211214790665
 30
0.0
 11
550.8813868745051
 21
-1402.139745222489
 31
0.0
  0
LINE
  5
10BD
330
1E
100
AcDbEntity
  8
L1
 48
4.0
100
AcDbLine
 10
550.8813868745051
 20
-1402.139745222489
 30
0.0
 11
547.4585482337934
 21
-1408.068275654313
 31
0.0
  0
LINE
  5
10BE
330
1E
100
AcDbEntity
  8
L1
 48
4.0
100
AcDbLine
 10
558.4172852593683
 20
-1353.101083722614
 30
0.0
 11
540.4172852593683
 21
-1353.101083722614
 31
0.0
  0
LINE
  5
10BF
330
1E
100
AcDbEntity
  8
L1
 48
4.0
100
AcDbLine
 10
532.8649957949083
 20
-1388.285768309473
 30
0.0
 11
539.6552164633681
 21
-1385.119436411208
 31
0.0
  0
LINE
  5
10C0
330
1E
100
AcDbEntity
  8
L1
 48
4.0
100
AcDbLine
 10
536.4790397566812
 20
-1391.93076933946
 30
0.0
 11
539.6552164633681
 21
-1385.119436411208
 31
0.0
  0
LINE
  5
10C1
330
1E
100
AcDbEntity
  8
L1
 48
4.0
100
AcDbLine
 10
575.9172852593683
 20
-1326.601083722614
 30
0.0
 11
552.9172852593683
 21
-1326.601083722614
 31
0.0
  0
LINE
  5
10C2
330
1E
100
AcDbEntity
  8
L1
 48
4.0
100
AcDbLine
 10
573.942285259368
 20
-1313.601083722614
 30
0.0
 11
554.8922852593682
 21
-1313.601083722614
 31
0.0
  0
LINE
  5
10C3
330
1E
100
AcDbEntity
  8
L1
 48
4.0
100
AcDbLine
 10
577.696341450729
 20
-1316.601083722614
 30
0.0
 11
551.1382290680062
 21
-1316.601083722614
 31
0.0
  0
ARC
  5
10C4
330
1E
100
AcDbEntity
  8
L1
 48
4.0
100
AcDbCircle
 10
564.4172852593683
 20
-1304.628222293602
 30
0.0
 40
21.97286142901123
100
AcDbArc
 50
252.4120462260072
 51
287.5879537739928
  0
LINE
  5
10C5
330
1E
100
AcDbEntity
  8
CEN
 48
4.0
100
AcDbLine
 10
572.4373637920421
 20
-1329.101083722614
 30
0.0
 11
546.3972067266932
 21
-1329.101083722614
 31
0.0
  0
LINE
  5
10C6
330
1E
100
AcDbEntity
  8
L1
 48
4.0
100
AcDbLine
 10
577.696341450729
 20
-1325.573945151627
 30
0.0
 11
575.9172852593683
 21
-1326.601083722614
 31
0.0
  0
ARC
  5
10C7
330
1E
100
AcDbEntity
  8
L1
 48
4.0
100
AcDbCircle
 10
574.3765774028889
 20
-1320.72269140124
 30
0.0
 40
5.878392321372984
100
AcDbArc
 50
235.6157525319582
 51
304.3842474680418
  0
LINE
  5
10C8
330
1E
100
AcDbEntity
  8
L1
 48
4.0
100
AcDbLine
 10
586.5422852593683
 20
-1326.101083722614
 30
0.0
 11
585.324018519631
 21
-1325.397717092482
 31
0.0
  0
ARC
  5
10C9
330
1E
100
AcDbEntity
  8
L1
 48
4.0
100
AcDbCircle
 10
587.5973352045648
 20
-1322.075662893847
 30
0.0
 40
4.025420828766671
100
AcDbArc
 50
235.6157525319647
 51
304.3842474680352
  0
LINE
  5
10CA
330
1E
100
AcDbEntity
  8
L1
 48
4.0
100
AcDbLine
 10
584.4172852593674
 20
-1347.101083722613
 30
0.0
 11
584.4172852593683
 21
-1322.101083722614
 31
0.0
  0
LINE
  5
10CB
330
1E
100
AcDbEntity
  8
L1
 48
4.0
100
AcDbLine
 10
585.6672852593683
 20
-1310.601083722614
 30
0.0
 11
585.6672852593683
 21
-1313.101083722614
 31
0.0
  0
LINE
  5
10CC
330
1E
100
AcDbEntity
  8
L1
 48
4.0
100
AcDbLine
 10
580.7052163661142
 20
-1321.040451502574
 30
0.0
 11
580.7052163661142
 21
-1314.161715942653
 31
0.0
  0
LINE
  5
10CD
330
1E
100
AcDbEntity
  8
L1
 48
4.0
100
AcDbLine
 10
582.5422852593683
 20
-1322.101083722614
 30
0.0
 11
580.7052163661142
 21
-1321.040451502574
 31
0.0
  0
LINE
  5
10CE
330
1E
100
AcDbEntity
  8
L1
 48
4.0
100
AcDbLine
 10
587.5612508127415
 20
-1321.040451502574
 30
0.0
 11
587.5612508127415
 21
-1314.161715942653
 31
0.0
  0
ARC
  5
10CF
330
1E
100
AcDbEntity
  8
L1
 48
4.0
100
AcDbCircle
 10
584.1332335894272
 20
-1316.031004695109
 30
0.0
 40
6.070079027504676
100
AcDbArc
 50
235.6157525319567
 51
304.3842474680433
  0
ARC
  5
10D0
330
1E
100
AcDbEntity
  8
L1
 48
4.0
100
AcDbCircle
 10
584.1332335894272
 20
-1319.171162750118
 30
0.0
 40
6.070079027504676
100
AcDbArc
 50
55.61575253195666
 51
124.3842474680434
  0
LINE
  5
10D1
330
1E
100
AcDbEntity
  8
L1
 48
4.0
100
AcDbLine
 10
582.5422852593683
 20
-1313.101083722614
 30
0.0
 11
580.7052163661142
 21
-1314.161715942653
 31
0.0
  0
LINE
  5
10D2
330
1E
100
AcDbEntity
  8
L1
 48
4.0
100
AcDbLine
 10
584.4172852593683
 20
-1313.101083722614
 30
0.0
 11
584.4172852593683
 21
-1310.601083722614
 31
0.0
  0
LINE
  5
10D3
330
1E
100
AcDbEntity
  8
L1
 48
4.0
100
AcDbLine
 10
577.696341450729
 20
-1325.573945151627
 30
0.0
 11
577.696341450729
 21
-1316.601083722614
 31
0.0
  0
LINE
  5
10D4
330
1E
100
AcDbEntity
  8
L1
 48
4.0
100
AcDbLine
 10
585.324018519631
 20
-1325.397717092482
 30
0.0
 11
585.324018519631
 21
-1322.101083722614
 31
0.0
  0
LINE
  5
10D5
330
1E
100
AcDbEntity
  8
L1
 48
4.0
100
AcDbLine
 10
589.8706518894992
 20
-1325.397717092482
 30
0.0
 11
589.8706518894992
 21
-1322.101083722614
 31
0.0
  0
LINE
  5
10D6
330
1E
100
AcDbEntity
  8
L2
 48
4.0
100
AcDbLine
 10
573.0822852593683
 20
-1310.601083722614
 30
0.0
 11
573.0822852593683
 21
-1313.601083722614
 31
0.0
  0
LINE
  5
10D7
330
1E
100
AcDbEntity
  8
L1
 48
4.0
100
AcDbLine
 10
573.942285259368
 20
-1313.601083722614
 30
0.0
 11
573.942285259368
 21
-1310.601083722614
 31
0.0
  0
LINE
  5
10D8
330
1E
100
AcDbEntity
  8
L1
 48
4.0
100
AcDbLine
 10
573.0822852593683
 20
-1313.601083722614
 30
0.0
 11
573.0822852593683
 21
-1316.601083722614
 31
0.0
  0
LINE
  5
10D9
330
1E
100
AcDbEntity
  8
L1
 48
4.0
100
AcDbLine
 10
571.0568133550482
 20
-1325.573945151627
 30
0.0
 11
571.0568133550482
 21
-1316.601083722614
 31
0.0
  0
LINE
  5
10DA
330
1E
100
AcDbEntity
  8
L1
 48
4.0
100
AcDbLine
 10
551.1382290680062
 20
-1325.573945151627
 30
0.0
 11
552.9172852593683
 21
-1326.601083722614
 31
0.0
  0
ARC
  5
10DB
330
1E
100
AcDbEntity
  8
L1
 48
4.0
100
AcDbCircle
 10
554.457993115846
 20
-1320.722691401241
 30
0.0
 40
5.878392321372825
100
AcDbArc
 50
235.6157525319459
 51
304.3842474680541
  0
LINE
  5
10DC
330
1E
100
AcDbEntity
  8
CEN
 48
4.0
100
AcDbLine
 10
559.4172852593683
 20
-1316.081005189939
 30
0.0
 11
559.4172852593683
 21
-1342.121162255288
 31
0.0
  0
ARC
  5
10DD
330
1E
100
AcDbEntity
  8
L1
 48
4.0
100
AcDbCircle
 10
559.4172852593683
 20
-1329.101083722614
 30
0.0
 40
6.75
100
AcDbArc
 50
158.2615392084757
 51
261.4803757458608
  0
LINE
  5
10DE
330
1E
100
AcDbEntity
  8
L1
 48
4.0
100
AcDbLine
 10
554.8922852593682
 20
-1310.601083722614
 30
0.0
 11
554.8922852593682
 21
-1313.601083722614
 31
0.0
  0
LINE
  5
10DF
330
1E
100
AcDbEntity
  8
L2
 48
4.0
100
AcDbLine
 10
555.7522852593684
 20
-1310.601083722614
 30
0.0
 11
555.7522852593684
 21
-1313.601083722614
 31
0.0
  0
LINE
  5
10E0
330
1E
100
AcDbEntity
  8
L1
 48
4.0
100
AcDbLine
 10
555.7522852593684
 20
-1313.601083722614
 30
0.0
 11
555.7522852593684
 21
-1316.601083722614
 31
0.0
  0
LINE
  5
10E1
330
1E
100
AcDbEntity
  8
L1
 48
4.0
100
AcDbLine
 10
551.1382290680062
 20
-1325.573945151627
 30
0.0
 11
551.1382290680062
 21
-1316.601083722614
 31
0.0
  0
LINE
  5
10E2
330
1E
100
AcDbEntity
  8
L1
 48
4.0
100
AcDbLine
 10
557.777757163687
 20
-1325.573945151627
 30
0.0
 11
557.777757163687
 21
-1316.601083722614
 31
0.0
  0
LINE
  5
10E3
330
1E
100
AcDbEntity
  8
L1
 48
4.0
100
AcDbLine
 10
485.8288279912481
 20
-1352.139745222489
 30
0.0
 11
522.6349076520864
 21
-1352.139745222489
 31
0.0
  0
ARC
  5
10E4
330
1E
100
AcDbEntity
  8
L1
 48
4.0
100
AcDbCircle
 10
581.0169541299092
 20
-1175.963810380641
 30
0.0
 40
53.8240651581513
100
AcDbArc
 50
75.36449799125455
 51
104.635502008746
  0
LINE
  5
10E5
330
1E
100
AcDbEntity
  8
CEN
 48
4.0
100
AcDbLine
 10
527.7679973183212
 20
-1130.886185657919
 30
0.0
 11
602.0871128003173
 21
-1130.886185657919
 31
0.0
  0
ARC
  5
10E6
330
1E
100
AcDbEntity
  8
L1
 48
4.0
100
AcDbCircle
 10
581.0169541299092
 20
-1085.808560935199
 30
0.0
 40
53.8240651581513
100
AcDbArc
 50
255.3644979912546
 51
284.6355020087459
  0
ARC
  5
10E7
330
1E
100
AcDbEntity
  8
L1
 48
4.0
100
AcDbCircle
 10
593.4172852593683
 20
-1174.601083722614
 30
0.0
 40
2.0
100
AcDbArc
 50
0.0
 51
90.0
  0
LINE
  5
10E8
330
1E
100
AcDbEntity
  8
L1
 48
4.0
100
AcDbLine
 10
594.4172852593683
 20
-1208.101083722614
 30
0.0
 11
584.4172852593683
 21
-1208.101083722614
 31
0.0
  0
LINE
  5
10E9
330
1E
100
AcDbEntity
  8
L1
 48
4.0
100
AcDbLine
 10
600.4172852593683
 20
-1213.101083722614
 30
0.0
 11
578.4172852593683
 21
-1213.101083722614
 31
0.0
  0
LINE
  5
10EA
330
1E
100
AcDbEntity
  8
L1
 48
4.0
100
AcDbLine
 10
594.4172852593683
 20
-1298.101083722614
 30
0.0
 11
584.4172852593683
 21
-1298.101083722614
 31
0.0
  0
LINE
  5
10EB
330
1E
100
AcDbEntity
  8
L1
 48
4.0
100
AcDbLine
 10
600.4172852593683
 20
-1293.101083722614
 30
0.0
 11
578.4172852593683
 21
-1293.101083722614
 31
0.0
  0
LINE
  5
10EC
330
1E
100
AcDbEntity
  8
L1
 48
4.0
100
AcDbLine
 10
603.6326755685413
 20
-1222.101083722614
 30
0.0
 11
525.4172852593683
 21
-1222.101083722614
 31
0.0
  0
LINE
  5
10ED
330
1E
100
AcDbEntity
  8
L1
 48
4.0
100
AcDbLine
 10
603.6326755685413
 20
-1284.101083722614
 30
0.0
 11
525.4172852593683
 21
-1284.101083722614
 31
0.0
  0
LINE
  5
10EE
330
1E
100
AcDbEntity
  8
L1
 48
4.0
100
AcDbLine
 10
533.4172852593683
 20
-1195.601083722613
 30
0.0
 11
646.4172852593683
 21
-1195.601083722614
 31
0.0
  0
LINE
  5
10EF
330
1E
100
AcDbEntity
  8
L1
 48
4.0
100
AcDbLine
 10
672.4172852593683
 20
-1230.101083722614
 30
0.0
 11
535.3911794308242
 21
-1230.101083722614
 31
0.0
  0
LINE
  5
10F0
330
1E
100
AcDbEntity
  8
L1
 48
4.0
100
AcDbLine
 10
672.417285259362
 20
-1276.101083722614
 30
0.0
 11
535.3911794308242
 21
-1276.101083722614
 31
0.0
  0
LINE
  5
10F1
330
1E
100
AcDbEntity
  8
L1
 48
4.0
100
AcDbLine
 10
559.3911794308242
 20
-1262.627995657195
 30
0.0
 11
672.4172852593633
 21
-1262.627995657194
 31
0.0
  0
LINE
  5
10F2
330
1E
100
AcDbEntity
  8
L1
 48
4.0
100
AcDbLine
 10
559.3911794308242
 20
-1243.574171788032
 30
0.0
 11
672.417285259366
 21
-1243.574171788032
 31
0.0
  0
ARC
  5
10F3
330
1E
100
AcDbEntity
  8
L1
 48
4.0
100
AcDbCircle
 10
594.4172852593683
 20
-1209.101083722614
 30
0.0
 40
1.0
100
AcDbArc
 50
0.0
 51
90.0
  0
LINE
  5
10F4
330
1E
100
AcDbEntity
  8
L1
 48
4.0
100
AcDbLine
 10
649.4172852593683
 20
-1198.601083722614
 30
0.0
 11
649.4172852593683
 21
-1230.101083722614
 31
0.0
  0
LINE
  5
10F5
330
1E
100
AcDbEntity
  8
L1
 48
4.0
100
AcDbLine
 10
629.4172852593683
 20
-1195.601083722614
 30
0.0
 11
629.4172852593683
 21
-1230.101083722614
 31
0.0
  0
LINE
  5
10F6
330
1E
100
AcDbEntity
  8
DIM
 48
4.0
100
AcDbLine
 10
709.4172852593674
 20
-1250.351083722614
 30
0.0
 11
709.4172852593674
 21
-1255.851083722614
 31
0.0
  0
LINE
  5
10F7
330
1E
100
AcDbEntity
  8
CEN
 48
4.0
100
AcDbLine
 10
691.9172852593674
 20
-1232.746868507791
 30
0.0
 11
691.9172852593674
 21
-1273.455298937436
 31
0.0
  0
ARC
  5
10F8
330
1E
100
AcDbEntity
  8
L1
 48
4.0
100
AcDbCircle
 10
669.6672852593683
 20
-1253.101083722614
 30
0.0
 40
2.75
100
AcDbArc
 50
90.0
 51
270.0
  0
ARC
  5
10F9
330
1E
100
AcDbEntity
  8
L1
 48
4.0
100
AcDbCircle
 10
714.1672852593674
 20
-1253.101083722614
 30
0.0
 40
2.75
100
AcDbArc
 50
270.0
 51
90.0
  0
CIRCLE
  5
10FA
330
1E
100
AcDbEntity
  8
L1
 48
4.0
100
AcDbCircle
 10
691.9172852593674
 20
-1253.101083722614
 30
0.0
 40
7.5
  0
LINE
  5
10FB
330
1E
100
AcDbEntity
  8
L1
 48
4.0
100
AcDbLine
 10
707.4172852593674
 20
-1280.601083722614
 30
0.0
 11
676.4172852593683
 21
-1280.601083722614
 31
0.0
  0
ARC
  5
10FC
330
1E
100
AcDbEntity
  8
L1
 48
4.0
100
AcDbCircle
 10
691.9172852593674
 20
-1253.101083722614
 30
0.0
 40
9.0
100
AcDbArc
 50
197.7915905730121
 51
342.2084094269878
  0
ARC
  5
10FD
330
1E
100
AcDbEntity
  8
L1
 48
4.0
100
AcDbCircle
 10
707.4172852593674
 20
-1278.601083722614
 30
0.0
 40
2.0
100
AcDbArc
 50
270.0
 51
0.0
  0
LINE
  5
10FE
330
1E
100
AcDbEntity
  8
L1
 48
4.0
100
AcDbLine
 10
714.1672852593674
 20
-1255.851083722614
 30
0.0
 11
698.8949281278437
 21
-1255.851083722614
 31
0.0
  0
LINE
  5
10FF
330
1E
100
AcDbEntity
  8
L1
 48
4.0
100
AcDbLine
 10
709.4172852593674
 20
-1255.851083722614
 30
0.0
 11
709.4172852593674
 21
-1278.601083722614
 31
0.0
  0
ARC
  5
1100
330
1E
100
AcDbEntity
  8
L1
 48
4.0
100
AcDbCircle
 10
676.4172852593683
 20
-1278.601083722614
 30
0.0
 40
2.0
100
AcDbArc
 50
180.0
 51
270.0
  0
LINE
  5
1101
330
1E
100
AcDbEntity
  8
L1
 48
4.0
100
AcDbLine
 10
684.9396423908911
 20
-1255.851083722614
 30
0.0
 11
669.6672852593683
 21
-1255.851083722614
 31
0.0
  0
LINE
  5
1102
330
1E
100
AcDbEntity
  8
L1
 48
4.0
100
AcDbLine
 10
674.4172852593651
 20
-1255.851083722614
 30
0.0
 11
674.417285259362
 21
-1278.601083722613
 31
0.0
  0
ARC
  5
1103
330
1E
100
AcDbEntity
  8
L1
 48
4.0
100
AcDbCircle
 10
672.417285259362
 20
-1278.101083722614
 30
0.0
 40
2.0
100
AcDbArc
 50
359.999999999987
 51
90.0
  0
ARC
  5
1104
330
1E
100
AcDbEntity
  8
L1
 48
4.0
100
AcDbCircle
 10
672.4172852593633
 20
-1264.627995657194
 30
0.0
 40
2.0
100
AcDbArc
 50
359.999999999987
 51
90.0
  0
LINE
  5
1105
330
1E
100
AcDbEntity
  8
L1
 48
4.0
100
AcDbLine
 10
707.4172852593674
 20
-1225.601083722614
 30
0.0
 11
676.4172852593683
 21
-1225.601083722614
 31
0.0
  0
ARC
  5
1106
330
1E
100
AcDbEntity
  8
L1
 48
4.0
100
AcDbCircle
 10
691.9172852593674
 20
-1253.101083722614
 30
0.0
 40
9.0
100
AcDbArc
 50
17.79159057301078
 51
162.2084094269892
  0
LINE
  5
1107
330
1E
100
AcDbEntity
  8
L1
 48
4.0
100
AcDbLine
 10
709.4172852593674
 20
-1227.601083722614
 30
0.0
 11
709.4172852593674
 21
-1250.351083722614
 31
0.0
  0
LINE
  5
1108
330
1E
100
AcDbEntity
  8
L1
 48
4.0
100
AcDbLine
 10
714.1672852593674
 20
-1250.351083722614
 30
0.0
 11
698.8949281278437
 21
-1250.351083722614
 31
0.0
  0
ARC
  5
1109
330
1E
100
AcDbEntity
  8
L1
 48
4.0
100
AcDbCircle
 10
707.4172852593674
 20
-1227.601083722614
 30
0.0
 40
2.0
100
AcDbArc
 50
0.0
 51
90.0
  0
LINE
  5
110A
330
1E
100
AcDbEntity
  8
L1
 48
4.0
100
AcDbLine
 10
674.4172852593674
 20
-1227.601083722613
 30
0.0
 11
674.4172852593651
 21
-1250.351083722614
 31
0.0
  0
LINE
  5
110B
330
1E
100
AcDbEntity
  8
L1
 48
4.0
100
AcDbLine
 10
684.9396423908911
 20
-1250.351083722614
 30
0.0
 11
669.6672852593683
 21
-1250.351083722614
 31
0.0
  0
ARC
  5
110C
330
1E
100
AcDbEntity
  8
L1
 48
4.0
100
AcDbCircle
 10
672.417285259366
 20
-1241.574171788032
 30
0.0
 40
2.0
100
AcDbArc
 50
270.0
 51
0.0
  0
ARC
  5
110D
330
1E
100
AcDbEntity
  8
L1
 48
4.0
100
AcDbCircle
 10
676.4172852593683
 20
-1227.601083722614
 30
0.0
 40
2.0
100
AcDbArc
 50
90.0
 51
180.0
  0
ARC
  5
110E
330
1E
100
AcDbEntity
  8
L1
 48
4.0
100
AcDbCircle
 10
672.4172852593683
 20
-1228.101083722614
 30
0.0
 40
2.0
100
AcDbArc
 50
270.0
 51
0.0
  0
LINE
  5
110F
330
1E
100
AcDbEntity
  8
L1
 48
4.0
100
AcDbLine
 10
607.9628025874631
 20
-1281.601083722614
 30
0.0
 11
611.1382290680062
 21
-1276.101083722614
 31
0.0
  0
ARC
  5
1110
330
1E
100
AcDbEntity
  8
L1
 48
4.0
100
AcDbCircle
 10
594.4172852593683
 20
-1297.101083722614
 30
0.0
 40
1.0
100
AcDbArc
 50
270.0
 51
0.0
  0
LINE
  5
1111
330
1E
100
AcDbEntity
  8
L1
 48
4.0
100
AcDbLine
 10
595.4172852593683
 20
-1293.101083722614
 30
0.0
 11
595.4172852593683
 21
-1297.101083722614
 31
0.0
  0
ARC
  5
1112
330
1E
100
AcDbEntity
  8
L1
 48
4.0
100
AcDbCircle
 10
603.6326755685413
 20
-1279.101083722614
 30
0.0
 40
5.0
100
AcDbArc
 50
270.0
 51
330.0000000000002
  0
LINE
  5
1113
330
1E
100
AcDbEntity
  8
L1
 48
4.0
100
AcDbLine
 10
602.4172852593683
 20
-1291.101083722614
 30
0.0
 11
602.4172852593683
 21
-1286.101083722614
 31
0.0
  0
ARC
  5
1114
330
1E
100
AcDbEntity
  8
L1
 48
4.0
100
AcDbCircle
 10
604.4172852593683
 20
-1286.101083722614
 30
0.0
 40
2.0
100
AcDbArc
 50
90.0
 51
180.0
  0
ARC
  5
1115
330
1E
100
AcDbEntity
  8
L1
 48
4.0
100
AcDbCircle
 10
600.4172852593683
 20
-1291.101083722614
 30
0.0
 40
2.0
100
AcDbArc
 50
270.0
 51
0.0
  0
LINE
  5
1116
330
1E
100
AcDbEntity
  8
L1
 48
4.0
100
AcDbLine
 10
607.9628025874631
 20
-1224.601083722614
 30
0.0
 11
611.1382290680062
 21
-1230.101083722614
 31
0.0
  0
LINE
  5
1117
330
1E
100
AcDbEntity
  8
L1
 48
4.0
100
AcDbLine
 10
595.4172852593683
 20
-1213.101083722614
 30
0.0
 11
595.4172852593683
 21
-1209.101083722614
 31
0.0
  0
LINE
  5
1118
330
1E
100
AcDbEntity
  8
L1
 48
4.0
100
AcDbLine
 10
602.4172852593683
 20
-1215.101083722614
 30
0.0
 11
602.4172852593683
 21
-1220.101083722614
 31
0.0
  0
ARC
  5
1119
330
1E
100
AcDbEntity
  8
L1
 48
4.0
100
AcDbCircle
 10
600.4172852593683
 20
-1215.101083722614
 30
0.0
 40
2.0
100
AcDbArc
 50
0.0
 51
90.0
  0
ARC
  5
111A
330
1E
100
AcDbEntity
  8
L1
 48
4.0
100
AcDbCircle
 10
604.4172852593683
 20
-1220.101083722614
 30
0.0
 40
2.0
100
AcDbArc
 50
180.0
 51
270.0
  0
ARC
  5
111B
330
1E
100
AcDbEntity
  8
L1
 48
4.0
100
AcDbCircle
 10
603.6326755685413
 20
-1227.101083722614
 30
0.0
 40
5.0
100
AcDbArc
 50
29.99999999999538
 51
90.0
  0
ARC
  5
111C
330
1E
100
AcDbEntity
  8
L1
 48
4.0
100
AcDbCircle
 10
646.4172852593683
 20
-1198.601083722614
 30
0.0
 40
3.0
100
AcDbArc
 50
0.0
 51
90.0
  0
LINE
  5
111D
330
1E
100
AcDbEntity
  8
L1
 48
4.0
100
AcDbLine
 10
595.4172852593683
 20
-1174.601083722614
 30
0.0
 11
595.4172852593683
 21
-1195.601083722613
 31
0.0
  0
ARC
  5
111E
330
1E
100
AcDbEntity
  8
L1
 48
4.0
100
AcDbCircle
 10
564.4172852593683
 20
-1130.886185657919
 30
0.0
 40
31.0
100
AcDbArc
 50
346.9496950603191
 51
13.05030493968087
  0
LINE
  5
111F
330
1E
100
AcDbEntity
  8
CEN
 48
4.0
100
AcDbLine
 10
589.4172852593683
 20
-1300.001355455662
 30
0.0
 11
589.4172852593683
 21
-1204.591835278364
 31
0.0
  0
LINE
  5
1120
330
1E
100
AcDbEntity
  8
CEN
 48
4.0
100
AcDbLine
 10
544.4172852593683
 20
-1204.591835278364
 30
0.0
 11
544.4172852593683
 21
-1300.001355455662
 31
0.0
  0
LINE
  5
1121
330
1E
100
AcDbEntity
  8
L1
 48
4.0
100
AcDbLine
 10
534.4172852593683
 20
-1195.601083722613
 30
0.0
 11
534.4172852593683
 21
-1213.101083722613
 31
0.0
  0
ARC
  5
1122
330
1E
100
AcDbEntity
  8
L1
 48
4.0
100
AcDbCircle
 10
584.4172852593683
 20
-1209.101083722614
 30
0.0
 40
1.0
100
AcDbArc
 50
90.0
 51
180.0
  0
ARC
  5
1123
330
1E
100
AcDbEntity
  8
L1
 48
4.0
100
AcDbCircle
 10
549.4172852593683
 20
-1209.101083722614
 30
0.0
 40
1.0
100
AcDbArc
 50
0.0
 51
90.0
  0
ARC
  5
1124
330
1E
100
AcDbEntity
  8
L1
 48
4.0
100
AcDbCircle
 10
539.4172852593683
 20
-1209.101083722614
 30
0.0
 40
1.0
100
AcDbArc
 50
90.0
 51
180.0
  0
LINE
  5
1125
330
1E
100
AcDbEntity
  8
CEN
 48
4.0
100
AcDbLine
 10
564.4172852593683
 20
-1119.913026553933
 30
0.0
 11
564.4172852593683
 21
-1213.101083722613
 31
0.0
  0
LINE
  5
1126
330
1E
100
AcDbEntity
  8
CEN
 48
4.0
100
AcDbLine
 10
549.4172852593683
 20
-1239.601083722614
 30
0.0
 11
480.7703849744585
 21
-1239.601083722614
 31
0.0
  0
LINE
  5
1127
330
1E
100
AcDbEntity
  8
L1
 48
4.0
100
AcDbLine
 10
533.3911794308242
 20
-1232.101083722614
 30
0.0
 11
533.3911794308242
 21
-1274.101083722614
 31
0.0
  0
LINE
  5
1128
330
1E
100
AcDbEntity
  8
L1
 48
4.0
100
AcDbLine
 10
559.3911794308242
 20
-1262.627995657195
 30
0.0
 11
559.3911794308242
 21
-1243.574171788032
 31
0.0
  0
ARC
  5
1129
330
1E
100
AcDbEntity
  8
L1
 48
4.0
100
AcDbCircle
 10
578.4172852593683
 20
-1291.101083722614
 30
0.0
 40
2.0
100
AcDbArc
 50
180.0
 51
270.0
  0
ARC
  5
112A
330
1E
100
AcDbEntity
  8
L1
 48
4.0
100
AcDbCircle
 10
584.4172852593683
 20
-1297.101083722614
 30
0.0
 40
1.0
100
AcDbArc
 50
180.0
 51
270.0
  0
LINE
  5
112B
330
1E
100
AcDbEntity
  8
L1
 48
4.0
100
AcDbLine
 10
583.4172852593683
 20
-1293.101083722614
 30
0.0
 11
583.4172852593683
 21
-1297.101083722614
 31
0.0
  0
LINE
  5
112C
330
1E
100
AcDbEntity
  8
L1
 48
4.0
100
AcDbLine
 10
576.4172852593683
 20
-1291.101083722614
 30
0.0
 11
576.4172852593683
 21
-1286.101083722614
 31
0.0
  0
ARC
  5
112D
330
1E
100
AcDbEntity
  8
L1
 48
4.0
100
AcDbCircle
 10
574.4172852593683
 20
-1286.101083722614
 30
0.0
 40
2.0
100
AcDbArc
 50
0.0
 51
90.0
  0
LINE
  5
112E
330
1E
100
AcDbEntity
  8
L1
 48
4.0
100
AcDbLine
 10
555.4172852593683
 20
-1293.101083722614
 30
0.0
 11
533.4172852593683
 21
-1293.101083722614
 31
0.0
  0
LINE
  5
112F
330
1E
100
AcDbEntity
  8
L1
 48
4.0
100
AcDbLine
 10
549.4172852593683
 20
-1298.101083722614
 30
0.0
 11
539.4172852593683
 21
-1298.101083722614
 31
0.0
  0
ARC
  5
1130
330
1E
100
AcDbEntity
  8
L1
 48
4.0
100
AcDbCircle
 10
555.4172852593683
 20
-1291.101083722614
 30
0.0
 40
2.0
100
AcDbArc
 50
270.0
 51
0.0
  0
ARC
  5
1131
330
1E
100
AcDbEntity
  8
L1
 48
4.0
100
AcDbCircle
 10
559.4172852593683
 20
-1286.101083722614
 30
0.0
 40
2.0
100
AcDbArc
 50
90.0
 51
180.0
  0
LINE
  5
1132
330
1E
100
AcDbEntity
  8
L1
 48
4.0
100
AcDbLine
 10
557.4172852593683
 20
-1291.101083722614
 30
0.0
 11
557.4172852593683
 21
-1286.101083722614
 31
0.0
  0
LINE
  5
1133
330
1E
100
AcDbEntity
  8
L1
 48
4.0
100
AcDbLine
 10
550.4172852593683
 20
-1293.101083722614
 30
0.0
 11
550.4172852593683
 21
-1297.101083722614
 31
0.0
  0
ARC
  5
1134
330
1E
100
AcDbEntity
  8
L1
 48
4.0
100
AcDbCircle
 10
549.4172852593683
 20
-1297.101083722614
 30
0.0
 40
1.0
100
AcDbArc
 50
270.0
 51
0.0
  0
ARC
  5
1135
330
1E
100
AcDbEntity
  8
L1
 48
4.0
100
AcDbCircle
 10
533.4172852593683
 20
-1291.101083722614
 30
0.0
 40
2.0
100
AcDbArc
 50
180.0
 51
270.0
  0
LINE
  5
1136
330
1E
100
AcDbEntity
  8
L1
 48
4.0
100
AcDbLine
 10
531.4172852593683
 20
-1291.101083722614
 30
0.0
 11
531.4172852593683
 21
-1286.101083722614
 31
0.0
  0
LINE
  5
1137
330
1E
100
AcDbEntity
  8
L1
 48
4.0
100
AcDbLine
 10
538.4172852593683
 20
-1293.101083722614
 30
0.0
 11
538.4172852593683
 21
-1297.101083722614
 31
0.0
  0
ARC
  5
1138
330
1E
100
AcDbEntity
  8
L1
 48
4.0
100
AcDbCircle
 10
539.4172852593683
 20
-1297.101083722614
 30
0.0
 40
1.0
100
AcDbArc
 50
180.0
 51
270.0
  0
ARC
  5
1139
330
1E
100
AcDbEntity
  8
L1
 48
4.0
100
AcDbCircle
 10
529.4172852593683
 20
-1286.101083722614
 30
0.0
 40
2.0
100
AcDbArc
 50
0.0
 51
90.0
  0
LINE
  5
113A
330
1E
100
AcDbEntity
  8
L1
 48
4.0
100
AcDbLine
 10
559.3911794308242
 20
-1262.627995657195
 30
0.0
 11
545.9180913654054
 21
-1276.101083722614
 31
0.0
  0
ARC
  5
113B
330
1E
100
AcDbEntity
  8
L1
 48
4.0
100
AcDbCircle
 10
535.3911794308242
 20
-1274.101083722614
 30
0.0
 40
2.0
100
AcDbArc
 50
180.0
 51
270.0
  0
ARC
  5
113C
330
1E
100
AcDbEntity
  8
L1
 48
4.0
100
AcDbCircle
 10
578.4172852593683
 20
-1215.101083722614
 30
0.0
 40
2.0
100
AcDbArc
 50
90.0
 51
180.0
  0
LINE
  5
113D
330
1E
100
AcDbEntity
  8
L1
 48
4.0
100
AcDbLine
 10
583.4172852593683
 20
-1213.101083722614
 30
0.0
 11
583.4172852593683
 21
-1209.101083722614
 31
0.0
  0
LINE
  5
113E
330
1E
100
AcDbEntity
  8
L1
 48
4.0
100
AcDbLine
 10
576.4172852593683
 20
-1215.101083722614
 30
0.0
 11
576.4172852593683
 21
-1220.101083722614
 31
0.0
  0
ARC
  5
113F
330
1E
100
AcDbEntity
  8
L1
 48
4.0
100
AcDbCircle
 10
574.4172852593683
 20
-1220.101083722614
 30
0.0
 40
2.0
100
AcDbArc
 50
270.0
 51
0.0
  0
LINE
  5
1140
330
1E
100
AcDbEntity
  8
L1
 48
4.0
100
AcDbLine
 10
559.3911794308242
 20
-1243.574171788032
 30
0.0
 11
545.9180913654054
 21
-1230.101083722614
 31
0.0
  0
ARC
  5
1141
330
1E
100
AcDbEntity
  8
L1
 48
4.0
100
AcDbCircle
 10
535.3911794308242
 20
-1232.101083722614
 30
0.0
 40
2.0
100
AcDbArc
 50
90.0
 51
180.0
  0
LINE
  5
1142
330
1E
100
AcDbEntity
  8
L1
 48
4.0
100
AcDbLine
 10
555.4172852593683
 20
-1213.101083722614
 30
0.0
 11
533.4172852593683
 21
-1213.101083722614
 31
0.0
  0
LINE
  5
1143
330
1E
100
AcDbEntity
  8
L1
 48
4.0
100
AcDbLine
 10
557.4172852593683
 20
-1215.101083722614
 30
0.0
 11
557.4172852593683
 21
-1220.101083722614
 31
0.0
  0
ARC
  5
1144
330
1E
100
AcDbEntity
  8
L1
 48
4.0
100
AcDbCircle
 10
559.4172852593683
 20
-1220.101083722614
 30
0.0
 40
2.0
100
AcDbArc
 50
180.0
 51
270.0
  0
ARC
  5
1145
330
1E
100
AcDbEntity
  8
L1
 48
4.0
100
AcDbCircle
 10
555.4172852593683
 20
-1215.101083722614
 30
0.0
 40
2.0
100
AcDbArc
 50
0.0
 51
90.0
  0
LINE
  5
1146
330
1E
100
AcDbEntity
  8
L1
 48
4.0
100
AcDbLine
 10
550.4172852593683
 20
-1213.101083722614
 30
0.0
 11
550.4172852593683
 21
-1209.101083722614
 31
0.0
  0
LINE
  5
1147
330
1E
100
AcDbEntity
  8
L1
 48
4.0
100
AcDbLine
 10
531.4172852593683
 20
-1215.101083722614
 30
0.0
 11
531.4172852593683
 21
-1220.101083722614
 31
0.0
  0
ARC
  5
1148
330
1E
100
AcDbEntity
  8
L1
 48
4.0
100
AcDbCircle
 10
533.4172852593683
 20
-1215.101083722614
 30
0.0
 40
2.0
100
AcDbArc
 50
90.0
 51
180.0
  0
LINE
  5
1149
330
1E
100
AcDbEntity
  8
L1
 48
4.0
100
AcDbLine
 10
538.4172852593683
 20
-1213.101083722614
 30
0.0
 11
538.4172852593683
 21
-1209.101083722614
 31
0.0
  0
ARC
  5
114A
330
1E
100
AcDbEntity
  8
L1
 48
4.0
100
AcDbCircle
 10
529.4172852593683
 20
-1220.101083722614
 30
0.0
 40
2.0
100
AcDbArc
 50
270.0
 51
0.0
  0
LINE
  5
114B
330
1E
100
AcDbEntity
  8
L1
 48
4.0
100
AcDbLine
 10
523.4172852593683
 20
-1224.101083722614
 30
0.0
 11
523.4172852593683
 21
-1282.101083722614
 31
0.0
  0
ARC
  5
114C
330
1E
100
AcDbEntity
  8
L1
 48
4.0
100
AcDbCircle
 10
525.4172852593683
 20
-1282.101083722614
 30
0.0
 40
2.0
100
AcDbArc
 50
180.0
 51
270.0
  0
LINE
  5
114D
330
1E
100
AcDbEntity
  8
L2
 62
     3
 48
4.0
100
AcDbLine
 10
486.4172852593683
 20
-1251.601083722614
 30
0.0
 11
501.4172852593683
 21
-1251.601083722614
 31
0.0
  0
LINE
  5
114E
330
1E
100
AcDbEntity
  8
L1
 48
4.0
100
AcDbLine
 10
487.4172852593683
 20
-1252.601083722614
 30
0.0
 11
503.4172852593683
 21
-1252.601083722614
 31
0.0
  0
LINE
  5
114F
330
1E
100
AcDbEntity
  8
L2
 62
     3
 48
4.0
100
AcDbLine
 10
486.4172852593683
 20
-1227.601083722614
 30
0.0
 11
501.4172852593683
 21
-1227.601083722614
 31
0.0
  0
LINE
  5
1150
330
1E
100
AcDbEntity
  8
L1
 48
4.0
100
AcDbLine
 10
487.4172852593683
 20
-1226.601083722614
 30
0.0
 11
503.4172852593683
 21
-1226.601083722614
 31
0.0
  0
LINE
  5
1151
330
1E
100
AcDbEntity
  8
L1
 48
4.0
100
AcDbLine
 10
501.4172852593683
 20
-1252.601083722614
 30
0.0
 11
501.4172852593683
 21
-1226.601083722614
 31
0.0
  0
LINE
  5
1152
330
1E
100
AcDbEntity
  8
L1
 48
4.0
100
AcDbLine
 10
523.4172852593683
 20
-1248.916583722613
 30
0.0
 11
523.4172852593683
 21
-1230.285583722613
 31
0.0
  0
LINE
  5
1153
330
1E
100
AcDbEntity
  8
L1
 48
4.0
100
AcDbLine
 10
521.4172852593683
 20
-1250.078583722614
 30
0.0
 11
521.4172852593683
 21
-1229.123583722613
 31
0.0
  0
LINE
  5
1154
330
1E
100
AcDbEntity
  8
L1
 48
4.0
100
AcDbLine
 10
518.4172852593683
 20
-1226.601083722613
 30
0.0
 11
518.4172852593683
 21
-1252.601083722613
 31
0.0
  0
LINE
  5
1155
330
1E
100
AcDbEntity
  8
L1
 48
4.0
100
AcDbLine
 10
518.4172852593683
 20
-1226.601083722613
 30
0.0
 11
518.4172852593683
 21
-1252.601083722613
 31
0.0
  0
LINE
  5
1156
330
1E
100
AcDbEntity
  8
L1
 48
4.0
100
AcDbLine
 10
518.4172852593683
 20
-1226.601083722613
 30
0.0
 11
518.4172852593683
 21
-1252.601083722613
 31
0.0
  0
LINE
  5
1157
330
1E
100
AcDbEntity
  8
L1
 48
4.0
100
AcDbLine
 10
503.4172852593683
 20
-1226.601083722613
 30
0.0
 11
503.4172852593683
 21
-1252.601083722613
 31
0.0
  0
LINE
  5
1158
330
1E
100
AcDbEntity
  8
L1
 48
4.0
100
AcDbLine
 10
503.4172852593683
 20
-1226.601083722613
 30
0.0
 11
503.4172852593683
 21
-1252.601083722613
 31
0.0
  0
ARC
  5
1159
330
1E
100
AcDbEntity
  8
L1
 48
4.0
100
AcDbCircle
 10
502.4679840730041
 20
-1232.846085573095
 30
0.0
 40
15.94930118636356
100
AcDbArc
 50
334.9423845816961
 51
25.05761541830392
  0
ARC
  5
115A
330
1E
100
AcDbEntity
  8
L1
 48
4.0
100
AcDbCircle
 10
524.0690947728999
 20
-1231.801083722613
 30
0.0
 40
20.67823167127056
100
AcDbArc
 50
163.9702989398726
 51
202.160863338355
  0
LINE
  5
115B
330
1E
100
AcDbEntity
  8
L1
 48
4.0
100
AcDbLine
 10
503.7117317599032
 20
-1253.111080021651
 30
0.0
 11
518.1228387588335
 21
-1253.111080021651
 31
0.0
  0
LINE
  5
115C
330
1E
100
AcDbEntity
  8
L1
 48
4.0
100
AcDbLine
 10
516.9161745594743
 20
-1253.111080021651
 30
0.0
 11
504.918395959261
 21
-1253.111080021651
 31
0.0
  0
LINE
  5
115D
330
1E
100
AcDbEntity
  8
L1
 48
4.0
100
AcDbLine
 10
516.9161745594743
 20
-1239.601083722613
 30
0.0
 11
504.918395959261
 21
-1239.601083722613
 31
0.0
  0
LINE
  5
115E
330
1E
100
AcDbEntity
  8
L2
 62
     3
 48
4.0
100
AcDbLine
 10
521.4172852593683
 20
-1249.078583722613
 30
0.0
 11
519.6852344517993
 21
-1250.078583722613
 31
0.0
  0
ARC
  5
115F
330
1E
100
AcDbEntity
  8
L1
 48
4.0
100
AcDbCircle
 10
502.4679840730041
 20
-1246.356081872132
 30
0.0
 40
15.94930118636356
100
AcDbArc
 50
334.9423845816961
 51
25.05761541830392
  0
LINE
  5
1160
330
1E
100
AcDbEntity
  8
L2
 62
     3
 48
4.0
100
AcDbLine
 10
523.4172852593683
 20
-1249.078583722613
 30
0.0
 11
521.4172852593683
 21
-1249.078583722613
 31
0.0
  0
LINE
  5
1161
330
1E
100
AcDbEntity
  8
L1
 48
4.0
100
AcDbLine
 10
523.4172852593683
 20
-1250.078583722614
 30
0.0
 11
518.4172852593683
 21
-1250.078583722613
 31
0.0
  0
LINE
  5
1162
330
1E
100
AcDbEntity
  8
L1
 48
4.0
100
AcDbLine
 10
518.4172852593683
 20
-1252.601083722613
 30
0.0
 11
518.1228387588335
 21
-1253.111080021651
 31
0.0
  0
LINE
  5
1163
330
1E
100
AcDbEntity
  8
L2
 62
     3
 48
4.0
100
AcDbLine
 10
503.4172852593683
 20
-1252.601083722614
 30
0.0
 11
501.4172852593683
 21
-1251.601083722614
 31
0.0
  0
ARC
  5
1164
330
1E
100
AcDbEntity
  8
L1
 48
4.0
100
AcDbCircle
 10
519.3665864457312
 20
-1246.356081872132
 30
0.0
 40
15.94930118636328
100
AcDbArc
 50
154.9423845816954
 51
205.0576154183046
  0
LINE
  5
1165
330
1E
100
AcDbEntity
  8
L1
 48
4.0
100
AcDbLine
 10
503.4172852593683
 20
-1252.601083722613
 30
0.0
 11
503.7117317599032
 21
-1253.111080021651
 31
0.0
  0
LINE
  5
1166
330
1E
100
AcDbEntity
  8
L1
 48
4.0
100
AcDbLine
 10
516.9161745594743
 20
-1226.091087423576
 30
0.0
 11
504.918395959261
 21
-1226.091087423576
 31
0.0
  0
LINE
  5
1167
330
1E
100
AcDbEntity
  8
L1
 48
4.0
100
AcDbLine
 10
518.1228387588335
 20
-1226.091087423576
 30
0.0
 11
503.7117317599032
 21
-1226.091087423576
 31
0.0
  0
LINE
  5
1168
330
1E
100
AcDbEntity
  8
L2
 62
     3
 48
4.0
100
AcDbLine
 10
521.4172852593683
 20
-1230.123583722613
 30
0.0
 11
519.6852344517993
 21
-1229.123583722613
 31
0.0
  0
ARC
  5
1169
330
1E
100
AcDbEntity
  8
L1
 48
4.0
100
AcDbCircle
 10
525.4172852593683
 20
-1224.101083722614
 30
0.0
 40
2.0
100
AcDbArc
 50
90.0
 51
180.0
  0
LINE
  5
116A
330
1E
100
AcDbEntity
  8
L1
 48
4.0
100
AcDbLine
 10
518.1228387588335
 20
-1226.091087423576
 30
0.0
 11
518.4172852593683
 21
-1226.601083722613
 31
0.0
  0
LINE
  5
116B
330
1E
100
AcDbEntity
  8
L2
 62
     3
 48
4.0
100
AcDbLine
 10
523.4172852593683
 20
-1230.123583722613
 30
0.0
 11
521.4172852593683
 21
-1230.123583722613
 31
0.0
  0
LINE
  5
116C
330
1E
100
AcDbEntity
  8
L1
 48
4.0
100
AcDbLine
 10
523.4172852593683
 20
-1229.123583722614
 30
0.0
 11
518.4172852593683
 21
-1229.123583722613
 31
0.0
  0
LINE
  5
116D
330
1E
100
AcDbEntity
  8
L2
 62
     3
 48
4.0
100
AcDbLine
 10
503.4172852593683
 20
-1226.601083722614
 30
0.0
 11
501.4172852593683
 21
-1227.601083722614
 31
0.0
  0
LINE
  5
116E
330
1E
100
AcDbEntity
  8
L1
 48
4.0
100
AcDbLine
 10
503.7117317599032
 20
-1226.091087423576
 30
0.0
 11
503.4172852593683
 21
-1226.601083722613
 31
0.0
  0
LINE
  5
116F
330
1E
100
AcDbEntity
  8
L1
 48
4.0
100
AcDbLine
 10
487.4172852593683
 20
-1226.601083722614
 30
0.0
 11
487.4172852593683
 21
-1252.601083722614
 31
0.0
  0
LINE
  5
1170
330
1E
100
AcDbEntity
  8
L1
 48
4.0
100
AcDbLine
 10
486.4172852593683
 20
-1227.601083722614
 30
0.0
 11
486.4172852593683
 21
-1251.601083722614
 31
0.0
  0
LINE
  5
1171
330
1E
100
AcDbEntity
  8
L1
 48
4.0
100
AcDbLine
 10
486.4172852593683
 20
-1251.601083722614
 30
0.0
 11
487.4172852593683
 21
-1252.601083722614
 31
0.0
  0
LINE
  5
1172
330
1E
100
AcDbEntity
  8
L1
 48
4.0
100
AcDbLine
 10
487.4172852593683
 20
-1226.601083722614
 30
0.0
 11
486.4172852593683
 21
-1227.601083722614
 31
0.0
  0
ARC
  5
1173
330
1E
100
AcDbEntity
  8
L1
 48
4.0
100
AcDbCircle
 10
556.4172852593683
 20
-1162.601083722614
 30
0.0
 40
2.0
100
AcDbArc
 50
90.0
 51
180.0
  0
LINE
  5
1174
330
1E
100
AcDbEntity
  8
CEN
 48
4.0
100
AcDbLine
 10
559.4172852593683
 20
-1184.121162255288
 30
0.0
 11
559.4172852593683
 21
-1158.081005189939
 31
0.0
  0
LINE
  5
1175
330
1E
100
AcDbEntity
  8
L1
 48
4.0
100
AcDbLine
 10
534.4172852593683
 20
-1159.101083722613
 30
0.0
 11
534.4172852593683
 21
-1172.869032915045
 31
0.0
  0
ARC
  5
1176
330
1E
100
AcDbEntity
  8
L1
 48
4.0
100
AcDbCircle
 10
572.4172852593683
 20
-1162.601083722614
 30
0.0
 40
2.0
100
AcDbArc
 50
0.0
 51
90.0
  0
LINE
  5
1177
330
1E
100
AcDbEntity
  8
L1
 48
4.0
100
AcDbLine
 10
584.4172852593683
 20
-1159.101083722614
 30
0.0
 11
584.4172852593683
 21
-1172.601083722614
 31
0.0
  0
LINE
  5
1178
330
1E
100
AcDbEntity
  8
L1
 48
4.0
100
AcDbLine
 10
535.4172852593683
 20
-1172.601083722614
 30
0.0
 11
593.4172852593683
 21
-1172.601083722614
 31
0.0
  0
LINE
  5
1179
330
1E
100
AcDbEntity
  8
CEN
 48
4.0
100
AcDbLine
 10
572.4373637920421
 20
-1171.101083722614
 30
0.0
 11
546.3972067266932
 21
-1171.101083722614
 31
0.0
  0
LINE
  5
117A
330
1E
100
AcDbEntity
  8
L1
 48
4.0
100
AcDbLine
 10
574.4172852593683
 20
-1162.601083722614
 30
0.0
 11
574.4172852593683
 21
-1172.601083722614
 31
0.0
  0
LINE
  5
117B
330
1E
100
AcDbEntity
  8
L1
 48
4.0
100
AcDbLine
 10
533.4172852593683
 20
-1174.601083722614
 30
0.0
 11
533.4172852593683
 21
-1195.601083722613
 31
0.0
  0
LINE
  5
117C
330
1E
100
AcDbEntity
  8
L1
 48
4.0
100
AcDbLine
 10
549.4172852593683
 20
-1208.101083722614
 30
0.0
 11
539.4172852593683
 21
-1208.101083722614
 31
0.0
  0
LINE
  5
117D
330
1E
100
AcDbEntity
  8
L1
 48
4.0
100
AcDbLine
 10
554.4172852593683
 20
-1162.601083722614
 30
0.0
 11
554.4172852593674
 21
-1172.601083722614
 31
0.0
  0
ARC
  5
117E
330
1E
100
AcDbEntity
  8
L1
 48
4.0
100
AcDbCircle
 10
559.4172852593683
 20
-1171.101083722614
 30
0.0
 40
6.75
100
AcDbArc
 50
137.7945535962664
 51
192.8395884069003
  0
ARC
  5
117F
330
1E
100
AcDbEntity
  8
L1
 48
4.0
100
AcDbCircle
 10
535.4172852593683
 20
-1174.601083722614
 30
0.0
 40
2.0
100
AcDbArc
 50
90.0
 51
180.0
  0
ARC
  5
1180
102
{ACAD_REACTORS
330
124A
102
}
330
1E
100
AcDbEntity
  8
L1
 48
4.0
100
AcDbCircle
 10
547.8176163888261
 20
-1175.963810380641
 30
0.0
 40
53.8240651581513
100
AcDbArc
 50
75.36449799125455
 51
104.6355020087454
  0
LINE
  5
1181
102
{ACAD_REACTORS
330
124A
102
}
330
1E
100
AcDbEntity
  8
L1
 48
4.0
100
AcDbLine
 10
581.0169541299092
 20
-1122.139745222489
 30
0.0
 11
547.8176163888261
 21
-1122.139745222489
 31
0.0
  0
ARC
  5
1182
330
1E
100
AcDbEntity
  8
L1
 48
4.0
100
AcDbCircle
 10
547.8176163888261
 20
-1085.808560935199
 30
0.0
 40
53.8240651581513
100
AcDbArc
 50
255.3644979912546
 51
284.6355020087454
  0
LINE
  5
1183
330
1E
100
AcDbEntity
  8
L1
 48
4.0
100
AcDbLine
 10
556.4172852593683
 20
-1160.601083722614
 30
0.0
 11
572.4172852593683
 21
-1160.601083722614
 31
0.0
  0
LINE
  5
1184
330
1E
100
AcDbEntity
  8
L1
 48
4.0
100
AcDbLine
 10
581.0169541299092
 20
-1139.63262609335
 30
0.0
 11
547.8176163888261
 21
-1139.63262609335
 31
0.0
  0
LINE
  5
1185
330
1E
100
AcDbEntity
  8
L1
 48
4.0
100
AcDbLine
 10
567.4172852593683
 20
-1123.88618565792
 30
0.0
 11
567.4172852593683
 21
-1137.886185657919
 31
0.0
  0
LINE
  5
1186
330
1E
100
AcDbEntity
  8
L1
 48
4.0
100
AcDbLine
 10
561.4172852593683
 20
-1123.88618565792
 30
0.0
 11
561.4172852593683
 21
-1137.886185657919
 31
0.0
  0
LINE
  5
1187
330
1E
100
AcDbEntity
  8
L1
 48
4.0
100
AcDbLine
 10
569.4172852593683
 20
-1153.101083722613
 30
0.0
 11
578.4172852593683
 21
-1153.101083722613
 31
0.0
  0
LINE
  5
1188
330
1E
100
AcDbEntity
  8
L1
 48
4.0
100
AcDbLine
 10
578.4172852593683
 20
-1153.101083722613
 30
0.0
 11
584.4172852593683
 21
-1159.101083722614
 31
0.0
  0
LINE
  5
1189
330
1E
100
AcDbEntity
  8
L1
 48
4.0
100
AcDbLine
 10
569.4172852593683
 20
-1139.63262609335
 30
0.0
 11
569.4172852593683
 21
-1160.601083722614
 31
0.0
  0
LINE
  5
118A
330
1E
100
AcDbEntity
  8
L1
 48
4.0
100
AcDbLine
 10
561.4172852593683
 20
-1137.886185657919
 30
0.0
 11
567.4172852593683
 21
-1137.886185657919
 31
0.0
  0
LINE
  5
118B
330
1E
100
AcDbEntity
  8
L1
 48
4.0
100
AcDbLine
 10
561.4172852593683
 20
-1123.886185657919
 30
0.0
 11
567.4172852593683
 21
-1123.886185657919
 31
0.0
  0
ARC
  5
118C
330
1E
100
AcDbEntity
  8
L1
 48
4.0
100
AcDbCircle
 10
564.4172852593683
 20
-1130.886185657919
 30
0.0
 40
31.0
100
AcDbArc
 50
166.9496950603191
 51
193.0503049396809
  0
LINE
  5
118D
330
1E
100
AcDbEntity
  8
L1
 48
4.0
100
AcDbLine
 10
540.4172852593683
 20
-1153.101083722613
 30
0.0
 11
559.4172852593683
 21
-1153.101083722613
 31
0.0
  0
LINE
  5
118E
330
1E
100
AcDbEntity
  8
L1
 48
4.0
100
AcDbLine
 10
559.4172852593683
 20
-1139.63262609335
 30
0.0
 11
559.4172852593674
 21
-1160.601083722614
 31
0.0
  0
LINE
  5
118F
330
1E
100
AcDbEntity
  8
L1
 48
4.0
100
AcDbLine
 10
534.4172852593683
 20
-1159.101083722613
 30
0.0
 11
540.4172852593683
 21
-1153.101083722613
 31
0.0
  0
LINE
  5
1190
330
1E
100
AcDbEntity
  8
L1
 48
4.0
100
AcDbLine
 10
590.2210925938416
 20
-1714.467939613823
 30
0.0
 11
590.2210925938407
 21
-1848.267939613822
 31
0.0
  0
LINE
  5
1191
330
1E
100
AcDbEntity
  8
L1
 48
4.0
100
AcDbLine
 10
593.2210925938416
 20
-1711.467939613823
 30
0.0
 11
1094.22109259384
 21
-1711.467939613823
 31
0.0
  0
LINE
  5
1192
330
1E
100
AcDbEntity
  8
L1
 48
4.0
100
AcDbLine
 10
593.2210925938407
 20
-1851.267939613822
 30
0.0
 11
1187.22109259384
 21
-1851.267939613823
 31
0.0
  0
LINE
  5
1193
330
1E
100
AcDbEntity
  8
L1
 48
4.0
100
AcDbLine
 10
1126.22109259384
 20
-1711.467939613823
 30
0.0
 11
1187.22109259384
 21
-1711.467939613823
 31
0.0
  0
ARC
  5
1194
330
1E
100
AcDbEntity
  8
L1
 48
4.0
100
AcDbCircle
 10
593.2210925938416
 20
-1714.467939613823
 30
0.0
 40
3.0
100
AcDbArc
 50
90.0
 51
180.0
  0
ARC
  5
1195
330
1E
100
AcDbEntity
  8
L1
 48
4.0
100
AcDbCircle
 10
593.2210925938407
 20
-1848.267939613822
 30
0.0
 40
3.0
100
AcDbArc
 50
180.0
 51
270.0
  0
LINE
  5
1196
330
1E
100
AcDbEntity
  8
L1
 48
4.0
100
AcDbLine
 10
658.4172852593683
 20
-1186.201083722614
 30
0.0
 11
658.4172852593683
 21
-1230.101083722614
 31
0.0
  0
LINE
  5
1197
330
1E
100
AcDbEntity
  8
L1
 48
4.0
100
AcDbLine
 10
661.4172852593683
 20
-1183.201083722614
 30
0.0
 11
1255.417285259367
 21
-1183.201083722614
 31
0.0
  0
ARC
  5
1198
330
1E
100
AcDbEntity
  8
L1
 48
4.0
100
AcDbCircle
 10
661.4172852593683
 20
-1186.201083722614
 30
0.0
 40
3.0
100
AcDbArc
 50
90.0
 51
180.0
  0
LINE
  5
1199
330
1E
100
AcDbEntity
  8
L1
 48
4.0
100
AcDbLine
 10
661.4172852593674
 20
-1323.001083722613
 30
0.0
 11
1255.417285259367
 21
-1323.001083722613
 31
0.0
  0
ARC
  5
119A
330
1E
100
AcDbEntity
  8
L1
 48
4.0
100
AcDbCircle
 10
661.4172852593674
 20
-1320.001083722613
 30
0.0
 40
3.0
100
AcDbArc
 50
180.0
 51
270.0
  0
ARC
  5
119B
330
1E
100
AcDbEntity
  8
L1
 48
4.0
100
AcDbCircle
 10
1255.417285259367
 20
-1320.001083722614
 30
0.0
 40
3.0
100
AcDbArc
 50
270.0
 51
0.0
  0
ARC
  5
119C
330
1E
100
AcDbEntity
  8
L1
 48
4.0
100
AcDbCircle
 10
1255.417285259367
 20
-1186.201083722614
 30
0.0
 40
3.0
100
AcDbArc
 50
0.0
 51
90.0
  0
LINE
  5
119D
330
1E
100
AcDbEntity
  8
L1
 48
4.0
100
AcDbLine
 10
658.4172852593674
 20
-1276.101083722613
 30
0.0
 11
658.4172852593674
 21
-1320.001083722613
 31
0.0
  0
LINE
  5
11A0
330
1E
100
AcDbEntity
  8
L1
 48
4.0
100
AcDbLine
 10
540.4172852593683
 20
-1353.101083722614
 30
0.0
 11
534.4172852593683
 21
-1347.101083722614
 31
0.0
  0
DIMENSION
  5
11ED
102
{ACAD_XDICTIONARY
360
11FA
102
}
330
1E
100
AcDbEntity
  8
寸法
100
AcDbDimension
280
     0
  2
*D33
 10
491.2210925938415
 20
-1966.367939613823
 30
0.0
 11
842.2210925938409
 21
-1960.367939613823
 31
0.0
 70
    32
 71
     5
 42
701.9999999999987
 73
     0
 74
     0
 75
     0
  3
Standard
100
AcDbAlignedDimension
 13
1193.22109259384
 23
-1906.367939613823
 33
0.0
 14
491.2210925938415
 24
-1868.867939613823
 34
0.0
100
AcDbRotatedDimension
1001
ACAD
1000
DSTYLE
1002
{
1070
    41
1040
5.0
1070
   342
1005
543
1070
   176
1070
     1
1070
   177
1070
     1
1070
   178
1070
     1
1070
   271
1070
     0
1070
    43
1040
0.5
1070
    44
1040
0.5
1070
    42
1040
0.5
1070
   147
1040
1.0
1070
   341
1005
543
1070
    77
1070
     1
1070
   272
1070
     0
1070
    73
1070
     0
1070
   279
1070
     2
1070
    74
1070
     0
1070
   140
1040
12.0
1002
}
1001
ENABLE_CUSTOM_SPLIT
1070
     1
  0
DIMENSION
  5
11FC
102
{ACAD_XDICTIONARY
360
1209
102
}
330
1E
100
AcDbEntity
  8
寸法
100
AcDbDimension
280
     0
  2
*D34
 10
392.6326353257205
 20
-2006.367939613823
 30
0.0
 11
893.9267448765527
 21
-2000.367939613823
 31
0.0
 70
    32
 71
     5
 42
1002.588219101664
 73
     0
 74
     0
 75
     0
  3
Standard
100
AcDbAlignedDimension
 13
1395.220854427385
 23
-1607.867939613822
 33
0.0
 14
392.6326353257205
 24
-1637.947468547761
 34
0.0
100
AcDbRotatedDimension
1001
ACAD
1000
DSTYLE
1002
{
1070
    41
1040
5.0
1070
   342
1005
543
1070
   176
1070
     1
1070
   177
1070
     1
1070
   178
1070
     1
1070
   271
1070
     0
1070
    43
1040
0.5
1070
    44
1040
0.5
1070
    42
1040
0.5
1070
   147
1040
1.0
1070
   341
1005
543
1070
    77
1070
     1
1070
   272
1070
     0
1070
    73
1070
     0
1070
   279
1070
     2
1070
    74
1070
     0
1070
   140
1040
12.0
1002
}
1001
ENABLE_CUSTOM_SPLIT
1070
     1
  0
DIMENSION
  5
120B
102
{ACAD_XDICTIONARY
360
1218
102
}
330
1E
100
AcDbEntity
  8
寸法
100
AcDbDimension
280
     0
  2
*D35
 10
332.6326353257214
 20
-1868.867939613823
 30
0.0
 11
326.6326353257214
 21
-1724.296066355991
 31
0.0
 70
    32
  1
290^J
 71
     5
 42
289.1437465156637
 73
     0
 74
     0
 75
     0
  3
Standard
100
AcDbAlignedDimension
 13
608.2210925938416
 23
-1579.724193098159
 33
0.0
 14
466.2210925938414
 24
-1868.867939613823
 34
0.0
 50
90.0
100
AcDbRotatedDimension
1001
ACAD
1000
DSTYLE
1002
{
1070
    41
1040
5.0
1070
   342
1005
543
1070
   176
1070
     1
1070
   177
1070
     1
1070
   178
1070
     1
1070
   271
1070
     0
1070
    43
1040
0.5
1070
    44
1040
0.5
1070
    42
1040
0.5
1070
   147
1040
1.0
1070
   341
1005
543
1070
    77
1070
     1
1070
   272
1070
     0
1070
    73
1070
     0
1070
   279
1070
     2
1070
    74
1070
     0
1070
   140
1040
12.0
1002
}
1001
ENABLE_CUSTOM_SPLIT
1070
     1
  0
DIMENSION
  5
121D
102
{ACAD_XDICTIONARY
360
122A
102
}
330
1E
100
AcDbEntity
  8
寸法
100
AcDbDimension
280
     0
  2
*D36
 10
849.6860728304509
 20
-1851.267939613822
 30
0.0
 11
843.6860728304509
 21
-1781.367939613823
 31
0.0
 70
    32
  1
Φ140
 71
     5
 42
139.7999999999993
 73
     0
 74
     0
 75
     0
  3
Standard
100
AcDbAlignedDimension
 13
849.6860728304509
 23
-1711.467939613823
 33
0.0
 14
849.6860728304509
 24
-1851.267939613822
 34
0.0
 50
90.0
100
AcDbRotatedDimension
1001
ACAD
1000
DSTYLE
1002
{
1070
    41
1040
5.0
1070
   342
1005
543
1070
   176
1070
     1
1070
   177
1070
     1
1070
   178
1070
     1
1070
   271
1070
     0
1070
    43
1040
0.5
1070
    44
1040
0.5
1070
    42
1040
0.5
1070
   147
1040
1.0
1070
   341
1005
543
1070
    77
1070
     1
1070
   272
1070
     0
1070
    73
1070
     0
1070
   279
1070
     2
1070
    74
1070
     0
1070
   140
1040
12.0
1002
}
1001
ENABLE_CUSTOM_SPLIT
1070
     1
  0
DIMENSION
  5
122D
102
{ACAD_XDICTIONARY
360
123A
102
}
330
1E
100
AcDbEntity
  8
寸法
100
AcDbDimension
280
     0
  2
*D37
 10
400.8288279912472
 20
-1353.101083722614
 30
0.0
 11
394.8288279912472
 21
-1253.101083722614
 31
0.0
 70
    32
 71
     5
 42
200.0000000000002
 73
     0
 74
     0
 75
     0
  3
Standard
100
AcDbAlignedDimension
 13
540.4172852593683
 23
-1153.101083722613
 33
0.0
 14
540.4172852593683
 24
-1353.101083722614
 34
0.0
 50
90.0
100
AcDbRotatedDimension
1001
ACAD
1000
DSTYLE
1002
{
1070
    41
1040
5.0
1070
   342
1005
543
1070
   176
1070
     1
1070
   177
1070
     1
1070
   178
1070
     1
1070
   271
1070
     0
1070
    43
1040
0.5
1070
    44
1040
0.5
1070
    42
1040
0.5
1070
   147
1040
1.0
1070
   341
1005
543
1070
    77
1070
     1
1070
   272
1070
     0
1070
    73
1070
     0
1070
   279
1070
     2
1070
    74
1070
     0
1070
   140
1040
12.0
1002
}
1001
ENABLE_CUSTOM_SPLIT
1070
     1
  0
DIMENSION
  5
123C
102
{ACAD_XDICTIONARY
360
1249
102
}
330
1E
100
AcDbEntity
  8
寸法
100
AcDbDimension
280
     0
  2
*D38
 10
360.828827991248
 20
-1122.139745222489
 30
0.0
 11
354.828827991248
 21
-1287.139745222489
 31
0.0
 70
    32
 71
     5
 42
329.9999999999998
 73
     0
 74
     0
 75
     0
  3
Standard
100
AcDbAlignedDimension
 13
485.8288279912481
 23
-1452.139745222489
 33
0.0
 14
564.4172852593676
 24
-1122.139745222489
 34
0.0
 50
90.0
100
AcDbRotatedDimension
1001
ACAD
1000
DSTYLE
1002
{
1070
    41
1040
5.0
1070
   342
1005
543
1070
   176
1070
     1
1070
   177
1070
     1
1070
   178
1070
     1
1070
   271
1070
     0
1070
    43
1040
0.5
1070
    44
1040
0.5
1070
    42
1040
0.5
1070
   147
1040
1.0
1070
   341
1005
543
1070
    77
1070
     1
1070
   272
1070
     0
1070
    73
1070
     0
1070
   279
1070
     2
1070
    74
1070
     0
1070
   140
1040
12.0
1002
}
1001
ENABLE_CUSTOM_SPLIT
1070
     1
  0
ENDSEC
  0
SECTION
  2
OBJECTS
  0
DICTIONARY
  5
C
330
0
100
AcDbDictionary
281
     1
  3
ACAD_DETAILVIEWSTYLE
350
862
  3
ACAD_GROUP
350
D
  3
ACAD_LAYOUT
350
19
  3
ACAD_MATERIAL
350
B4F
  3
ACAD_MLEADERSTYLE
350
B55
  3
ACAD_MLINESTYLE
350
16
  3
ACAD_PLOTSETTINGS
350
18
  3
ACAD_PLOTSTYLENAME
350
E
  3
ACAD_SCALELIST
350
5DB
  3
ACAD_SECTIONVIEWSTYLE
350
863
  3
ACAD_TABLESTYLE
350
B53
  3
ACAD_VISUALSTYLE
350
B36
  3
ACDB_RECOMPOSE_DATA
350
1251
  3
AcDbVariableDictionary
350
5D0
  3
APPDATA
350
61D
  3
FX_DICT_DIMENSION_PALETTE
350
11EB
  3
FX_DICT_DIMENSION_PALETTE_RECENTLIST
350
121A
  0
DICTIONARY
  5
750
330
2
100
AcDbDictionary
280
     1
281
     1
  3
ACAD_LAYERSTATES
360
751
  0
DICTIONARY
  5
B33
330
1E
100
AcDbDictionary
280
     1
281
     1
  3
DIM_BOUNDING_BOXES_V1
360
B34
  0
DICTIONARY
  5
11FA
330
11ED
100
AcDbDictionary
280
     1
281
     1
  3
ACAD_CUSTOM_BREAKDATA
360
11FB
  0
DICTIONARY
  5
1209
330
11FC
100
AcDbDictionary
280
     1
281
     1
  3
ACAD_CUSTOM_BREAKDATA
360
120A
  0
DICTIONARY
  5
1218
330
120B
100
AcDbDictionary
280
     1
281
     1
  3
ACAD_CUSTOM_BREAKDATA
360
1219
  0
DICTIONARY
  5
122A
330
121D
100
AcDbDictionary
280
     1
281
     1
  3
ACAD_CUSTOM_BREAKDATA
360
122B
  0
DICTIONARY
  5
123A
330
122D
100
AcDbDictionary
280
     1
281
     1
  3
ACAD_CUSTOM_BREAKDATA
360
123B
  0
DICTIONARY
  5
1249
330
123C
100
AcDbDictionary
280
     1
281
     1
  3
ACAD_CUSTOM_BREAKDATA
360
124A
  0
DICTIONARY
  5
862
102
{ACAD_REACTORS
330
C
102
}
330
C
100
AcDbDictionary
281
     1
  0
DICTIONARY
  5
D
102
{ACAD_REACTORS
330
C
102
}
330
C
100
AcDbDictionary
281
     1
  0
DICTIONARY
  5
19
102
{ACAD_REACTORS
330
C
102
}
330
C
100
AcDbDictionary
281
     1
  3
Model
350
21
  3
ﾚｲｱｳﾄ1
350
1D
  0
DICTIONARY
  5
B4F
102
{ACAD_REACTORS
330
C
102
}
330
C
100
AcDbDictionary
281
     1
  3
ByBlock
350
B51
  3
ByLayer
350
B50
  3
Global
350
B52
  0
DICTIONARY
  5
B55
102
{ACAD_REACTORS
330
C
102
}
330
C
100
AcDbDictionary
281
     1
  3
Standard
350
B56
  0
DICTIONARY
  5
16
102
{ACAD_REACTORS
330
C
102
}
330
C
100
AcDbDictionary
281
     1
  3
Standard
350
17
  0
DICTIONARY
  5
18
102
{ACAD_REACTORS
330
C
102
}
330
C
100
AcDbDictionary
281
     1
  0
ACDBDICTIONARYWDFLT
  5
E
102
{ACAD_REACTORS
330
C
102
}
330
C
100
AcDbDictionary
281
     1
  3
Normal
350
F
100
AcDbDictionaryWithDefault
340
F
  0
DICTIONARY
  5
5DB
102
{ACAD_REACTORS
330
C
102
}
330
C
100
AcDbDictionary
281
     1
  3
A0
350
5DC
  3
A1
350
5DD
  3
A2
350
5DE
  3
A3
350
5DF
  3
A4
350
5E0
  3
A5
350
5E1
  3
A6
350
5E2
  3
A7
350
5E3
  3
A8
350
5E4
  3
A9
350
5E5
  3
B0
350
5E6
  3
B1
350
5E7
  3
B2
350
5E8
  3
B3
350
5E9
  3
B4
350
5EA
  3
B5
350
5EB
  3
B6
350
5EC
  3
B7
350
5ED
  3
B8
350
5EE
  3
B9
350
5EF
  3
C0
350
5F0
  3
C1
350
5F1
  3
C2
350
5F2
  3
C3
350
5F3
  3
C4
350
5F4
  3
C5
350
5F5
  3
C6
350
5F6
  3
C7
350
5F7
  3
C8
350
5F8
  3
C9
350
5F9
  3
D0
350
5FA
  3
D1
350
5FB
  3
D2
350
5FC
  0
DICTIONARY
  5
863
102
{ACAD_REACTORS
330
C
102
}
330
C
100
AcDbDictionary
281
     1
  0
DICTIONARY
  5
B53
102
{ACAD_REACTORS
330
C
102
}
330
C
100
AcDbDictionary
281
     1
  3
Standard
350
B54
  0
DICTIONARY
  5
B36
102
{ACAD_REACTORS
330
C
102
}
330
C
100
AcDbDictionary
281
     1
  3
2dWireframe
350
B3B
  3
Basic
350
B3E
  3
Brighten
350
B42
  3
ColorChange
350
B46
  3
Conceptual
350
B40
  3
Dim
350
B41
  3
EdgeColorOff
350
B49
  3
Facepattern
350
B45
  3
Flat
350
B37
  3
FlatWithEdges
350
B38
  3
Gouraud
350
B39
  3
GouraudWithEdges
350
B3A
  3
Hidden
350
B3D
  3
JitterOff
350
B47
  3
Linepattern
350
B44
  3
OverhangOff
350
B48
  3
Realistic
350
B3F
  3
Shaded
350
B4E
  3
Shaded with edges
350
B4D
  3
Shades of Gray
350
B4A
  3
Sketchy
350
B4B
  3
Thicken
350
B43
  3
Wireframe
350
B3C
  3
X-Ray
350
B4C
  0
XRECORD
  5
1251
102
{ACAD_REACTORS
330
C
102
}
330
C
100
AcDbXrecord
280
     1
 90
        1
330
B54
  0
DICTIONARY
  5
5D0
102
{ACAD_REACTORS
330
C
102
}
330
C
100
AcDbDictionary
281
     1
  3
CANNOSCALE
350
124B
  3
CMLEADERSTYLE
350
124D
  3
CTABLESTYLE
350
124C
  3
DIMASSOC
350
5D1
  3
MSLTSCALE
350
124E
  3
PROJECTNAME
350
5D2
  0
DICTIONARY
  5
61D
102
{ACAD_REACTORS
330
C
102
}
330
C
100
AcDbDictionary
281
     1
  0
DICTIONARY
  5
11EB
102
{ACAD_REACTORS
330
C
102
}
330
C
100
AcDbDictionary
281
     1
1001
FX_DIMP_FAV_VERSION
1071
        1
  0
DICTIONARY
  5
121A
102
{ACAD_REACTORS
330
C
102
}
330
C
100
AcDbDictionary
281
     1
  3
0
350
121C
  3
1
350
122C
1001
FX_DIMP_RECENT_VERSION
1071
        1
  0
DICTIONARY
  5
751
102
{ACAD_REACTORS
330
750
102
}
330
750
100
AcDbDictionary
281
     1
  0
DICTIONARY
  5
B34
102
{ACAD_REACTORS
330
B33
102
}
330
B33
100
AcDbDictionary
281
     1
  0
BREAKDATA
  5
11FB
102
{ACAD_REACTORS
330
11FA
102
}
330
11FA
100
AcDbBreakData
 70
     0
330
11ED
 90
        2
100
AcDbBreakPointRef
 71
     0
 72
     0
 91
       -1
 10
0.0
 20
0.0
 30
0.0
 11
0.0
 21
0.0
 31
0.0
331
F0D
 73
     2
 92
        0
100
AcDbBreakPointRef
 71
     0
 72
     0
 91
       -1
 10
0.0
 20
0.0
 30
0.0
 11
0.0
 21
0.0
 31
0.0
331
FBE
 73
     2
 92
        0
  0
BREAKDATA
  5
120A
102
{ACAD_REACTORS
330
1209
102
}
330
1209
100
AcDbBreakData
 70
     0
330
11FC
 90
        0
  0
BREAKDATA
  5
1219
102
{ACAD_REACTORS
330
1218
102
}
330
1218
100
AcDbBreakData
 70
     0
330
120B
 90
        0
  0
BREAKDATA
  5
122B
102
{ACAD_REACTORS
330
122A
102
}
330
122A
100
AcDbBreakData
 70
     0
330
121D
 90
        1
100
AcDbBreakPointRef
 71
     0
 72
     0
 91
       -1
 10
0.0
 20
0.0
 30
0.0
 11
0.0
 21
0.0
 31
0.0
331
F01
 73
     2
 92
        0
  0
BREAKDATA
  5
123B
102
{ACAD_REACTORS
330
123A
102
}
330
123A
100
AcDbBreakData
 70
     0
330
122D
 90
        4
100
AcDbBreakPointRef
 71
     0
 72
     0
 91
       -1
 10
0.0
 20
0.0
 30
0.0
 11
0.0
 21
0.0
 31
0.0
331
1000
 73
     2
 92
        0
100
AcDbBreakPointRef
 71
     0
 72
     0
 91
       -1
 10
0.0
 20
0.0
 30
0.0
 11
0.0
 21
0.0
 31
0.0
331
1002
 73
     2
 92
        0
100
AcDbBreakPointRef
 71
     0
 72
     0
 91
       -1
 10
0.0
 20
0.0
 30
0.0
 11
0.0
 21
0.0
 31
0.0
331
1001
 73
     2
 92
        0
100
AcDbBreakPointRef
 71
     0
 72
     0
 91
       -1
 10
0.0
 20
0.0
 30
0.0
 11
0.0
 21
0.0
 31
0.0
331
10AC
 73
     2
 92
        0
  0
BREAKDATA
  5
124A
102
{ACAD_REACTORS
330
1249
102
}
330
1249
100
AcDbBreakData
 70
     0
330
123C
 90
        2
100
AcDbBreakPointRef
 71
     0
 72
     0
 91
       -1
 10
0.0
 20
0.0
 30
0.0
 11
0.0
 21
0.0
 31
0.0
331
1180
 73
     2
 92
        0
100
AcDbBreakPointRef
 71
     0
 72
     0
 91
       -1
 10
0.0
 20
0.0
 30
0.0
 11
0.0
 21
0.0
 31
0.0
331
1181
 73
     2
 92
        0
  0
LAYOUT
  5
21
102
{ACAD_REACTORS
330
19
102
}
330
19
100
AcDbPlotSettings
  1

  2
\\SOUKO01\倉庫プリンタ
  4
A3
  6

 40
5.873749732971191
 41
5.873747825622558
 42
5.873748779296875
 43
5.873748779296875
 44
296.9259948730469
 45
419.9466552734374
 46
0.0
 47
2.45
 48
0.0
 49
0.0
140
0.0
141
0.0
142
1.0
143
3.124754461940232
 70
 11956
 72
     1
 73
     1
 74
     1
  7

 75
     0
 76
     0
 77
     2
 78
   300
147
0.3200251450730234
148
2970.180792573586
149
2100.127817405543
100
AcDbLayout
  1
Model
 70
     1
 71
     0
 10
0.0
 20
0.0
 11
12.0
 21
9.0
 12
0.0
 22
0.0
 32
0.0
 14
39.69100389040591
 24
-2206.40590397108
 34
0.0
 15
1964.278474808217
 25
-845.6057960190453
 35
0.0
146
0.0
 13
0.0
 23
0.0
 33
0.0
 16
1.0
 26
0.0
 36
0.0
 17
0.0
 27
1.0
 37
0.0
 76
     0
330
1E
331
5D3
  0
LAYOUT
  5
1D
102
{ACAD_REACTORS
330
19
102
}
330
19
100
AcDbPlotSettings
  1

  2
Canon LBP-2160
  4

  6

 40
0.0
 41
0.0
 42
0.0
 43
0.0
 44
0.0
 45
0.0
 46
0.0
 47
0.0
 48
0.0
 49
0.0
140
0.0
141
0.0
142
1.0
143
1.0
 70
   688
 72
     0
 73
     0
 74
     5
  7

 75
    16
 76
     0
 77
     2
 78
   300
147
1.0
148
0.0
149
0.0
100
AcDbLayout
  1
ﾚｲｱｳﾄ1
 70
     1
 71
     1
 10
0.0
 20
0.0
 11
12.0
 21
9.0
 12
0.0
 22
0.0
 32
0.0
 14
1.000000000000000E+20
 24
1.000000000000000E+20
 34
1.000000000000000E+20
 15
-1.000000000000000E+20
 25
-1.000000000000000E+20
 35
-1.000000000000000E+20
146
0.0
 13
0.0
 23
0.0
 33
0.0
 16
1.0
 26
0.0
 36
0.0
 17
0.0
 27
1.0
 37
0.0
 76
     0
330
1A
  0
MATERIAL
  5
B51
102
{ACAD_REACTORS
330
B4F
102
}
330
B4F
100
AcDbMaterial
  1
ByBlock
 72
     1
 94
      127
  0
MATERIAL
  5
B50
102
{ACAD_REACTORS
330
B4F
102
}
330
B4F
100
AcDbMaterial
  1
ByLayer
 72
     1
 94
      127
  0
MATERIAL
  5
B52
102
{ACAD_REACTORS
330
B4F
102
}
330
B4F
100
AcDbMaterial
  1
Global
 72
     1
 94
      127
  0
MLEADERSTYLE
  5
B56
102
{ACAD_REACTORS
330
B55
102
}
330
B55
100
AcDbMLeaderStyle
179
     2
170
     2
171
     1
172
     0
 90
        2
 40
0.0
 41
0.0
173
     1
 91
-1056964608
340
13
 92
       -2
290
     1
 42
0.09
291
     1
 43
0.36
  3
Standard
341
0
 44
0.18
300

342
11
174
     1
178
     1
175
     1
176
     0
 93
-1056964608
 45
0.18
292
     0
297
     0
 46
0.18
343
0
 94
-1056964608
 47
1.0
 49
1.0
140
1.0
293
     1
141
0.0
294
     1
177
     0
142
1.0
295
     0
296
     0
143
0.125
271
     0
272
     9
273
     9
298
     0
  0
MLINESTYLE
  5
17
102
{ACAD_REACTORS
330
16
102
}
330
16
100
AcDbMlineStyle
  2
STANDARD
 70
     0
  3

 62
   256
 51
90.0
 52
90.0
 71
     2
 49
0.5
 62
   256
  6
BYLAYER
 49
-0.5
 62
   256
  6
BYLAYER
  0
ACDBPLACEHOLDER
  5
F
102
{ACAD_REACTORS
330
E
102
}
330
E
  0
SCALE
  5
5DC
102
{ACAD_REACTORS
330
5DB
102
}
330
5DB
100
AcDbScale
 70
     0
300
1:1
140
1.0
141
1.0
290
     1
  0
SCALE
  5
5DD
102
{ACAD_REACTORS
330
5DB
102
}
330
5DB
100
AcDbScale
 70
     0
300
1:2
140
1.0
141
2.0
290
     0
  0
SCALE
  5
5DE
102
{ACAD_REACTORS
330
5DB
102
}
330
5DB
100
AcDbScale
 70
     0
300
1:4
140
1.0
141
4.0
290
     0
  0
SCALE
  5
5DF
102
{ACAD_REACTORS
330
5DB
102
}
330
5DB
100
AcDbScale
 70
     0
300
1:5
140
1.0
141
5.0
290
     0
  0
SCALE
  5
5E0
102
{ACAD_REACTORS
330
5DB
102
}
330
5DB
100
AcDbScale
 70
     0
300
1:8
140
1.0
141
8.0
290
     0
  0
SCALE
  5
5E1
102
{ACAD_REACTORS
330
5DB
102
}
330
5DB
100
AcDbScale
 70
     0
300
1:10
140
1.0
141
10.0
290
     0
  0
SCALE
  5
5E2
102
{ACAD_REACTORS
330
5DB
102
}
330
5DB
100
AcDbScale
 70
     0
300
1:16
140
1.0
141
16.0
290
     0
  0
SCALE
  5
5E3
102
{ACAD_REACTORS
330
5DB
102
}
330
5DB
100
AcDbScale
 70
     0
300
1:20
140
1.0
141
20.0
290
     0
  0
SCALE
  5
5E4
102
{ACAD_REACTORS
330
5DB
102
}
330
5DB
100
AcDbScale
 70
     0
300
1:30
140
1.0
141
30.0
290
     0
  0
SCALE
  5
5E5
102
{ACAD_REACTORS
330
5DB
102
}
330
5DB
100
AcDbScale
 70
     0
300
1:40
140
1.0
141
40.0
290
     0
  0
SCALE
  5
5E6
102
{ACAD_REACTORS
330
5DB
102
}
330
5DB
100
AcDbScale
 70
     0
300
1:50
140
1.0
141
50.0
290
     0
  0
SCALE
  5
5E7
102
{ACAD_REACTORS
330
5DB
102
}
330
5DB
100
AcDbScale
 70
     0
300
1:100
140
1.0
141
100.0
290
     0
  0
SCALE
  5
5E8
102
{ACAD_REACTORS
330
5DB
102
}
330
5DB
100
AcDbScale
 70
     0
300
2:1
140
2.0
141
1.0
290
     0
  0
SCALE
  5
5E9
102
{ACAD_REACTORS
330
5DB
102
}
330
5DB
100
AcDbScale
 70
     0
300
4:1
140
4.0
141
1.0
290
     0
  0
SCALE
  5
5EA
102
{ACAD_REACTORS
330
5DB
102
}
330
5DB
100
AcDbScale
 70
     0
300
8:1
140
8.0
141
1.0
290
     0
  0
SCALE
  5
5EB
102
{ACAD_REACTORS
330
5DB
102
}
330
5DB
100
AcDbScale
 70
     0
300
10:1
140
10.0
141
1.0
290
     0
  0
SCALE
  5
5EC
102
{ACAD_REACTORS
330
5DB
102
}
330
5DB
100
AcDbScale
 70
     0
300
100:1
140
100.0
141
1.0
290
     0
  0
SCALE
  5
5ED
102
{ACAD_REACTORS
330
5DB
102
}
330
5DB
100
AcDbScale
 70
     0
300
1/128" = 1'-0"
140
0.0078125
141
12.0
290
     0
  0
SCALE
  5
5EE
102
{ACAD_REACTORS
330
5DB
102
}
330
5DB
100
AcDbScale
 70
     0
300
1/64" = 1'-0"
140
0.015625
141
12.0
290
     0
  0
SCALE
  5
5EF
102
{ACAD_REACTORS
330
5DB
102
}
330
5DB
100
AcDbScale
 70
     0
300
1/32" = 1'-0"
140
0.03125
141
12.0
290
     0
  0
SCALE
  5
5F0
102
{ACAD_REACTORS
330
5DB
102
}
330
5DB
100
AcDbScale
 70
     0
300
1/16" = 1'-0"
140
0.0625
141
12.0
290
     0
  0
SCALE
  5
5F1
102
{ACAD_REACTORS
330
5DB
102
}
330
5DB
100
AcDbScale
 70
     0
300
3/32" = 1'-0"
140
0.09375
141
12.0
290
     0
  0
SCALE
  5
5F2
102
{ACAD_REACTORS
330
5DB
102
}
330
5DB
100
AcDbScale
 70
     0
300
1/8" = 1'-0"
140
0.125
141
12.0
290
     0
  0
SCALE
  5
5F3
102
{ACAD_REACTORS
330
5DB
102
}
330
5DB
100
AcDbScale
 70
     0
300
3/16" = 1'-0"
140
0.1875
141
12.0
290
     0
  0
SCALE
  5
5F4
102
{ACAD_REACTORS
330
5DB
102
}
330
5DB
100
AcDbScale
 70
     0
300
1/4" = 1'-0"
140
0.25
141
12.0
290
     0
  0
SCALE
  5
5F5
102
{ACAD_REACTORS
330
5DB
102
}
330
5DB
100
AcDbScale
 70
     0
300
3/8" = 1'-0"
140
0.375
141
12.0
290
     0
  0
SCALE
  5
5F6
102
{ACAD_REACTORS
330
5DB
102
}
330
5DB
100
AcDbScale
 70
     0
300
1/2" = 1'-0"
140
0.5
141
12.0
290
     0
  0
SCALE
  5
5F7
102
{ACAD_REACTORS
330
5DB
102
}
330
5DB
100
AcDbScale
 70
     0
300
3/4" = 1'-0"
140
0.75
141
12.0
290
     0
  0
SCALE
  5
5F8
102
{ACAD_REACTORS
330
5DB
102
}
330
5DB
100
AcDbScale
 70
     0
300
1" = 1'-0"
140
1.0
141
12.0
290
     0
  0
SCALE
  5
5F9
102
{ACAD_REACTORS
330
5DB
102
}
330
5DB
100
AcDbScale
 70
     0
300
1-1/2" = 1'-0"
140
1.5
141
12.0
290
     0
  0
SCALE
  5
5FA
102
{ACAD_REACTORS
330
5DB
102
}
330
5DB
100
AcDbScale
 70
     0
300
3" = 1'-0"
140
3.0
141
12.0
290
     0
  0
SCALE
  5
5FB
102
{ACAD_REACTORS
330
5DB
102
}
330
5DB
100
AcDbScale
 70
     0
300
6" = 1'-0"
140
6.0
141
12.0
290
     0
  0
SCALE
  5
5FC
102
{ACAD_REACTORS
330
5DB
102
}
330
5DB
100
AcDbScale
 70
     0
300
1'-0" = 1'-0"
140
12.0
141
12.0
290
     0
  0
TABLESTYLE
  5
B54
102
{ACAD_REACTORS
330
B53
102
}
102
{ACAD_XDICTIONARY
360
124F
102
}
330
B53
100
AcDbTableStyle
  3
Standard
 70
     0
 71
     0
 40
0.06
 41
0.06
280
     0
281
     0
  7
STANDARD
140
0.18
170
     2
 62
     0
 63
   257
283
     0
 90
        4
 91
        0
  1

274
    -2
284
     1
 64
     0
275
    -2
285
     1
 65
     0
276
    -2
286
     1
 66
     0
277
    -2
287
     1
 67
     0
278
    -2
288
     1
 68
     0
279
    -2
289
     1
 69
     0
  7
STANDARD
140
0.25
170
     5
 62
     0
 63
   257
283
     0
 90
        4
 91
        0
  1

274
    -2
284
     1
 64
     0
275
    -2
285
     1
 65
     0
276
    -2
286
     1
 66
     0
277
    -2
287
     1
 67
     0
278
    -2
288
     1
 68
     0
279
    -2
289
     1
 69
     0
  7
STANDARD
140
0.18
170
     5
 62
     0
 63
   257
283
     0
 90
        4
 91
        0
  1

274
    -2
284
     1
 64
     0
275
    -2
285
     1
 65
     0
276
    -2
286
     1
 66
     0
277
    -2
287
     1
 67
     0
278
    -2
288
     1
 68
     0
279
    -2
289
     1
 69
     0
  0
VISUALSTYLE
  5
B3B
102
{ACAD_REACTORS
330
B36
102
}
330
B36
100
AcDbVisualStyle
  2
2dWireframe
 70
     4
177
     3
291
     0
 70
    58
 90
        0
176
     1
 90
        2
176
     1
 90
        0
176
     1
 90
        0
176
     1
 40
0.6
176
     1
 40
30.0
176
     1
 62
     7
420
 16777215
176
     1
 90
        1
176
     1
 90
        4
176
     1
 62
     7
176
     1
 62
   257
176
     1
 90
        1
176
     1
 90
        1
176
     1
 40
1.0
176
     1
 90
        0
176
     1
 62
   257
176
     1
 40
1.0
176
     1
 90
        1
176
     1
 90
        6
176
     1
 90
        2
176
     1
 62
     7
176
     1
 90
        5
176
     1
 90
        0
176
     1
 90
        0
176
     1
290
     0
176
     1
 90
        1
176
     1
 40
0.0
176
     1
 90
        0
176
     1
290
     1
176
     1
290
     1
176
     1
290
     0
176
     1
290
     0
176
     1
290
     0
176
     1
290
     0
176
     1
290
     0
176
     1
290
     0
176
     1
290
     0
176
     1
 90
       50
176
     1
 40
0.0
176
     1
 40
1.0
176
     1
 90
        0
176
     1
 62
    18
420
        0
176
     1
 90
       50
176
     1
 90
        3
176
     1
 62
     5
420
      255
176
     1
290
     0
176
     1
 90
       50
176
     1
 90
       50
176
     1
 90
       50
176
     1
290
     0
176
     1
 90
       50
176
     1
 62
   256
176
     0
 40
1.0
176
     0
 90
        2
176
     1
  1
strokes_ogs.tif
176
     1
290
     0
176
     1
 40
1.0
176
     1
 40
1.0
176
     1
  0
VISUALSTYLE
  5
B3E
102
{ACAD_REACTORS
330
B36
102
}
330
B36
100
AcDbVisualStyle
  2
Basic
 70
     7
177
     3
291
     1
 70
    58
 90
        1
176
     1
 90
        0
176
     1
 90
        1
176
     1
 90
        0
176
     1
 40
0.6
176
     1
 40
30.0
176
     1
 62
     7
420
 16777215
176
     1
 90
        0
176
     1
 90
        4
176
     1
 62
     7
176
     1
 62
   257
176
     1
 90
        1
176
     1
 90
        1
176
     1
 40
1.0
176
     1
 90
        8
176
     1
 62
     7
176
     1
 40
1.0
176
     1
 90
        1
176
     1
 90
        6
176
     1
 90
        2
176
     1
 62
     7
176
     1
 90
        5
176
     1
 90
        0
176
     1
 90
        0
176
     1
290
     0
176
     1
 90
        1
176
     1
 40
0.0
176
     1
 90
        0
176
     1
290
     0
176
     1
290
     1
176
     1
290
     1
176
     1
290
     0
176
     1
290
     0
176
     1
290
     0
176
     1
290
     0
176
     1
290
     0
176
     1
290
     0
176
     1
 90
       50
176
     1
 40
0.0
176
     1
 40
1.0
176
     1
 90
        0
176
     1
 62
    18
420
        0
176
     1
 90
       50
176
     1
 90
        3
176
     1
 62
     5
420
      255
176
     1
290
     0
176
     1
 90
       50
176
     1
 90
       50
176
     1
 90
       50
176
     1
290
     0
176
     1
 90
       50
176
     1
 62
   256
176
     0
 40
1.0
176
     0
 90
        2
176
     1
  1
strokes_ogs.tif
176
     1
290
     0
176
     1
 40
1.0
176
     1
 40
1.0
176
     1
  0
VISUALSTYLE
  5
B42
102
{ACAD_REACTORS
330
B36
102
}
330
B36
100
AcDbVisualStyle
  2
Brighten
 70
    12
177
     3
291
     1
 70
    58
 90
        2
176
     1
 90
        2
176
     1
 90
        0
176
     1
 90
        0
176
     1
 40
0.6
176
     1
 40
30.0
176
     1
 62
     7
420
 16777215
176
     1
 90
        1
176
     1
 90
        4
176
     1
 62
     7
176
     1
 62
   257
176
     1
 90
        1
176
     1
 90
        1
176
     1
 40
1.0
176
     1
 90
        8
176
     1
 62
     7
176
     1
 40
1.0
176
     1
 90
        1
176
     1
 90
        6
176
     1
 90
        2
176
     1
 62
     7
176
     1
 90
        5
176
     1
 90
        0
176
     1
 90
        0
176
     1
290
     0
176
     1
 90
        1
176
     1
 40
50.0
176
     1
 90
        0
176
     1
290
     0
176
     1
290
     1
176
     1
290
     1
176
     1
290
     0
176
     1
290
     0
176
     1
290
     0
176
     1
290
     0
176
     1
290
     0
176
     1
290
     0
176
     1
 90
       50
176
     1
 40
0.0
176
     1
 40
1.0
176
     1
 90
        0
176
     1
 62
    18
420
        0
176
     1
 90
       50
176
     1
 90
        3
176
     1
 62
     5
420
      255
176
     1
290
     0
176
     1
 90
       50
176
     1
 90
       50
176
     1
 90
       50
176
     1
290
     0
176
     1
 90
       50
176
     1
 62
   256
176
     0
 40
1.0
176
     0
 90
        2
176
     1
  1
strokes_ogs.tif
176
     1
290
     0
176
     1
 40
1.0
176
     1
 40
1.0
176
     1
  0
VISUALSTYLE
  5
B46
102
{ACAD_REACTORS
330
B36
102
}
330
B36
100
AcDbVisualStyle
  2
ColorChange
 70
    16
177
     3
291
     1
 70
    58
 90
        2
176
     1
 90
        2
176
     1
 90
        3
176
     1
 90
        0
176
     1
 40
0.6
176
     1
 40
30.0
176
     1
 62
     8
420
  8421504
176
     1
 90
        1
176
     1
 90
        4
176
     1
 62
     7
176
     1
 62
   257
176
     1
 90
        1
176
     1
 90
        1
176
     1
 40
1.0
176
     1
 90
        8
176
     1
 62
     8
420
  8421504
176
     1
 40
1.0
176
     1
 90
        1
176
     1
 90
        6
176
     1
 90
        2
176
     1
 62
     7
176
     1
 90
        5
176
     1
 90
        0
176
     1
 90
        0
176
     1
290
     0
176
     1
 90
        1
176
     1
 40
0.0
176
     1
 90
        0
176
     1
290
     0
176
     1
290
     1
176
     1
290
     1
176
     1
290
     0
176
     1
290
     0
176
     1
290
     0
176
     1
290
     0
176
     1
290
     0
176
     1
290
     0
176
     1
 90
       50
176
     1
 40
0.0
176
     1
 40
1.0
176
     1
 90
        0
176
     1
 62
    18
420
        0
176
     1
 90
       50
176
     1
 90
        3
176
     1
 62
     5
420
      255
176
     1
290
     0
176
     1
 90
       50
176
     1
 90
       50
176
     1
 90
       50
176
     1
290
     0
176
     1
 90
       50
176
     1
 62
   256
176
     0
 40
1.0
176
     0
 90
        2
176
     1
  1
strokes_ogs.tif
176
     1
290
     0
176
     1
 40
1.0
176
     1
 40
1.0
176
     1
  0
VISUALSTYLE
  5
B40
102
{ACAD_REACTORS
330
B36
102
}
330
B36
100
AcDbVisualStyle
  2
Conceptual
 70
     9
177
     3
291
     0
 70
    58
 90
        3
176
     1
 90
        2
176
     1
 90
        0
176
     1
 90
        0
176
     1
 40
0.6
176
     1
 40
30.0
176
     1
 62
     7
420
 16777215
176
     1
 90
        2
176
     1
 90
        2
176
     1
 62
     7
176
     1
 62
   257
176
     1
 90
        1
176
     1
 90
        1
176
     1
 40
179.0
176
     1
 90
        8
176
     1
 62
     7
176
     1
 40
1.0
176
     1
 90
        1
176
     1
 90
        6
176
     1
 90
        2
176
     1
 62
     7
176
     1
 90
        3
176
     1
 90
        0
176
     1
 90
        0
176
     1
290
     0
176
     1
 90
        1
176
     1
 40
0.0
176
     1
 90
        0
176
     1
290
     0
176
     1
290
     1
176
     1
290
     1
176
     1
290
     0
176
     1
290
     0
176
     1
290
     0
176
     1
290
     0
176
     1
290
     0
176
     1
290
     0
176
     1
 90
       50
176
     1
 40
0.0
176
     1
 40
1.0
176
     1
 90
        0
176
     1
 62
    18
420
        0
176
     1
 90
       50
176
     1
 90
        3
176
     1
 62
     5
420
      255
176
     1
290
     0
176
     1
 90
       50
176
     1
 90
       50
176
     1
 90
       50
176
     1
290
     0
176
     1
 90
       50
176
     1
 62
   256
176
     0
 40
1.0
176
     0
 90
        2
176
     1
  1
strokes_ogs.tif
176
     1
290
     0
176
     1
 40
1.0
176
     1
 40
1.0
176
     1
  0
VISUALSTYLE
  5
B41
102
{ACAD_REACTORS
330
B36
102
}
330
B36
100
AcDbVisualStyle
  2
Dim
 70
    11
177
     3
291
     1
 70
    58
 90
        2
176
     1
 90
        2
176
     1
 90
        0
176
     1
 90
        0
176
     1
 40
0.6
176
     1
 40
30.0
176
     1
 62
     7
420
 16777215
176
     1
 90
        1
176
     1
 90
        4
176
     1
 62
     7
176
     1
 62
   257
176
     1
 90
        1
176
     1
 90
        1
176
     1
 40
1.0
176
     1
 90
        8
176
     1
 62
     7
176
     1
 40
1.0
176
     1
 90
        1
176
     1
 90
        6
176
     1
 90
        2
176
     1
 62
     7
176
     1
 90
        5
176
     1
 90
        0
176
     1
 90
        0
176
     1
290
     0
176
     1
 90
        1
176
     1
 40
-50.0
176
     1
 90
        0
176
     1
290
     0
176
     1
290
     1
176
     1
290
     1
176
     1
290
     0
176
     1
290
     0
176
     1
290
     0
176
     1
290
     0
176
     1
290
     0
176
     1
290
     0
176
     1
 90
       50
176
     1
 40
0.0
176
     1
 40
1.0
176
     1
 90
        0
176
     1
 62
    18
420
        0
176
     1
 90
       50
176
     1
 90
        3
176
     1
 62
     5
420
      255
176
     1
290
     0
176
     1
 90
       50
176
     1
 90
       50
176
     1
 90
       50
176
     1
290
     0
176
     1
 90
       50
176
     1
 62
   256
176
     0
 40
1.0
176
     0
 90
        2
176
     1
  1
strokes_ogs.tif
176
     1
290
     0
176
     1
 40
1.0
176
     1
 40
1.0
176
     1
  0
VISUALSTYLE
  5
B49
102
{ACAD_REACTORS
330
B36
102
}
330
B36
100
AcDbVisualStyle
  2
EdgeColorOff
 70
    22
177
     3
291
     1
 70
    58
 90
        2
176
     0
 90
        2
176
     0
 90
        0
176
     0
 90
        0
176
     0
 40
0.6
176
     0
 40
30.0
176
     0
 62
     7
420
 16777215
176
     0
 90
        1
176
     0
 90
        4
176
     0
 62
     7
176
     0
 62
   257
176
     0
 90
        1
176
     0
 90
        1
176
     0
 40
1.0
176
     0
 90
        8
176
     2
 62
     7
176
     0
 40
1.0
176
     0
 90
        1
176
     0
 90
        6
176
     0
 90
        2
176
     0
 62
     7
176
     0
 90
        5
176
     0
 90
        0
176
     0
 90
        0
176
     0
290
     0
176
     0
 90
        1
176
     0
 40
0.0
176
     0
 90
        0
176
     0
290
     0
176
     0
290
     1
176
     0
290
     1
176
     0
290
     0
176
     0
290
     0
176
     0
290
     0
176
     0
290
     0
176
     0
290
     0
176
     0
290
     0
176
     0
 90
       50
176
     0
 40
0.0
176
     0
 40
1.0
176
     0
 90
        0
176
     0
 62
    18
420
        0
176
     0
 90
       50
176
     0
 90
        3
176
     0
 62
     5
420
      255
176
     0
290
     0
176
     0
 90
       50
176
     0
 90
       50
176
     0
 90
       50
176
     0
290
     0
176
     0
 90
       50
176
     0
 62
   256
176
     0
 40
1.0
176
     0
 90
        2
176
     0
  1
strokes_ogs.tif
176
     0
290
     0
176
     0
 40
1.0
176
     0
 40
1.0
176
     0
  0
VISUALSTYLE
  5
B45
102
{ACAD_REACTORS
330
B36
102
}
330
B36
100
AcDbVisualStyle
  2
Facepattern
 70
    15
177
     3
291
     1
 70
    58
 90
        2
176
     1
 90
        2
176
     1
 90
        0
176
     1
 90
        0
176
     1
 40
0.6
176
     1
 40
30.0
176
     1
 62
     7
420
 16777215
176
     1
 90
        1
176
     1
 90
        4
176
     1
 62
     7
176
     1
 62
   257
176
     1
 90
        1
176
     1
 90
        1
176
     1
 40
1.0
176
     1
 90
        8
176
     1
 62
     7
176
     1
 40
1.0
176
     1
 90
        1
176
     1
 90
        6
176
     1
 90
        2
176
     1
 62
     7
176
     1
 90
        5
176
     1
 90
        0
176
     1
 90
        0
176
     1
290
     0
176
     1
 90
        1
176
     1
 40
0.0
176
     1
 90
        0
176
     1
290
     0
176
     1
290
     1
176
     1
290
     1
176
     1
290
     0
176
     1
290
     0
176
     1
290
     0
176
     1
290
     0
176
     1
290
     0
176
     1
290
     0
176
     1
 90
       50
176
     1
 40
0.0
176
     1
 40
1.0
176
     1
 90
        0
176
     1
 62
    18
420
        0
176
     1
 90
       50
176
     1
 90
        3
176
     1
 62
     5
420
      255
176
     1
290
     0
176
     1
 90
       50
176
     1
 90
       50
176
     1
 90
       50
176
     1
290
     0
176
     1
 90
       50
176
     1
 62
   256
176
     0
 40
1.0
176
     0
 90
        2
176
     1
  1
strokes_ogs.tif
176
     1
290
     0
176
     1
 40
1.0
176
     1
 40
1.0
176
     1
  0
VISUALSTYLE
  5
B37
102
{ACAD_REACTORS
330
B36
102
}
330
B36
100
AcDbVisualStyle
  2
Flat
 70
     0
177
     3
291
     1
 70
    58
 90
        2
176
     1
 90
        1
176
     1
 90
        1
176
     1
 90
        2
176
     1
 40
0.6
176
     1
 40
30.0
176
     1
 62
     7
420
 16777215
176
     1
 90
        0
176
     1
 90
        0
176
     1
 62
     7
176
     1
 62
   257
176
     1
 90
        1
176
     1
 90
        1
176
     1
 40
1.0
176
     1
 90
        8
176
     1
 62
     7
176
     1
 40
1.0
176
     1
 90
        1
176
     1
 90
        6
176
     1
 90
        2
176
     1
 62
     7
176
     1
 90
        5
176
     1
 90
        0
176
     1
 90
        0
176
     1
290
     0
176
     1
 90
       13
176
     1
 40
0.0
176
     1
 90
        0
176
     1
290
     0
176
     1
290
     1
176
     1
290
     1
176
     1
290
     0
176
     1
290
     0
176
     1
290
     0
176
     1
290
     0
176
     1
290
     0
176
     1
290
     0
176
     1
 90
       50
176
     1
 40
0.0
176
     1
 40
1.0
176
     1
 90
        0
176
     1
 62
    18
420
        0
176
     1
 90
       50
176
     1
 90
        3
176
     1
 62
     5
420
      255
176
     1
290
     0
176
     1
 90
       50
176
     1
 90
       50
176
     1
 90
       50
176
     1
290
     0
176
     1
 90
       50
176
     1
 62
   256
176
     0
 40
1.0
176
     0
 90
        2
176
     1
  1
strokes_ogs.tif
176
     1
290
     0
176
     1
 40
1.0
176
     1
 40
1.0
176
     1
  0
VISUALSTYLE
  5
B38
102
{ACAD_REACTORS
330
B36
102
}
330
B36
100
AcDbVisualStyle
  2
FlatWithEdges
 70
     1
177
     3
291
     1
 70
    58
 90
        2
176
     1
 90
        1
176
     1
 90
        1
176
     1
 90
        2
176
     1
 40
0.6
176
     1
 40
30.0
176
     1
 62
     7
420
 16777215
176
     1
 90
        1
176
     1
 90
        0
176
     1
 62
     7
176
     1
 62
   257
176
     1
 90
        1
176
     1
 90
        1
176
     1
 40
1.0
176
     1
 90
        0
176
     1
 62
   257
176
     1
 40
1.0
176
     1
 90
        1
176
     1
 90
        6
176
     1
 90
        2
176
     1
 62
     7
176
     1
 90
        5
176
     1
 90
        0
176
     1
 90
        0
176
     1
290
     0
176
     1
 90
       13
176
     1
 40
0.0
176
     1
 90
        0
176
     1
290
     0
176
     1
290
     1
176
     1
290
     1
176
     1
290
     0
176
     1
290
     0
176
     1
290
     0
176
     1
290
     0
176
     1
290
     0
176
     1
290
     0
176
     1
 90
       50
176
     1
 40
0.0
176
     1
 40
1.0
176
     1
 90
        0
176
     1
 62
    18
420
        0
176
     1
 90
       50
176
     1
 90
        3
176
     1
 62
     5
420
      255
176
     1
290
     0
176
     1
 90
       50
176
     1
 90
       50
176
     1
 90
       50
176
     1
290
     0
176
     1
 90
       50
176
     1
 62
   256
176
     0
 40
1.0
176
     0
 90
        2
176
     1
  1
strokes_ogs.tif
176
     1
290
     0
176
     1
 40
1.0
176
     1
 40
1.0
176
     1
  0
VISUALSTYLE
  5
B39
102
{ACAD_REACTORS
330
B36
102
}
330
B36
100
AcDbVisualStyle
  2
Gouraud
 70
     2
177
     3
291
     1
 70
    58
 90
        2
176
     1
 90
        2
176
     1
 90
        1
176
     1
 90
        2
176
     1
 40
0.6
176
     1
 40
30.0
176
     1
 62
     7
420
 16777215
176
     1
 90
        0
176
     1
 90
        0
176
     1
 62
     7
176
     1
 62
   257
176
     1
 90
        1
176
     1
 90
        1
176
     1
 40
1.0
176
     1
 90
        0
176
     1
 62
     7
176
     1
 40
1.0
176
     1
 90
        1
176
     1
 90
        6
176
     1
 90
        2
176
     1
 62
     7
176
     1
 90
        5
176
     1
 90
        0
176
     1
 90
        0
176
     1
290
     0
176
     1
 90
       13
176
     1
 40
0.0
176
     1
 90
        0
176
     1
290
     0
176
     1
290
     1
176
     1
290
     1
176
     1
290
     0
176
     1
290
     0
176
     1
290
     0
176
     1
290
     0
176
     1
290
     0
176
     1
290
     0
176
     1
 90
       50
176
     1
 40
0.0
176
     1
 40
1.0
176
     1
 90
        0
176
     1
 62
    18
420
        0
176
     1
 90
       50
176
     1
 90
        3
176
     1
 62
     5
420
      255
176
     1
290
     0
176
     1
 90
       50
176
     1
 90
       50
176
     1
 90
       50
176
     1
290
     0
176
     1
 90
       50
176
     1
 62
   256
176
     0
 40
1.0
176
     0
 90
        2
176
     1
  1
strokes_ogs.tif
176
     1
290
     0
176
     1
 40
1.0
176
     1
 40
1.0
176
     1
  0
VISUALSTYLE
  5
B3A
102
{ACAD_REACTORS
330
B36
102
}
330
B36
100
AcDbVisualStyle
  2
GouraudWithEdges
 70
     3
177
     3
291
     1
 70
    58
 90
        2
176
     1
 90
        2
176
     1
 90
        1
176
     1
 90
        2
176
     1
 40
0.6
176
     1
 40
30.0
176
     1
 62
     7
420
 16777215
176
     1
 90
        1
176
     1
 90
        0
176
     1
 62
     7
176
     1
 62
   257
176
     1
 90
        1
176
     1
 90
        1
176
     1
 40
1.0
176
     1
 90
        0
176
     1
 62
   257
176
     1
 40
1.0
176
     1
 90
        1
176
     1
 90
        6
176
     1
 90
        2
176
     1
 62
     7
176
     1
 90
        5
176
     1
 90
        0
176
     1
 90
        0
176
     1
290
     0
176
     1
 90
       13
176
     1
 40
0.0
176
     1
 90
        0
176
     1
290
     0
176
     1
290
     1
176
     1
290
     1
176
     1
290
     0
176
     1
290
     0
176
     1
290
     0
176
     1
290
     0
176
     1
290
     0
176
     1
290
     0
176
     1
 90
       50
176
     1
 40
0.0
176
     1
 40
1.0
176
     1
 90
        0
176
     1
 62
    18
420
        0
176
     1
 90
       50
176
     1
 90
        3
176
     1
 62
     5
420
      255
176
     1
290
     0
176
     1
 90
       50
176
     1
 90
       50
176
     1
 90
       50
176
     1
290
     0
176
     1
 90
       50
176
     1
 62
   256
176
     0
 40
1.0
176
     0
 90
        2
176
     1
  1
strokes_ogs.tif
176
     1
290
     0
176
     1
 40
1.0
176
     1
 40
1.0
176
     1
  0
VISUALSTYLE
  5
B3D
102
{ACAD_REACTORS
330
B36
102
}
330
B36
100
AcDbVisualStyle
  2
Hidden
 70
     6
177
     3
291
     0
 70
    58
 90
        1
176
     1
 90
        2
176
     1
 90
        2
176
     1
 90
        0
176
     1
 40
0.6
176
     1
 40
30.0
176
     1
 62
     7
420
 16777215
176
     1
 90
        2
176
     1
 90
        2
176
     1
 62
     7
176
     1
 62
   257
176
     1
 90
        2
176
     1
 90
        1
176
     1
 40
40.0
176
     1
 90
        0
176
     1
 62
   257
176
     1
 40
1.0
176
     1
 90
        1
176
     1
 90
        6
176
     1
 90
        2
176
     1
 62
     7
176
     1
 90
        3
176
     1
 90
        0
176
     1
 90
        0
176
     1
290
     0
176
     1
 90
        1
176
     1
 40
0.0
176
     1
 90
        0
176
     1
290
     0
176
     1
290
     1
176
     1
290
     1
176
     1
290
     0
176
     1
290
     0
176
     1
290
     0
176
     1
290
     0
176
     1
290
     0
176
     1
290
     0
176
     1
 90
       50
176
     1
 40
0.0
176
     1
 40
1.0
176
     1
 90
        0
176
     1
 62
    18
420
        0
176
     1
 90
       50
176
     1
 90
        3
176
     1
 62
     5
420
      255
176
     1
290
     0
176
     1
 90
       50
176
     1
 90
       50
176
     1
 90
       50
176
     1
290
     0
176
     1
 90
       50
176
     1
 62
   256
176
     0
 40
1.0
176
     0
 90
        2
176
     1
  1
strokes_ogs.tif
176
     1
290
     0
176
     1
 40
1.0
176
     1
 40
1.0
176
     1
  0
VISUALSTYLE
  5
B47
102
{ACAD_REACTORS
330
B36
102
}
330
B36
100
AcDbVisualStyle
  2
JitterOff
 70
    20
177
     3
291
     1
 70
    58
 90
        2
176
     0
 90
        2
176
     0
 90
        0
176
     0
 90
        0
176
     0
 40
0.6
176
     0
 40
30.0
176
     0
 62
     7
420
 16777215
176
     0
 90
        1
176
     0
 90
        4
176
     0
 62
     7
176
     0
 62
   257
176
     0
 90
        1
176
     0
 90
        1
176
     0
 40
1.0
176
     0
 90
       10
176
     2
 62
     7
176
     0
 40
1.0
176
     0
 90
        1
176
     0
 90
        6
176
     0
 90
        2
176
     0
 62
     7
176
     0
 90
        5
176
     0
 90
        0
176
     0
 90
        0
176
     0
290
     0
176
     0
 90
        1
176
     0
 40
0.0
176
     0
 90
        0
176
     0
290
     0
176
     0
290
     1
176
     0
290
     1
176
     0
290
     0
176
     0
290
     0
176
     0
290
     0
176
     0
290
     0
176
     0
290
     0
176
     0
290
     0
176
     0
 90
       50
176
     0
 40
0.0
176
     0
 40
1.0
176
     0
 90
        0
176
     0
 62
    18
420
        0
176
     0
 90
       50
176
     0
 90
        3
176
     0
 62
     5
420
      255
176
     0
290
     0
176
     0
 90
       50
176
     0
 90
       50
176
     0
 90
       50
176
     0
290
     0
176
     0
 90
       50
176
     0
 62
   256
176
     0
 40
1.0
176
     0
 90
        2
176
     0
  1
strokes_ogs.tif
176
     0
290
     0
176
     0
 40
1.0
176
     0
 40
1.0
176
     0
  0
VISUALSTYLE
  5
B44
102
{ACAD_REACTORS
330
B36
102
}
330
B36
100
AcDbVisualStyle
  2
Linepattern
 70
    14
177
     3
291
     1
 70
    58
 90
        2
176
     1
 90
        2
176
     1
 90
        0
176
     1
 90
        0
176
     1
 40
0.6
176
     1
 40
30.0
176
     1
 62
     7
420
 16777215
176
     1
 90
        1
176
     1
 90
        4
176
     1
 62
     7
176
     1
 62
   257
176
     1
 90
        7
176
     1
 90
        7
176
     1
 40
1.0
176
     1
 90
        8
176
     1
 62
     7
176
     1
 40
1.0
176
     1
 90
        1
176
     1
 90
        6
176
     1
 90
        2
176
     1
 62
     7
176
     1
 90
        5
176
     1
 90
        0
176
     1
 90
        0
176
     1
290
     0
176
     1
 90
        1
176
     1
 40
0.0
176
     1
 90
        0
176
     1
290
     0
176
     1
290
     1
176
     1
290
     1
176
     1
290
     0
176
     1
290
     0
176
     1
290
     0
176
     1
290
     0
176
     1
290
     0
176
     1
290
     0
176
     1
 90
       50
176
     1
 40
0.0
176
     1
 40
1.0
176
     1
 90
        0
176
     1
 62
    18
420
        0
176
     1
 90
       50
176
     1
 90
        3
176
     1
 62
     5
420
      255
176
     1
290
     0
176
     1
 90
       50
176
     1
 90
       50
176
     1
 90
       50
176
     1
290
     0
176
     1
 90
       50
176
     1
 62
   256
176
     0
 40
1.0
176
     0
 90
        2
176
     1
  1
strokes_ogs.tif
176
     1
290
     0
176
     1
 40
1.0
176
     1
 40
1.0
176
     1
  0
VISUALSTYLE
  5
B48
102
{ACAD_REACTORS
330
B36
102
}
330
B36
100
AcDbVisualStyle
  2
OverhangOff
 70
    21
177
     3
291
     1
 70
    58
 90
        2
176
     0
 90
        2
176
     0
 90
        0
176
     0
 90
        0
176
     0
 40
0.6
176
     0
 40
30.0
176
     0
 62
     7
420
 16777215
176
     0
 90
        1
176
     0
 90
        4
176
     0
 62
     7
176
     0
 62
   257
176
     0
 90
        1
176
     0
 90
        1
176
     0
 40
1.0
176
     0
 90
        9
176
     2
 62
     7
176
     0
 40
1.0
176
     0
 90
        1
176
     0
 90
        6
176
     0
 90
        2
176
     0
 62
     7
176
     0
 90
        5
176
     0
 90
        0
176
     0
 90
        0
176
     0
290
     0
176
     0
 90
        1
176
     0
 40
0.0
176
     0
 90
        0
176
     0
290
     0
176
     0
290
     1
176
     0
290
     1
176
     0
290
     0
176
     0
290
     0
176
     0
290
     0
176
     0
290
     0
176
     0
290
     0
176
     0
290
     0
176
     0
 90
       50
176
     0
 40
0.0
176
     0
 40
1.0
176
     0
 90
        0
176
     0
 62
    18
420
        0
176
     0
 90
       50
176
     0
 90
        3
176
     0
 62
     5
420
      255
176
     0
290
     0
176
     0
 90
       50
176
     0
 90
       50
176
     0
 90
       50
176
     0
290
     0
176
     0
 90
       50
176
     0
 62
   256
176
     0
 40
1.0
176
     0
 90
        2
176
     0
  1
strokes_ogs.tif
176
     0
290
     0
176
     0
 40
1.0
176
     0
 40
1.0
176
     0
  0
VISUALSTYLE
  5
B3F
102
{ACAD_REACTORS
330
B36
102
}
330
B36
100
AcDbVisualStyle
  2
Realistic
 70
     8
177
     3
291
     0
 70
    58
 90
        2
176
     1
 90
        3
176
     1
 90
        0
176
     1
 90
        2
176
     1
 40
0.6
176
     1
 40
30.0
176
     1
 62
     7
420
 16777215
176
     1
 90
        0
176
     1
 90
        0
176
     1
 62
     7
176
     1
 62
   257
176
     1
 90
        1
176
     1
 90
        1
176
     1
 40
1.0
176
     1
 90
        8
176
     1
 62
   257
176
     1
 40
1.0
176
     1
 90
        1
176
     1
 90
        6
176
     1
 90
        2
176
     1
 62
     7
176
     1
 90
        3
176
     1
 90
        0
176
     1
 90
        0
176
     1
290
     0
176
     1
 90
       13
176
     1
 40
0.0
176
     1
 90
        0
176
     1
290
     0
176
     1
290
     1
176
     1
290
     1
176
     1
290
     0
176
     1
290
     0
176
     1
290
     0
176
     1
290
     0
176
     1
290
     0
176
     1
290
     0
176
     1
 90
       50
176
     1
 40
0.0
176
     1
 40
1.0
176
     1
 90
        0
176
     1
 62
    18
420
        0
176
     1
 90
       50
176
     1
 90
        3
176
     1
 62
     5
420
      255
176
     1
290
     0
176
     1
 90
       50
176
     1
 90
       50
176
     1
 90
       50
176
     1
290
     0
176
     1
 90
       50
176
     1
 62
   256
176
     0
 40
1.0
176
     0
 90
        2
176
     1
  1
strokes_ogs.tif
176
     1
290
     0
176
     1
 40
1.0
176
     1
 40
1.0
176
     1
  0
VISUALSTYLE
  5
B4E
102
{ACAD_REACTORS
330
B36
102
}
330
B36
100
AcDbVisualStyle
  2
Shaded
 70
    27
177
     3
291
     0
 70
    58
 90
        2
176
     1
 90
        2
176
     1
 90
        1
176
     1
 90
        2
176
     1
 40
0.6
176
     1
 40
30.0
176
     1
 62
     7
420
 16777215
176
     1
 90
        0
176
     1
 90
        4
176
     1
 62
     7
176
     1
 62
   257
176
     1
 90
        1
176
     1
 90
        1
176
     1
 40
1.0
176
     1
 90
        8
176
     1
 62
   257
176
     1
 40
1.0
176
     1
 90
        1
176
     1
 90
        6
176
     1
 90
        2
176
     1
 62
     8
420
  7895160
176
     1
 90
        3
176
     1
 90
        0
176
     1
 90
        0
176
     1
290
     0
176
     1
 90
        5
176
     1
 40
0.0
176
     1
 90
        0
176
     1
290
     0
176
     1
290
     1
176
     1
290
     1
176
     1
290
     0
176
     1
290
     0
176
     1
290
     0
176
     1
290
     0
176
     1
290
     0
176
     1
290
     0
176
     1
 90
       50
176
     1
 40
0.0
176
     1
 40
1.0
176
     1
 90
        0
176
     1
 62
    18
420
        0
176
     1
 90
       50
176
     1
 90
        3
176
     1
 62
     5
420
      255
176
     1
290
     0
176
     1
 90
       50
176
     1
 90
       50
176
     1
 90
       50
176
     1
290
     0
176
     1
 90
       50
176
     1
 62
   256
176
     0
 40
1.0
176
     0
 90
        2
176
     1
  1
strokes_ogs.tif
176
     1
290
     0
176
     1
 40
1.0
176
     1
 40
1.0
176
     1
  0
VISUALSTYLE
  5
B4D
102
{ACAD_REACTORS
330
B36
102
}
330
B36
100
AcDbVisualStyle
  2
Shaded with edges
 70
    26
177
     3
291
     0
 70
    58
 90
        2
176
     1
 90
        2
176
     1
 90
        1
176
     1
 90
        2
176
     1
 40
0.6
176
     1
 40
30.0
176
     1
 62
     7
420
 16777215
176
     1
 90
        1
176
     1
 90
       10
176
     1
 62
     7
176
     1
 62
   257
176
     1
 90
        2
176
     1
 90
        1
176
     1
 40
1.0
176
     1
 90
        8
176
     1
 62
   257
176
     1
 40
1.0
176
     1
 90
        1
176
     1
 90
        6
176
     1
 90
        2
176
     1
 62
     7
176
     1
 90
        3
176
     1
 90
        0
176
     1
 90
        0
176
     1
290
     0
176
     1
 90
        5
176
     1
 40
0.0
176
     1
 90
        0
176
     1
290
     0
176
     1
290
     1
176
     1
290
     1
176
     1
290
     0
176
     1
290
     0
176
     1
290
     0
176
     1
290
     0
176
     1
290
     0
176
     1
290
     0
176
     1
 90
       50
176
     1
 40
0.0
176
     1
 40
1.0
176
     1
 90
        0
176
     1
 62
    18
420
        0
176
     1
 90
       50
176
     1
 90
        3
176
     1
 62
     5
420
      255
176
     1
290
     0
176
     1
 90
       50
176
     1
 90
       50
176
     1
 90
       50
176
     1
290
     0
176
     1
 90
       50
176
     1
 62
   256
176
     0
 40
1.0
176
     0
 90
        2
176
     1
  1
strokes_ogs.tif
176
     1
290
     0
176
     1
 40
1.0
176
     1
 40
1.0
176
     1
  0
VISUALSTYLE
  5
B4A
102
{ACAD_REACTORS
330
B36
102
}
330
B36
100
AcDbVisualStyle
  2
Shades of Gray
 70
    23
177
     3
291
     0
 70
    58
 90
        2
176
     1
 90
        2
176
     1
 90
        3
176
     1
 90
        0
176
     1
 40
0.6
176
     1
 40
30.0
176
     1
 62
     7
420
 16777215
176
     1
 90
        2
176
     1
 90
        2
176
     1
 62
     7
176
     1
 62
     7
176
     1
 90
        1
176
     1
 90
        1
176
     1
 40
40.0
176
     1
 90
        8
176
     1
 62
     7
176
     1
 40
1.0
176
     1
 90
        1
176
     1
 90
        6
176
     1
 90
        2
176
     1
 62
     7
176
     1
 90
        3
176
     1
 90
        0
176
     1
 90
        0
176
     1
290
     0
176
     1
 90
        1
176
     1
 40
0.0
176
     1
 90
        0
176
     1
290
     0
176
     1
290
     1
176
     1
290
     1
176
     1
290
     0
176
     1
290
     0
176
     1
290
     0
176
     1
290
     0
176
     1
290
     0
176
     1
290
     0
176
     1
 90
       50
176
     1
 40
0.0
176
     1
 40
1.0
176
     1
 90
        0
176
     1
 62
    18
420
        0
176
     1
 90
       50
176
     1
 90
        3
176
     1
 62
     5
420
      255
176
     1
290
     0
176
     1
 90
       50
176
     1
 90
       50
176
     1
 90
       50
176
     1
290
     0
176
     1
 90
       50
176
     1
 62
   256
176
     0
 40
1.0
176
     0
 90
        2
176
     1
  1
strokes_ogs.tif
176
     1
290
     0
176
     1
 40
1.0
176
     1
 40
1.0
176
     1
  0
VISUALSTYLE
  5
B4B
102
{ACAD_REACTORS
330
B36
102
}
330
B36
100
AcDbVisualStyle
  2
Sketchy
 70
    24
177
     3
291
     0
 70
    58
 90
        1
176
     1
 90
        2
176
     1
 90
        2
176
     1
 90
        0
176
     1
 40
0.6
176
     1
 40
30.0
176
     1
 62
     7
420
 16777215
176
     1
 90
        2
176
     1
 90
        2
176
     1
 62
     7
176
     1
 62
     7
176
     1
 90
        1
176
     1
 90
        1
176
     1
 40
40.0
176
     1
 90
       11
176
     1
 62
     7
176
     1
 40
1.0
176
     1
 90
        1
176
     1
 90
        6
176
     1
 90
        2
176
     1
 62
     7
176
     1
 90
        6
176
     1
 90
        0
176
     1
 90
        0
176
     1
290
     0
176
     1
 90
        1
176
     1
 40
0.0
176
     1
 90
        0
176
     1
290
     0
176
     1
290
     1
176
     1
290
     1
176
     1
290
     0
176
     1
290
     0
176
     1
290
     0
176
     1
290
     0
176
     1
290
     0
176
     1
290
     0
176
     1
 90
       50
176
     1
 40
0.0
176
     1
 40
1.0
176
     1
 90
        0
176
     1
 62
    18
420
        0
176
     1
 90
       50
176
     1
 90
        3
176
     1
 62
     5
420
      255
176
     1
290
     0
176
     1
 90
       50
176
     1
 90
       50
176
     1
 90
       50
176
     1
290
     0
176
     1
 90
       50
176
     1
 62
   256
176
     0
 40
1.0
176
     0
 90
        2
176
     1
  1
strokes_ogs.tif
176
     1
290
     0
176
     1
 40
1.0
176
     1
 40
1.0
176
     1
  0
VISUALSTYLE
  5
B43
102
{ACAD_REACTORS
330
B36
102
}
330
B36
100
AcDbVisualStyle
  2
Thicken
 70
    13
177
     3
291
     1
 70
    58
 90
        2
176
     1
 90
        2
176
     1
 90
        0
176
     1
 90
        0
176
     1
 40
0.6
176
     1
 40
30.0
176
     1
 62
     7
420
 16777215
176
     1
 90
        1
176
     1
 90
        4
176
     1
 62
     7
176
     1
 62
   257
176
     1
 90
        1
176
     1
 90
        1
176
     1
 40
1.0
176
     1
 90
       12
176
     1
 62
     7
176
     1
 40
1.0
176
     1
 90
        1
176
     1
 90
        6
176
     1
 90
        2
176
     1
 62
     7
176
     1
 90
        5
176
     1
 90
        0
176
     1
 90
        0
176
     1
290
     0
176
     1
 90
        1
176
     1
 40
0.0
176
     1
 90
        0
176
     1
290
     0
176
     1
290
     1
176
     1
290
     1
176
     1
290
     0
176
     1
290
     0
176
     1
290
     0
176
     1
290
     0
176
     1
290
     0
176
     1
290
     0
176
     1
 90
       50
176
     1
 40
0.0
176
     1
 40
1.0
176
     1
 90
        0
176
     1
 62
    18
420
        0
176
     1
 90
       50
176
     1
 90
        3
176
     1
 62
     5
420
      255
176
     1
290
     0
176
     1
 90
       50
176
     1
 90
       50
176
     1
 90
       50
176
     1
290
     0
176
     1
 90
       50
176
     1
 62
   256
176
     0
 40
1.0
176
     0
 90
        2
176
     1
  1
strokes_ogs.tif
176
     1
290
     0
176
     1
 40
1.0
176
     1
 40
1.0
176
     1
  0
VISUALSTYLE
  5
B3C
102
{ACAD_REACTORS
330
B36
102
}
330
B36
100
AcDbVisualStyle
  2
Wireframe
 70
     5
177
     3
291
     0
 70
    58
 90
        0
176
     1
 90
        2
176
     1
 90
        0
176
     1
 90
        0
176
     1
 40
0.6
176
     1
 40
30.0
176
     1
 62
     7
420
 16777215
176
     1
 90
        1
176
     1
 90
        4
176
     1
 62
     7
176
     1
 62
   257
176
     1
 90
        1
176
     1
 90
        1
176
     1
 40
1.0
176
     1
 90
        0
176
     1
 62
   257
176
     1
 40
1.0
176
     1
 90
        1
176
     1
 90
        6
176
     1
 90
        2
176
     1
 62
     7
176
     1
 90
        3
176
     1
 90
        0
176
     1
 90
        0
176
     1
290
     0
176
     1
 90
        1
176
     1
 40
0.0
176
     1
 90
        0
176
     1
290
     0
176
     1
290
     1
176
     1
290
     1
176
     1
290
     0
176
     1
290
     0
176
     1
290
     0
176
     1
290
     0
176
     1
290
     0
176
     1
290
     0
176
     1
 90
       50
176
     1
 40
0.0
176
     1
 40
1.0
176
     1
 90
        0
176
     1
 62
    18
420
        0
176
     1
 90
       50
176
     1
 90
        3
176
     1
 62
     5
420
      255
176
     1
290
     0
176
     1
 90
       50
176
     1
 90
       50
176
     1
 90
       50
176
     1
290
     0
176
     1
 90
       50
176
     1
 62
   256
176
     0
 40
1.0
176
     0
 90
        2
176
     1
  1
strokes_ogs.tif
176
     1
290
     0
176
     1
 40
1.0
176
     1
 40
1.0
176
     1
  0
VISUALSTYLE
  5
B4C
102
{ACAD_REACTORS
330
B36
102
}
330
B36
100
AcDbVisualStyle
  2
X-Ray
 70
    25
177
     3
291
     0
 70
    58
 90
        2
176
     1
 90
        2
176
     1
 90
        1
176
     1
 90
        1
176
     1
 40
0.5
176
     1
 40
30.0
176
     1
 62
     7
420
 16777215
176
     1
 90
        1
176
     1
 90
        0
176
     1
 62
     7
176
     1
 62
   257
176
     1
 90
        1
176
     1
 90
        1
176
     1
 40
1.0
176
     1
 90
        8
176
     1
 62
     7
176
     1
 40
1.0
176
     1
 90
        1
176
     1
 90
        6
176
     1
 90
        2
176
     1
 62
     7
176
     1
 90
        3
176
     1
 90
        0
176
     1
 90
        0
176
     1
290
     0
176
     1
 90
       13
176
     1
 40
0.0
176
     1
 90
        0
176
     1
290
     0
176
     1
290
     1
176
     1
290
     1
176
     1
290
     0
176
     1
290
     0
176
     1
290
     0
176
     1
290
     0
176
     1
290
     0
176
     1
290
     0
176
     1
 90
       50
176
     1
 40
0.0
176
     1
 40
1.0
176
     1
 90
        0
176
     1
 62
    18
420
        0
176
     1
 90
       50
176
     1
 90
        3
176
     1
 62
     5
420
      255
176
     1
290
     0
176
     1
 90
       50
176
     1
 90
       50
176
     1
 90
       50
176
     1
290
     0
176
     1
 90
       50
176
     1
 62
   256
176
     0
 40
1.0
176
     0
 90
        2
176
     1
  1
strokes_ogs.tif
176
     1
290
     0
176
     1
 40
1.0
176
     1
 40
1.0
176
     1
  0
DICTIONARYVAR
  5
124B
102
{ACAD_REACTORS
330
5D0
102
}
330
5D0
100
DictionaryVariables
280
     0
  1
1:1
  0
DICTIONARYVAR
  5
124D
102
{ACAD_REACTORS
330
5D0
102
}
330
5D0
100
DictionaryVariables
280
     0
  1
Standard
  0
DICTIONARYVAR
  5
124C
102
{ACAD_REACTORS
330
5D0
102
}
330
5D0
100
DictionaryVariables
280
     0
  1
Standard
  0
DICTIONARYVAR
  5
5D1
102
{ACAD_REACTORS
330
5D0
102
}
330
5D0
100
DictionaryVariables
280
     0
  1
1
  0
DICTIONARYVAR
  5
124E
102
{ACAD_REACTORS
330
5D0
102
}
330
5D0
100
DictionaryVariables
280
     0
  1
0
  0
DICTIONARYVAR
  5
5D2
102
{ACAD_REACTORS
330
5D0
102
}
330
5D0
100
DictionaryVariables
280
     0
  1

  0
XRECORD
  5
121C
102
{ACAD_REACTORS
330
121A
102
}
330
121A
100
AcDbXrecord
280
     1
  2

  2

  2

 40
0.0
 40
0.0
 90
        2
 40
289.1437465156637
 90
        0
 90
        0
 90
        0
 90
        5
  2

  2

  2

  2

290
     1
290
     0
  2
0
  2
290^J
  0
XRECORD
  5
122C
102
{ACAD_REACTORS
330
121A
102
}
330
121A
100
AcDbXrecord
280
     1
  2

  2

  2

 40
0.0
 40
0.0
 90
        2
 40
139.7999999999993
 90
        0
 90
        0
 90
        0
 90
        5
  2

  2

  2

  2

290
     1
290
     0
  2
1
  2
Φ140
  0
DICTIONARY
  5
124F
330
B54
100
AcDbDictionary
280
     1
281
     1
  3
ACAD_ROUNDTRIP_2008_TABLESTYLE_CELLSTYLEMAP
360
1250
  0
CELLSTYLEMAP
  5
1250
102
{ACAD_REACTORS
330
124F
102
}
330
124F
100
AcDbCellStyleMap
 90
        3
300
CELLSTYLE
  1
TABLEFORMAT_BEGIN
 90
        5
170
     1
 91
        0
 92
    32768
 62
   257
 93
        1
300
CONTENTFORMAT
  1
CONTENTFORMAT_BEGIN
 90
        0
 91
        0
 92
        4
 93
        0
300

 40
0.0
140
1.0
 94
        5
 62
     0
340
11
144
0.25
309
CONTENTFORMAT_END
171
     1
301
MARGIN
  1
CELLMARGIN_BEGIN
 40
0.06
 40
0.06
 40
0.06
 40
0.06
 40
0.06
 40
0.06
309
CELLMARGIN_END
 94
        6
 95
        1
302
GRIDFORMAT
  1
GRIDFORMAT_BEGIN
 90
        0
 91
        1
 62
     0
 92
       -2
340
13
 93
        0
 40
0.045
309
GRIDFORMAT_END
 95
        2
302
GRIDFORMAT
  1
GRIDFORMAT_BEGIN
 90
        0
 91
        1
 62
     0
 92
       -2
340
13
 93
        0
 40
0.045
309
GRIDFORMAT_END
 95
        4
302
GRIDFORMAT
  1
GRIDFORMAT_BEGIN
 90
        0
 91
        1
 62
     0
 92
       -2
340
13
 93
        0
 40
0.045
309
GRIDFORMAT_END
 95
        8
302
GRIDFORMAT
  1
GRIDFORMAT_BEGIN
 90
        0
 91
        1
 62
     0
 92
       -2
340
13
 93
        0
 40
0.045
309
GRIDFORMAT_END
 95
       16
302
GRIDFORMAT
  1
GRIDFORMAT_BEGIN
 90
        0
 91
        1
 62
     0
 92
       -2
340
13
 93
        0
 40
0.045
309
GRIDFORMAT_END
 95
       32
302
GRIDFORMAT
  1
GRIDFORMAT_BEGIN
 90
        0
 91
        1
 62
     0
 92
       -2
340
13
 93
        0
 40
0.045
309
GRIDFORMAT_END
309
TABLEFORMAT_END
  1
CELLSTYLE_BEGIN
 90
        1
 91
        1
300
_TITLE
309
CELLSTYLE_END
300
CELLSTYLE
  1
TABLEFORMAT_BEGIN
 90
        5
170
     1
 91
        0
 92
        0
 62
   257
 93
        1
300
CONTENTFORMAT
  1
CONTENTFORMAT_BEGIN
 90
        0
 91
        0
 92
        4
 93
        0
300

 40
0.0
140
1.0
 94
        5
 62
     0
340
11
144
0.18
309
CONTENTFORMAT_END
171
     1
301
MARGIN
  1
CELLMARGIN_BEGIN
 40
0.06
 40
0.06
 40
0.06
 40
0.06
 40
0.06
 40
0.06
309
CELLMARGIN_END
 94
        6
 95
        1
302
GRIDFORMAT
  1
GRIDFORMAT_BEGIN
 90
        0
 91
        1
 62
     0
 92
       -2
340
13
 93
        0
 40
0.045
309
GRIDFORMAT_END
 95
        2
302
GRIDFORMAT
  1
GRIDFORMAT_BEGIN
 90
        0
 91
        1
 62
     0
 92
       -2
340
13
 93
        0
 40
0.045
309
GRIDFORMAT_END
 95
        4
302
GRIDFORMAT
  1
GRIDFORMAT_BEGIN
 90
        0
 91
        1
 62
     0
 92
       -2
340
13
 93
        0
 40
0.045
309
GRIDFORMAT_END
 95
        8
302
GRIDFORMAT
  1
GRIDFORMAT_BEGIN
 90
        0
 91
        1
 62
     0
 92
       -2
340
13
 93
        0
 40
0.045
309
GRIDFORMAT_END
 95
       16
302
GRIDFORMAT
  1
GRIDFORMAT_BEGIN
 90
        0
 91
        1
 62
     0
 92
       -2
340
13
 93
        0
 40
0.045
309
GRIDFORMAT_END
 95
       32
302
GRIDFORMAT
  1
GRIDFORMAT_BEGIN
 90
        0
 91
        1
 62
     0
 92
       -2
340
13
 93
        0
 40
0.045
309
GRIDFORMAT_END
309
TABLEFORMAT_END
  1
CELLSTYLE_BEGIN
 90
        2
 91
        1
300
_HEADER
309
CELLSTYLE_END
300
CELLSTYLE
  1
TABLEFORMAT_BEGIN
 90
        5
170
     1
 91
        0
 92
        0
 62
   257
 93
        1
300
CONTENTFORMAT
  1
CONTENTFORMAT_BEGIN
 90
        0
 91
        0
 92
        4
 93
        0
300

 40
0.0
140
1.0
 94
        2
 62
     0
340
11
144
0.18
309
CONTENTFORMAT_END
171
     1
301
MARGIN
  1
CELLMARGIN_BEGIN
 40
0.06
 40
0.06
 40
0.06
 40
0.06
 40
0.06
 40
0.06
309
CELLMARGIN_END
 94
        6
 95
        1
302
GRIDFORMAT
  1
GRIDFORMAT_BEGIN
 90
        0
 91
        1
 62
     0
 92
       -2
340
13
 93
        0
 40
0.045
309
GRIDFORMAT_END
 95
        2
302
GRIDFORMAT
  1
GRIDFORMAT_BEGIN
 90
        0
 91
        1
 62
     0
 92
       -2
340
13
 93
        0
 40
0.045
309
GRIDFORMAT_END
 95
        4
302
GRIDFORMAT
  1
GRIDFORMAT_BEGIN
 90
        0
 91
        1
 62
     0
 92
       -2
340
13
 93
        0
 40
0.045
309
GRIDFORMAT_END
 95
        8
302
GRIDFORMAT
  1
GRIDFORMAT_BEGIN
 90
        0
 91
        1
 62
     0
 92
       -2
340
13
 93
        0
 40
0.045
309
GRIDFORMAT_END
 95
       16
302
GRIDFORMAT
  1
GRIDFORMAT_BEGIN
 90
        0
 91
        1
 62
     0
 92
       -2
340
13
 93
        0
 40
0.045
309
GRIDFORMAT_END
 95
       32
302
GRIDFORMAT
  1
GRIDFORMAT_BEGIN
 90
        0
 91
        1
 62
     0
 92
       -2
340
13
 93
        0
 40
0.045
309
GRIDFORMAT_END
309
TABLEFORMAT_END
  1
CELLSTYLE_BEGIN
 90
        3
 91
        2
300
_DATA
309
CELLSTYLE_END
  0
ENDSEC
  0
EOF
