  0
SECTION
  2
HEADER
  9
$ACADVER
  1
AC1015
  9
$ACADMAINTVER
 70
     6
  9
$DWGCODEPAGE
  3
ANSI_932
  9
$INSBASE
 10
0.0
 20
0.0
 30
0.0
  9
$EXTMIN
 10
-1506.443678879089
 20
-2235.154623176986
 30
0.0
  9
$EXTMAX
 10
1964.278474808217
 20
-1072.405814011051
 30
0.0
  9
$LIMMIN
 10
0.0
 20
0.0
  9
$LIMMAX
 10
12.0
 20
9.0
  9
$ORTHOMODE
 70
     0
  9
$REGENMODE
 70
     1
  9
$FILLMODE
 70
     1
  9
$QTEXTMODE
 70
     0
  9
$MIRRTEXT
 70
     1
  9
$LTSCALE
 40
1.0
  9
$ATTMODE
 70
     1
  9
$TEXTSIZE
 40
10.0
  9
$TRACEWID
 40
0.05
  9
$TEXTSTYLE
  7
STANDARD
  9
$CLAYER
  8
寸法
  9
$CELTYPE
  6
ByLayer
  9
$CECOLOR
 62
   256
  9
$CELTSCALE
 40
1.0
  9
$DISPSILH
 70
     0
  9
$DIMSCALE
 40
1.0
  9
$DIMASZ
 40
5.0
  9
$DIMEXO
 40
0.5
  9
$DIMDLI
 40
0.5
  9
$DIMRND
 40
0.0
  9
$DIMDLE
 40
0.0
  9
$DIMEXE
 40
0.5
  9
$DIMTP
 40
0.0
  9
$DIMTM
 40
0.0
  9
$DIMTXT
 40
12.0
  9
$DIMCEN
 40
0.09
  9
$DIMTSZ
 40
0.0
  9
$DIMTOL
 70
     0
  9
$DIMLIM
 70
     0
  9
$DIMTIH
 70
     0
  9
$DIMTOH
 70
     0
  9
$DIMSE1
 70
     0
  9
$DIMSE2
 70
     0
  9
$DIMTAD
 70
     1
  9
$DIMZIN
 70
     0
  9
$DIMBLK
  1
Open30
  9
$DIMASO
 70
     1
  9
$DIMSHO
 70
     1
  9
$DIMPOST
  1

  9
$DIMAPOST
  1

  9
$DIMALT
 70
     0
  9
$DIMALTD
 70
     2
  9
$DIMALTF
 40
25.4
  9
$DIMLFAC
 40
1.0
  9
$DIMTOFL
 70
     0
  9
$DIMTVP
 40
0.0
  9
$DIMTIX
 70
     0
  9
$DIMSOXD
 70
     0
  9
$DIMSAH
 70
     0
  9
$DIMBLK1
  1

  9
$DIMBLK2
  1

  9
$DIMSTYLE
  2
Standard
  9
$DIMCLRD
 70
     1
  9
$DIMCLRE
 70
     1
  9
$DIMCLRT
 70
     1
  9
$DIMTFAC
 40
1.0
  9
$DIMGAP
 40
1.0
  9
$DIMJUST
 70
     0
  9
$DIMSD1
 70
     0
  9
$DIMSD2
 70
     0
  9
$DIMTOLJ
 70
     1
  9
$DIMTZIN
 70
     0
  9
$DIMALTZ
 70
     0
  9
$DIMALTTZ
 70
     0
  9
$DIMUPT
 70
     0
  9
$DIMDEC
 70
     0
  9
$DIMTDEC
 70
     0
  9
$DIMALTU
 70
     2
  9
$DIMALTTD
 70
     2
  9
$DIMTXSTY
  7
STANDARD
  9
$DIMAUNIT
 70
     0
  9
$DIMADEC
 70
     0
  9
$DIMALTRND
 40
0.0
  9
$DIMAZIN
 70
     0
  9
$DIMDSEP
 70
    46
  9
$DIMATFIT
 70
     3
  9
$DIMFRAC
 70
     0
  9
$DIMLDRBLK
  1
Open30
  9
$DIMLUNIT
 70
     2
  9
$DIMLWD
 70
    -2
  9
$DIMLWE
 70
    -2
  9
$DIMTMOVE
 70
     2
  9
$LUNITS
 70
     2
  9
$LUPREC
 70
     4
  9
$SKETCHINC
 40
0.1
  9
$FILLETRAD
 40
0.0
  9
$AUNITS
 70
     0
  9
$AUPREC
 70
     0
  9
$MENU
  1
acad
  9
$ELEVATION
 40
0.0
  9
$PELEVATION
 40
0.0
  9
$THICKNESS
 40
0.0
  9
$LIMCHECK
 70
     0
  9
$CHAMFERA
 40
0.0
  9
$CHAMFERB
 40
0.0
  9
$CHAMFERC
 40
0.0
  9
$CHAMFERD
 40
0.0
  9
$SKPOLY
 70
     0
  9
$TDCREATE
 40
2449944.925517361
  9
$TDUCREATE
 40
2449944.550517361
  9
$TDUPDATE
 40
2459775.710062523
  9
$TDUUPDATE
 40
2459775.335062523
  9
$TDINDWG
 40
0.0
  9
$TDUSRTIMER
 40
0.0
  9
$USRTIMER
 70
     1
  9
$ANGBASE
 50
0.0
  9
$ANGDIR
 70
     0
  9
$PDMODE
 70
     0
  9
$PDSIZE
 40
15.0
  9
$PLINEWID
 40
0.0
  9
$SPLFRAME
 70
     0
  9
$SPLINETYPE
 70
     6
  9
$SPLINESEGS
 70
     8
  9
$HANDSEED
  5
B36
  9
$SURFTAB1
 70
     6
  9
$SURFTAB2
 70
     6
  9
$SURFTYPE
 70
     6
  9
$SURFU
 70
     6
  9
$SURFV
 70
     6
  9
$UCSBASE
  2

  9
$UCSNAME
  2

  9
$UCSORG
 10
0.0
 20
0.0
 30
0.0
  9
$UCSXDIR
 10
1.0
 20
0.0
 30
0.0
  9
$UCSYDIR
 10
0.0
 20
1.0
 30
0.0
  9
$UCSORTHOREF
  2

  9
$UCSORTHOVIEW
 70
     0
  9
$UCSORGTOP
 10
0.0
 20
0.0
 30
0.0
  9
$UCSORGBOTTOM
 10
0.0
 20
0.0
 30
0.0
  9
$UCSORGLEFT
 10
0.0
 20
0.0
 30
0.0
  9
$UCSORGRIGHT
 10
0.0
 20
0.0
 30
0.0
  9
$UCSORGFRONT
 10
0.0
 20
0.0
 30
0.0
  9
$UCSORGBACK
 10
0.0
 20
0.0
 30
0.0
  9
$PUCSBASE
  2

  9
$PUCSNAME
  2

  9
$PUCSORG
 10
0.0
 20
0.0
 30
0.0
  9
$PUCSXDIR
 10
1.0
 20
0.0
 30
0.0
  9
$PUCSYDIR
 10
0.0
 20
1.0
 30
0.0
  9
$PUCSORTHOREF
  2

  9
$PUCSORTHOVIEW
 70
     0
  9
$PUCSORGTOP
 10
0.0
 20
0.0
 30
0.0
  9
$PUCSORGBOTTOM
 10
0.0
 20
0.0
 30
0.0
  9
$PUCSORGLEFT
 10
0.0
 20
0.0
 30
0.0
  9
$PUCSORGRIGHT
 10
0.0
 20
0.0
 30
0.0
  9
$PUCSORGFRONT
 10
0.0
 20
0.0
 30
0.0
  9
$PUCSORGBACK
 10
0.0
 20
0.0
 30
0.0
  9
$USERI1
 70
     0
  9
$USERI2
 70
     0
  9
$USERI3
 70
     0
  9
$USERI4
 70
     0
  9
$USERI5
 70
     0
  9
$USERR1
 40
0.0
  9
$USERR2
 40
0.0
  9
$USERR3
 40
0.0
  9
$USERR4
 40
0.0
  9
$USERR5
 40
0.0
  9
$WORLDVIEW
 70
     1
  9
$SHADEDGE
 70
     3
  9
$SHADEDIF
 70
    70
  9
$TILEMODE
 70
     1
  9
$MAXACTVP
 70
    16
  9
$PINSBASE
 10
0.0
 20
0.0
 30
0.0
  9
$PLIMCHECK
 70
     0
  9
$PEXTMIN
 10
1.000000000000000E+20
 20
1.000000000000000E+20
 30
1.000000000000000E+20
  9
$PEXTMAX
 10
-1.000000000000000E+20
 20
-1.000000000000000E+20
 30
-1.000000000000000E+20
  9
$PLIMMIN
 10
0.0
 20
0.0
  9
$PLIMMAX
 10
0.0
 20
0.0
  9
$UNITMODE
 70
     0
  9
$VISRETAIN
 70
     0
  9
$PLINEGEN
 70
     0
  9
$PSLTSCALE
 70
     1
  9
$TREEDEPTH
 70
  3020
  9
$CMLSTYLE
  2
Standard
  9
$CMLJUST
 70
     0
  9
$CMLSCALE
 40
1.0
  9
$PROXYGRAPHICS
 70
     1
  9
$MEASUREMENT
 70
     0
  9
$CELWEIGHT
370
    -1
  9
$ENDCAPS
280
     0
  9
$JOINSTYLE
280
     0
  9
$LWDISPLAY
290
     0
  9
$INSUNITS
 70
     0
  9
$HYPERLINKBASE
  1

  9
$STYLESHEET
  1

  9
$XEDIT
290
     1
  9
$CEPSNTYPE
380
     0
  9
$PSTYLEMODE
290
     1
  9
$FINGERPRINTGUID
  2
{4EEFAF9E-2078-4EA8-8DF1-1A24A2783B43}
  9
$VERSIONGUID
  2
{B7C76C62-5758-445C-8C8C-93C2ACBA6380}
  9
$EXTNAMES
290
     1
  9
$PSVPSCALE
 40
0.0
  9
$OLESTARTUP
290
     0
  0
ENDSEC
  0
SECTION
  2
CLASSES
  0
CLASS
  1
ACDBDICTIONARYWDFLT
  2
AcDbDictionaryWithDefault
  3
ObjectDBX Classes
 90
        0
280
     0
281
     0
  0
CLASS
  1
ACDBPLACEHOLDER
  2
AcDbPlaceHolder
  3
ObjectDBX Classes
 90
        0
280
     0
281
     0
  0
CLASS
  1
LAYOUT
  2
AcDbLayout
  3
ObjectDBX Classes
 90
        0
280
     0
281
     0
  0
CLASS
  1
DICTIONARYVAR
  2
AcDbDictionaryVar
  3
ObjectDBX Classes
 90
        0
280
     0
281
     0
  0
CLASS
  1
SCALE
  2
AcDbScale
  3
ObjectDBX Classes
 90
     1153
280
     0
281
     0
  0
CLASS
  1
VISUALSTYLE
  2
AcDbVisualStyle
  3
ObjectDBX Classes
 90
     4095
280
     0
281
     0
  0
CLASS
  1
MATERIAL
  2
AcDbMaterial
  3
ObjectDBX Classes
 90
     1153
280
     0
281
     0
  0
CLASS
  1
TABLESTYLE
  2
AcDbTableStyle
  3
ObjectDBX Classes
 90
     4095
280
     0
281
     0
  0
CLASS
  1
MLEADERSTYLE
  2
AcDbMLeaderStyle
  3
ACDB_MLEADERSTYLE_CLASS
 90
     4095
280
     0
281
     0
  0
CLASS
  1
BREAKDATA
  2
AcDbBreakData
  3
ObjectDBX Classes
 90
     1024
280
     0
281
     0
  0
ENDSEC
  0
SECTION
  2
TABLES
  0
TABLE
  2
VPORT
  5
8
330
0
100
AcDbSymbolTable
 70
     1
  0
VPORT
  5
5D3
330
8
100
AcDbSymbolTableRecord
100
AcDbViewportTableRecord
  2
*Active
 70
     0
 10
0.0
 20
0.0
 11
1.0
 21
1.0
 12
-271.0329536871873
 22
-2005.809723785158
 13
0.0
 23
0.0
 14
1.0
 24
1.0
 15
0.0
 25
0.0
 16
0.0
 26
0.0
 36
1.0
 17
0.0
 27
0.0
 37
0.0
 40
3296.002782232948
 41
2.082079343365253
 42
50.0
 43
0.0
 44
0.0
 50
0.0
 51
0.0
 71
    16
 72
   100
 73
     1
 74
     0
 75
     0
 76
     0
 77
     0
 78
     0
281
     0
 65
     1
110
0.0
120
0.0
130
0.0
111
1.0
121
0.0
131
0.0
112
0.0
122
1.0
132
0.0
 79
     0
146
0.0
  0
ENDTAB
  0
TABLE
  2
LTYPE
  5
5
330
0
100
AcDbSymbolTable
 70
    10
  0
LTYPE
  5
13
330
5
100
AcDbSymbolTableRecord
100
AcDbLinetypeTableRecord
  2
ByBlock
 70
     0
  3

 72
    65
 73
     0
 40
0.0
  0
LTYPE
  5
14
330
5
100
AcDbSymbolTableRecord
100
AcDbLinetypeTableRecord
  2
ByLayer
 70
     0
  3

 72
    65
 73
     0
 40
0.0
  0
LTYPE
  5
15
330
5
100
AcDbSymbolTableRecord
100
AcDbLinetypeTableRecord
  2
CONTINUOUS
 70
     0
  3
実線
 72
    65
 73
     0
 40
0.0
  0
LTYPE
  5
31
330
5
100
AcDbSymbolTableRecord
100
AcDbLinetypeTableRecord
  2
DASHED
 70
     0
  3
破線A
 72
    65
 73
     2
 40
74.99999999999999
 49
50.0
 74
     0
 49
-25.0
 74
     0
  0
LTYPE
  5
32
330
5
100
AcDbSymbolTableRecord
100
AcDbLinetypeTableRecord
  2
DASHEDX2
 70
     0
  3
破線B
 72
    65
 73
     2
 40
150.0
 49
100.0
 74
     0
 49
-50.0
 74
     0
  0
LTYPE
  5
33
330
5
100
AcDbSymbolTableRecord
100
AcDbLinetypeTableRecord
  2
DASHDOT
 70
     0
  3
１点鎖線A
 72
    65
 73
     4
 40
100.0
 49
50.0
 74
     0
 49
-25.0
 74
     0
 49
0.0
 74
     0
 49
-25.0
 74
     0
  0
LTYPE
  5
34
330
5
100
AcDbSymbolTableRecord
100
AcDbLinetypeTableRecord
  2
DASHDOTX2
 70
     0
  3
１点鎖線B
 72
    65
 73
     4
 40
200.0
 49
100.0
 74
     0
 49
-50.0
 74
     0
 49
0.0
 74
     0
 49
-50.0
 74
     0
  0
LTYPE
  5
35
330
5
100
AcDbSymbolTableRecord
100
AcDbLinetypeTableRecord
  2
DIVIDE2
 70
     0
  3
２点鎖線A
 72
    65
 73
     6
 40
62.49999999999999
 49
25.0
 74
     0
 49
-12.5
 74
     0
 49
0.0
 74
     0
 49
-12.5
 74
     0
 49
0.0
 74
     0
 49
-12.5
 74
     0
  0
LTYPE
  5
36
330
5
100
AcDbSymbolTableRecord
100
AcDbLinetypeTableRecord
  2
DIVIDE
 70
     0
  3
２点鎖線B
 72
    65
 73
     6
 40
125.0
 49
50.0
 74
     0
 49
-25.0
 74
     0
 49
0.0
 74
     0
 49
-25.0
 74
     0
 49
0.0
 74
     0
 49
-25.0
 74
     0
  0
LTYPE
  5
37
330
5
100
AcDbSymbolTableRecord
100
AcDbLinetypeTableRecord
  2
DOT
 70
     0
  3
点線A
 72
    65
 73
     2
 40
25.0
 49
0.0
 74
     0
 49
-25.0
 74
     0
  0
LTYPE
  5
38
330
5
100
AcDbSymbolTableRecord
100
AcDbLinetypeTableRecord
  2
DOTX2
 70
     0
  3
点線B
 72
    65
 73
     2
 40
50.0
 49
0.0
 74
     0
 49
-50.0
 74
     0
  0
LTYPE
  5
627
330
5
100
AcDbSymbolTableRecord
100
AcDbLinetypeTableRecord
  2
CENTER1
 70
     0
  3
----- - ----- - ----- - ----- - 
 72
    65
 73
     4
 40
10.0
 49
6.25
 74
     0
 49
-1.25
 74
     0
 49
1.25
 74
     0
 49
-1.25
 74
     0
  0
ENDTAB
  0
TABLE
  2
LAYER
  5
2
102
{ACAD_XDICTIONARY
360
750
102
}
330
0
100
AcDbSymbolTable
 70
    10
  0
LAYER
  5
10
330
2
100
AcDbSymbolTableRecord
100
AcDbLayerTableRecord
  2
ﾚｲﾔ1
 70
     0
 62
     7
  6
CONTINUOUS
370
    -3
390
F
  0
LAYER
  5
44
330
2
100
AcDbSymbolTableRecord
100
AcDbLayerTableRecord
  2
枠
 70
     0
 62
     5
  6
CONTINUOUS
370
    -3
390
F
  0
LAYER
  5
4D
330
2
100
AcDbSymbolTableRecord
100
AcDbLayerTableRecord
  2
寸法
 70
     0
 62
     1
  6
CONTINUOUS
370
    -3
390
F
  0
LAYER
  5
52
330
2
100
AcDbSymbolTableRecord
100
AcDbLayerTableRecord
  2
0
 70
     0
 62
     7
  6
CONTINUOUS
370
    -3
390
F
  0
LAYER
  5
52B
330
2
100
AcDbSymbolTableRecord
100
AcDbLayerTableRecord
  2
下図
 70
     0
 62
     8
  6
CONTINUOUS
290
     0
370
    -3
390
F
  0
LAYER
  5
54A
330
2
100
AcDbSymbolTableRecord
100
AcDbLayerTableRecord
  2
Defpoints
 70
     0
 62
     7
  6
CONTINUOUS
290
     0
370
    -3
390
F
  0
LAYER
  5
621
330
2
100
AcDbSymbolTableRecord
100
AcDbLayerTableRecord
  2
図面枠
 70
     0
 62
     5
  6
CONTINUOUS
370
    -3
390
F
  0
LAYER
  5
624
330
2
100
AcDbSymbolTableRecord
100
AcDbLayerTableRecord
  2
隠れ線
 70
     0
 62
     1
  6
DASHED
370
    -3
390
F
  0
LAYER
  5
A1D
330
2
100
AcDbSymbolTableRecord
100
AcDbLayerTableRecord
  2
LEVEL003
 70
     0
 62
     1
  6
CONTINUOUS
370
    -3
390
F
  0
LAYER
  5
A1F
330
2
100
AcDbSymbolTableRecord
100
AcDbLayerTableRecord
  2
LEVEL020
 70
     0
 62
     7
  6
CONTINUOUS
370
    -3
390
F
  0
ENDTAB
  0
TABLE
  2
STYLE
  5
3
330
0
100
AcDbSymbolTable
 70
    13
  0
STYLE
  5
11
330
3
100
AcDbSymbolTableRecord
100
AcDbTextStyleTableRecord
  2
STANDARD
 70
     0
 40
10.0
 41
1.0
 50
0.0
 71
     0
 42
10.0
  3
TXT
  4
BIGFONT
  0
STYLE
  5
26
330
3
100
AcDbSymbolTableRecord
100
AcDbTextStyleTableRecord
  2
TATE
 70
     4
 40
10.0
 41
1.0
 50
0.0
 71
     0
 42
10.0
  3
TXT
  4
BIGFONT
  0
STYLE
  5
27
330
3
100
AcDbSymbolTableRecord
100
AcDbTextStyleTableRecord
  2
TextStyle01
 70
     0
 40
0.0
 41
1.0
 50
0.0
 71
     0
 42
0.0
  3
TXT
  4
BIGFONT
  0
STYLE
  5
28
330
3
100
AcDbSymbolTableRecord
100
AcDbTextStyleTableRecord
  2
TextStyle02
 70
     0
 40
0.0
 41
1.0
 50
0.0
 71
     0
 42
0.0
  3
TXT
  4
BIGFONT
  0
STYLE
  5
29
330
3
100
AcDbSymbolTableRecord
100
AcDbTextStyleTableRecord
  2
TextStyle03
 70
     0
 40
0.0
 41
1.0
 50
0.0
 71
     0
 42
0.0
  3
TXT
  4
BIGFONT
  0
STYLE
  5
2A
330
3
100
AcDbSymbolTableRecord
100
AcDbTextStyleTableRecord
  2
TextStyle04
 70
     0
 40
0.0
 41
1.0
 50
0.0
 71
     0
 42
0.0
  3
TXT
  4
BIGFONT
  0
STYLE
  5
2B
330
3
100
AcDbSymbolTableRecord
100
AcDbTextStyleTableRecord
  2
TextStyle05
 70
     0
 40
0.0
 41
1.0
 50
0.0
 71
     0
 42
0.0
  3
TXT
  4
BIGFONT
  0
STYLE
  5
2C
330
3
100
AcDbSymbolTableRecord
100
AcDbTextStyleTableRecord
  2
TextStyle06
 70
     0
 40
0.0
 41
1.0
 50
0.0
 71
     0
 42
0.0
  3

  4

  0
STYLE
  5
2D
330
3
100
AcDbSymbolTableRecord
100
AcDbTextStyleTableRecord
  2
TextStyle07
 70
     0
 40
0.0
 41
1.0
 50
0.0
 71
     0
 42
0.0
  3

  4

  0
STYLE
  5
2E
330
3
100
AcDbSymbolTableRecord
100
AcDbTextStyleTableRecord
  2
TextStyle08
 70
     0
 40
0.0
 41
1.0
 50
0.0
 71
     0
 42
0.0
  3

  4

  0
STYLE
  5
2F
330
3
100
AcDbSymbolTableRecord
100
AcDbTextStyleTableRecord
  2
TextStyle09
 70
     0
 40
0.0
 41
1.0
 50
0.0
 71
     0
 42
0.0
  3

  4

  0
STYLE
  5
30
330
3
100
AcDbSymbolTableRecord
100
AcDbTextStyleTableRecord
  2
TextStyle10
 70
     0
 40
0.0
 41
1.0
 50
0.0
 71
     0
 42
0.0
  3

  4

  0
STYLE
  5
62B
330
3
100
AcDbSymbolTableRecord
100
AcDbTextStyleTableRecord
  2
DIMFONT1
 70
     0
 40
0.0
 41
1.193548387096774
 50
0.0
 71
     0
 42
10.0
  3
msgothic.ttc
  4

1001
ACAD
1000
MS PGothic
1071
    32818
  0
ENDTAB
  0
TABLE
  2
VIEW
  5
6
330
0
100
AcDbSymbolTable
 70
     0
  0
ENDTAB
  0
TABLE
  2
UCS
  5
7
330
0
100
AcDbSymbolTable
 70
     0
  0
ENDTAB
  0
TABLE
  2
APPID
  5
9
330
0
100
AcDbSymbolTable
 70
     3
  0
APPID
  5
12
330
9
100
AcDbSymbolTableRecord
100
AcDbRegAppTableRecord
  2
ACAD
 70
     0
  0
APPID
  5
A95
330
9
100
AcDbSymbolTableRecord
100
AcDbRegAppTableRecord
  2
ENABLE_CUSTOM_SPLIT
 70
     0
  0
APPID
  5
A98
330
9
100
AcDbSymbolTableRecord
100
AcDbRegAppTableRecord
  2
PLOTTRANSPARENCY
 70
     0
  0
ENDTAB
  0
TABLE
  2
DIMSTYLE
  5
A
330
0
100
AcDbSymbolTable
 70
     3
100
AcDbDimStyleTable
  0
DIMSTYLE
105
507
102
{ACAD_REACTORS
330
560
330
576
330
58C
330
635
330
648
330
655
330
662
330
66F
330
6DB
330
A86
102
}
330
A
100
AcDbSymbolTableRecord
100
AcDbDimStyleTableRecord
  2
Standard
 70
     0
178
     0
340
11
  0
DIMSTYLE
105
62A
330
A
100
AcDbSymbolTableRecord
100
AcDbDimStyleTableRecord
  2
DIM001
 70
     0
 40
10.0
 41
1.0
 42
0.0
 44
1.0
 45
1.0
 73
     0
 74
     0
 77
     3
140
1.216216216216216
147
0.2
172
     1
176
     7
177
     7
271
     0
178
     7
271
     0
273
     6
340
62B
  0
DIMSTYLE
105
62C
330
A
100
AcDbSymbolTableRecord
100
AcDbDimStyleTableRecord
  2
DIM002
 70
     0
 40
10.0
 41
1.0
 42
0.0
 44
0.0
 45
1.0
 73
     0
 74
     0
 77
     3
140
1.216216216216216
147
0.2
172
     1
176
     7
177
     7
271
     0
178
     7
271
     0
273
     6
340
62B
  0
ENDTAB
  0
TABLE
  2
BLOCK_RECORD
  5
1
330
0
100
AcDbSymbolTable
 70
    19
  0
BLOCK_RECORD
  5
1E
102
{ACAD_XDICTIONARY
360
B33
102
}
330
1
100
AcDbSymbolTableRecord
100
AcDbBlockTableRecord
  2
*Model_Space
340
21
  0
BLOCK_RECORD
  5
1A
330
1
100
AcDbSymbolTableRecord
100
AcDbBlockTableRecord
  2
*Paper_Space
340
1D
  0
BLOCK_RECORD
  5
543
330
1
100
AcDbSymbolTableRecord
100
AcDbBlockTableRecord
  2
_Open30
340
0
102
{BLKREFS
331
55A
331
55B
331
570
331
571
331
586
331
587
331
59C
331
59D
331
A8E
331
A8D
102
}
  0
BLOCK_RECORD
  5
54B
330
1
100
AcDbSymbolTableRecord
100
AcDbBlockTableRecord
  2
*D1
340
0
  0
BLOCK_RECORD
  5
561
330
1
100
AcDbSymbolTableRecord
100
AcDbBlockTableRecord
  2
*D2
340
0
  0
BLOCK_RECORD
  5
577
330
1
100
AcDbSymbolTableRecord
100
AcDbBlockTableRecord
  2
*D3
340
0
  0
BLOCK_RECORD
  5
58D
330
1
100
AcDbSymbolTableRecord
100
AcDbBlockTableRecord
  2
*D4
340
0
  0
BLOCK_RECORD
  5
636
330
1
100
AcDbSymbolTableRecord
100
AcDbBlockTableRecord
  2
*D6
340
0
  0
BLOCK_RECORD
  5
649
330
1
100
AcDbSymbolTableRecord
100
AcDbBlockTableRecord
  2
*D7
340
0
  0
BLOCK_RECORD
  5
656
330
1
100
AcDbSymbolTableRecord
100
AcDbBlockTableRecord
  2
*D8
340
0
  0
BLOCK_RECORD
  5
663
330
1
100
AcDbSymbolTableRecord
100
AcDbBlockTableRecord
  2
*D9
340
0
  0
BLOCK_RECORD
  5
670
330
1
100
AcDbSymbolTableRecord
100
AcDbBlockTableRecord
  2
*D10
340
0
  0
BLOCK_RECORD
  5
691
330
1
100
AcDbSymbolTableRecord
100
AcDbBlockTableRecord
  2
A$C031367A2
340
0
102
{BLKREFS
331
690
331
69F
331
0
331
0
102
}
  0
BLOCK_RECORD
  5
6DC
330
1
100
AcDbSymbolTableRecord
100
AcDbBlockTableRecord
  2
*D12
340
0
  0
BLOCK_RECORD
  5
814
330
1
100
AcDbSymbolTableRecord
100
AcDbBlockTableRecord
  2
*D13
340
0
  0
BLOCK_RECORD
  5
820
330
1
100
AcDbSymbolTableRecord
100
AcDbBlockTableRecord
  2
*D14
340
0
  0
BLOCK_RECORD
  5
82C
330
1
100
AcDbSymbolTableRecord
100
AcDbBlockTableRecord
  2
*D15
340
0
  0
BLOCK_RECORD
  5
838
330
1
100
AcDbSymbolTableRecord
100
AcDbBlockTableRecord
  2
*D16
340
0
  0
BLOCK_RECORD
  5
844
330
1
100
AcDbSymbolTableRecord
100
AcDbBlockTableRecord
  2
*D17
340
0
  0
BLOCK_RECORD
  5
850
330
1
100
AcDbSymbolTableRecord
100
AcDbBlockTableRecord
  2
*D18
340
0
  0
BLOCK_RECORD
  5
A87
330
1
100
AcDbSymbolTableRecord
100
AcDbBlockTableRecord
  2
*D21
340
0
  0
ENDTAB
  0
ENDSEC
  0
SECTION
  2
BLOCKS
  0
BLOCK
  5
55
330
1E
100
AcDbEntity
  8
0
100
AcDbBlockBegin
  2
*Model_Space
 70
     0
 10
0.0
 20
0.0
 30
0.0
  3
*Model_Space
  1

  0
ENDBLK
  5
56
330
1E
100
AcDbEntity
  8
0
100
AcDbBlockEnd
  0
BLOCK
  5
53
330
1A
100
AcDbEntity
 67
     1
  8
0
100
AcDbBlockBegin
  2
*Paper_Space
 70
     0
 10
0.0
 20
0.0
 30
0.0
  3
*Paper_Space
  1

  0
ENDBLK
  5
54
330
1A
100
AcDbEntity
 67
     1
  8
0
100
AcDbBlockEnd
  0
BLOCK
  5
547
330
543
100
AcDbEntity
  8
0
100
AcDbBlockBegin
  2
_Open30
 70
     0
 10
0.0
 20
0.0
 30
0.0
  3
_Open30
  1

  0
LINE
  5
544
330
543
100
AcDbEntity
  8
寸法
 62
     0
370
    -2
100
AcDbLine
 10
-1.0
 20
0.26794919
 30
0.0
 11
0.0
 21
0.0
 31
0.0
  0
LINE
  5
545
330
543
100
AcDbEntity
  8
寸法
 62
     0
370
    -2
100
AcDbLine
 10
0.0
 20
0.0
 30
0.0
 11
-1.0
 21
-0.26794919
 31
0.0
  0
LINE
  5
546
330
543
100
AcDbEntity
  8
寸法
 62
     0
370
    -2
100
AcDbLine
 10
0.0
 20
0.0
 30
0.0
 11
-1.0
 21
0.0
 31
0.0
  0
ENDBLK
  5
548
330
543
100
AcDbEntity
  8
0
100
AcDbBlockEnd
  0
BLOCK
  5
555
330
54B
100
AcDbEntity
  8
0
100
AcDbBlockBegin
  2
*D1
 70
     1
 10
0.0
 20
0.0
 30
0.0
  3
*D1
  1

  0
LINE
  5
557
330
54B
100
AcDbEntity
  8
寸法
 62
     1
370
    -2
100
AcDbLine
 10
-1129.059914626533
 20
-1478.26024793356
 30
0.0
 11
-1129.059914626533
 21
-1400.357744390803
 31
0.0
  0
LINE
  5
558
330
54B
100
AcDbEntity
  8
寸法
 62
     1
370
    -2
100
AcDbLine
 10
-369.1578759901695
 20
-1519.623884297197
 30
0.0
 11
-369.1578759901695
 21
-1400.357744390803
 31
0.0
  0
LINE
  5
559
330
54B
100
AcDbEntity
  8
寸法
 62
     1
370
    -2
100
AcDbLine
 10
-1124.059914626533
 20
-1400.857744390803
 30
0.0
 11
-374.1578759901695
 21
-1400.857744390803
 31
0.0
  0
INSERT
  5
55A
330
54B
100
AcDbEntity
  8
寸法
 62
     1
370
    -2
100
AcDbBlockReference
  2
_Open30
 10
-1129.059914626533
 20
-1400.857744390803
 30
0.0
 41
5.0
 42
5.0
 43
5.0
 50
180.0
  0
INSERT
  5
55B
330
54B
100
AcDbEntity
  8
寸法
 62
     1
370
    -2
100
AcDbBlockReference
  2
_Open30
 10
-369.1578759901695
 20
-1400.857744390803
 30
0.0
 41
5.0
 42
5.0
 43
5.0
  0
MTEXT
  5
55C
330
54B
100
AcDbEntity
  8
寸法
 62
     1
100
AcDbMText
 10
-749.1088953083511
 20
-1394.857744390803
 30
0.0
 40
10.0
 41
0.0
 71
     5
 72
     1
  1
\A1;837
 73
     1
 44
1.0
  0
POINT
  5
55D
330
54B
100
AcDbEntity
  8
Defpoints
 62
     0
100
AcDbPoint
 10
-1129.059914626533
 20
-1478.76024793356
 30
0.0
  0
POINT
  5
55E
330
54B
100
AcDbEntity
  8
Defpoints
 62
     0
100
AcDbPoint
 10
-369.1578759901695
 20
-1520.123884297197
 30
0.0
  0
POINT
  5
55F
330
54B
100
AcDbEntity
  8
Defpoints
 62
     0
100
AcDbPoint
 10
-369.1578759901695
 20
-1400.857744390803
 30
0.0
  0
ENDBLK
  5
556
330
54B
100
AcDbEntity
  8
0
100
AcDbBlockEnd
  0
BLOCK
  5
56B
330
561
100
AcDbEntity
  8
0
100
AcDbBlockBegin
  2
*D2
 70
     1
 10
0.0
 20
0.0
 30
0.0
  3
*D2
  1

  0
LINE
  5
56D
330
561
100
AcDbEntity
  8
寸法
 62
     1
370
    -2
100
AcDbLine
 10
-1097.188432050774
 20
-1449.209463085075
 30
0.0
 11
-1097.188432050774
 21
-1425.827718388105
 31
0.0
  0
LINE
  5
56E
330
561
100
AcDbEntity
  8
寸法
 62
     1
370
    -2
100
AcDbLine
 10
-557.5857585659264
 20
-1453.866313842651
 30
0.0
 11
-557.5857585659264
 21
-1425.827718388105
 31
0.0
  0
LINE
  5
56F
330
561
100
AcDbEntity
  8
寸法
 62
     1
370
    -2
100
AcDbLine
 10
-1092.188432050774
 20
-1426.327718388105
 30
0.0
 11
-562.5857585659264
 21
-1426.327718388105
 31
0.0
  0
INSERT
  5
570
330
561
100
AcDbEntity
  8
寸法
 62
     1
370
    -2
100
AcDbBlockReference
  2
_Open30
 10
-1097.188432050774
 20
-1426.327718388105
 30
0.0
 41
5.0
 42
5.0
 43
5.0
 50
180.0
  0
INSERT
  5
571
330
561
100
AcDbEntity
  8
寸法
 62
     1
370
    -2
100
AcDbBlockReference
  2
_Open30
 10
-557.5857585659264
 20
-1426.327718388105
 30
0.0
 41
5.0
 42
5.0
 43
5.0
  0
MTEXT
  5
572
330
561
100
AcDbEntity
  8
寸法
 62
     1
100
AcDbMText
 10
-827.3870953083504
 20
-1420.327718388105
 30
0.0
 40
10.0
 41
0.0
 71
     5
 72
     1
  1
\A1;580
 73
     1
 44
1.0
  0
POINT
  5
573
330
561
100
AcDbEntity
  8
Defpoints
 62
     0
100
AcDbPoint
 10
-1097.188432050774
 20
-1449.709463085075
 30
0.0
  0
POINT
  5
574
330
561
100
AcDbEntity
  8
Defpoints
 62
     0
100
AcDbPoint
 10
-557.5857585659264
 20
-1454.366313842651
 30
0.0
  0
POINT
  5
575
330
561
100
AcDbEntity
  8
Defpoints
 62
     0
100
AcDbPoint
 10
-557.5857585659264
 20
-1426.327718388105
 30
0.0
  0
ENDBLK
  5
56C
330
561
100
AcDbEntity
  8
0
100
AcDbBlockEnd
  0
BLOCK
  5
581
330
577
100
AcDbEntity
  8
0
100
AcDbBlockBegin
  2
*D3
 70
     1
 10
0.0
 20
0.0
 30
0.0
  3
*D3
  1

  0
LINE
  5
583
330
577
100
AcDbEntity
  8
寸法
 62
     1
370
    -2
100
AcDbLine
 10
-1121.552068414413
 20
-1455.426914600227
 30
0.0
 11
-1254.4880658487
 21
-1455.426914600227
 31
0.0
  0
LINE
  5
584
330
577
100
AcDbEntity
  8
寸法
 62
     1
370
    -2
100
AcDbLine
 10
-1097.74173280835
 20
-1682.211244145682
 30
0.0
 11
-1254.4880658487
 21
-1682.211244145682
 31
0.0
  0
LINE
  5
585
330
577
100
AcDbEntity
  8
寸法
 62
     1
370
    -2
100
AcDbLine
 10
-1253.9880658487
 20
-1460.426914600227
 30
0.0
 11
-1253.9880658487
 21
-1677.211244145682
 31
0.0
  0
INSERT
  5
586
330
577
100
AcDbEntity
  8
寸法
 62
     1
370
    -2
100
AcDbBlockReference
  2
_Open30
 10
-1253.9880658487
 20
-1455.426914600227
 30
0.0
 41
5.0
 42
5.0
 43
5.0
 50
90.0
  0
INSERT
  5
587
330
577
100
AcDbEntity
  8
寸法
 62
     1
370
    -2
100
AcDbBlockReference
  2
_Open30
 10
-1253.9880658487
 20
-1682.211244145682
 30
0.0
 41
5.0
 42
5.0
 43
5.0
 50
270.0
  0
MTEXT
  5
588
330
577
100
AcDbEntity
  8
寸法
 62
     1
100
AcDbMText
 10
-1259.9880658487
 20
-1568.819079372955
 30
0.0
 40
10.0
 41
0.0
 71
     5
 72
     1
  1
\A1;240
 11
0.0
 21
1.0
 31
0.0
 73
     1
 44
1.0
  0
POINT
  5
589
330
577
100
AcDbEntity
  8
Defpoints
 62
     0
100
AcDbPoint
 10
-1121.052068414413
 20
-1455.426914600227
 30
0.0
  0
POINT
  5
58A
330
577
100
AcDbEntity
  8
Defpoints
 62
     0
100
AcDbPoint
 10
-1097.24173280835
 20
-1682.211244145682
 30
0.0
  0
POINT
  5
58B
330
577
100
AcDbEntity
  8
Defpoints
 62
     0
100
AcDbPoint
 10
-1253.9880658487
 20
-1682.211244145682
 30
0.0
  0
ENDBLK
  5
582
330
577
100
AcDbEntity
  8
0
100
AcDbBlockEnd
  0
BLOCK
  5
597
330
58D
100
AcDbEntity
  8
0
100
AcDbBlockBegin
  2
*D4
 70
     1
 10
0.0
 20
0.0
 30
0.0
  3
*D4
  1

  0
LINE
  5
599
330
58D
100
AcDbEntity
  8
寸法
 62
     1
370
    -2
100
AcDbLine
 10
-1117.007360838653
 20
-1815.485400206287
 30
0.0
 11
-1254.475398104501
 21
-1815.485400206287
 31
0.0
  0
LINE
  5
59A
330
58D
100
AcDbEntity
  8
寸法
 62
     1
370
    -2
100
AcDbLine
 10
-1121.552068414413
 20
-2016.362162327499
 30
0.0
 11
-1254.475398104501
 21
-2016.362162327499
 31
0.0
  0
LINE
  5
59B
330
58D
100
AcDbEntity
  8
寸法
 62
     1
370
    -2
100
AcDbLine
 10
-1253.975398104501
 20
-1820.485400206287
 30
0.0
 11
-1253.975398104501
 21
-2011.362162327499
 31
0.0
  0
INSERT
  5
59C
330
58D
100
AcDbEntity
  8
寸法
 62
     1
370
    -2
100
AcDbBlockReference
  2
_Open30
 10
-1253.975398104501
 20
-1815.485400206287
 30
0.0
 41
5.0
 42
5.0
 43
5.0
 50
90.0
  0
INSERT
  5
59D
330
58D
100
AcDbEntity
  8
寸法
 62
     1
370
    -2
100
AcDbBlockReference
  2
_Open30
 10
-1253.975398104501
 20
-2016.362162327499
 30
0.0
 41
5.0
 42
5.0
 43
5.0
 50
270.0
  0
MTEXT
  5
59E
330
58D
100
AcDbEntity
  8
寸法
 62
     1
100
AcDbMText
 10
-1259.975398104501
 20
-1915.923781266893
 30
0.0
 40
10.0
 41
0.0
 71
     5
 72
     1
  1
\A1;245
 11
0.0
 21
1.0
 31
0.0
 73
     1
 44
1.0
  0
POINT
  5
59F
330
58D
100
AcDbEntity
  8
Defpoints
 62
     0
100
AcDbPoint
 10
-1116.507360838653
 20
-1815.485400206287
 30
0.0
  0
POINT
  5
5A0
330
58D
100
AcDbEntity
  8
Defpoints
 62
     0
100
AcDbPoint
 10
-1121.052068414413
 20
-2016.362162327499
 30
0.0
  0
POINT
  5
5A1
330
58D
100
AcDbEntity
  8
Defpoints
 62
     0
100
AcDbPoint
 10
-1253.975398104501
 20
-2016.362162327499
 30
0.0
  0
ENDBLK
  5
598
330
58D
100
AcDbEntity
  8
0
100
AcDbBlockEnd
  0
BLOCK
  5
637
330
636
100
AcDbEntity
  8
0
100
AcDbBlockBegin
  2
*D6
 70
     1
 10
0.0
 20
0.0
 30
0.0
  3
*D6
  1

  0
LINE
  5
638
330
636
100
AcDbEntity
  8
ﾚｲﾔ1
 62
     1
370
    -2
100
AcDbLine
 10
220.208287389778
 20
805.2403067041942
 30
0.0
 11
220.208287389778
 21
1163.537441698878
 31
0.0
  0
LINE
  5
639
330
636
100
AcDbEntity
  8
ﾚｲﾔ1
 62
     1
370
    -2
100
AcDbLine
 10
972.3202697432716
 20
826.496772054827
 30
0.0
 11
972.3202697432716
 21
1163.537441698878
 31
0.0
  0
LINE
  5
63A
330
636
100
AcDbEntity
  8
ﾚｲﾔ1
 62
     1
370
    -2
100
AcDbLine
 10
240.208287389778
 20
1163.037441698878
 30
0.0
 11
952.3202697432716
 21
1163.037441698878
 31
0.0
  0
SOLID
  5
63B
330
636
100
AcDbEntity
  8
ﾚｲﾔ1
 62
     1
100
AcDbTrace
 10
240.208287389778
 20
1166.370775032211
 30
0.0
 11
240.208287389778
 21
1159.704108365545
 31
0.0
 12
220.208287389778
 22
1163.037441698878
 32
0.0
 13
220.208287389778
 23
1163.037441698878
 33
0.0
  0
SOLID
  5
63C
330
636
100
AcDbEntity
  8
ﾚｲﾔ1
 62
     1
100
AcDbTrace
 10
952.3202697432716
 20
1159.704108365545
 30
0.0
 11
952.3202697432716
 21
1166.370775032211
 31
0.0
 12
972.3202697432716
 22
1163.037441698878
 32
0.0
 13
972.3202697432716
 23
1163.037441698878
 33
0.0
  0
MTEXT
  5
63D
330
636
100
AcDbEntity
  8
ﾚｲﾔ1
 62
     1
100
AcDbMText
 10
596.2642785665248
 20
1173.537441698878
 30
0.0
 40
20.0
 41
0.0
 71
     5
 72
     1
  1
\A1;752
  7
TextStyle01
 73
     1
 44
1.0
  0
POINT
  5
63E
330
636
100
AcDbEntity
  8
Defpoints
 62
     0
100
AcDbPoint
 10
220.208287389778
 20
805.1778067041942
 30
0.0
  0
POINT
  5
63F
330
636
100
AcDbEntity
  8
Defpoints
 62
     0
100
AcDbPoint
 10
972.3202697432716
 20
826.434272054827
 30
0.0
  0
POINT
  5
640
330
636
100
AcDbEntity
  8
Defpoints
 62
     0
100
AcDbPoint
 10
972.3202697432716
 20
1163.037441698878
 30
0.0
  0
ENDBLK
  5
641
330
636
100
AcDbEntity
  8
0
100
AcDbBlockEnd
  0
BLOCK
  5
64A
330
649
100
AcDbEntity
  8
0
100
AcDbBlockBegin
  2
*D7
 70
     1
 10
0.0
 20
0.0
 30
0.0
  3
*D7
  1

  0
LINE
  5
64B
330
649
100
AcDbEntity
  8
ﾚｲﾔ1
 62
     1
370
    -2
100
AcDbLine
 10
1129.967831483606
 20
989.4967439503048
 30
0.0
 11
1129.967831483606
 21
1179.472445596122
 31
0.0
  0
LINE
  5
64C
330
649
100
AcDbEntity
  8
ﾚｲﾔ1
 62
     1
370
    -2
100
AcDbLine
 10
1299.967858088517
 20
1044.453709149838
 30
0.0
 11
1299.967858088517
 21
1179.472445596122
 31
0.0
  0
LINE
  5
64D
330
649
100
AcDbEntity
  8
ﾚｲﾔ1
 62
     1
370
    -2
100
AcDbLine
 10
1149.967831483606
 20
1178.972445596122
 30
0.0
 11
1279.967858088517
 21
1178.972445596122
 31
0.0
  0
SOLID
  5
64E
330
649
100
AcDbEntity
  8
ﾚｲﾔ1
 62
     1
100
AcDbTrace
 10
1149.967831483606
 20
1182.305778929455
 30
0.0
 11
1149.967831483606
 21
1175.639112262789
 31
0.0
 12
1129.967831483606
 22
1178.972445596122
 32
0.0
 13
1129.967831483606
 23
1178.972445596122
 33
0.0
  0
SOLID
  5
64F
330
649
100
AcDbEntity
  8
ﾚｲﾔ1
 62
     1
100
AcDbTrace
 10
1279.967858088517
 20
1175.639112262789
 30
0.0
 11
1279.967858088517
 21
1182.305778929455
 31
0.0
 12
1299.967858088517
 22
1178.972445596122
 32
0.0
 13
1299.967858088517
 23
1178.972445596122
 33
0.0
  0
MTEXT
  5
650
330
649
100
AcDbEntity
  8
ﾚｲﾔ1
 62
     1
100
AcDbMText
 10
1214.967844786062
 20
1189.472445596122
 30
0.0
 40
20.0
 41
0.0
 71
     5
 72
     1
  1
\A1;170
  7
TextStyle01
 73
     1
 44
1.0
  0
POINT
  5
651
330
649
100
AcDbEntity
  8
Defpoints
 62
     0
100
AcDbPoint
 10
1129.967831483606
 20
989.4342439503048
 30
0.0
  0
POINT
  5
652
330
649
100
AcDbEntity
  8
Defpoints
 62
     0
100
AcDbPoint
 10
1299.967858088517
 20
1044.391209149838
 30
0.0
  0
POINT
  5
653
330
649
100
AcDbEntity
  8
Defpoints
 62
     0
100
AcDbPoint
 10
1299.967858088517
 20
1178.972445596122
 30
0.0
  0
ENDBLK
  5
654
330
649
100
AcDbEntity
  8
0
100
AcDbBlockEnd
  0
BLOCK
  5
657
330
656
100
AcDbEntity
  8
0
100
AcDbBlockBegin
  2
*D8
 70
     1
 10
0.0
 20
0.0
 30
0.0
  3
*D8
  1

  0
LINE
  5
658
330
656
100
AcDbEntity
  8
ﾚｲﾔ1
 62
     1
370
    -2
100
AcDbLine
 10
1422.974607164324
 20
926.4371047652639
 30
0.0
 11
1495.962248801892
 21
926.4371047652639
 31
0.0
  0
LINE
  5
659
330
656
100
AcDbEntity
  8
ﾚｲﾔ1
 62
     1
370
    -2
100
AcDbLine
 10
1422.974607164324
 20
601.437076878628
 30
0.0
 11
1495.962248801892
 21
601.437076878628
 31
0.0
  0
LINE
  5
65A
330
656
100
AcDbEntity
  8
ﾚｲﾔ1
 62
     1
370
    -2
100
AcDbLine
 10
1495.462248801892
 20
906.4371047652639
 30
0.0
 11
1495.462248801892
 21
621.437076878628
 31
0.0
  0
SOLID
  5
65B
330
656
100
AcDbEntity
  8
ﾚｲﾔ1
 62
     1
100
AcDbTrace
 10
1498.795582135225
 20
906.4371047652639
 30
0.0
 11
1492.128915468558
 21
906.4371047652639
 31
0.0
 12
1495.462248801892
 22
926.4371047652639
 32
0.0
 13
1495.462248801892
 23
926.4371047652639
 33
0.0
  0
SOLID
  5
65C
330
656
100
AcDbEntity
  8
ﾚｲﾔ1
 62
     1
100
AcDbTrace
 10
1492.128915468558
 20
621.437076878628
 30
0.0
 11
1498.795582135225
 21
621.437076878628
 31
0.0
 12
1495.462248801892
 22
601.437076878628
 32
0.0
 13
1495.462248801892
 23
601.437076878628
 33
0.0
  0
MTEXT
  5
65D
330
656
100
AcDbEntity
  8
ﾚｲﾔ1
 62
     1
100
AcDbMText
 10
1484.962248801892
 20
763.937090821946
 30
0.0
 40
20.0
 41
0.0
 71
     5
 72
     1
  1
\A1;φ325
  7
TextStyle01
 11
0.0
 21
1.0
 31
0.0
 73
     1
 44
1.0
  0
POINT
  5
65E
330
656
100
AcDbEntity
  8
Defpoints
 62
     0
100
AcDbPoint
 10
1422.912107164324
 20
926.4371047652639
 30
0.0
  0
POINT
  5
65F
330
656
100
AcDbEntity
  8
Defpoints
 62
     0
100
AcDbPoint
 10
1422.912107164324
 20
601.437076878628
 30
0.0
  0
POINT
  5
660
330
656
100
AcDbEntity
  8
Defpoints
 62
     0
100
AcDbPoint
 10
1495.462248801892
 20
601.437076878628
 30
0.0
  0
ENDBLK
  5
661
330
656
100
AcDbEntity
  8
0
100
AcDbBlockEnd
  0
BLOCK
  5
664
330
663
100
AcDbEntity
  8
0
100
AcDbBlockBegin
  2
*D9
 70
     1
 10
0.0
 20
0.0
 30
0.0
  3
*D9
  1

  0
LINE
  5
665
330
663
100
AcDbEntity
  8
ﾚｲﾔ1
 62
     1
370
    -2
100
AcDbLine
 10
1322.238455322245
 20
991.4342715558819
 30
0.0
 11
1580.829067445012
 21
991.4342715558819
 31
0.0
  0
LINE
  5
666
330
663
100
AcDbEntity
  8
ﾚｲﾔ1
 62
     1
370
    -2
100
AcDbLine
 10
1310.695178173505
 20
536.4343038243742
 30
0.0
 11
1580.829067445012
 21
536.4343038243742
 31
0.0
  0
LINE
  5
667
330
663
100
AcDbEntity
  8
ﾚｲﾔ1
 62
     1
370
    -2
100
AcDbLine
 10
1580.329067445012
 20
971.4342715558819
 30
0.0
 11
1580.329067445012
 21
556.4343038243742
 31
0.0
  0
SOLID
  5
668
330
663
100
AcDbEntity
  8
ﾚｲﾔ1
 62
     1
100
AcDbTrace
 10
1583.662400778345
 20
971.4342715558819
 30
0.0
 11
1576.995734111679
 21
971.4342715558819
 31
0.0
 12
1580.329067445012
 22
991.4342715558819
 32
0.0
 13
1580.329067445012
 23
991.4342715558819
 33
0.0
  0
SOLID
  5
669
330
663
100
AcDbEntity
  8
ﾚｲﾔ1
 62
     1
100
AcDbTrace
 10
1576.995734111679
 20
556.4343038243742
 30
0.0
 11
1583.662400778345
 21
556.4343038243742
 31
0.0
 12
1580.329067445012
 22
536.4343038243742
 32
0.0
 13
1580.329067445012
 23
536.4343038243742
 33
0.0
  0
MTEXT
  5
66A
330
663
100
AcDbEntity
  8
ﾚｲﾔ1
 62
     1
100
AcDbMText
 10
1569.829067445012
 20
763.934287690128
 30
0.0
 40
20.0
 41
0.0
 71
     5
 72
     1
  1
\A1;φ455
  7
TextStyle01
 11
0.0
 21
1.0
 31
0.0
 73
     1
 44
1.0
  0
POINT
  5
66B
330
663
100
AcDbEntity
  8
Defpoints
 62
     0
100
AcDbPoint
 10
1322.175955322245
 20
991.4342715558819
 30
0.0
  0
POINT
  5
66C
330
663
100
AcDbEntity
  8
Defpoints
 62
     0
100
AcDbPoint
 10
1310.632678173505
 20
536.4343038243742
 30
0.0
  0
POINT
  5
66D
330
663
100
AcDbEntity
  8
Defpoints
 62
     0
100
AcDbPoint
 10
1580.329067445012
 20
536.4343038243742
 30
0.0
  0
ENDBLK
  5
66E
330
663
100
AcDbEntity
  8
0
100
AcDbBlockEnd
  0
BLOCK
  5
671
330
670
100
AcDbEntity
  8
0
100
AcDbBlockBegin
  2
*D10
 70
     1
 10
0.0
 20
0.0
 30
0.0
  3
*D10
  1

  0
LINE
  5
672
330
670
100
AcDbEntity
  8
ﾚｲﾔ1
 62
     1
370
    -2
100
AcDbLine
 10
1129.787103636681
 20
878.9342804718422
 30
0.0
 11
1089.147754312533
 21
878.9342804718422
 31
0.0
  0
LINE
  5
673
330
670
100
AcDbEntity
  8
ﾚｲﾔ1
 62
     1
370
    -2
100
AcDbLine
 10
1129.787103636681
 20
648.9342636378142
 30
0.0
 11
1089.147754312533
 21
648.9342636378142
 31
0.0
  0
LINE
  5
674
330
670
100
AcDbEntity
  8
ﾚｲﾔ1
 62
     1
370
    -2
100
AcDbLine
 10
1089.647754312533
 20
858.9342804718422
 30
0.0
 11
1089.647754312533
 21
668.9342636378142
 31
0.0
  0
SOLID
  5
675
330
670
100
AcDbEntity
  8
ﾚｲﾔ1
 62
     1
100
AcDbTrace
 10
1092.981087645867
 20
858.9342804718422
 30
0.0
 11
1086.3144209792
 21
858.9342804718422
 31
0.0
 12
1089.647754312533
 22
878.9342804718422
 32
0.0
 13
1089.647754312533
 23
878.9342804718422
 33
0.0
  0
SOLID
  5
676
330
670
100
AcDbEntity
  8
ﾚｲﾔ1
 62
     1
100
AcDbTrace
 10
1086.3144209792
 20
668.9342636378142
 30
0.0
 11
1092.981087645867
 21
668.9342636378142
 31
0.0
 12
1089.647754312533
 22
648.9342636378142
 32
0.0
 13
1089.647754312533
 23
648.9342636378142
 33
0.0
  0
MTEXT
  5
677
330
670
100
AcDbEntity
  8
ﾚｲﾔ1
 62
     1
100
AcDbMText
 10
1079.147754312533
 20
763.9342720548282
 30
0.0
 40
20.0
 41
0.0
 71
     5
 72
     1
  1
\A1;φ230
  7
TextStyle01
 11
0.0
 21
1.0
 31
0.0
 73
     1
 44
1.0
  0
POINT
  5
678
330
670
100
AcDbEntity
  8
Defpoints
 62
     0
100
AcDbPoint
 10
1129.849603636681
 20
878.9342804718422
 30
0.0
  0
POINT
  5
679
330
670
100
AcDbEntity
  8
Defpoints
 62
     0
100
AcDbPoint
 10
1129.849603636681
 20
648.9342636378142
 30
0.0
  0
POINT
  5
67A
330
670
100
AcDbEntity
  8
Defpoints
 62
     0
100
AcDbPoint
 10
1089.647754312533
 20
648.9342636378142
 30
0.0
  0
ENDBLK
  5
67B
330
670
100
AcDbEntity
  8
0
100
AcDbBlockEnd
  0
BLOCK
  5
692
330
691
100
AcDbEntity
  8
0
100
AcDbBlockBegin
  2
A$C031367A2
 70
     0
 10
0.0
 20
0.0
 30
0.0
  3
A$C031367A2
  1

  0
LWPOLYLINE
  5
693
330
691
100
AcDbEntity
  8
ﾚｲﾔ1
100
AcDbPolyline
 90
        3
 70
     0
 43
0.0
 10
22.02042897116098
 20
25.49406091246169
 10
19.47578184749636
 20
19.1368403130507
 10
19.47578184749636
 20
19.1368403130507
  0
SPLINE
  5
694
330
691
100
AcDbEntity
  8
ﾚｲﾔ1
100
AcDbSpline
210
0.0
220
0.0
230
1.0
 70
  1064
 71
     3
 72
     9
 73
     5
 74
     3
 42
0.000000001
 43
0.0000000001
 44
0.0000000001
 40
0.0
 40
0.0
 40
0.0
 40
0.0
 40
0.9324697840356793
 40
2.051071547332551
 40
2.051071547332551
 40
2.051071547332551
 40
2.051071547332551
 10
18.38360207643382
 20
39.73913847812878
 30
0.0
 10
18.10458745596521
 20
39.93170530326331
 30
0.0
 10
17.49086360224827
 20
40.35527756560965
 30
0.0
 10
17.66086396354296
 20
41.09608424831922
 30
0.0
 10
17.75357779605292
 20
41.50010119381227
 30
0.0
 11
18.38360207643382
 21
39.73913847812878
 31
0.0
 11
17.7085418650513
 21
40.38240639210221
 31
0.0
 11
17.75357779605292
 21
41.50010119381227
 31
0.0
  0
SPLINE
  5
695
330
691
100
AcDbEntity
  8
ﾚｲﾔ1
100
AcDbSpline
210
0.0
220
0.0
230
1.0
 70
  1064
 71
     3
 72
     9
 73
     5
 74
     3
 42
0.000000001
 43
0.0000000001
 44
0.0000000001
 40
0.0
 40
0.0
 40
0.0
 40
0.0
 40
0.9984583633105163
 40
2.019620187255365
 40
2.019620187255365
 40
2.019620187255365
 40
2.019620187255365
 10
13.97127641761563
 20
28.71594893302177
 30
0.0
 10
13.61406284034437
 20
28.83161016744479
 30
0.0
 10
12.89151317945845
 20
29.06556260102358
 30
0.0
 10
12.50298651980571
 20
28.41039919671687
 30
0.0
 10
12.30653938834712
 20
28.07913500103018
 30
0.0
 11
13.97127641761563
 21
28.71594893302177
 31
0.0
 11
12.98127453721008
 21
28.84562306327985
 31
0.0
 11
12.30653938834712
 21
28.07913500103018
 31
0.0
  0
LWPOLYLINE
  5
696
330
691
100
AcDbEntity
  8
ﾚｲﾔ1
100
AcDbPolyline
 90
        3
 70
     0
 43
0.0
 10
13.97127641761563
 20
28.71594893302177
 10
13.97127641761563
 20
28.71594893302177
 10
63.15570085899162
 20
9.028571056697956
  0
ARC
  5
697
330
691
100
AcDbEntity
  8
ﾚｲﾔ1
100
AcDbCircle
 10
65.52556671178354
 20
14.47463932736832
 30
0.0
 40
5.939353817463866
100
AcDbArc
 50
246.4836515327686
 51
69.88620053548829
  0
LINE
  5
698
330
691
100
AcDbEntity
  8
ﾚｲﾔ1
100
AcDbLine
 10
101.8979487245815
 20
-0.0000000590196123
 30
0.0
 11
-0.0000004654502845
 21
40.78737223030543
 31
0.0
  0
LWPOLYLINE
  5
699
330
691
100
AcDbEntity
  8
ﾚｲﾔ1
100
AcDbPolyline
 90
        4
 70
     0
 43
0.0
 10
67.89543256459547
 20
19.92070759802914
 10
67.89543256459547
 20
19.92070759802914
 10
18.38360207643382
 20
39.73913847812878
 10
18.38360207643382
 20
39.73913847812878
  0
SPLINE
  5
69A
330
691
100
AcDbEntity
  8
ﾚｲﾔ1
100
AcDbSpline
210
0.0
220
0.0
230
1.0
 70
  1064
 71
     3
 72
     9
 73
     5
 74
     3
 42
0.000000001
 43
0.0000000001
 44
0.0000000001
 40
0.0
 40
0.0
 40
0.0
 40
0.0
 40
1.453122156493452
 40
2.746440558141731
 40
2.746440558141731
 40
2.746440558141731
 40
2.746440558141731
 10
29.0845256859102
 20
43.14209577498991
 30
0.0
 10
29.05070196137348
 20
43.65212758513732
 30
0.0
 10
28.98677419832896
 20
44.61610163444337
 30
0.0
 10
28.22132782916925
 20
45.19489526792768
 30
0.0
 10
27.86087368725294
 20
45.46745330845147
 30
0.0
 11
29.0845256859102
 21
43.14209577498991
 31
0.0
 11
28.7866718986379
 21
44.56436407706928
 31
0.0
 11
27.86087368725294
 21
45.46745330845147
 31
0.0
  0
SPLINE
  5
69B
330
691
100
AcDbEntity
  8
ﾚｲﾔ1
100
AcDbSpline
210
0.0
220
0.0
230
1.0
 70
  1064
 71
     3
 72
     9
 73
     5
 74
     3
 42
0.000000001
 43
0.0000000001
 44
0.0000000001
 40
0.0
 40
0.0
 40
0.0
 40
0.0
 40
1.419442939185153
 40
2.89347623760774
 40
2.89347623760774
 40
2.89347623760774
 40
2.89347623760774
 10
16.99433649803359
 20
18.31988796581822
 30
0.0
 10
17.49350982496534
 20
18.16095240294534
 30
0.0
 10
18.51105418694846
 20
17.83696877402434
 30
0.0
 10
19.15018652049692
 20
18.6981340168446
 30
0.0
 10
19.47578184749636
 20
19.1368403130507
 30
0.0
 11
16.99433649803359
 21
18.31988796581822
 31
0.0
 11
18.4007894913766
 21
18.12829403293131
 31
0.0
 11
19.47578184749636
 21
19.1368403130507
 31
0.0
  0
LWPOLYLINE
  5
69C
330
691
100
AcDbEntity
  8
ﾚｲﾔ1
100
AcDbPolyline
 90
        5
 70
     0
 43
0.0
 10
16.99433649803359
 20
18.31988796581822
 10
9.204249792911469
 20
21.08495769174192
 10
20.30147698428664
 20
48.80884940204009
 10
27.86087368725294
 20
45.46745330845147
 10
27.86087368725294
 20
45.46745330845147
  0
LWPOLYLINE
  5
69D
330
691
100
AcDbEntity
  8
ﾚｲﾔ1
100
AcDbPolyline
 90
        2
 70
     0
 43
0.0
 10
29.0845256859102
 20
43.14209577499127
 10
26.43275462997917
 20
36.51725045756871
  0
ENDBLK
  5
69E
330
691
100
AcDbEntity
  8
0
100
AcDbBlockEnd
  0
BLOCK
  5
6DD
330
6DC
100
AcDbEntity
  8
0
100
AcDbBlockBegin
  2
*D12
 70
     1
 10
0.0
 20
0.0
 30
0.0
  3
*D12
  1

  0
LINE
  5
6DE
330
6DC
100
AcDbEntity
  8
ﾚｲﾔ1
 62
     1
370
    -2
100
AcDbLine
 10
1127.91207670978
 20
535.3384088935782
 30
0.0
 11
1127.91207670978
 21
306.4815241773808
 31
0.0
  0
LINE
  5
6DF
330
6DC
100
AcDbEntity
  8
ﾚｲﾔ1
 62
     1
370
    -2
100
AcDbLine
 10
1422.912107164324
 20
510.4033580456721
 30
0.0
 11
1422.912107164324
 21
306.4815241773808
 31
0.0
  0
LINE
  5
6E0
330
6DC
100
AcDbEntity
  8
ﾚｲﾔ1
 62
     1
370
    -2
100
AcDbLine
 10
1147.91207670978
 20
306.9815241773808
 30
0.0
 11
1402.912107164324
 21
306.9815241773808
 31
0.0
  0
SOLID
  5
6E1
330
6DC
100
AcDbEntity
  8
ﾚｲﾔ1
 62
     1
100
AcDbTrace
 10
1147.91207670978
 20
310.3148575107141
 30
0.0
 11
1147.91207670978
 21
303.6481908440475
 31
0.0
 12
1127.91207670978
 22
306.9815241773808
 32
0.0
 13
1127.91207670978
 23
306.9815241773808
 33
0.0
  0
SOLID
  5
6E2
330
6DC
100
AcDbEntity
  8
ﾚｲﾔ1
 62
     1
100
AcDbTrace
 10
1402.912107164324
 20
303.6481908440475
 30
0.0
 11
1402.912107164324
 21
310.3148575107141
 31
0.0
 12
1422.912107164324
 22
306.9815241773808
 32
0.0
 13
1422.912107164324
 23
306.9815241773808
 33
0.0
  0
MTEXT
  5
6E3
330
6DC
100
AcDbEntity
  8
ﾚｲﾔ1
 62
     1
100
AcDbMText
 10
1275.412091937052
 20
317.4815241773808
 30
0.0
 40
20.0
 41
0.0
 71
     5
 72
     1
  1
\A1;295
  7
TextStyle01
 73
     1
 44
1.0
  0
POINT
  5
6E4
330
6DC
100
AcDbEntity
  8
Defpoints
 62
     0
100
AcDbPoint
 10
1127.91207670978
 20
535.4009088935782
 30
0.0
  0
POINT
  5
6E5
330
6DC
100
AcDbEntity
  8
Defpoints
 62
     0
100
AcDbPoint
 10
1422.912107164324
 20
510.4658580456721
 30
0.0
  0
POINT
  5
6E6
330
6DC
100
AcDbEntity
  8
Defpoints
 62
     0
100
AcDbPoint
 10
1422.912107164324
 20
306.9815241773808
 30
0.0
  0
ENDBLK
  5
6E7
330
6DC
100
AcDbEntity
  8
0
100
AcDbBlockEnd
  0
BLOCK
  5
815
330
814
100
AcDbEntity
  8
0
100
AcDbBlockBegin
  2
*D13
 70
     1
 10
0.0
 20
0.0
 30
0.0
  3
*D13
  1

  0
LINE
  5
817
330
814
100
AcDbEntity
  8
ﾚｲﾔ1
 62
     1
370
    -2
100
AcDbLine
 10
-1356.246405772751
 20
-1582.830271371823
 30
0.0
 11
-1356.246405772751
 21
-1224.533136377139
 31
0.0
  0
LINE
  5
818
330
814
100
AcDbEntity
  8
ﾚｲﾔ1
 62
     1
370
    -2
100
AcDbLine
 10
-604.134423419257
 20
-1561.57380602119
 30
0.0
 11
-604.134423419257
 21
-1224.533136377139
 31
0.0
  0
LINE
  5
819
330
814
100
AcDbEntity
  8
ﾚｲﾔ1
 62
     1
370
    -2
100
AcDbLine
 10
-1336.246405772751
 20
-1225.033136377139
 30
0.0
 11
-624.134423419257
 21
-1225.033136377139
 31
0.0
  0
SOLID
  5
81A
330
814
100
AcDbEntity
  8
ﾚｲﾔ1
 62
     1
100
AcDbTrace
 10
-1336.246405772751
 20
-1221.699803043806
 30
0.0
 11
-1336.246405772751
 21
-1228.366469710473
 31
0.0
 12
-1356.246405772751
 22
-1225.033136377139
 32
0.0
 13
-1356.246405772751
 23
-1225.033136377139
 33
0.0
  0
SOLID
  5
81B
330
814
100
AcDbEntity
  8
ﾚｲﾔ1
 62
     1
100
AcDbTrace
 10
-624.134423419257
 20
-1228.366469710473
 30
0.0
 11
-624.134423419257
 21
-1221.699803043806
 31
0.0
 12
-604.134423419257
 22
-1225.033136377139
 32
0.0
 13
-604.134423419257
 23
-1225.033136377139
 33
0.0
  0
MTEXT
  5
81C
330
814
100
AcDbEntity
  8
ﾚｲﾔ1
 62
     1
100
AcDbMText
 10
-980.1904145960038
 20
-1214.533136377139
 30
0.0
 40
20.0
 41
0.0
 71
     5
 72
     1
  1
\A1;752
  7
TextStyle01
 73
     1
 44
1.0
  0
POINT
  5
81D
330
814
100
AcDbEntity
  8
Defpoints
 62
     0
100
AcDbPoint
 10
-1356.246405772751
 20
-1582.892771371823
 30
0.0
  0
POINT
  5
81E
330
814
100
AcDbEntity
  8
Defpoints
 62
     0
100
AcDbPoint
 10
-604.134423419257
 20
-1561.63630602119
 30
0.0
  0
POINT
  5
81F
330
814
100
AcDbEntity
  8
Defpoints
 62
     0
100
AcDbPoint
 10
-604.134423419257
 20
-1225.033136377139
 30
0.0
  0
ENDBLK
  5
816
330
814
100
AcDbEntity
  8
0
100
AcDbBlockEnd
  0
BLOCK
  5
821
330
820
100
AcDbEntity
  8
0
100
AcDbBlockBegin
  2
*D14
 70
     1
 10
0.0
 20
0.0
 30
0.0
  3
*D14
  1

  0
LINE
  5
823
330
820
100
AcDbEntity
  8
ﾚｲﾔ1
 62
     1
370
    -2
100
AcDbLine
 10
-446.4868616789231
 20
-1398.573834125712
 30
0.0
 11
-446.4868616789231
 21
-1208.598132479895
 31
0.0
  0
LINE
  5
824
330
820
100
AcDbEntity
  8
ﾚｲﾔ1
 62
     1
370
    -2
100
AcDbLine
 10
-276.4868350740112
 20
-1343.616868926179
 30
0.0
 11
-276.4868350740112
 21
-1208.598132479895
 31
0.0
  0
LINE
  5
825
330
820
100
AcDbEntity
  8
ﾚｲﾔ1
 62
     1
370
    -2
100
AcDbLine
 10
-426.4868616789231
 20
-1209.098132479895
 30
0.0
 11
-296.4868350740112
 21
-1209.098132479895
 31
0.0
  0
SOLID
  5
826
330
820
100
AcDbEntity
  8
ﾚｲﾔ1
 62
     1
100
AcDbTrace
 10
-426.4868616789231
 20
-1205.764799146562
 30
0.0
 11
-426.4868616789231
 21
-1212.431465813229
 31
0.0
 12
-446.4868616789231
 22
-1209.098132479895
 32
0.0
 13
-446.4868616789231
 23
-1209.098132479895
 33
0.0
  0
SOLID
  5
827
330
820
100
AcDbEntity
  8
ﾚｲﾔ1
 62
     1
100
AcDbTrace
 10
-296.4868350740112
 20
-1212.431465813229
 30
0.0
 11
-296.4868350740112
 21
-1205.764799146562
 31
0.0
 12
-276.4868350740112
 22
-1209.098132479895
 32
0.0
 13
-276.4868350740112
 23
-1209.098132479895
 33
0.0
  0
MTEXT
  5
828
330
820
100
AcDbEntity
  8
ﾚｲﾔ1
 62
     1
100
AcDbMText
 10
-361.4868483764672
 20
-1198.598132479895
 30
0.0
 40
20.0
 41
0.0
 71
     5
 72
     1
  1
\A1;170
  7
TextStyle01
 73
     1
 44
1.0
  0
POINT
  5
829
330
820
100
AcDbEntity
  8
Defpoints
 62
     0
100
AcDbPoint
 10
-446.4868616789231
 20
-1398.636334125712
 30
0.0
  0
POINT
  5
82A
330
820
100
AcDbEntity
  8
Defpoints
 62
     0
100
AcDbPoint
 10
-276.4868350740112
 20
-1343.679368926179
 30
0.0
  0
POINT
  5
82B
330
820
100
AcDbEntity
  8
Defpoints
 62
     0
100
AcDbPoint
 10
-276.4868350740112
 20
-1209.098132479895
 30
0.0
  0
ENDBLK
  5
822
330
820
100
AcDbEntity
  8
0
100
AcDbBlockEnd
  0
BLOCK
  5
82D
330
82C
100
AcDbEntity
  8
0
100
AcDbBlockBegin
  2
*D15
 70
     1
 10
0.0
 20
0.0
 30
0.0
  3
*D15
  1

  0
LINE
  5
82F
330
82C
100
AcDbEntity
  8
ﾚｲﾔ1
 62
     1
370
    -2
100
AcDbLine
 10
-153.4800859982042
 20
-1461.633473310753
 30
0.0
 11
-80.4924443606369
 21
-1461.633473310753
 31
0.0
  0
LINE
  5
830
330
82C
100
AcDbEntity
  8
ﾚｲﾔ1
 62
     1
370
    -2
100
AcDbLine
 10
-153.4800859982051
 20
-1786.633501197389
 30
0.0
 11
-80.49244436063691
 21
-1786.633501197389
 31
0.0
  0
LINE
  5
831
330
82C
100
AcDbEntity
  8
ﾚｲﾔ1
 62
     1
370
    -2
100
AcDbLine
 10
-80.9924443606369
 20
-1481.633473310753
 30
0.0
 11
-80.99244436063691
 21
-1766.633501197389
 31
0.0
  0
SOLID
  5
832
330
82C
100
AcDbEntity
  8
ﾚｲﾔ1
 62
     1
100
AcDbTrace
 10
-77.65911102730357
 20
-1481.633473310753
 30
0.0
 11
-84.32577769397022
 21
-1481.633473310753
 31
0.0
 12
-80.9924443606369
 22
-1461.633473310753
 32
0.0
 13
-80.9924443606369
 23
-1461.633473310753
 33
0.0
  0
SOLID
  5
833
330
82C
100
AcDbEntity
  8
ﾚｲﾔ1
 62
     1
100
AcDbTrace
 10
-84.32577769397024
 20
-1766.633501197389
 30
0.0
 11
-77.65911102730358
 21
-1766.633501197389
 31
0.0
 12
-80.99244436063691
 22
-1786.633501197389
 32
0.0
 13
-80.99244436063691
 23
-1786.633501197389
 33
0.0
  0
MTEXT
  5
834
330
82C
100
AcDbEntity
  8
ﾚｲﾔ1
 62
     1
100
AcDbMText
 10
-91.49244436063691
 20
-1624.133487254071
 30
0.0
 40
20.0
 41
0.0
 71
     5
 72
     1
  1
\A1;φ325
  7
TextStyle01
 11
4.372570306412074E-17
 21
1.0
 31
0.0
 73
     1
 44
1.0
  0
POINT
  5
835
330
82C
100
AcDbEntity
  8
Defpoints
 62
     0
100
AcDbPoint
 10
-153.5425859982042
 20
-1461.633473310753
 30
0.0
  0
POINT
  5
836
330
82C
100
AcDbEntity
  8
Defpoints
 62
     0
100
AcDbPoint
 10
-153.5425859982051
 20
-1786.633501197389
 30
0.0
  0
POINT
  5
837
330
82C
100
AcDbEntity
  8
Defpoints
 62
     0
100
AcDbPoint
 10
-80.99244436063691
 20
-1786.633501197389
 30
0.0
  0
ENDBLK
  5
82E
330
82C
100
AcDbEntity
  8
0
100
AcDbBlockEnd
  0
BLOCK
  5
839
330
838
100
AcDbEntity
  8
0
100
AcDbBlockBegin
  2
*D16
 70
     1
 10
0.0
 20
0.0
 30
0.0
  3
*D16
  1

  0
LINE
  5
83B
330
838
100
AcDbEntity
  8
ﾚｲﾔ1
 62
     1
370
    -2
100
AcDbLine
 10
-254.2162378402841
 20
-1396.636306520135
 30
0.0
 11
4.37437428248316
 21
-1396.636306520135
 31
0.0
  0
LINE
  5
83C
330
838
100
AcDbEntity
  8
ﾚｲﾔ1
 62
     1
370
    -2
100
AcDbLine
 10
-265.759514989024
 20
-1851.636274251643
 30
0.0
 11
4.374374282483132
 21
-1851.636274251643
 31
0.0
  0
LINE
  5
83D
330
838
100
AcDbEntity
  8
ﾚｲﾔ1
 62
     1
370
    -2
100
AcDbLine
 10
3.874374282483158
 20
-1416.636306520135
 30
0.0
 11
3.874374282483133
 21
-1831.636274251643
 31
0.0
  0
SOLID
  5
83E
330
838
100
AcDbEntity
  8
ﾚｲﾔ1
 62
     1
100
AcDbTrace
 10
7.207707615816492
 20
-1416.636306520135
 30
0.0
 11
0.5410409491498247
 21
-1416.636306520135
 31
0.0
 12
3.87437428248316
 22
-1396.636306520135
 32
0.0
 13
3.87437428248316
 23
-1396.636306520135
 33
0.0
  0
SOLID
  5
83F
330
838
100
AcDbEntity
  8
ﾚｲﾔ1
 62
     1
100
AcDbTrace
 10
0.5410409491497994
 20
-1831.636274251643
 30
0.0
 11
7.207707615816466
 21
-1831.636274251643
 31
0.0
 12
3.874374282483132
 22
-1851.636274251643
 32
0.0
 13
3.874374282483132
 23
-1851.636274251643
 33
0.0
  0
MTEXT
  5
840
330
838
100
AcDbEntity
  8
ﾚｲﾔ1
 62
     1
100
AcDbMText
 10
-6.625625717516854
 20
-1624.136290385889
 30
0.0
 40
20.0
 41
0.0
 71
     5
 72
     1
  1
\A1;φ455
  7
TextStyle01
 11
6.148927957081382E-17
 21
1.0
 31
0.0
 73
     1
 44
1.0
  0
POINT
  5
841
330
838
100
AcDbEntity
  8
Defpoints
 62
     0
100
AcDbPoint
 10
-254.2787378402841
 20
-1396.636306520135
 30
0.0
  0
POINT
  5
842
330
838
100
AcDbEntity
  8
Defpoints
 62
     0
100
AcDbPoint
 10
-265.822014989024
 20
-1851.636274251643
 30
0.0
  0
POINT
  5
843
330
838
100
AcDbEntity
  8
Defpoints
 62
     0
100
AcDbPoint
 10
3.874374282483132
 20
-1851.636274251643
 30
0.0
  0
ENDBLK
  5
83A
330
838
100
AcDbEntity
  8
0
100
AcDbBlockEnd
  0
BLOCK
  5
845
330
844
100
AcDbEntity
  8
0
100
AcDbBlockBegin
  2
*D17
 70
     1
 10
0.0
 20
0.0
 30
0.0
  3
*D17
  1

  0
LINE
  5
847
330
844
100
AcDbEntity
  8
ﾚｲﾔ1
 62
     1
370
    -2
100
AcDbLine
 10
-446.6675895258481
 20
-1509.136297604175
 30
0.0
 11
-487.3069388499953
 21
-1509.136297604175
 31
0.0
  0
LINE
  5
848
330
844
100
AcDbEntity
  8
ﾚｲﾔ1
 62
     1
370
    -2
100
AcDbLine
 10
-446.6675895258481
 20
-1739.136314438203
 30
0.0
 11
-487.3069388499953
 21
-1739.136314438203
 31
0.0
  0
LINE
  5
849
330
844
100
AcDbEntity
  8
ﾚｲﾔ1
 62
     1
370
    -2
100
AcDbLine
 10
-486.8069388499953
 20
-1529.136297604175
 30
0.0
 11
-486.8069388499953
 21
-1719.136314438203
 31
0.0
  0
SOLID
  5
84A
330
844
100
AcDbEntity
  8
ﾚｲﾔ1
 62
     1
100
AcDbTrace
 10
-483.473605516662
 20
-1529.136297604175
 30
0.0
 11
-490.1402721833286
 21
-1529.136297604175
 31
0.0
 12
-486.8069388499953
 22
-1509.136297604175
 32
0.0
 13
-486.8069388499953
 23
-1509.136297604175
 33
0.0
  0
SOLID
  5
84B
330
844
100
AcDbEntity
  8
ﾚｲﾔ1
 62
     1
100
AcDbTrace
 10
-490.1402721833286
 20
-1719.136314438203
 30
0.0
 11
-483.473605516662
 21
-1719.136314438203
 31
0.0
 12
-486.8069388499953
 22
-1739.136314438203
 32
0.0
 13
-486.8069388499953
 23
-1739.136314438203
 33
0.0
  0
MTEXT
  5
84C
330
844
100
AcDbEntity
  8
ﾚｲﾔ1
 62
     1
100
AcDbMText
 10
-497.3069388499953
 20
-1624.136306021189
 30
0.0
 40
20.0
 41
0.0
 71
     5
 72
     1
  1
\A1;φ230
  7
TextStyle01
 11
0.0
 21
1.0
 31
0.0
 73
     1
 44
1.0
  0
POINT
  5
84D
330
844
100
AcDbEntity
  8
Defpoints
 62
     0
100
AcDbPoint
 10
-446.6050895258481
 20
-1509.136297604175
 30
0.0
  0
POINT
  5
84E
330
844
100
AcDbEntity
  8
Defpoints
 62
     0
100
AcDbPoint
 10
-446.6050895258481
 20
-1739.136314438203
 30
0.0
  0
POINT
  5
84F
330
844
100
AcDbEntity
  8
Defpoints
 62
     0
100
AcDbPoint
 10
-486.8069388499953
 20
-1739.136314438203
 30
0.0
  0
ENDBLK
  5
846
330
844
100
AcDbEntity
  8
0
100
AcDbBlockEnd
  0
BLOCK
  5
851
330
850
100
AcDbEntity
  8
0
100
AcDbBlockBegin
  2
*D18
 70
     1
 10
0.0
 20
0.0
 30
0.0
  3
*D18
  1

  0
LINE
  5
853
330
850
100
AcDbEntity
  8
ﾚｲﾔ1
 62
     1
370
    -2
100
AcDbLine
 10
-448.5426164527489
 20
-1852.732169182439
 30
0.0
 11
-448.5426164527489
 21
-2081.589053898636
 31
0.0
  0
LINE
  5
854
330
850
100
AcDbEntity
  8
ﾚｲﾔ1
 62
     1
370
    -2
100
AcDbLine
 10
-153.5425859982051
 20
-1877.667220030345
 30
0.0
 11
-153.5425859982051
 21
-2081.589053898636
 31
0.0
  0
LINE
  5
855
330
850
100
AcDbEntity
  8
ﾚｲﾔ1
 62
     1
370
    -2
100
AcDbLine
 10
-428.5426164527489
 20
-2081.089053898636
 30
0.0
 11
-173.5425859982051
 21
-2081.089053898636
 31
0.0
  0
SOLID
  5
856
330
850
100
AcDbEntity
  8
ﾚｲﾔ1
 62
     1
100
AcDbTrace
 10
-428.5426164527489
 20
-2077.755720565303
 30
0.0
 11
-428.5426164527489
 21
-2084.42238723197
 31
0.0
 12
-448.5426164527489
 22
-2081.089053898636
 32
0.0
 13
-448.5426164527489
 23
-2081.089053898636
 33
0.0
  0
SOLID
  5
857
330
850
100
AcDbEntity
  8
ﾚｲﾔ1
 62
     1
100
AcDbTrace
 10
-173.5425859982051
 20
-2084.42238723197
 30
0.0
 11
-173.5425859982051
 21
-2077.755720565303
 31
0.0
 12
-153.5425859982051
 22
-2081.089053898636
 32
0.0
 13
-153.5425859982051
 23
-2081.089053898636
 33
0.0
  0
MTEXT
  5
858
330
850
100
AcDbEntity
  8
ﾚｲﾔ1
 62
     1
100
AcDbMText
 10
-301.042601225477
 20
-2070.589053898636
 30
0.0
 40
20.0
 41
0.0
 71
     5
 72
     1
  1
\A1;295
  7
TextStyle01
 73
     1
 44
1.0
  0
POINT
  5
859
330
850
100
AcDbEntity
  8
Defpoints
 62
     0
100
AcDbPoint
 10
-448.5426164527489
 20
-1852.669669182439
 30
0.0
  0
POINT
  5
85A
330
850
100
AcDbEntity
  8
Defpoints
 62
     0
100
AcDbPoint
 10
-153.5425859982051
 20
-1877.604720030345
 30
0.0
  0
POINT
  5
85B
330
850
100
AcDbEntity
  8
Defpoints
 62
     0
100
AcDbPoint
 10
-153.5425859982051
 20
-2081.089053898636
 30
0.0
  0
ENDBLK
  5
852
330
850
100
AcDbEntity
  8
0
100
AcDbBlockEnd
  0
BLOCK
  5
A88
330
A87
100
AcDbEntity
  8
0
100
AcDbBlockBegin
  2
*D21
 70
     1
 10
0.0
 20
0.0
 30
0.0
  3
*D21
  1

  0
LINE
  5
A8A
330
A87
100
AcDbEntity
  8
寸法
 62
     1
370
    -2
100
AcDbLine
 10
-1129.059914626533
 20
-1478.26024793356
 30
0.0
 11
-1129.059914626533
 21
-1401.027617365803
 31
0.0
  0
LINE
  5
A8B
330
A87
100
AcDbEntity
  8
寸法
 62
     1
370
    -2
100
AcDbLine
 10
-369.1578759901695
 20
-1519.123884297197
 30
0.0
 11
-369.1578759901695
 21
-1401.027617365803
 31
0.0
  0
LINE
  5
A8C
330
A87
100
AcDbEntity
  8
寸法
 62
     1
370
    -2
100
AcDbLine
 10
-1124.059914626533
 20
-1401.527617365803
 30
0.0
 11
-374.1578759901695
 21
-1401.527617365803
 31
0.0
  0
INSERT
  5
A8D
330
A87
100
AcDbEntity
  8
寸法
 62
     1
370
    -2
100
AcDbBlockReference
  2
_Open30
 10
-1129.059914626533
 20
-1401.527617365803
 30
0.0
 41
5.0
 42
5.0
 43
5.0
 50
180.0
  0
INSERT
  5
A8E
330
A87
100
AcDbEntity
  8
寸法
 62
     1
370
    -2
100
AcDbBlockReference
  2
_Open30
 10
-369.1578759901695
 20
-1401.527617365803
 30
0.0
 41
5.0
 42
5.0
 43
5.0
  0
MTEXT
  5
A8F
330
A87
100
AcDbEntity
  8
寸法
 62
     1
100
AcDbMText
 10
-749.1088953083511
 20
-1395.527617365803
 30
0.0
 40
10.0
 41
0.0
 71
     5
 72
     1
  1
\A1;760
 73
     1
 44
1.0
  0
POINT
  5
A90
330
A87
100
AcDbEntity
  8
Defpoints
 62
     0
100
AcDbPoint
 10
-1129.059914626533
 20
-1478.76024793356
 30
0.0
  0
POINT
  5
A91
330
A87
100
AcDbEntity
  8
Defpoints
 62
     0
100
AcDbPoint
 10
-369.1578759901695
 20
-1519.623884297197
 30
0.0
  0
POINT
  5
A92
330
A87
100
AcDbEntity
  8
Defpoints
 62
     0
100
AcDbPoint
 10
-369.1578759901695
 20
-1401.527617365803
 30
0.0
  0
ENDBLK
  5
A89
330
A87
100
AcDbEntity
  8
0
100
AcDbBlockEnd
  0
ENDSEC
  0
SECTION
  2
ENTITIES
  0
LINE
  5
FB
330
1E
100
AcDbEntity
  8
ﾚｲﾔ1
100
AcDbLine
 10
-496.4665472022903
 20
-1792.218259297197
 30
0.0
 11
-494.7575608386533
 21
-1829.3001123275
 31
0.0
  0
LWPOLYLINE
  5
FC
330
1E
100
AcDbEntity
  8
ﾚｲﾔ1
100
AcDbPolyline
 90
        9
 70
     0
 43
0.0
 10
-379.9235949295623
 20
-1553.532975206288
 10
-369.1578759901695
 20
-1549.820859297196
 10
-369.1578759901695
 20
-1520.123884297197
 10
-379.9235949295623
 20
-1516.411768388106
 10
-496.4665472022903
 20
-1516.411768388106
 10
-506.8904593235015
 20
-1520.123884297197
 10
-506.8904593235015
 20
-1549.820859297196
 10
-496.4665472022903
 20
-1553.532975206288
 10
-379.9235949295623
 20
-1553.532975206288
  0
LINE
  5
107
330
1E
100
AcDbEntity
  8
ﾚｲﾔ1
100
AcDbLine
 10
-379.9235949295623
 20
-1553.532975206288
 30
0.0
 11
-379.9235949295623
 21
-1516.411768388106
 31
0.0
  0
LINE
  5
108
330
1E
100
AcDbEntity
  8
ﾚｲﾔ1
100
AcDbLine
 10
-496.4665472022903
 20
-1516.411768388106
 30
0.0
 11
-496.4665472022903
 21
-1553.532975206288
 31
0.0
  0
LINE
  5
109
330
1E
100
AcDbEntity
  8
ﾚｲﾔ1
100
AcDbLine
 10
-506.8904593235015
 20
-1549.820859297196
 30
0.0
 11
-941.6196684144115
 21
-1549.820859297196
 31
0.0
  0
LINE
  5
10A
330
1E
100
AcDbEntity
  8
ﾚｲﾔ1
100
AcDbLine
 10
-941.6196684144115
 20
-1520.123884297197
 30
0.0
 11
-506.8904593235015
 21
-1520.123884297197
 31
0.0
  0
LWPOLYLINE
  5
10B
330
1E
100
AcDbEntity
  8
ﾚｲﾔ1
100
AcDbPolyline
 90
        4
 70
     0
 43
0.0
 10
-581.4493949295634
 20
-1520.123884297197
 10
-581.4493949295634
 20
-1479.820859297196
 10
-510.5562638689576
 20
-1479.820859297196
 10
-510.5562638689576
 20
-1520.123884297197
  0
LWPOLYLINE
  5
111
330
1E
100
AcDbEntity
  8
ﾚｲﾔ1
100
AcDbPolyline
 90
        4
 70
     0
 43
0.0
 10
-581.4493949295634
 20
-1549.820859297196
 10
-581.4493949295634
 20
-1590.123884297196
 10
-510.5562638689576
 20
-1590.123884297196
 10
-510.5562638689576
 20
-1549.820859297196
  0
ARC
  5
117
330
1E
100
AcDbEntity
  8
ﾚｲﾔ1
100
AcDbCircle
 10
-528.5233299597985
 20
-1490.951961104587
 30
0.0
 40
11.1312053472535
100
AcDbArc
 50
0.2458936112111747
 51
89.7528727345015
  0
ARC
  5
118
330
1E
100
AcDbEntity
  8
ﾚｲﾔ1
100
AcDbCircle
 10
-528.5562227219434
 20
-1578.959890436009
 30
0.0
 40
11.16428700445685
100
AcDbArc
 50
270.4152054517434
 51
359.5860282032168
  0
LINE
  5
119
330
1E
100
AcDbEntity
  8
ﾚｲﾔ1
100
AcDbLine
 10
-517.3922252325933
 20
-1490.904187327499
 30
0.0
 11
-517.3922252325933
 21
-1520.123884297197
 31
0.0
  0
LINE
  5
11A
330
1E
100
AcDbEntity
  8
ﾚｲﾔ1
100
AcDbLine
 10
-517.3922252325933
 20
-1549.820859297196
 30
0.0
 11
-517.3922252325933
 21
-1579.040550963864
 31
0.0
  0
LWPOLYLINE
  5
11B
330
1E
100
AcDbEntity
  8
ﾚｲﾔ1
100
AcDbPolyline
 90
        4
 70
     0
 43
0.0
 10
-581.4493949295634
 20
-1590.123884297196
 10
-581.4493949295634
 20
-1615.578429751742
 10
-510.5562638689576
 20
-1615.578429751742
 10
-510.5562638689576
 20
-1590.123884297196
  0
LWPOLYLINE
  5
121
330
1E
100
AcDbEntity
  8
ﾚｲﾔ1
100
AcDbPolyline
 90
        4
 70
     0
 43
0.0
 10
-581.4493949295634
 20
-1479.820859297196
 10
-581.4493949295634
 20
-1454.366313842651
 10
-510.5562638689576
 20
-1454.366313842651
 10
-510.5562638689576
 20
-1479.820859297196
  0
ARC
  5
127
330
1E
100
AcDbEntity
  8
ﾚｲﾔ1
100
AcDbCircle
 10
-548.7123389004073
 20
-1994.762560040173
 30
0.0
 40
5.303030303030302
100
AcDbArc
 50
272.6387214209247
 51
2.638721420924799
  0
ARC
  5
128
330
1E
100
AcDbEntity
  8
ﾚｲﾔ1
100
AcDbCircle
 10
-527.9870394430163
 20
-1868.523040462069
 30
0.0
 40
10.6060606060606
100
AcDbArc
 50
2.638721420925913
 51
92.63872142092474
  0
LINE
  5
129
330
1E
100
AcDbEntity
  8
ﾚｲﾔ1
100
AcDbLine
 10
-999.6027843235024
 20
-1887.073185812348
 30
0.0
 11
-581.1075987174413
 21
-1867.786006266894
 31
0.0
  0
LINE
  5
12A
330
1E
100
AcDbEntity
  8
ﾚｲﾔ1
100
AcDbLine
 10
-995.2082426568354
 20
-1982.42651763053
 30
0.0
 11
-576.7130517477453
 21
-1963.139343388105
 31
0.0
  0
ARC
  5
12B
330
1E
100
AcDbEntity
  8
ﾚｲﾔ1
100
AcDbCircle
 10
-549.6400764578993
 20
-1974.632409201437
 30
0.0
 40
5.303030303030302
100
AcDbArc
 50
2.638721420924799
 51
92.6387214209247
  0
LWPOLYLINE
  5
12C
330
1E
100
AcDbEntity
  8
ﾚｲﾔ1
100
AcDbPolyline
 90
        3
 70
     0
 43
0.0
 10
-581.4493949295634
 20
-1860.369638842651
 10
-576.3712555356233
 20
-1970.555710812348
 10
-549.8842259901685
 20
-1969.335006266893
  0
LINE
  5
131
330
1E
100
AcDbEntity
  8
ﾚｲﾔ1
100
AcDbLine
 10
-528.4753199295624
 20
-1857.928224448712
 30
0.0
 11
-581.4493949295625
 21
-1860.369638842651
 31
0.0
  0
LINE
  5
132
330
1E
100
AcDbEntity
  8
ﾚｲﾔ1
100
AcDbLine
 10
-517.3922252325933
 20
-1868.034755509318
 30
0.0
 11
-510.5562638689576
 21
-2016.3621623275
 31
0.0
  0
LWPOLYLINE
  5
133
330
1E
100
AcDbEntity
  8
ﾚｲﾔ1
100
AcDbPolyline
 90
        9
 70
     0
 43
0.0
 10
-496.4665472022903
 20
-1792.218259297197
 10
-506.8904593235015
 20
-1796.414722175984
 10
-505.5232744750174
 20
-1826.080213085075
 10
-494.7575608386533
 20
-1829.300112327499
 10
-378.2146032628955
 20
-1823.928996418409
 10
-367.7906858386534
 20
-1819.732533539621
 10
-369.1578759901695
 20
-1790.06704793356
 10
-379.9235949295623
 20
-1786.847148691136
 10
-496.4665472022903
 20
-1792.218259297197
  0
LINE
  5
13E
330
1E
100
AcDbEntity
  8
ﾚｲﾔ1
100
AcDbLine
 10
-496.4665472022903
 20
-1792.218259297197
 30
0.0
 11
-494.7575608386533
 21
-1829.3001123275
 31
0.0
  0
LINE
  5
13F
330
1E
100
AcDbEntity
  8
ﾚｲﾔ1
100
AcDbLine
 10
-506.8904593235015
 20
-1796.414722175984
 30
0.0
 11
-941.2778722022904
 21
-1816.434319145681
 31
0.0
  0
LINE
  5
140
330
1E
100
AcDbEntity
  8
ﾚｲﾔ1
100
AcDbLine
 10
-939.9106873538053
 20
-1846.099804751742
 30
0.0
 11
-505.5232744750174
 21
-1826.080213085075
 31
0.0
  0
LINE
  5
141
330
1E
100
AcDbEntity
  8
ﾚｲﾔ1
100
AcDbLine
 10
-544.3426706871383
 20
-1974.388269145682
 30
0.0
 11
-543.4149320507745
 21
-1994.518418388106
 31
0.0
  0
LWPOLYLINE
  5
142
330
1E
100
AcDbEntity
  8
ﾚｲﾔ1
100
AcDbPolyline
 90
        4
 70
     0
 43
0.0
 10
-1026.431620687139
 20
-1880.87752293356
 10
-999.9445858386543
 20
-1879.656807782045
 10
-994.8664464447143
 20
-1989.842879751742
 10
-1021.353481293199
 20
-1991.063594903257
  0
LINE
  5
148
330
1E
100
AcDbEntity
  8
ﾚｲﾔ1
100
AcDbLine
 10
-574.2601722022905
 20
-2016.3621623275
 30
0.0
 11
-510.5562638689576
 21
-2016.3621623275
 31
0.0
  0
LINE
  5
149
330
1E
100
AcDbEntity
  8
ﾚｲﾔ1
100
AcDbLine
 10
-1073.274135838653
 20
-2016.3621623275
 30
0.0
 11
-1074.303146444714
 21
-1994.034750206287
 31
0.0
  0
LINE
  5
14A
330
1E
100
AcDbEntity
  8
ﾚｲﾔ1
100
AcDbLine
 10
-1121.540350232593
 20
-2005.756101721439
 30
0.0
 11
-1073.762942656836
 21
-2005.756101721439
 31
0.0
  0
LWPOLYLINE
  5
14B
330
1E
100
AcDbEntity
  8
ﾚｲﾔ1
100
AcDbPolyline
 90
        3
 70
     0
 43
0.0
 10
-1121.979812353805
 20
-1996.232018388106
 10
-1121.052068414413
 20
-2016.362162327499
 10
-1073.274135838653
 20
-2016.362162327499
  0
ARC
  5
150
330
1E
100
AcDbEntity
  8
ﾚｲﾔ1
100
AcDbCircle
 10
-1129.175956191159
 20
-1890.711770827857
 30
0.0
 40
28.84585441919997
100
AcDbArc
 50
272.8163404230827
 51
2.461102418765353
  0
ARC
  5
151
330
1E
100
AcDbEntity
  8
ﾚｲﾔ1
100
AcDbCircle
 10
-1060.950875545796
 20
-1887.567483922871
 30
0.0
 40
28.84585441919997
100
AcDbArc
 50
182.8163404230863
 51
272.4611024187694
  0
ARC
  5
152
330
1E
100
AcDbEntity
  8
ﾚｲﾔ1
100
AcDbCircle
 10
-1057.806588640811
 20
-1955.792564568237
 30
0.0
 40
28.84585441919997
100
AcDbArc
 50
92.8163404230827
 51
182.4611024187654
  0
ARC
  5
153
330
1E
100
AcDbEntity
  8
ﾚｲﾔ1
100
AcDbCircle
 10
-1126.031669286172
 20
-1958.936851473223
 30
0.0
 40
28.84585441919997
100
AcDbArc
 50
2.81634042308634
 51
92.46110241876944
  0
ARC
  5
154
330
1E
100
AcDbEntity
  8
ﾚｲﾔ1
100
AcDbCircle
 10
-1094.862099825807
 20
-1893.507804854421
 30
0.0
 40
6.816862198479574
100
AcDbArc
 50
41.56740026327479
 51
143.7100425786289
  0
ARC
  5
155
330
1E
100
AcDbEntity
  8
ﾚｲﾔ1
100
AcDbCircle
 10
-1123.23563525961
 20
-1924.62299510787
 30
0.0
 40
6.816862198479574
100
AcDbArc
 50
131.5674002632775
 51
233.7100425786289
  0
ARC
  5
156
330
1E
100
AcDbEntity
  8
ﾚｲﾔ1
100
AcDbCircle
 10
-1092.120445006162
 20
-1952.996530541673
 30
0.0
 40
6.816862198479574
100
AcDbArc
 50
221.5674002632748
 51
323.7100425786289
  0
ARC
  5
157
330
1E
100
AcDbEntity
  8
ﾚｲﾔ1
100
AcDbCircle
 10
-1063.746909572359
 20
-1921.881340288225
 30
0.0
 40
6.816862198479574
100
AcDbArc
 50
311.5674002632775
 51
53.71004257862892
  0
ARC
  5
158
330
1E
100
AcDbEntity
  8
ﾚｲﾔ1
100
AcDbCircle
 10
-1092.540150348034
 20
-1944.469702356433
 30
0.0
 40
13.23090398453808
100
AcDbArc
 50
182.5230923820085
 51
249.0869502918219
  0
ARC
  5
159
330
1E
100
AcDbEntity
  8
ﾚｲﾔ1
100
AcDbCircle
 10
-1092.486804236423
 20
-1944.467243796053
 30
0.0
 40
13.23090398453808
100
AcDbArc
 50
296.1904925500308
 51
2.75435045984243
  0
LINE
  5
15A
330
1E
100
AcDbEntity
  8
ﾚｲﾔ1
100
AcDbLine
 10
-1105.758229778049
 20
-1945.052154751742
 30
0.0
 11
-1106.078384323503
 21
-1938.105397175985
 31
0.0
  0
LINE
  5
15B
330
1E
100
AcDbEntity
  8
ﾚｲﾔ1
100
AcDbLine
 10
-1079.271189626532
 20
-1943.831450206288
 30
0.0
 11
-1079.591338868956
 21
-1936.8846873275
 31
0.0
  0
LWPOLYLINE
  5
15C
330
1E
100
AcDbEntity
  8
ﾚｲﾔ1
100
AcDbPolyline
 90
        5
 70
     0
 43
0.0
 10
-1125.027241141684
 20
-1930.108496418409
 10
-1121.979812353805
 20
-1996.232018388106
 10
-1021.329060838653
 20
-1991.593330509318
 10
-1026.456035838654
 20
-1880.347776721439
 10
-1127.106776747744
 20
-1884.986464600226
  0
LINE
  5
163
330
1E
100
AcDbEntity
  8
ﾚｲﾔ1
100
AcDbLine
 10
-1125.524198717442
 20
-1919.3255373275
 30
0.0
 11
-1129.059914626533
 21
-1842.607202479015
 31
0.0
  0
LINE
  5
164
330
1E
100
AcDbEntity
  8
ﾚｲﾔ1
100
AcDbLine
 10
-379.9235949295623
 20
-1786.847148691136
 30
0.0
 11
-378.2146032628955
 21
-1823.928996418409
 31
0.0
  0
LWPOLYLINE
  5
165
330
1E
100
AcDbEntity
  8
ﾚｲﾔ1
100
AcDbPolyline
 90
        5
 70
     0
 43
0.0
 10
-941.6196684144115
 20
-1809.017946418409
 10
-1003.069597959865
 20
-1811.84999263053
 10
-1001.018804778048
 20
-1856.348218388105
 10
-939.5688858386534
 20
-1853.516177479015
 10
-941.6196684144115
 20
-1809.017946418409
  0
LINE
  5
16C
330
1E
100
AcDbEntity
  8
ﾚｲﾔ1
100
AcDbLine
 10
-1115.286656293199
 20
-1841.972429751742
 30
0.0
 11
-1077.757969929562
 21
-1861.477484297197
 31
0.0
  0
LWPOLYLINE
  5
16D
330
1E
100
AcDbEntity
  8
ﾚｲﾔ1
100
AcDbPolyline
 90
        4
 70
     0
 43
0.0
 10
-1115.286656293199
 20
-1841.972429751742
 10
-1116.507360838653
 20
-1815.485400206287
 10
-1003.142838111381
 20
-1810.260769903257
 10
-1003.069597959865
 20
-1811.84999263053
  0
LWPOLYLINE
  5
173
330
1E
100
AcDbEntity
  8
ﾚｲﾔ1
100
AcDbPolyline
 90
        3
 70
     0
 43
0.0
 10
-1001.018804778048
 20
-1856.348218388105
 10
-1000.945569929562
 20
-1857.937430509318
 10
-1077.757969929562
 20
-1861.477484297197
  0
LWPOLYLINE
  5
178
330
1E
100
AcDbEntity
  8
ﾚｲﾔ1
100
AcDbPolyline
 90
        4
 70
     0
 43
0.0
 10
-1100.619741899261
 20
-1883.765754751742
 10
-1101.108018414412
 20
-1873.170941872954
 10
-1053.43135250532
 20
-1870.973668388106
 10
-1052.943065384107
 20
-1881.568486569924
  0
LINE
  5
17E
330
1E
100
AcDbEntity
  8
ﾚｲﾔ1
100
AcDbLine
 10
-1094.074789626532
 20
-1852.997032024469
 30
0.0
 11
-1093.161904778047
 21
-1872.804735812348
 31
0.0
  0
LINE
  5
17F
330
1E
100
AcDbEntity
  8
ﾚｲﾔ1
100
AcDbLine
 10
-1061.865742656835
 20
-1860.745061569924
 30
0.0
 11
-1061.377460838653
 21
-1871.339879751742
 31
0.0
  0
LINE
  5
180
330
1E
100
AcDbEntity
  8
ﾚｲﾔ1
100
AcDbLine
 10
-1172.643744171987
 20
-1881.776466115378
 30
0.0
 11
-1171.471869929564
 21
-1907.204019145682
 31
0.0
  0
LINE
  5
181
330
1E
100
AcDbEntity
  8
ﾚｲﾔ1
100
AcDbLine
 10
-1156.22179189926
 20
-1881.01962293356
 30
0.0
 11
-1155.049907050775
 21
-1906.447175963863
 31
0.0
  0
LWPOLYLINE
  5
182
330
1E
100
AcDbEntity
  8
ﾚｲﾔ1
100
AcDbPolyline
 90
        4
 70
     1
 43
0.0
 10
-1148.010797202291
 20
-1880.641198691136
 10
-1180.854733565926
 20
-1882.154879751741
 10
-1179.682854020471
 20
-1907.582438085075
 10
-1146.838922959866
 20
-1906.06875702447
  0
LWPOLYLINE
  5
188
330
1E
100
AcDbEntity
  8
ﾚｲﾔ1
100
AcDbPolyline
 90
        4
 70
     1
 43
0.0
 10
-1156.954209323502
 20
-1865.127400963863
 10
-1173.37617220229
 20
-1865.884238842651
 10
-1172.887890384108
 20
-1876.479051721439
 10
-1156.46592750532
 20
-1875.722213842651
  0
LWPOLYLINE
  5
18E
330
1E
100
AcDbEntity
  8
ﾚｲﾔ1
100
AcDbPolyline
 90
        4
 70
     0
 43
0.0
 10
-1173.37617220229
 20
-1865.884238842651
 10
-1181.587156293198
 20
-1866.262663085075
 10
-1181.098874475018
 20
-1876.857470660833
 10
-1172.887890384108
 20
-1876.479051721439
  0
LWPOLYLINE
  5
194
330
1E
100
AcDbEntity
  8
ﾚｲﾔ1
100
AcDbPolyline
 90
        4
 70
     0
 43
0.0
 10
-1156.46592750532
 20
-1875.722213842651
 10
-1148.254943414412
 20
-1875.343789600227
 10
-1148.743230535624
 20
-1864.748982024469
 10
-1156.954209323502
 20
-1865.127400963863
  0
LINE
  5
19A
330
1E
100
AcDbEntity
  8
ﾚｲﾔ1
100
AcDbLine
 10
-1173.152760838654
 20
-1876.491259297196
 30
0.0
 11
-1172.908619929563
 21
-1881.788668388106
 31
0.0
  0
LINE
  5
19B
330
1E
100
AcDbEntity
  8
ﾚｲﾔ1
100
AcDbLine
 10
-1156.201051747744
 20
-1875.710006266894
 30
0.0
 11
-1155.956910838654
 21
-1881.007420660833
 31
0.0
  0
LWPOLYLINE
  5
19C
330
1E
100
AcDbEntity
  8
ﾚｲﾔ1
100
AcDbPolyline
 90
        4
 70
     1
 43
0.0
 10
-1146.795629020472
 20
-1745.745259297196
 10
-1194.472294929562
 20
-1747.942532782045
 10
-1189.589460838653
 20
-1853.890677479015
 10
-1141.912794929563
 20
-1851.693409297197
  0
LINE
  5
1A2
330
1E
100
AcDbEntity
  8
ﾚｲﾔ1
100
AcDbLine
 10
-1173.641042656836
 20
-1865.896451721439
 30
0.0
 11
-1174.226979778049
 21
-1853.182664600227
 31
0.0
  0
LINE
  5
1A3
330
1E
100
AcDbEntity
  8
ﾚｲﾔ1
100
AcDbLine
 10
-1156.689333565927
 20
-1865.115193388106
 30
0.0
 11
-1157.275270687138
 21
-1852.401416872954
 31
0.0
  0
LWPOLYLINE
  5
1A4
330
1E
100
AcDbEntity
  8
ﾚｲﾔ1
100
AcDbPolyline
 90
        4
 70
     1
 43
0.0
 10
-1125.83723659623
 20
-1912.532975963863
 10
-1136.432054778048
 20
-1913.021263085075
 10
-1135.064864626533
 20
-1942.686743388106
 10
-1124.470051747744
 20
-1942.198461569924
  0
LINE
  5
1AA
330
1E
100
AcDbEntity
  8
ﾚｲﾔ1
100
AcDbLine
 10
-1151.984766141684
 20
-1917.984968388106
 30
0.0
 11
-1136.236738868957
 21
-1917.259190357802
 31
0.0
  0
LINE
  5
1AB
330
1E
100
AcDbEntity
  8
ﾚｲﾔ1
100
AcDbLine
 10
-1135.406660838654
 20
-1935.270381266894
 30
0.0
 11
-1124.811853262896
 21
-1934.782094145682
 31
0.0
  0
LINE
  5
1AC
330
1E
100
AcDbEntity
  8
ﾚｲﾔ1
100
AcDbLine
 10
-1135.260180535623
 20
-1938.448816115379
 30
0.0
 11
-1151.00819720229
 21
-1939.174594145681
 31
0.0
  0
LINE
  5
1AD
330
1E
100
AcDbEntity
  8
ﾚｲﾔ1
100
AcDbLine
 10
-1136.090258565926
 20
-1920.437625206288
 30
0.0
 11
-1128.317506293198
 21
-1920.079410812348
 31
0.0
  0
LINE
  5
1AE
330
1E
100
AcDbEntity
  8
ﾚｲﾔ1
100
AcDbLine
 10
-544.3426706871383
 20
-1974.388269145682
 30
0.0
 11
-543.4149320507745
 21
-1994.518418388106
 31
0.0
  0
LWPOLYLINE
  5
1AF
330
1E
100
AcDbEntity
  8
ﾚｲﾔ1
100
AcDbPolyline
 90
        4
 70
     0
 43
0.0
 10
-1026.431620687139
 20
-1880.87752293356
 10
-999.9445858386543
 20
-1879.656807782045
 10
-994.8664464447143
 20
-1989.842879751742
 10
-1021.353481293199
 20
-1991.063594903257
  0
LINE
  5
1B5
330
1E
100
AcDbEntity
  8
ﾚｲﾔ1
100
AcDbLine
 10
-574.2601722022905
 20
-2016.3621623275
 30
0.0
 11
-510.5562638689576
 21
-2016.3621623275
 31
0.0
  0
LINE
  5
1B6
330
1E
100
AcDbEntity
  8
ﾚｲﾔ1
100
AcDbLine
 10
-1073.274135838653
 20
-2016.3621623275
 30
0.0
 11
-1074.303146444714
 21
-1994.034750206287
 31
0.0
  0
LINE
  5
1B7
330
1E
100
AcDbEntity
  8
ﾚｲﾔ1
100
AcDbLine
 10
-1121.540350232593
 20
-2005.756101721439
 30
0.0
 11
-1073.762942656836
 21
-2005.756101721439
 31
0.0
  0
LWPOLYLINE
  5
1B8
330
1E
100
AcDbEntity
  8
ﾚｲﾔ1
100
AcDbPolyline
 90
        3
 70
     0
 43
0.0
 10
-1121.979812353805
 20
-1996.232018388106
 10
-1121.052068414413
 20
-2016.362162327499
 10
-1073.274135838653
 20
-2016.362162327499
  0
ARC
  5
1BD
330
1E
100
AcDbEntity
  8
ﾚｲﾔ1
100
AcDbCircle
 10
-1129.175956191159
 20
-1890.711770827857
 30
0.0
 40
28.84585441919997
100
AcDbArc
 50
272.8163404230827
 51
2.461102418765353
  0
ARC
  5
1BE
330
1E
100
AcDbEntity
  8
ﾚｲﾔ1
100
AcDbCircle
 10
-1060.950875545796
 20
-1887.567483922871
 30
0.0
 40
28.84585441919997
100
AcDbArc
 50
182.8163404230863
 51
272.4611024187694
  0
ARC
  5
1BF
330
1E
100
AcDbEntity
  8
ﾚｲﾔ1
100
AcDbCircle
 10
-1057.806588640811
 20
-1955.792564568237
 30
0.0
 40
28.84585441919997
100
AcDbArc
 50
92.8163404230827
 51
182.4611024187654
  0
ARC
  5
1C0
330
1E
100
AcDbEntity
  8
ﾚｲﾔ1
100
AcDbCircle
 10
-1126.031669286172
 20
-1958.936851473223
 30
0.0
 40
28.84585441919997
100
AcDbArc
 50
2.81634042308634
 51
92.46110241876944
  0
ARC
  5
1C1
330
1E
100
AcDbEntity
  8
ﾚｲﾔ1
100
AcDbCircle
 10
-1094.862099825807
 20
-1893.507804854421
 30
0.0
 40
6.816862198479574
100
AcDbArc
 50
41.56740026327479
 51
143.7100425786289
  0
ARC
  5
1C2
330
1E
100
AcDbEntity
  8
ﾚｲﾔ1
100
AcDbCircle
 10
-1123.23563525961
 20
-1924.62299510787
 30
0.0
 40
6.816862198479574
100
AcDbArc
 50
131.5674002632775
 51
233.7100425786289
  0
ARC
  5
1C3
330
1E
100
AcDbEntity
  8
ﾚｲﾔ1
100
AcDbCircle
 10
-1092.120445006162
 20
-1952.996530541673
 30
0.0
 40
6.816862198479574
100
AcDbArc
 50
221.5674002632748
 51
323.7100425786289
  0
ARC
  5
1C4
330
1E
100
AcDbEntity
  8
ﾚｲﾔ1
100
AcDbCircle
 10
-1063.746909572359
 20
-1921.881340288225
 30
0.0
 40
6.816862198479574
100
AcDbArc
 50
311.5674002632775
 51
53.71004257862892
  0
ARC
  5
1C5
330
1E
100
AcDbEntity
  8
ﾚｲﾔ1
100
AcDbCircle
 10
-1092.540150348034
 20
-1944.469702356433
 30
0.0
 40
13.23090398453808
100
AcDbArc
 50
182.5230923820085
 51
249.0869502918219
  0
ARC
  5
1C6
330
1E
100
AcDbEntity
  8
ﾚｲﾔ1
100
AcDbCircle
 10
-1092.486804236423
 20
-1944.467243796053
 30
0.0
 40
13.23090398453808
100
AcDbArc
 50
296.1904925500308
 51
2.75435045984243
  0
LINE
  5
1C7
330
1E
100
AcDbEntity
  8
ﾚｲﾔ1
100
AcDbLine
 10
-1105.758229778049
 20
-1945.052154751742
 30
0.0
 11
-1106.078384323503
 21
-1938.105397175985
 31
0.0
  0
LINE
  5
1C8
330
1E
100
AcDbEntity
  8
ﾚｲﾔ1
100
AcDbLine
 10
-1079.271189626532
 20
-1943.831450206288
 30
0.0
 11
-1079.591338868956
 21
-1936.8846873275
 31
0.0
  0
LWPOLYLINE
  5
1C9
330
1E
100
AcDbEntity
  8
ﾚｲﾔ1
100
AcDbPolyline
 90
        5
 70
     0
 43
0.0
 10
-1125.027241141684
 20
-1930.108496418409
 10
-1121.979812353805
 20
-1996.232018388106
 10
-1021.329060838653
 20
-1991.593330509318
 10
-1026.456035838654
 20
-1880.347776721439
 10
-1127.106776747744
 20
-1884.986464600226
  0
LINE
  5
1D0
330
1E
100
AcDbEntity
  8
ﾚｲﾔ1
100
AcDbLine
 10
-1125.524198717442
 20
-1919.3255373275
 30
0.0
 11
-1129.059914626533
 21
-1842.607202479015
 31
0.0
  0
LINE
  5
1D1
330
1E
100
AcDbEntity
  8
ﾚｲﾔ1
100
AcDbLine
 10
-379.9235949295623
 20
-1786.847148691136
 30
0.0
 11
-378.2146032628955
 21
-1823.928996418409
 31
0.0
  0
LWPOLYLINE
  5
1D2
330
1E
100
AcDbEntity
  8
ﾚｲﾔ1
100
AcDbPolyline
 90
        5
 70
     0
 43
0.0
 10
-941.6196684144115
 20
-1809.017946418409
 10
-1003.069597959865
 20
-1811.84999263053
 10
-1001.018804778048
 20
-1856.348218388105
 10
-939.5688858386534
 20
-1853.516177479015
 10
-941.6196684144115
 20
-1809.017946418409
  0
LINE
  5
1D9
330
1E
100
AcDbEntity
  8
ﾚｲﾔ1
100
AcDbLine
 10
-1115.286656293199
 20
-1841.972429751742
 30
0.0
 11
-1077.757969929562
 21
-1861.477484297197
 31
0.0
  0
LWPOLYLINE
  5
1DA
330
1E
100
AcDbEntity
  8
ﾚｲﾔ1
100
AcDbPolyline
 90
        4
 70
     0
 43
0.0
 10
-1115.286656293199
 20
-1841.972429751742
 10
-1116.507360838653
 20
-1815.485400206287
 10
-1003.142838111381
 20
-1810.260769903257
 10
-1003.069597959865
 20
-1811.84999263053
  0
LWPOLYLINE
  5
1E0
330
1E
100
AcDbEntity
  8
ﾚｲﾔ1
100
AcDbPolyline
 90
        3
 70
     0
 43
0.0
 10
-1001.018804778048
 20
-1856.348218388105
 10
-1000.945569929562
 20
-1857.937430509318
 10
-1077.757969929562
 20
-1861.477484297197
  0
LWPOLYLINE
  5
1E5
330
1E
100
AcDbEntity
  8
ﾚｲﾔ1
100
AcDbPolyline
 90
        4
 70
     0
 43
0.0
 10
-1100.619741899261
 20
-1883.765754751742
 10
-1101.108018414412
 20
-1873.170941872954
 10
-1053.43135250532
 20
-1870.973668388106
 10
-1052.943065384107
 20
-1881.568486569924
  0
LINE
  5
1EB
330
1E
100
AcDbEntity
  8
ﾚｲﾔ1
100
AcDbLine
 10
-1094.074789626532
 20
-1852.997032024469
 30
0.0
 11
-1093.161904778047
 21
-1872.804735812348
 31
0.0
  0
LINE
  5
1EC
330
1E
100
AcDbEntity
  8
ﾚｲﾔ1
100
AcDbLine
 10
-1061.865742656835
 20
-1860.745061569924
 30
0.0
 11
-1061.377460838653
 21
-1871.339879751742
 31
0.0
  0
LINE
  5
1ED
330
1E
100
AcDbEntity
  8
ﾚｲﾔ1
100
AcDbLine
 10
-1172.643744171987
 20
-1881.776466115378
 30
0.0
 11
-1171.471869929564
 21
-1907.204019145682
 31
0.0
  0
LINE
  5
1EE
330
1E
100
AcDbEntity
  8
ﾚｲﾔ1
100
AcDbLine
 10
-1156.22179189926
 20
-1881.01962293356
 30
0.0
 11
-1155.049907050775
 21
-1906.447175963863
 31
0.0
  0
LWPOLYLINE
  5
1EF
330
1E
100
AcDbEntity
  8
ﾚｲﾔ1
100
AcDbPolyline
 90
        4
 70
     1
 43
0.0
 10
-1148.010797202291
 20
-1880.641198691136
 10
-1180.854733565926
 20
-1882.154879751741
 10
-1179.682854020471
 20
-1907.582438085075
 10
-1146.838922959866
 20
-1906.06875702447
  0
LWPOLYLINE
  5
1F5
330
1E
100
AcDbEntity
  8
ﾚｲﾔ1
100
AcDbPolyline
 90
        4
 70
     1
 43
0.0
 10
-1156.954209323502
 20
-1865.127400963863
 10
-1173.37617220229
 20
-1865.884238842651
 10
-1172.887890384108
 20
-1876.479051721439
 10
-1156.46592750532
 20
-1875.722213842651
  0
LWPOLYLINE
  5
1FB
330
1E
100
AcDbEntity
  8
ﾚｲﾔ1
100
AcDbPolyline
 90
        4
 70
     0
 43
0.0
 10
-1173.37617220229
 20
-1865.884238842651
 10
-1181.587156293198
 20
-1866.262663085075
 10
-1181.098874475018
 20
-1876.857470660833
 10
-1172.887890384108
 20
-1876.479051721439
  0
LWPOLYLINE
  5
201
330
1E
100
AcDbEntity
  8
ﾚｲﾔ1
100
AcDbPolyline
 90
        4
 70
     0
 43
0.0
 10
-1156.46592750532
 20
-1875.722213842651
 10
-1148.254943414412
 20
-1875.343789600227
 10
-1148.743230535624
 20
-1864.748982024469
 10
-1156.954209323502
 20
-1865.127400963863
  0
LINE
  5
207
330
1E
100
AcDbEntity
  8
ﾚｲﾔ1
100
AcDbLine
 10
-1173.152760838654
 20
-1876.491259297196
 30
0.0
 11
-1172.908619929563
 21
-1881.788668388106
 31
0.0
  0
LINE
  5
208
330
1E
100
AcDbEntity
  8
ﾚｲﾔ1
100
AcDbLine
 10
-1156.201051747744
 20
-1875.710006266894
 30
0.0
 11
-1155.956910838654
 21
-1881.007420660833
 31
0.0
  0
LWPOLYLINE
  5
209
330
1E
100
AcDbEntity
  8
ﾚｲﾔ1
100
AcDbPolyline
 90
        4
 70
     1
 43
0.0
 10
-1146.795629020472
 20
-1745.745259297196
 10
-1194.472294929562
 20
-1747.942532782045
 10
-1189.589460838653
 20
-1853.890677479015
 10
-1141.912794929563
 20
-1851.693409297197
  0
LINE
  5
20F
330
1E
100
AcDbEntity
  8
ﾚｲﾔ1
100
AcDbLine
 10
-1173.641042656836
 20
-1865.896451721439
 30
0.0
 11
-1174.226979778049
 21
-1853.182664600227
 31
0.0
  0
LINE
  5
210
330
1E
100
AcDbEntity
  8
ﾚｲﾔ1
100
AcDbLine
 10
-1156.689333565927
 20
-1865.115193388106
 30
0.0
 11
-1157.275270687138
 21
-1852.401416872954
 31
0.0
  0
LINE
  5
211
330
1E
100
AcDbEntity
  8
ﾚｲﾔ1
100
AcDbLine
 10
-1168.558294929563
 20
-1907.069741115378
 30
0.0
 11
-1168.218683565926
 21
-1914.438683539621
 31
0.0
  0
LINE
  5
212
330
1E
100
AcDbEntity
  8
ﾚｲﾔ1
100
AcDbLine
 10
-1157.963487353805
 20
-1906.581459297197
 30
0.0
 11
-1157.623870687139
 21
-1913.950401721439
 31
0.0
  0
LWPOLYLINE
  5
213
330
1E
100
AcDbEntity
  8
ﾚｲﾔ1
100
AcDbPolyline
 90
        4
 70
     1
 43
0.0
 10
-1125.83723659623
 20
-1912.532975963863
 10
-1136.432054778048
 20
-1913.021263085075
 10
-1135.064864626533
 20
-1942.686743388106
 10
-1124.470051747744
 20
-1942.198461569924
  0
LINE
  5
219
330
1E
100
AcDbEntity
  8
ﾚｲﾔ1
100
AcDbLine
 10
-1151.984766141684
 20
-1917.984968388106
 30
0.0
 11
-1136.236738868957
 21
-1917.259190357802
 31
0.0
  0
LINE
  5
21A
330
1E
100
AcDbEntity
  8
ﾚｲﾔ1
100
AcDbLine
 10
-1135.406660838654
 20
-1935.270381266894
 30
0.0
 11
-1124.811853262896
 21
-1934.782094145682
 31
0.0
  0
LINE
  5
21B
330
1E
100
AcDbEntity
  8
ﾚｲﾔ1
100
AcDbLine
 10
-1135.260180535623
 20
-1938.448816115379
 30
0.0
 11
-1151.00819720229
 21
-1939.174594145681
 31
0.0
  0
LINE
  5
21C
330
1E
100
AcDbEntity
  8
ﾚｲﾔ1
100
AcDbLine
 10
-1136.090258565926
 20
-1920.437625206288
 30
0.0
 11
-1128.317506293198
 21
-1920.079410812348
 31
0.0
  0
LINE
  5
21D
330
1E
100
AcDbEntity
  8
ﾚｲﾔ1
100
AcDbLine
 10
-1129.059914626533
 20
-1842.607202479015
 30
0.0
 11
-1115.286656293199
 21
-1841.972429751742
 31
0.0
  0
LWPOLYLINE
  5
21E
330
1E
100
AcDbEntity
  8
ﾚｲﾔ1
100
AcDbPolyline
 90
        4
 70
     1
 43
0.0
 10
-941.6196684144115
 20
-1512.699641872954
 10
-1003.069597959865
 20
-1512.699641872954
 10
-1003.069597959865
 20
-1557.245096418409
 10
-941.6196684144115
 20
-1557.245096418409
  0
LWPOLYLINE
  5
224
330
1E
100
AcDbEntity
  8
ﾚｲﾔ1
100
AcDbPolyline
 90
        4
 70
     1
 43
0.0
 10
-1003.069597959865
 20
-1511.108732782045
 10
-1116.507360838653
 20
-1511.108732782045
 10
-1116.507360838653
 20
-1558.836005509318
 10
-1003.069597959865
 20
-1558.836005509318
  0
LWPOLYLINE
  5
22A
330
1E
100
AcDbEntity
  8
ﾚｲﾔ1
100
AcDbPolyline
 90
        6
 70
     0
 43
0.0
 10
-999.9445858386543
 20
-1512.699641872954
 10
-999.9445858386543
 20
-1478.76024793356
 10
-1129.059914626533
 20
-1478.76024793356
 10
-1129.059914626533
 20
-1591.184495660833
 10
-999.9445858386543
 20
-1591.184495660833
 10
-999.9445858386543
 20
-1557.245096418409
  0
LWPOLYLINE
  5
232
330
1E
100
AcDbEntity
  8
ﾚｲﾔ1
100
AcDbPolyline
 90
        4
 70
     1
 43
0.0
 10
-1107.847788111381
 20
-1519.06327823659
 10
-1129.059914626533
 20
-1519.06327823659
 10
-1129.059914626533
 20
-1550.881460054772
 10
-1107.847788111381
 20
-1550.881460054772
  0
LINE
  5
238
330
1E
100
AcDbEntity
  8
ﾚｲﾔ1
100
AcDbLine
 10
-999.9445858386543
 20
-1487.245096418409
 30
0.0
 11
-581.4493949295625
 21
-1487.245096418409
 31
0.0
  0
LINE
  5
239
330
1E
100
AcDbEntity
  8
ﾚｲﾔ1
100
AcDbLine
 10
-581.4493949295625
 20
-1582.699641872954
 30
0.0
 11
-999.9445858386543
 21
-1582.699641872954
 31
0.0
  0
LWPOLYLINE
  5
23A
330
1E
100
AcDbEntity
  8
ﾚｲﾔ1
100
AcDbPolyline
 90
       64
 70
     1
 43
0.0
 10
-1144.39565250532
 20
-1558.329714600227
 10
-1144.130500990168
 20
-1558.064563085075
 10
-1143.918379778047
 20
-1557.322138842651
 10
-1143.653228262895
 20
-1556.049411569924
 10
-1143.441107050775
 20
-1554.299411569924
 10
-1143.228985838653
 20
-1552.072138842651
 10
-1143.016864626532
 20
-1549.420623691136
 10
-1142.857773717441
 20
-1546.291835812348
 10
-1142.64565250532
 20
-1542.791835812348
 10
-1142.486561596229
 20
-1538.920623691136
 10
-1142.327470687139
 20
-1534.784260054772
 10
-1142.221410081078
 20
-1530.276684297196
 10
-1142.115349475017
 20
-1525.61001763053
 10
-1142.062319171986
 20
-1520.678199448712
 10
-1142.009288868956
 20
-1515.640320660833
 10
-1141.956258565926
 20
-1510.496381266894
 10
-1141.956258565926
 20
-1505.299411569924
 10
-1141.956258565926
 20
-1500.102441872954
 10
-1142.009288868956
 20
-1494.958502479015
 10
-1142.062319171986
 20
-1489.920623691136
 10
-1142.115349475017
 20
-1484.988805509318
 10
-1142.221410081078
 20
-1480.322138842651
 10
-1142.327470687139
 20
-1475.814563085075
 10
-1142.486561596229
 20
-1471.678199448712
 10
-1142.64565250532
 20
-1467.806987327499
 10
-1142.857773717441
 20
-1464.3069873275
 10
-1143.016864626532
 20
-1461.231229751742
 10
-1143.228985838653
 20
-1458.526684297197
 10
-1143.441107050775
 20
-1456.299411569924
 10
-1143.653228262895
 20
-1454.549411569924
 10
-1143.918379778047
 20
-1453.276684297197
 10
-1144.130500990168
 20
-1452.534260054772
 10
-1144.39565250532
 20
-1452.269108539621
 10
-1144.607773717441
 20
-1452.534260054772
 10
-1144.872925232593
 20
-1453.276684297197
 10
-1145.085046444713
 20
-1454.549411569924
 10
-1145.297167656835
 20
-1456.299411569924
 10
-1145.509288868957
 20
-1458.526684297197
 10
-1145.721410081077
 20
-1461.231229751742
 10
-1145.933531293199
 20
-1464.3069873275
 10
-1146.092622202289
 20
-1467.806987327499
 10
-1146.251713111381
 20
-1471.678199448712
 10
-1146.410804020471
 20
-1475.814563085075
 10
-1146.516864626532
 20
-1480.322138842651
 10
-1146.622925232593
 20
-1484.988805509318
 10
-1146.728985838653
 20
-1489.920623691136
 10
-1146.782016141683
 20
-1494.958502479015
 10
-1146.835046444714
 20
-1500.102441872954
 10
-1146.835046444714
 20
-1505.299411569924
 10
-1146.835046444714
 20
-1510.496381266894
 10
-1146.782016141683
 20
-1515.640320660833
 10
-1146.728985838653
 20
-1520.678199448712
 10
-1146.622925232593
 20
-1525.61001763053
 10
-1146.516864626532
 20
-1530.276684297196
 10
-1146.410804020471
 20
-1534.784260054772
 10
-1146.251713111381
 20
-1538.920623691136
 10
-1146.092622202289
 20
-1542.791835812348
 10
-1145.933531293199
 20
-1546.291835812348
 10
-1145.721410081077
 20
-1549.420623691136
 10
-1145.509288868957
 20
-1552.072138842651
 10
-1145.297167656835
 20
-1554.299411569924
 10
-1145.085046444713
 20
-1556.049411569924
 10
-1144.872925232593
 20
-1557.322138842651
 10
-1144.607773717441
 20
-1558.064563085075
  0
LWPOLYLINE
  5
27C
330
1E
100
AcDbEntity
  8
ﾚｲﾔ1
100
AcDbPolyline
 90
       35
 70
     0
 43
0.0
 10
-1192.001941899261
 20
-1452.248898691136
 10
-1192.005510838653
 20
-1452.245091115378
 10
-1192.244815384108
 20
-1452.50044793356
 10
-1192.481802505321
 20
-1453.264052479015
 10
-1192.714213111381
 20
-1454.528554751742
 10
-1192.939804020472
 20
-1456.281784297197
 10
-1193.156390384108
 20
-1458.506845660833
 10
-1193.361888111382
 20
-1461.182309297197
 10
-1193.554329778047
 20
-1464.282418388105
 10
-1193.731854020471
 20
-1467.777311569924
 10
-1193.892747959866
 20
-1471.633325206288
 10
-1194.035473717442
 20
-1475.813338085076
 10
-1194.15864720229
 20
-1480.277084297197
 10
-1194.261085838654
 20
-1484.981577479015
 10
-1194.341797959865
 20
-1489.881513842651
 10
-1194.400019929562
 20
-1494.929701721439
 10
-1194.435173717442
 20
-1500.07751763053
 10
-1194.446925232593
 20
-1505.275394145681
 10
-1194.435173717442
 20
-1510.473281266893
 10
-1194.400019929562
 20
-1515.621097175985
 10
-1194.341797959865
 20
-1520.669279751742
 10
-1194.261085838654
 20
-1525.569216115378
 10
-1194.15864720229
 20
-1530.273709297196
 10
-1194.035473717442
 20
-1534.737460812348
 10
-1193.892747959866
 20
-1538.917468388106
 10
-1193.731854020471
 20
-1542.77348202447
 10
-1193.554329778047
 20
-1546.268375206288
 10
-1193.361888111382
 20
-1549.368484297196
 10
-1193.156390384108
 20
-1552.04394793356
 10
-1192.939804020472
 20
-1554.269009297197
 10
-1192.714213111381
 20
-1556.022238842651
 10
-1192.481802505321
 20
-1557.286741115378
 10
-1192.244815384108
 20
-1558.050345660833
 10
-1192.005510838653
 20
-1558.305702479015
 10
-1192.001941899261
 20
-1558.301889600227
  0
LINE
  5
2A1
330
1E
100
AcDbEntity
  8
ﾚｲﾔ1
100
AcDbLine
 10
-1192.005510838653
 20
-1452.245091115379
 30
0.0
 11
-1144.354214626532
 21
-1452.296493388106
 31
0.0
  0
LINE
  5
2A2
330
1E
100
AcDbEntity
  8
ﾚｲﾔ1
100
AcDbLine
 10
-1192.005510838653
 20
-1558.305702479015
 30
0.0
 11
-1144.354214626532
 21
-1558.305702479015
 31
0.0
  0
LINE
  5
2A3
330
1E
100
AcDbEntity
  8
ﾚｲﾔ1
100
AcDbLine
 10
-1175.858388111381
 20
-1980.771919145681
 30
0.0
 11
-1149.147846444715
 21
-1979.540916115379
 31
0.0
  0
LINE
  5
2A4
330
1E
100
AcDbEntity
  8
ﾚｲﾔ1
100
AcDbLine
 10
-1175.873040384108
 20
-1980.454071418409
 30
0.0
 11
-1149.162498717441
 21
-1979.223068388106
 31
0.0
  0
LINE
  5
2A5
330
1E
100
AcDbEntity
  8
ﾚｲﾔ1
100
AcDbLine
 10
-1175.892566141684
 20
-1980.030290357803
 30
0.0
 11
-1149.182024475017
 21
-1978.799282024469
 31
0.0
  0
LINE
  5
2A6
330
1E
100
AcDbEntity
  8
ﾚｲﾔ1
100
AcDbLine
 10
-1175.912081293198
 20
-1979.606949448712
 30
0.0
 11
-1149.201539626533
 21
-1978.375941115378
 31
0.0
  0
LINE
  5
2A7
330
1E
100
AcDbEntity
  8
ﾚｲﾔ1
100
AcDbLine
 10
-1175.936469929563
 20
-1979.077765357803
 30
0.0
 11
-1149.225922959865
 21
-1977.846757024469
 31
0.0
  0
LINE
  5
2A8
330
1E
100
AcDbEntity
  8
ﾚｲﾔ1
100
AcDbLine
 10
-1175.965737353804
 20
-1978.442748691136
 30
0.0
 11
-1149.255190384109
 21
-1977.211745660833
 31
0.0
  0
LINE
  5
2A9
330
1E
100
AcDbEntity
  8
ﾚｲﾔ1
100
AcDbLine
 10
-1175.999878262896
 20
-1977.701904751742
 30
0.0
 11
-1149.289331293199
 21
-1976.470896418409
 31
0.0
  0
LINE
  5
2AA
330
1E
100
AcDbEntity
  8
ﾚｲﾔ1
100
AcDbLine
 10
-1176.038897959867
 20
-1976.8552123275
 30
0.0
 11
-1149.328356293199
 21
-1975.624209297196
 31
0.0
  0
LINE
  5
2AB
330
1E
100
AcDbEntity
  8
ﾚｲﾔ1
100
AcDbLine
 10
-1176.082801747744
 20
-1975.90269263053
 30
0.0
 11
-1149.372260081077
 21
-1974.671684297196
 31
0.0
  0
LINE
  5
2AC
330
1E
100
AcDbEntity
  8
ﾚｲﾔ1
100
AcDbLine
 10
-1176.131579020471
 20
-1974.844340357803
 30
0.0
 11
-1149.421032050775
 21
-1973.613332024469
 31
0.0
  0
LINE
  5
2AD
330
1E
100
AcDbEntity
  8
ﾚｲﾔ1
100
AcDbLine
 10
-1176.185235081079
 20
-1973.680139600227
 30
0.0
 11
-1149.474688111381
 21
-1972.449136569924
 31
0.0
  0
LINE
  5
2AE
330
1E
100
AcDbEntity
  8
ﾚｲﾔ1
100
AcDbLine
 10
-1176.243764626533
 20
-1972.410111569924
 30
0.0
 11
-1149.533217656835
 21
-1971.179108539621
 31
0.0
  0
LINE
  5
2AF
330
1E
100
AcDbEntity
  8
ﾚｲﾔ1
100
AcDbLine
 10
-1176.307167656836
 20
-1971.034245660833
 30
0.0
 11
-1149.596620687139
 21
-1969.8032373275
 31
0.0
  0
LINE
  5
2B0
330
1E
100
AcDbEntity
  8
ﾚｲﾔ1
100
AcDbLine
 10
-1176.375454778047
 20
-1969.552541872954
 30
0.0
 11
-1149.664913111381
 21
-1968.321538842651
 31
0.0
  0
LINE
  5
2B1
330
1E
100
AcDbEntity
  8
ﾚｲﾔ1
100
AcDbLine
 10
-1176.448620687138
 20
-1967.965010812348
 30
0.0
 11
-1149.738079020472
 21
-1966.734002479015
 31
0.0
  0
LINE
  5
2B2
330
1E
100
AcDbEntity
  8
ﾚｲﾔ1
100
AcDbLine
 10
-1177.137696444714
 20
-1953.013371418409
 30
0.0
 11
-1150.427149475016
 21
-1951.782363085076
 31
0.0
  0
LINE
  5
2B3
330
1E
100
AcDbEntity
  8
ﾚｲﾔ1
100
AcDbLine
 10
-1177.123049475018
 20
-1953.331219145681
 30
0.0
 11
-1150.41250780835
 21
-1952.100205509318
 31
0.0
  0
LINE
  5
2B4
330
1E
100
AcDbEntity
  8
ﾚｲﾔ1
100
AcDbLine
 10
-1177.103518414412
 20
-1953.755010812348
 30
0.0
 11
-1150.392976747744
 21
-1952.523991872954
 31
0.0
  0
LINE
  5
2B5
330
1E
100
AcDbEntity
  8
ﾚｲﾔ1
100
AcDbLine
 10
-1177.084008565927
 20
-1954.178351721439
 30
0.0
 11
-1150.373461596229
 21
-1952.947332782045
 31
0.0
  0
LINE
  5
2B6
330
1E
100
AcDbEntity
  8
ﾚｲﾔ1
100
AcDbLine
 10
-1177.059619929563
 20
-1954.707530509318
 30
0.0
 11
-1150.349072959867
 21
-1953.476516872954
 31
0.0
  0
LINE
  5
2B7
330
1E
100
AcDbEntity
  8
ﾚｲﾔ1
100
AcDbLine
 10
-1177.03035250532
 20
-1955.342541872954
 30
0.0
 11
-1150.319810838653
 21
-1954.111533539621
 31
0.0
  0
LINE
  5
2B8
330
1E
100
AcDbEntity
  8
ﾚｲﾔ1
100
AcDbLine
 10
-1176.9962062932
 20
-1956.083391115379
 30
0.0
 11
-1150.285664626532
 21
-1954.852377479015
 31
0.0
  0
LINE
  5
2B9
330
1E
100
AcDbEntity
  8
ﾚｲﾔ1
100
AcDbLine
 10
-1176.957186596229
 20
-1956.930083539621
 30
0.0
 11
-1150.246644929563
 21
-1955.699064600227
 31
0.0
  0
LINE
  5
2BA
330
1E
100
AcDbEntity
  8
ﾚｲﾔ1
100
AcDbLine
 10
-1176.913298717442
 20
-1957.882608539621
 30
0.0
 11
-1150.202751747745
 21
-1956.651594903257
 31
0.0
  0
LINE
  5
2BB
330
1E
100
AcDbEntity
  8
ﾚｲﾔ1
100
AcDbLine
 10
-1176.864516141684
 20
-1958.940955509318
 30
0.0
 11
-1150.153974475018
 21
-1957.709947175984
 31
0.0
  0
LINE
  5
2BC
330
1E
100
AcDbEntity
  8
ﾚｲﾔ1
100
AcDbLine
 10
-1176.810865384107
 20
-1960.105150963863
 30
0.0
 11
-1150.100318414412
 21
-1958.8741373275
 31
0.0
  0
LINE
  5
2BD
330
1E
100
AcDbEntity
  8
ﾚｲﾔ1
100
AcDbLine
 10
-1176.752330535624
 20
-1961.375184297196
 30
0.0
 11
-1150.041783565926
 21
-1960.144170660833
 31
0.0
  0
LINE
  5
2BE
330
1E
100
AcDbEntity
  8
ﾚｲﾔ1
100
AcDbLine
 10
-1176.688916899259
 20
-1962.751050206287
 30
0.0
 11
-1149.978369929564
 21
-1961.520036569924
 31
0.0
  0
LINE
  5
2BF
330
1E
100
AcDbEntity
  8
ﾚｲﾔ1
100
AcDbLine
 10
-1176.620629778047
 20
-1964.232748691136
 30
0.0
 11
-1149.910088111381
 21
-1963.001735054772
 31
0.0
  0
LINE
  5
2C0
330
1E
100
AcDbEntity
  8
ﾚｲﾔ1
100
AcDbLine
 10
-1176.547463868957
 20
-1965.820285054772
 30
0.0
 11
-1149.83692220229
 21
-1964.589276721439
 31
0.0
  0
LINE
  5
2C1
330
1E
100
AcDbEntity
  8
ﾚｲﾔ1
100
AcDbLine
 10
-1177.152348717442
 20
-1952.695528994166
 30
0.0
 11
-1150.441801747745
 21
-1951.464510054772
 31
0.0
  0
LWPOLYLINE
  5
2C2
330
1E
100
AcDbEntity
  8
ﾚｲﾔ1
100
AcDbPolyline
 90
        4
 70
     1
 43
0.0
 10
-1124.128250232593
 20
-1949.614834297196
 10
-1134.723063111382
 20
-1950.103116115379
 10
-1133.355872959866
 20
-1979.768596418409
 10
-1122.761060081079
 20
-1979.280314600226
  0
LINE
  5
2C8
330
1E
100
AcDbEntity
  8
ﾚｲﾔ1
100
AcDbLine
 10
-1150.275774475017
 20
-1955.066821418409
 30
0.0
 11
-1134.52775250532
 21
-1954.341043388105
 31
0.0
  0
LINE
  5
2C9
330
1E
100
AcDbEntity
  8
ﾚｲﾔ1
100
AcDbLine
 10
-1134.381261596229
 20
-1957.519483539621
 30
0.0
 11
-1123.786454020471
 21
-1957.031196418409
 31
0.0
  0
LINE
  5
2CA
330
1E
100
AcDbEntity
  8
ﾚｲﾔ1
100
AcDbLine
 10
-1133.697674475017
 20
-1972.352234297197
 30
0.0
 11
-1123.102856293199
 21
-1971.863952479015
 31
0.0
  0
LINE
  5
2CB
330
1E
100
AcDbEntity
  8
ﾚｲﾔ1
100
AcDbLine
 10
-1133.551183565926
 20
-1975.530669145681
 30
0.0
 11
-1149.299210838654
 21
-1976.256441872954
 31
0.0
  0
LWPOLYLINE
  5
2CC
330
1E
100
AcDbEntity
  8
ﾚｲﾔ1
100
AcDbPolyline
 90
        4
 70
     0
 43
0.0
 10
-1177.15233811138
 20
-1952.695528994166
 10
-1175.843735838654
 20
-1981.089772175984
 10
-1149.133194171986
 20
-1979.858763842651
 10
-1150.441801747745
 20
-1951.464510054772
  0
LINE
  5
2D2
330
1E
100
AcDbEntity
  8
ﾚｲﾔ1
100
AcDbLine
 10
-1177.567374475017
 20
-1943.690066115378
 30
0.0
 11
-1150.85682750532
 21
-1942.459057782045
 31
0.0
  0
LINE
  5
2D3
330
1E
100
AcDbEntity
  8
ﾚｲﾔ1
100
AcDbLine
 10
-1177.582026747744
 20
-1943.372218388106
 30
0.0
 11
-1150.871479778048
 21
-1942.141215357803
 31
0.0
  0
LINE
  5
2D4
330
1E
100
AcDbEntity
  8
ﾚｲﾔ1
100
AcDbLine
 10
-1177.60155780835
 20
-1942.948432024469
 30
0.0
 11
-1150.891010838654
 21
-1941.717428994166
 31
0.0
  0
LINE
  5
2D5
330
1E
100
AcDbEntity
  8
ﾚｲﾔ1
100
AcDbLine
 10
-1177.621067656836
 20
-1942.525091115379
 30
0.0
 11
-1150.910520687139
 21
-1941.294088085075
 31
0.0
  0
LINE
  5
2D6
330
1E
100
AcDbEntity
  8
ﾚｲﾔ1
100
AcDbLine
 10
-1177.645456293199
 20
-1941.995907024469
 30
0.0
 11
-1150.934914626533
 21
-1940.764898691136
 31
0.0
  0
LINE
  5
2D7
330
1E
100
AcDbEntity
  8
ﾚｲﾔ1
100
AcDbLine
 10
-1177.674723717442
 20
-1941.360895660833
 30
0.0
 11
-1150.964176747746
 21
-1940.1298873275
 31
0.0
  0
LINE
  5
2D8
330
1E
100
AcDbEntity
  8
ﾚｲﾔ1
100
AcDbLine
 10
-1177.708864626532
 20
-1940.620046418409
 30
0.0
 11
-1150.998317656835
 21
-1939.389043388106
 31
0.0
  0
LINE
  5
2D9
330
1E
100
AcDbEntity
  8
ﾚｲﾔ1
100
AcDbLine
 10
-1177.747889626532
 20
-1939.773359297197
 30
0.0
 11
-1151.037342656835
 21
-1938.542356266893
 31
0.0
  0
LINE
  5
2DA
330
1E
100
AcDbEntity
  8
ﾚｲﾔ1
100
AcDbLine
 10
-1177.791788111381
 20
-1938.820834297196
 30
0.0
 11
-1151.081246444714
 21
-1937.589825963863
 31
0.0
  0
LINE
  5
2DB
330
1E
100
AcDbEntity
  8
ﾚｲﾔ1
100
AcDbLine
 10
-1177.84056538411
 20
-1937.762482024469
 30
0.0
 11
-1151.130018414412
 21
-1936.531473691136
 31
0.0
  0
LINE
  5
2DC
330
1E
100
AcDbEntity
  8
ﾚｲﾔ1
100
AcDbLine
 10
-1177.894216141684
 20
-1936.598286569924
 30
0.0
 11
-1151.183674475018
 21
-1935.36727823659
 31
0.0
  0
LINE
  5
2DD
330
1E
100
AcDbEntity
  8
ﾚｲﾔ1
100
AcDbLine
 10
-1177.95275099017
 20
-1935.328258539621
 30
0.0
 11
-1151.242204020471
 21
-1934.097250206288
 31
0.0
  0
LINE
  5
2DE
330
1E
100
AcDbEntity
  8
ﾚｲﾔ1
100
AcDbLine
 10
-1178.016154020471
 20
-1933.952387327499
 30
0.0
 11
-1151.305607050776
 21
-1932.721384297197
 31
0.0
  0
LINE
  5
2DF
330
1E
100
AcDbEntity
  8
ﾚｲﾔ1
100
AcDbLine
 10
-1178.084441141684
 20
-1932.470688842651
 30
0.0
 11
-1151.373899475017
 21
-1931.239685812348
 31
0.0
  0
LINE
  5
2E0
330
1E
100
AcDbEntity
  8
ﾚｲﾔ1
100
AcDbLine
 10
-1178.157607050775
 20
-1930.883152479015
 30
0.0
 11
-1151.447065384109
 21
-1929.652144145682
 31
0.0
  0
LINE
  5
2E1
330
1E
100
AcDbEntity
  8
ﾚｲﾔ1
100
AcDbLine
 10
-1178.84667750532
 20
-1915.931518388106
 30
0.0
 11
-1152.136135838654
 21
-1914.700504751742
 31
0.0
  0
LINE
  5
2E2
330
1E
100
AcDbEntity
  8
ﾚｲﾔ1
100
AcDbLine
 10
-1178.832035838654
 20
-1916.249366115378
 30
0.0
 11
-1152.121488868957
 21
-1915.018352479015
 31
0.0
  0
LINE
  5
2E3
330
1E
100
AcDbEntity
  8
ﾚｲﾔ1
100
AcDbLine
 10
-1178.812510081078
 20
-1916.673152479015
 30
0.0
 11
-1152.101963111381
 21
-1915.442138842651
 31
0.0
  0
LINE
  5
2E4
330
1E
100
AcDbEntity
  8
ﾚｲﾔ1
100
AcDbLine
 10
-1178.792994929563
 20
-1917.096493388106
 30
0.0
 11
-1152.082447959866
 21
-1915.865479751742
 31
0.0
  0
LINE
  5
2E5
330
1E
100
AcDbEntity
  8
ﾚｲﾔ1
100
AcDbLine
 10
-1178.768606293199
 20
-1917.625677479015
 30
0.0
 11
-1152.058064626533
 21
-1916.394663842651
 31
0.0
  0
LINE
  5
2E6
330
1E
100
AcDbEntity
  8
ﾚｲﾔ1
100
AcDbLine
 10
-1178.739338868957
 20
-1918.260688842651
 30
0.0
 11
-1152.028797202289
 21
-1917.029675206288
 31
0.0
  0
LINE
  5
2E7
330
1E
100
AcDbEntity
  8
ﾚｲﾔ1
100
AcDbLine
 10
-1178.705192656836
 20
-1919.001538085075
 30
0.0
 11
-1151.994650990168
 21
-1917.770519145682
 31
0.0
  0
LINE
  5
2E8
330
1E
100
AcDbEntity
  8
ﾚｲﾔ1
100
AcDbLine
 10
-1178.666172959865
 20
-1919.848225206287
 30
0.0
 11
-1151.9556312932
 21
-1918.617211569924
 31
0.0
  0
LINE
  5
2E9
330
1E
100
AcDbEntity
  8
ﾚｲﾔ1
100
AcDbLine
 10
-1178.622279778047
 20
-1920.800750206287
 30
0.0
 11
-1151.911738111381
 21
-1919.569736569924
 31
0.0
  0
LINE
  5
2EA
330
1E
100
AcDbEntity
  8
ﾚｲﾔ1
100
AcDbLine
 10
-1178.57350780835
 20
-1921.859102479015
 30
0.0
 11
-1151.862960838655
 21
-1920.628088842651
 31
0.0
  0
LINE
  5
2EB
330
1E
100
AcDbEntity
  8
ﾚｲﾔ1
100
AcDbLine
 10
-1178.519851747744
 20
-1923.02329793356
 30
0.0
 11
-1151.809310081078
 21
-1921.792284297197
 31
0.0
  0
LINE
  5
2EC
330
1E
100
AcDbEntity
  8
ﾚｲﾔ1
100
AcDbLine
 10
-1178.461311596229
 20
-1924.293325963863
 30
0.0
 11
-1151.750769929562
 21
-1923.0623123275
 31
0.0
  0
LINE
  5
2ED
330
1E
100
AcDbEntity
  8
ﾚｲﾔ1
100
AcDbLine
 10
-1178.397903262896
 20
-1925.669197175985
 30
0.0
 11
-1151.6873562932
 21
-1924.438178236591
 31
0.0
  0
LINE
  5
2EE
330
1E
100
AcDbEntity
  8
ﾚｲﾔ1
100
AcDbLine
 10
-1178.329616141684
 20
-1927.150895660833
 30
0.0
 11
-1151.619074475017
 21
-1925.919882024469
 31
0.0
  0
LINE
  5
2EF
330
1E
100
AcDbEntity
  8
ﾚｲﾔ1
100
AcDbLine
 10
-1178.256455535623
 20
-1928.73843202447
 30
0.0
 11
-1151.545908565926
 21
-1927.507418388106
 31
0.0
  0
LINE
  5
2F0
330
1E
100
AcDbEntity
  8
ﾚｲﾔ1
100
AcDbLine
 10
-1178.861329778048
 20
-1915.613670660833
 30
0.0
 11
-1152.15078811138
 21
-1914.382657024469
 31
0.0
  0
LINE
  5
2F1
330
1E
100
AcDbEntity
  8
ﾚｲﾔ1
100
AcDbLine
 10
-1157.963487353805
 20
-1906.581459297197
 30
0.0
 11
-1157.592397202291
 21
-1914.63344793356
 31
0.0
  0
LINE
  5
2F2
330
1E
100
AcDbEntity
  8
ﾚｲﾔ1
100
AcDbLine
 10
-1168.558294929563
 20
-1907.069741115378
 30
0.0
 11
-1168.187204778048
 21
-1915.121729751742
 31
0.0
  0
LWPOLYLINE
  5
2F3
330
1E
100
AcDbEntity
  8
ﾚｲﾔ1
100
AcDbPolyline
 90
        4
 70
     0
 43
0.0
 10
-1178.861329778048
 20
-1915.613670660833
 10
-1177.552722202291
 20
-1944.007913842651
 10
-1150.842175232593
 20
-1942.776910812348
 10
-1152.15078811138
 20
-1914.382657024469
  0
LWPOLYLINE
  5
2F9
330
1E
100
AcDbEntity
  8
ﾚｲﾔ1
100
AcDbPolyline
 90
        4
 70
     0
 43
0.0
 10
-1178.861329778048
 20
-1915.613670660833
 10
-1177.552722202291
 20
-1944.007913842651
 10
-1150.842175232593
 20
-1942.776910812348
 10
-1152.15078811138
 20
-1914.382657024469
  0
LINE
  5
2FF
330
1E
100
AcDbEntity
  8
ﾚｲﾔ1
100
AcDbLine
 10
-1182.169609323502
 20
-1567.957286569924
 30
0.0
 11
-1155.430717656836
 21
-1567.957291872955
 31
0.0
  0
LINE
  5
300
330
1E
100
AcDbEntity
  8
ﾚｲﾔ1
100
AcDbLine
 10
-1182.169609323502
 20
-1567.639104751742
 30
0.0
 11
-1155.430717656836
 21
-1567.639104751742
 31
0.0
  0
LINE
  5
301
330
1E
100
AcDbEntity
  8
ﾚｲﾔ1
100
AcDbLine
 10
-1182.169609323502
 20
-1567.21486763053
 30
0.0
 11
-1155.430717656836
 21
-1567.21487293356
 31
0.0
  0
LINE
  5
302
330
1E
100
AcDbEntity
  8
ﾚｲﾔ1
100
AcDbLine
 10
-1182.169609323502
 20
-1566.791075963863
 30
0.0
 11
-1155.430717656836
 21
-1566.791075963863
 31
0.0
  0
LINE
  5
303
330
1E
100
AcDbEntity
  8
ﾚｲﾔ1
100
AcDbLine
 10
-1182.169609323502
 20
-1566.261329751742
 30
0.0
 11
-1155.430717656836
 21
-1566.261329751742
 31
0.0
  0
LINE
  5
304
330
1E
100
AcDbEntity
  8
ﾚｲﾔ1
100
AcDbLine
 10
-1182.169609323502
 20
-1565.625639600227
 30
0.0
 11
-1155.430717656836
 21
-1565.625650206287
 31
0.0
  0
LINE
  5
305
330
1E
100
AcDbEntity
  8
ﾚｲﾔ1
100
AcDbLine
 10
-1182.169609323502
 20
-1564.884005509318
 30
0.0
 11
-1155.430712353806
 21
-1564.884016115378
 31
0.0
  0
LINE
  5
306
330
1E
100
AcDbEntity
  8
ﾚｲﾔ1
100
AcDbLine
 10
-1182.169609323502
 20
-1564.036422175985
 30
0.0
 11
-1155.430717656836
 21
-1564.036427479015
 31
0.0
  0
LINE
  5
307
330
1E
100
AcDbEntity
  8
ﾚｲﾔ1
100
AcDbLine
 10
-1182.169609323502
 20
-1563.082884297197
 30
0.0
 11
-1155.430717656836
 21
-1563.082889600227
 31
0.0
  0
LINE
  5
308
330
1E
100
AcDbEntity
  8
ﾚｲﾔ1
100
AcDbLine
 10
-1182.169619929563
 20
-1562.023407782045
 30
0.0
 11
-1155.430717656836
 21
-1562.023418388106
 31
0.0
  0
LINE
  5
309
330
1E
100
AcDbEntity
  8
ﾚｲﾔ1
100
AcDbLine
 10
-1182.169609323502
 20
-1560.857982024469
 30
0.0
 11
-1155.430717656836
 21
-1560.857982024469
 31
0.0
  0
LINE
  5
30A
330
1E
100
AcDbEntity
  8
ﾚｲﾔ1
100
AcDbLine
 10
-1182.169609323502
 20
-1559.586596418409
 30
0.0
 11
-1155.430717656836
 21
-1559.586607024469
 31
0.0
  0
LINE
  5
30B
330
1E
100
AcDbEntity
  8
ﾚｲﾔ1
100
AcDbLine
 10
-1182.169609323502
 20
-1558.209277479015
 30
0.0
 11
-1155.430712353806
 21
-1558.209277479015
 31
0.0
  0
LWPOLYLINE
  5
30C
330
1E
100
AcDbEntity
  8
ﾚｲﾔ1
100
AcDbPolyline
 90
        4
 70
     1
 43
0.0
 10
-1129.059914626533
 20
-1539.214793388106
 10
-1139.665959323503
 20
-1539.214793388106
 10
-1139.665969929563
 20
-1568.911768388106
 10
-1129.059914626533
 20
-1568.911768388106
  0
LINE
  5
312
330
1E
100
AcDbEntity
  8
ﾚｲﾔ1
100
AcDbLine
 10
-1139.665959323503
 20
-1546.639030509318
 30
0.0
 11
-1129.059914626533
 21
-1546.639030509318
 31
0.0
  0
LINE
  5
313
330
1E
100
AcDbEntity
  8
ﾚｲﾔ1
100
AcDbLine
 10
-1139.665969929562
 20
-1561.487531266894
 30
0.0
 11
-1129.059914626533
 21
-1561.487531266894
 31
0.0
  0
LINE
  5
314
330
1E
100
AcDbEntity
  8
ﾚｲﾔ1
100
AcDbLine
 10
-1139.665969929562
 20
-1564.669338842651
 30
0.0
 11
-1155.430712353806
 21
-1564.669328236591
 31
0.0
  0
LINE
  5
315
330
1E
100
AcDbEntity
  8
ﾚｲﾔ1
100
AcDbLine
 10
-1142.662600990169
 20
-1543.45722293356
 30
0.0
 11
-1139.665969929562
 21
-1543.45722293356
 31
0.0
  0
LWPOLYLINE
  5
316
330
1E
100
AcDbEntity
  8
ﾚｲﾔ1
100
AcDbPolyline
 90
        4
 70
     0
 43
0.0
 10
-1182.169604020472
 20
-1558.305702479015
 10
-1182.169604020472
 20
-1568.275468388105
 10
-1155.430712353806
 20
-1568.275473691136
 10
-1155.430712353806
 20
-1558.305702479015
  0
LWPOLYLINE
  5
31C
330
1E
100
AcDbEntity
  8
ﾚｲﾔ1
100
AcDbPolyline
 90
        4
 70
     1
 43
0.0
 10
-1129.059914626533
 20
-1490.426909297197
 10
-1139.665959323503
 20
-1490.426909297197
 10
-1139.665969929563
 20
-1520.123884297197
 10
-1129.059914626533
 20
-1520.123884297197
  0
LINE
  5
322
330
1E
100
AcDbEntity
  8
ﾚｲﾔ1
100
AcDbLine
 10
-1139.665959323503
 20
-1497.851146418409
 30
0.0
 11
-1129.059914626533
 21
-1497.851146418409
 31
0.0
  0
LINE
  5
323
330
1E
100
AcDbEntity
  8
ﾚｲﾔ1
100
AcDbLine
 10
-1139.665969929562
 20
-1512.699641872954
 30
0.0
 11
-1129.059914626533
 21
-1512.699641872954
 31
0.0
  0
LINE
  5
324
330
1E
100
AcDbEntity
  8
ﾚｲﾔ1
100
AcDbLine
 10
-1141.93043811138
 20
-1498.911757782045
 30
0.0
 11
-1139.665959323503
 21
-1498.911757782045
 31
0.0
  0
LINE
  5
325
330
1E
100
AcDbEntity
  8
ﾚｲﾔ1
100
AcDbLine
 10
-1141.93043811138
 20
-1511.639030509318
 30
0.0
 11
-1139.665969929562
 21
-1511.639030509318
 31
0.0
  0
CIRCLE
  5
326
330
1E
100
AcDbEntity
  8
ﾚｲﾔ1
100
AcDbCircle
 10
-1097.188432050774
 20
-1466.032975206288
 30
0.0
 40
6.363636363636363
  0
LWPOLYLINE
  5
327
330
1E
100
AcDbEntity
  8
ﾚｲﾔ1
100
AcDbPolyline
 90
        4
 70
     0
 43
0.0
 10
-1121.052068414413
 20
-1478.76024793356
 10
-1121.052068414413
 20
-1455.426914600227
 10
-1073.274135838653
 20
-1455.426914600227
 10
-1073.274135838653
 20
-1478.76024793356
  0
CIRCLE
  5
32D
330
1E
100
AcDbEntity
  8
ﾚｲﾔ1
100
AcDbCircle
 10
-557.5857585659264
 20
-1603.911768388105
 30
0.0
 40
6.363636363636363
  0
CIRCLE
  5
32E
330
1E
100
AcDbEntity
  8
ﾚｲﾔ1
100
AcDbCircle
 10
-557.5857585659264
 20
-1466.032975206288
 30
0.0
 40
6.363636363636363
  0
LINE
  5
32F
330
1E
100
AcDbEntity
  8
ﾚｲﾔ1
100
AcDbLine
 10
-1124.817490384109
 20
-1591.184495660833
 30
0.0
 11
-1124.817490384109
 21
-1612.396611569924
 31
0.0
  0
ARC
  5
330
330
1E
100
AcDbEntity
  8
ﾚｲﾔ1
100
AcDbCircle
 10
-1119.514459318312
 20
-1612.396614221439
 30
0.0
 40
5.303030303030302
100
AcDbArc
 50
180.0
 51
270.0
  0
LINE
  5
331
330
1E
100
AcDbEntity
  8
ﾚｲﾔ1
100
AcDbLine
 10
-1119.514460081079
 20
-1617.699641872954
 30
0.0
 11
-1074.969010838654
 21
-1617.699641872954
 31
0.0
  0
LINE
  5
332
330
1E
100
AcDbEntity
  8
ﾚｲﾔ1
100
AcDbLine
 10
-1069.665980535623
 20
-1612.396611569924
 30
0.0
 11
-1069.665980535623
 21
-1591.184495660833
 31
0.0
  0
ARC
  5
333
330
1E
100
AcDbEntity
  8
ﾚｲﾔ1
100
AcDbCircle
 10
-1074.969007424374
 20
-1612.396614221439
 30
0.0
 40
5.303030303030302
100
AcDbArc
 50
270.0
 51
0.0
  0
LINE
  5
334
330
1E
100
AcDbEntity
  8
ﾚｲﾔ1
100
AcDbLine
 10
-1109.969005535625
 20
-1617.699641872954
 30
0.0
 11
-1109.969005535625
 21
-1629.366313842651
 31
0.0
  0
ARC
  5
335
330
1E
100
AcDbEntity
  8
ﾚｲﾔ1
100
AcDbCircle
 10
-1106.787183939525
 20
-1629.366313842651
 30
0.0
 40
3.181818181818181
100
AcDbArc
 50
180.0
 51
270.0
  0
LINE
  5
336
330
1E
100
AcDbEntity
  8
ﾚｲﾔ1
100
AcDbLine
 10
-1106.787187353807
 20
-1632.548132024469
 30
0.0
 11
-1087.696278262897
 21
-1632.548132024469
 31
0.0
  0
LINE
  5
337
330
1E
100
AcDbEntity
  8
ﾚｲﾔ1
100
AcDbLine
 10
-1084.514460081077
 20
-1629.366313842651
 30
0.0
 11
-1084.514460081077
 21
-1617.699641872954
 31
0.0
  0
ARC
  5
338
330
1E
100
AcDbEntity
  8
ﾚｲﾔ1
100
AcDbCircle
 10
-1087.696274848616
 20
-1629.366313842651
 30
0.0
 40
3.181818181818181
100
AcDbArc
 50
270.0
 51
0.0
  0
LINE
  5
339
330
1E
100
AcDbEntity
  8
ﾚｲﾔ1
100
AcDbLine
 10
-1097.24173280835
 20
-1637.85116763053
 30
0.0
 11
-1106.787187353807
 21
-1637.85116763053
 31
0.0
  0
ARC
  5
33A
330
1E
100
AcDbEntity
  8
ﾚｲﾔ1
100
AcDbCircle
 10
-1106.787183939525
 20
-1641.032983160833
 30
0.0
 40
3.181818181818181
100
AcDbArc
 50
90.0
 51
180.0
  0
LINE
  5
33B
330
1E
100
AcDbEntity
  8
ﾚｲﾔ1
100
AcDbLine
 10
-1097.24173280835
 20
-1637.85116763053
 30
0.0
 11
-1087.696278262897
 21
-1637.85116763053
 31
0.0
  0
ARC
  5
33C
330
1E
100
AcDbEntity
  8
ﾚｲﾔ1
100
AcDbCircle
 10
-1087.696274848616
 20
-1641.032983160833
 30
0.0
 40
3.181818181818181
100
AcDbArc
 50
0.0
 51
90.0
  0
ARC
  5
33D
330
1E
100
AcDbEntity
  8
ﾚｲﾔ1
100
AcDbCircle
 10
-1079.211426363767
 20
-1653.760258539621
 30
0.0
 40
5.303030303030302
100
AcDbArc
 50
180.0
 51
270.0
  0
ARC
  5
33E
330
1E
100
AcDbEntity
  8
ﾚｲﾔ1
100
AcDbCircle
 10
-1115.272032424373
 20
-1653.760258539621
 30
0.0
 40
5.303030303030302
100
AcDbArc
 50
270.0
 51
0.0
  0
ARC
  5
33F
330
1E
100
AcDbEntity
  8
ﾚｲﾔ1
100
AcDbCircle
 10
-1065.951957424375
 20
-1664.366319145681
 30
0.0
 40
5.303030303030302
100
AcDbArc
 50
0.0
 51
90.0
  0
ARC
  5
340
330
1E
100
AcDbEntity
  8
ﾚｲﾔ1
100
AcDbCircle
 10
-1128.531501363768
 20
-1664.366319145681
 30
0.0
 40
5.303030303030302
100
AcDbArc
 50
90.0
 51
180.0
  0
LINE
  5
341
330
1E
100
AcDbEntity
  8
ﾚｲﾔ1
100
AcDbLine
 10
-1084.514460081077
 20
-1659.063288842651
 30
0.0
 11
-1065.951960838654
 21
-1659.063288842651
 31
0.0
  0
ARC
  5
342
330
1E
100
AcDbEntity
  8
ﾚｲﾔ1
100
AcDbCircle
 10
-1065.951957424375
 20
-1664.366319145681
 30
0.0
 40
5.303030303030302
100
AcDbArc
 50
0.0
 51
90.0
  0
LINE
  5
343
330
1E
100
AcDbEntity
  8
ﾚｲﾔ1
100
AcDbLine
 10
-1079.211424475017
 20
-1659.063288842651
 30
0.0
 11
-1065.951960838654
 21
-1659.063288842651
 31
0.0
  0
LINE
  5
344
330
1E
100
AcDbEntity
  8
ﾚｲﾔ1
100
AcDbLine
 10
-1084.514460081077
 20
-1641.032985812348
 30
0.0
 11
-1084.514460081077
 21
-1653.760258539621
 31
0.0
  0
ARC
  5
345
330
1E
100
AcDbEntity
  8
ﾚｲﾔ1
100
AcDbCircle
 10
-1079.211426363767
 20
-1653.760258539621
 30
0.0
 40
5.303030303030302
100
AcDbArc
 50
180.0
 51
270.0
  0
LINE
  5
346
330
1E
100
AcDbEntity
  8
ﾚｲﾔ1
100
AcDbLine
 10
-1109.969005535625
 20
-1641.032985812348
 30
0.0
 11
-1109.969005535625
 21
-1653.760258539621
 31
0.0
  0
ARC
  5
347
330
1E
100
AcDbEntity
  8
ﾚｲﾔ1
100
AcDbCircle
 10
-1115.272032424373
 20
-1653.760258539621
 30
0.0
 40
5.303030303030302
100
AcDbArc
 50
270.0
 51
0.0
  0
LINE
  5
348
330
1E
100
AcDbEntity
  8
ﾚｲﾔ1
100
AcDbLine
 10
-1115.272035838653
 20
-1659.063288842651
 30
0.0
 11
-1128.531499475017
 21
-1659.063288842651
 31
0.0
  0
ARC
  5
349
330
1E
100
AcDbEntity
  8
ﾚｲﾔ1
100
AcDbCircle
 10
-1128.531501363768
 20
-1664.366319145681
 30
0.0
 40
5.303030303030302
100
AcDbArc
 50
90.0
 51
180.0
  0
LINE
  5
34A
330
1E
100
AcDbEntity
  8
ﾚｲﾔ1
100
AcDbLine
 10
-1115.272035838653
 20
-1659.063288842651
 30
0.0
 11
-1128.531499475017
 21
-1659.063288842651
 31
0.0
  0
ARC
  5
34B
330
1E
100
AcDbEntity
  8
ﾚｲﾔ1
100
AcDbCircle
 10
-1128.531501363768
 20
-1664.366319145681
 30
0.0
 40
5.303030303030302
100
AcDbArc
 50
90.0
 51
180.0
  0
LINE
  5
34C
330
1E
100
AcDbEntity
  8
ﾚｲﾔ1
100
AcDbLine
 10
-1133.834535081077
 20
-1664.366319145681
 30
0.0
 11
-1133.834535081077
 21
-1665.021482024469
 31
0.0
  0
ARC
  5
34D
330
1E
100
AcDbEntity
  8
ﾚｲﾔ1
100
AcDbCircle
 10
-1130.65271348498
 20
-1665.02148091741
 30
0.0
 40
3.181818181818181
100
AcDbArc
 50
180.0
 51
230.2682488034823
  0
LINE
  5
34E
330
1E
100
AcDbEntity
  8
ﾚｲﾔ1
100
AcDbLine
 10
-1060.648930535624
 20
-1664.366319145681
 30
0.0
 11
-1060.648930535624
 21
-1665.021482024469
 31
0.0
  0
ARC
  5
34F
330
1E
100
AcDbEntity
  8
ﾚｲﾔ1
100
AcDbCircle
 10
-1097.241729394074
 20
-1624.823103311434
 30
0.0
 40
55.45230144030423
100
AcDbArc
 50
230.2682488034834
 51
309.7317511965354
  0
ARC
  5
350
330
1E
100
AcDbEntity
  8
ﾚｲﾔ1
100
AcDbCircle
 10
-1063.830745303162
 20
-1665.021480917392
 30
0.0
 40
3.181818181818181
100
AcDbArc
 50
309.7317511965292
 51
0.0
  0
LINE
  5
351
330
1E
100
AcDbEntity
  8
ﾚｲﾔ1
100
AcDbLine
 10
-1084.514460081077
 20
-1659.063288842651
 30
0.0
 11
-1115.272035838653
 21
-1659.063288842651
 31
0.0
  0
LINE
  5
352
330
1E
100
AcDbEntity
  8
ﾚｲﾔ1
100
AcDbLine
 10
-1102.54476311138
 20
-1632.548132024469
 30
0.0
 11
-1102.54476311138
 21
-1637.85116763053
 31
0.0
  0
LINE
  5
353
330
1E
100
AcDbEntity
  8
ﾚｲﾔ1
100
AcDbLine
 10
-1091.93869720229
 20
-1632.548132024469
 30
0.0
 11
-1091.93869720229
 21
-1637.85116763053
 31
0.0
  0
ARC
  5
354
330
1E
100
AcDbEntity
  8
ﾚｲﾔ1
100
AcDbCircle
 10
-1134.160035668579
 20
-1687.909012816325
 30
0.0
 40
28.84585441919997
100
AcDbArc
 50
16.98010748878936
 51
82.12497436873038
  0
ARC
  5
355
330
1E
100
AcDbEntity
  8
ﾚｲﾔ1
100
AcDbCircle
 10
-1060.323423119562
 20
-1687.909012816325
 30
0.0
 40
28.84585441919997
100
AcDbArc
 50
97.87502563126962
 51
163.0198925112106
  0
ARC
  5
356
330
1E
100
AcDbEntity
  8
ﾚｲﾔ1
100
AcDbCircle
 10
-485.8604805303794
 20
-1534.972371797242
 30
0.0
 40
5.303032954590724
100
AcDbArc
 50
90.00000000059451
 51
269.9999999994055
  0
ARC
  5
357
330
1E
100
AcDbEntity
  8
ﾚｲﾔ1
100
AcDbCircle
 10
-390.5296600760335
 20
-1534.972371797196
 30
0.0
 40
5.303032954544423
100
AcDbArc
 50
270.0000000015575
 51
89.9999999984425
  0
ARC
  5
358
330
1E
100
AcDbEntity
  8
ﾚｲﾔ1
100
AcDbCircle
 10
-388.4084453033145
 20
-1521.714801342683
 30
0.0
 40
3.181818181849435
100
AcDbArc
 50
270.0000000027514
 51
89.99999999724858
  0
ARC
  5
359
330
1E
100
AcDbEntity
  8
ﾚｲﾔ1
100
AcDbCircle
 10
-487.9816953030863
 20
-1521.714801342682
 30
0.0
 40
3.181818181848856
100
AcDbArc
 50
90.00000000134297
 51
269.999999998657
  0
LINE
  5
35A
330
1E
100
AcDbEntity
  8
ﾚｲﾔ1
100
AcDbLine
 10
-487.9816934144114
 20
-1518.532985812348
 30
0.0
 11
-388.4084434144115
 21
-1518.532985812348
 31
0.0
  0
LINE
  5
35B
330
1E
100
AcDbEntity
  8
ﾚｲﾔ1
100
AcDbLine
 10
-388.4084434144115
 20
-1524.896622175984
 30
0.0
 11
-487.9816934144114
 21
-1524.896622175984
 31
0.0
  0
LINE
  5
35C
330
1E
100
AcDbEntity
  8
ﾚｲﾔ1
100
AcDbLine
 10
-485.8604812931985
 20
-1529.669338842651
 30
0.0
 11
-390.5296608386534
 21
-1529.669338842651
 31
0.0
  0
LINE
  5
35D
330
1E
100
AcDbEntity
  8
ﾚｲﾔ1
100
AcDbLine
 10
-390.5296608386534
 20
-1540.275404751742
 30
0.0
 11
-485.8604812931985
 21
-1540.275404751742
 31
0.0
  0
ARC
  5
35E
330
1E
100
AcDbEntity
  8
ﾚｲﾔ1
100
AcDbCircle
 10
-388.4084453033145
 20
-1548.22994225171
 30
0.0
 40
3.181818181849435
100
AcDbArc
 50
270.0000000027514
 51
89.99999999724858
  0
ARC
  5
35F
330
1E
100
AcDbEntity
  8
ﾚｲﾔ1
100
AcDbCircle
 10
-487.9816953030863
 20
-1548.229942251711
 30
0.0
 40
3.181818181848856
100
AcDbArc
 50
90.00000000134297
 51
269.999999998657
  0
LINE
  5
360
330
1E
100
AcDbEntity
  8
ﾚｲﾔ1
100
AcDbLine
 10
-487.9816934144114
 20
-1551.411757782045
 30
0.0
 11
-388.4084434144115
 21
-1551.411757782045
 31
0.0
  0
LINE
  5
361
330
1E
100
AcDbEntity
  8
ﾚｲﾔ1
100
AcDbLine
 10
-388.4084434144115
 20
-1545.048121418409
 30
0.0
 11
-487.9816934144114
 21
-1545.048121418409
 31
0.0
  0
ARC
  5
362
330
1E
100
AcDbEntity
  8
ﾚｲﾔ1
100
AcDbCircle
 10
-485.0172325109456
 20
-1810.27092890986
 30
0.0
 40
5.303032954590724
100
AcDbArc
 50
92.6387171556064
 51
272.638717154416
  0
ARC
  5
363
330
1E
100
AcDbEntity
  8
ﾚｲﾔ1
100
AcDbCircle
 10
-389.7874924651255
 20
-1805.882086317063
 30
0.0
 40
5.303032954544423
100
AcDbArc
 50
272.6387171565688
 51
92.63871715345302
  0
ARC
  5
364
330
1E
100
AcDbEntity
  8
ﾚｲﾔ1
100
AcDbCircle
 10
-388.2788791875435
 20
-1792.540916486532
 30
0.0
 40
3.181818181849435
100
AcDbArc
 50
272.6387171577625
 51
92.63871715225787
  0
ARC
  5
365
330
1E
100
AcDbEntity
  8
ﾚｲﾔ1
100
AcDbCircle
 10
-487.7465504800302
 20
-1797.125072152189
 30
0.0
 40
3.181818181848856
100
AcDbArc
 50
92.63871715635713
 51
272.6387171536684
  0
LINE
  5
366
330
1E
100
AcDbEntity
  8
ﾚｲﾔ1
100
AcDbLine
 10
-487.8930320507752
 20
-1793.946633539621
 30
0.0
 11
-388.4253653841083
 21
-1789.362471418409
 31
0.0
  0
LINE
  5
367
330
1E
100
AcDbEntity
  8
ﾚｲﾔ1
100
AcDbLine
 10
-388.1323994750164
 20
-1795.719362327499
 30
0.0
 11
-487.6000661416842
 21
-1800.303524448712
 31
0.0
  0
LINE
  5
368
330
1E
100
AcDbEntity
  8
ﾚｲﾔ1
100
AcDbLine
 10
-485.2613767477455
 20
-1804.973526721439
 30
0.0
 11
-390.0316373538044
 21
-1800.584685812348
 31
0.0
  0
LINE
  5
369
330
1E
100
AcDbEntity
  8
ﾚｲﾔ1
100
AcDbLine
 10
-389.5433502325934
 20
-1811.179498691136
 30
0.0
 11
-484.7730949295624
 21
-1815.568344903257
 31
0.0
  0
ARC
  5
36A
330
1E
100
AcDbEntity
  8
ﾚｲﾔ1
100
AcDbCircle
 10
-387.0581744960314
 20
-1819.027943074688
 30
0.0
 40
3.181818181849435
100
AcDbArc
 50
272.6387171577625
 51
92.63871715225787
  0
ARC
  5
36B
330
1E
100
AcDbEntity
  8
ﾚｲﾔ1
100
AcDbCircle
 10
-486.5258457885184
 20
-1823.612098740346
 30
0.0
 40
3.181818181848856
100
AcDbArc
 50
92.63871715635713
 51
272.6387171536684
  0
LINE
  5
36C
330
1E
100
AcDbEntity
  8
ﾚｲﾔ1
100
AcDbLine
 10
-486.3793668992603
 20
-1826.790543388106
 30
0.0
 11
-386.9116949295624
 21
-1822.206397175985
 31
0.0
  0
LINE
  5
36D
330
1E
100
AcDbEntity
  8
ﾚｲﾔ1
100
AcDbLine
 10
-387.2046608386524
 20
-1815.849500963863
 30
0.0
 11
-486.6723275053205
 21
-1820.433657782045
 31
0.0
  0
LWPOLYLINE
  5
36E
330
1E
100
AcDbEntity
  8
ﾚｲﾔ1
100
AcDbPolyline
 90
        3
 70
     0
 43
0.0
 10
-511.3863472022904
 20
-1998.350982024469
 10
-574.9552297780474
 20
-2001.28067293356
 10
-574.2601722022905
 20
-2016.362162327499
  0
LINE
  5
449
330
1E
100
AcDbEntity
  8
ﾚｲﾔ1
100
AcDbLine
 10
-1106.546207050776
 20
-1466.032975206288
 30
0.0
 11
-1087.825560838653
 21
-1466.032975206288
 31
0.0
  0
LINE
  5
44A
330
1E
100
AcDbEntity
  8
ﾚｲﾔ1
100
AcDbLine
 10
-1097.188432050774
 20
-1453.951887327499
 30
0.0
 11
-1097.188432050774
 21
-1475.686876721439
 31
0.0
  0
LINE
  5
44B
330
1E
100
AcDbEntity
  8
ﾚｲﾔ1
  6
DASHDOT
100
AcDbLine
 10
-567.8621138689564
 20
-1466.032975206288
 30
0.0
 11
-546.8013835659262
 21
-1466.032975206288
 31
0.0
  0
LINE
  5
44C
330
1E
100
AcDbEntity
  8
ﾚｲﾔ1
  6
DASHDOT
100
AcDbLine
 10
-557.5857585659264
 20
-1457.270571418409
 30
0.0
 11
-557.5857585659264
 21
-1476.54649793356
 31
0.0
  0
LINE
  5
44D
330
1E
100
AcDbEntity
  8
ﾚｲﾔ1
  6
DASHDOT
100
AcDbLine
 10
-569.6469229598656
 20
-1603.911768388105
 30
0.0
 11
-547.5153040204714
 21
-1603.911768388105
 31
0.0
  0
LINE
  5
44E
330
1E
100
AcDbEntity
  8
ﾚｲﾔ1
  6
DASHDOT
100
AcDbLine
 10
-557.5857585659264
 20
-1592.558998691136
 30
0.0
 11
-557.5857585659264
 21
-1613.619728994166
 31
0.0
  0
LINE
  5
4ED
330
1E
100
AcDbEntity
  8
ﾚｲﾔ1
100
AcDbLine
 10
-1103.55206841441
 20
-2005.756101721439
 30
0.0
 11
-1103.55206841441
 21
-2016.3621623275
 31
0.0
  0
LINE
  5
4EE
330
1E
100
AcDbEntity
  8
ﾚｲﾔ1
100
AcDbLine
 10
-1090.824795687138
 20
-2005.756101721439
 30
0.0
 11
-1090.824795687138
 21
-2016.3621623275
 31
0.0
  0
LINE
  5
4EF
330
1E
100
AcDbEntity
  8
ﾚｲﾔ1
100
AcDbLine
 10
-563.9493949295625
 20
-2000.773453994166
 30
0.0
 11
-563.9493949295625
 21
-2016.3621623275
 31
0.0
  0
LINE
  5
4F0
330
1E
100
AcDbEntity
  8
ﾚｲﾔ1
100
AcDbLine
 10
-551.2221222022895
 20
-2000.186891115378
 30
0.0
 11
-551.2221222022895
 21
-2016.3621623275
 31
0.0
  0
CIRCLE
  5
4F5
330
1E
100
AcDbEntity
  8
ﾚｲﾔ1
100
AcDbCircle
 10
-1093.491275990169
 20
-1923.252171418409
 30
0.0
 40
13.25757575757575
  0
CIRCLE
  5
4F6
330
1E
100
AcDbEntity
  8
ﾚｲﾔ1
100
AcDbCircle
 10
-1093.491275990169
 20
-1923.252171418409
 30
0.0
 40
13.25757575757575
  0
LINE
  5
4F7
330
1E
100
AcDbEntity
  8
ﾚｲﾔ1
100
AcDbLine
 10
-1121.037792656835
 20
-1924.521700963863
 30
0.0
 11
-1065.944759323501
 21
-1921.982636569924
 31
0.0
  0
LINE
  5
4F8
330
1E
100
AcDbEntity
  8
ﾚｲﾔ1
100
AcDbLine
 10
-1094.862104020473
 20
-1893.507813842651
 30
0.0
 11
-1092.106241141684
 21
-1953.304635054772
 31
0.0
  0
LINE
  5
4F9
330
1E
100
AcDbEntity
  8
ﾚｲﾔ1
100
AcDbLine
 10
-1162.952636596229
 20
-1913.513988842651
 30
0.0
 11
-1165.751125232593
 21
-1852.792043388105
 31
0.0
  0
LINE
  5
4FA
330
1E
100
AcDbEntity
  8
ﾚｲﾔ1
100
AcDbLine
 10
-1121.037792656835
 20
-1924.521700963863
 30
0.0
 11
-1065.944759323501
 21
-1921.982636569924
 31
0.0
  0
LINE
  5
4FB
330
1E
100
AcDbEntity
  8
ﾚｲﾔ1
100
AcDbLine
 10
-1094.862104020473
 20
-1893.507813842651
 30
0.0
 11
-1092.106241141684
 21
-1953.304635054772
 31
0.0
  0
LINE
  5
4FC
330
1E
100
AcDbEntity
  8
ﾚｲﾔ1
100
AcDbLine
 10
-1162.952636596229
 20
-1913.513988842651
 30
0.0
 11
-1165.751125232593
 21
-1852.792043388105
 31
0.0
  0
LINE
  5
4FD
330
1E
100
AcDbEntity
  8
ﾚｲﾔ1
  6
DASHDOT
100
AcDbLine
 10
-1117.667218414411
 20
-1964.181309297197
 30
0.0
 11
-1171.425049475017
 21
-1966.65884793356
 31
0.0
  0
LINE
  5
4FE
330
1E
100
AcDbEntity
  8
ﾚｲﾔ1
  6
DASHDOT
100
AcDbLine
 10
-1119.376210081077
 20
-1927.099450963863
 30
0.0
 11
-1173.134035838655
 21
-1929.576994903257
 31
0.0
  0
LINE
  5
4FF
330
1E
100
AcDbEntity
  8
ﾚｲﾔ1
100
AcDbLine
 10
-1123.276344929563
 20
-1554.06327823659
 30
0.0
 11
-1143.39989720229
 21
-1554.06327823659
 31
0.0
  0
LINE
  5
500
330
1E
100
AcDbEntity
  8
ﾚｲﾔ1
100
AcDbLine
 10
-1123.276344929563
 20
-1505.275394145681
 30
0.0
 11
-1143.39989720229
 21
-1505.275394145681
 31
0.0
  0
LINE
  5
501
330
1E
100
AcDbEntity
  8
ﾚｲﾔ1
  6
DASHDOT
100
AcDbLine
 10
-1097.24173280835
 20
-1682.211244145682
 30
0.0
 11
-1097.24173280835
 21
-1587.021478994166
 31
0.0
  0
LINE
  5
502
330
1E
100
AcDbEntity
  8
ﾚｲﾔ1
  6
DASHDOT
100
AcDbLine
 10
-1094.815856293199
 20
-1534.972369145682
 30
0.0
 11
-354.8979108386534
 21
-1534.972369145682
 31
0.0
  0
LINE
  5
503
330
1E
100
AcDbEntity
  8
ﾚｲﾔ1
  6
DASHDOT
100
AcDbLine
 10
-1093.341926747744
 20
-1838.306768388105
 30
0.0
 11
-350.4782062931995
 21
-1804.070436569924
 31
0.0
  0
LINE
  5
504
330
1E
100
AcDbEntity
  8
ﾚｲﾔ1
  6
DASHDOT
100
AcDbLine
 10
-472.9570407966735
 20
-1909.957337191074
 30
0.0
 11
-1212.282958406302
 21
-1944.053536259106
 31
0.0
  0
LINE
  5
505
330
1E
100
AcDbEntity
  8
ﾚｲﾔ1
100
AcDbLine
 10
-557.5857585659264
 20
-1997.057944145681
 30
0.0
 11
-557.5857585659264
 21
-2020.785690357803
 31
0.0
  0
LINE
  5
506
330
1E
100
AcDbEntity
  8
ﾚｲﾔ1
100
AcDbLine
 10
-1097.188432050774
 20
-2000.627498691136
 30
0.0
 11
-1097.188432050774
 21
-2021.073750963863
 31
0.0
  0
DIMENSION
  5
560
330
1E
100
AcDbEntity
  8
寸法
100
AcDbDimension
  2
*D2
 10
-557.5857585659264
 20
-1426.327718388105
 30
0.0
 11
-827.3870953083504
 21
-1420.327718388105
 31
0.0
 70
    32
  1
580
 71
     5
 42
539.6026734848479
  3
Standard
100
AcDbAlignedDimension
 13
-1097.188432050774
 23
-1449.709463085075
 33
0.0
 14
-557.5857585659264
 24
-1454.366313842651
 34
0.0
100
AcDbRotatedDimension
1001
ACAD
1000
DSTYLE
1002
{
1070
    41
1040
5.0
1070
    42
1040
0.5
1070
    43
1040
0.5
1070
    44
1040
0.5
1070
    73
1070
     0
1070
    74
1070
     0
1070
    77
1070
     1
1070
   140
1040
12.0
1070
   147
1040
1.0
1070
   176
1070
     1
1070
   177
1070
     1
1070
   178
1070
     1
1070
   271
1070
     0
1070
   272
1070
     0
1070
   279
1070
     2
1070
   341
1005
543
1070
   342
1005
543
1002
}
  0
DIMENSION
  5
576
330
1E
100
AcDbEntity
  8
寸法
100
AcDbDimension
  2
*D3
 10
-1253.9880658487
 20
-1682.211244145682
 30
0.0
 11
-1259.9880658487
 21
-1568.819079372955
 31
0.0
 70
    32
  1
240
 71
     5
 42
226.784329545455
  3
Standard
100
AcDbAlignedDimension
 13
-1121.052068414413
 23
-1455.426914600227
 33
0.0
 14
-1097.24173280835
 24
-1682.211244145682
 34
0.0
 50
90.0
100
AcDbRotatedDimension
1001
ACAD
1000
DSTYLE
1002
{
1070
    41
1040
5.0
1070
    42
1040
0.5
1070
    43
1040
0.5
1070
    44
1040
0.5
1070
    73
1070
     0
1070
    74
1070
     0
1070
    77
1070
     1
1070
   140
1040
12.0
1070
   147
1040
1.0
1070
   176
1070
     1
1070
   177
1070
     1
1070
   178
1070
     1
1070
   271
1070
     0
1070
   272
1070
     0
1070
   279
1070
     2
1070
   341
1005
543
1070
   342
1005
543
1002
}
  0
DIMENSION
  5
58C
330
1E
100
AcDbEntity
  8
寸法
100
AcDbDimension
  2
*D4
 10
-1253.975398104501
 20
-2016.362162327499
 30
0.0
 11
-1259.975398104501
 21
-1915.923781266893
 31
0.0
 70
    32
  1
245
 71
     5
 42
200.8767621212121
  3
Standard
100
AcDbAlignedDimension
 13
-1116.507360838653
 23
-1815.485400206287
 33
0.0
 14
-1121.052068414413
 24
-2016.362162327499
 34
0.0
 50
90.0
100
AcDbRotatedDimension
1001
ACAD
1000
DSTYLE
1002
{
1070
    41
1040
5.0
1070
    42
1040
0.5
1070
    43
1040
0.5
1070
    44
1040
0.5
1070
    73
1070
     0
1070
    74
1070
     0
1070
    77
1070
     1
1070
   140
1040
12.0
1070
   147
1040
1.0
1070
   176
1070
     1
1070
   177
1070
     1
1070
   178
1070
     1
1070
   271
1070
     0
1070
   272
1070
     0
1070
   279
1070
     2
1070
   341
1005
543
1070
   342
1005
543
1002
}
  0
LWPOLYLINE
  5
7C2
330
1E
100
AcDbEntity
  8
ﾚｲﾔ1
100
AcDbPolyline
 90
        4
 70
     1
 43
0.0
 10
-1506.443678879089
 20
-1101.154533216958
 10
97.37921355242042
 20
-1101.154533216958
 10
97.37921355242042
 20
-2235.154623176986
 10
-1506.443678879089
 20
-2235.154623176986
  0
LINE
  5
7C3
330
1E
100
AcDbEntity
  8
図面枠
  6
Continuous
100
AcDbLine
 10
11.53563218151794
 20
-1148.278225250619
 30
0.0
 11
-1434.005983304433
 21
-1148.278225250619
 31
0.0
  0
LINE
  5
7C4
330
1E
100
AcDbEntity
  8
図面枠
  6
Continuous
100
AcDbLine
 10
-1422.74202266428
 20
-1159.54218589077
 30
0.0
 11
0.271671541363844
 21
-1159.54218589077
 31
0.0
  0
LINE
  5
7C5
330
1E
100
AcDbEntity
  8
図面枠
  6
Continuous
100
AcDbLine
 10
-1422.74202266428
 20
-2158.280029317423
 30
0.0
 11
-1422.74202266428
 21
-1159.54218589077
 31
0.0
  0
LINE
  5
7C6
330
1E
100
AcDbEntity
  8
図面枠
  6
Continuous
100
AcDbLine
 10
-1434.005983304433
 20
-1148.278225250619
 30
0.0
 11
-1434.005983304433
 21
-2169.543989957573
 31
0.0
  0
MTEXT
  5
7C7
330
1E
100
AcDbEntity
  8
ﾚｲﾔ1
100
AcDbMText
 10
-237.1393298589043
 20
-2102.360215061157
 30
0.0
 40
13.5
 41
231.0922981248571
 71
     1
 72
     5
  1
{HPW-4}
 73
     1
 44
1.0
1001
ACAD
1000
ACAD_MTEXT_DEFINED_HEIGHT_BEGIN
1070
    46
1040
13.5
1000
ACAD_MTEXT_DEFINED_HEIGHT_END
  0
MTEXT
  5
7C8
330
1E
100
AcDbEntity
  8
ﾚｲﾔ1
100
AcDbMText
 10
-238.5806251906076
 20
-2080.00785907247
 30
0.0
 40
10.8
 41
231.0922981248569
 71
     1
 72
     5
  1
{複動型手動ポンプ}
 73
     1
 44
1.0
1001
ACAD
1000
ACAD_MTEXT_DEFINED_HEIGHT_BEGIN
1070
    46
1040
10.8
1000
ACAD_MTEXT_DEFINED_HEIGHT_END
  0
MTEXT
  5
7C9
330
1E
100
AcDbEntity
  8
図面枠
370
    30
100
AcDbMText
 10
-245.083259912669
 20
-2172.553728751252
 30
0.0
 40
16.52047560555367
 41
272.6602263767259
 71
     1
 72
     5
  1
株式会社　関東油機サービス
 73
     1
 44
1.0
  0
TEXT
  5
7CA
330
1E
100
AcDbEntity
  8
図面枠
100
AcDbText
 10
-170.0018668022426
 20
-2135.664211091544
 30
0.0
 40
11.26396064015023
  1
図
100
AcDbText
  0
TEXT
  5
7CB
330
1E
100
AcDbEntity
  8
図面枠
100
AcDbText
 10
-257.0684460771095
 20
-2156.257250732619
 30
0.0
 40
11.26396064015023
  1
１：3
100
AcDbText
  0
TEXT
  5
7CC
330
1E
100
AcDbEntity
  8
図面枠
100
AcDbText
 10
-170.0018668022426
 20
-2153.398979706693
 30
0.0
 40
11.26396064015023
  1
番
100
AcDbText
  0
TEXT
  5
7CD
330
1E
100
AcDbEntity
  8
図面枠
100
AcDbText
 10
-259.6654982082192
 20
-2137.781230725425
 30
0.0
 40
15.01861418686697
  1
尺度
 41
1.125
100
AcDbText
  0
LINE
  5
7CE
330
1E
100
AcDbEntity
  8
図面枠
  6
Continuous
100
AcDbLine
 10
0.271671541363844
 20
-2158.280029317423
 30
0.0
 11
-1422.74202266428
 21
-2158.280029317423
 31
0.0
  0
LINE
  5
7CF
330
1E
100
AcDbEntity
  8
図面枠
  6
Continuous
100
AcDbLine
 10
-236.2715019017855
 20
-2094.826384377909
 30
0.0
 11
-11.74321980812761
 21
-2094.826384377909
 31
0.0
  0
LINE
  5
7D0
330
1E
100
AcDbEntity
  8
図面枠
  6
Continuous
100
AcDbLine
 10
-266.3087302755229
 20
-2139.506761583837
 30
0.0
 11
-172.4423916076047
 21
-2139.506761583837
 31
0.0
  0
LINE
  5
7D1
330
1E
100
AcDbEntity
  8
図面枠
  6
Continuous
100
AcDbLine
 10
0.271671541363844
 20
-2064.413690649505
 30
0.0
 11
-266.3087302755229
 21
-2064.413690649505
 31
0.0
  0
LINE
  5
7D2
330
1E
100
AcDbEntity
  8
図面枠
  6
Continuous
100
AcDbLine
 10
0.271671541363844
 20
-2120.733493850255
 30
0.0
 11
-247.535462541943
 21
-2120.733493850255
 31
0.0
  0
LINE
  5
7D3
330
1E
100
AcDbEntity
  8
図面枠
  6
Continuous
100
AcDbLine
 10
0.271671541363844
 20
-2064.413690649505
 30
0.0
 11
0.271671541363844
 21
-2120.733493850255
 31
0.0
  0
LINE
  5
7D4
330
1E
100
AcDbEntity
  8
図面枠
  6
Continuous
100
AcDbLine
 10
-247.535462541943
 20
-2064.413690649505
 30
0.0
 11
0.271671541363844
 21
-2064.413690649505
 31
0.0
  0
LINE
  5
7D5
330
1E
100
AcDbEntity
  8
図面枠
  6
Continuous
100
AcDbLine
 10
-247.535462541943
 20
-2120.733493850255
 30
0.0
 11
-247.535462541943
 21
-2064.413690649505
 31
0.0
  0
LINE
  5
7D6
330
1E
100
AcDbEntity
  8
図面枠
  6
Continuous
100
AcDbLine
 10
-247.535462541943
 20
-2064.413690649505
 30
0.0
 11
-266.3087302755229
 21
-2064.413690649505
 31
0.0
  0
LINE
  5
7D7
330
1E
100
AcDbEntity
  8
図面枠
  6
Continuous
100
AcDbLine
 10
-247.535462541943
 20
-2120.733493850255
 30
0.0
 11
-247.535462541943
 21
-2064.413690649505
 31
0.0
  0
LINE
  5
7D8
330
1E
100
AcDbEntity
  8
図面枠
  6
Continuous
100
AcDbLine
 10
-266.3087302755229
 20
-2120.733493850255
 30
0.0
 11
-247.535462541943
 21
-2120.733493850255
 31
0.0
  0
LINE
  5
7D9
330
1E
100
AcDbEntity
  8
図面枠
  6
Continuous
100
AcDbLine
 10
-266.3087302755229
 20
-2064.413690649505
 30
0.0
 11
-266.3087302755229
 21
-2120.733493850255
 31
0.0
  0
LINE
  5
7DA
330
1E
100
AcDbEntity
  8
図面枠
  6
Continuous
100
AcDbLine
 10
-266.3087302755229
 20
-2064.413690649505
 30
0.0
 11
-266.3087302755229
 21
-2083.186958383089
 31
0.0
  0
LINE
  5
7DB
330
1E
100
AcDbEntity
  8
図面枠
  6
Continuous
100
AcDbLine
 10
-266.3087302755229
 20
-2083.186958383089
 30
0.0
 11
-266.3087302755229
 21
-2101.960226116672
 31
0.0
  0
LINE
  5
7DC
330
1E
100
AcDbEntity
  8
図面枠
  6
Continuous
100
AcDbLine
 10
-266.3087302755229
 20
-2101.960226116672
 30
0.0
 11
-266.3087302755229
 21
-2120.733493850255
 31
0.0
  0
LINE
  5
7DD
330
1E
100
AcDbEntity
  8
図面枠
  6
Continuous
100
AcDbLine
 10
0.271671541363844
 20
-2120.733493850255
 30
0.0
 11
-157.4237774207396
 21
-2120.733493850255
 31
0.0
  0
LINE
  5
7DE
330
1E
100
AcDbEntity
  8
図面枠
  6
Continuous
100
AcDbLine
 10
0.271671541363844
 20
-2158.280029317423
 30
0.0
 11
0.271671541363844
 21
-2120.733493850255
 31
0.0
  0
LINE
  5
7DF
330
1E
100
AcDbEntity
  8
図面枠
  6
Continuous
100
AcDbLine
 10
-157.4237774207396
 20
-2158.280029317423
 30
0.0
 11
0.271671541363844
 21
-2158.280029317423
 31
0.0
  0
LINE
  5
7E0
330
1E
100
AcDbEntity
  8
図面枠
  6
Continuous
100
AcDbLine
 10
-157.4237774207396
 20
-2120.733493850255
 30
0.0
 11
-157.4237774207396
 21
-2158.280029317423
 31
0.0
  0
LINE
  5
7E1
330
1E
100
AcDbEntity
  8
図面枠
  6
Continuous
100
AcDbLine
 10
-157.4237774207396
 20
-2120.733493850255
 30
0.0
 11
-172.4423916076047
 21
-2120.733493850255
 31
0.0
  0
LINE
  5
7E2
330
1E
100
AcDbEntity
  8
図面枠
  6
Continuous
100
AcDbLine
 10
-157.4237774207396
 20
-2158.280029317423
 30
0.0
 11
-157.4237774207396
 21
-2120.733493850255
 31
0.0
  0
LINE
  5
7E3
330
1E
100
AcDbEntity
  8
図面枠
  6
Continuous
100
AcDbLine
 10
-172.4423916076047
 20
-2158.280029317423
 30
0.0
 11
-157.4237774207396
 21
-2158.280029317423
 31
0.0
  0
LINE
  5
7E4
330
1E
100
AcDbEntity
  8
図面枠
  6
Continuous
100
AcDbLine
 10
-172.4423916076047
 20
-2120.733493850255
 30
0.0
 11
-172.4423916076047
 21
-2158.280029317423
 31
0.0
  0
LINE
  5
7E5
330
1E
100
AcDbEntity
  8
図面枠
  6
Continuous
100
AcDbLine
 10
-172.4423916076047
 20
-2120.733493850255
 30
0.0
 11
-213.7435806214896
 21
-2120.733493850255
 31
0.0
  0
LINE
  5
7E6
330
1E
100
AcDbEntity
  8
図面枠
  6
Continuous
100
AcDbLine
 10
-172.4423916076047
 20
-2158.280029317423
 30
0.0
 11
-172.4423916076047
 21
-2120.733493850255
 31
0.0
  0
LINE
  5
7E7
330
1E
100
AcDbEntity
  8
図面枠
  6
Continuous
100
AcDbLine
 10
-213.7435806214896
 20
-2158.280029317423
 30
0.0
 11
-172.4423916076047
 21
-2158.280029317423
 31
0.0
  0
LINE
  5
7E8
330
1E
100
AcDbEntity
  8
図面枠
  6
Continuous
100
AcDbLine
 10
-213.7435806214896
 20
-2120.733493850255
 30
0.0
 11
-213.7435806214896
 21
-2158.280029317423
 31
0.0
  0
LINE
  5
7E9
330
1E
100
AcDbEntity
  8
図面枠
  6
Continuous
100
AcDbLine
 10
-213.7435806214896
 20
-2120.733493850255
 30
0.0
 11
-266.3087302755229
 21
-2120.733493850255
 31
0.0
  0
LINE
  5
7EA
330
1E
100
AcDbEntity
  8
図面枠
  6
Continuous
100
AcDbLine
 10
-213.7435806214896
 20
-2158.280029317423
 30
0.0
 11
-213.7435806214896
 21
-2120.733493850255
 31
0.0
  0
LINE
  5
7EB
330
1E
100
AcDbEntity
  8
図面枠
  6
Continuous
100
AcDbLine
 10
-266.3087302755229
 20
-2158.280029317423
 30
0.0
 11
-213.7435806214896
 21
-2158.280029317423
 31
0.0
  0
LINE
  5
7EC
330
1E
100
AcDbEntity
  8
図面枠
  6
Continuous
100
AcDbLine
 10
-266.3087302755229
 20
-2120.733493850255
 30
0.0
 11
-266.3087302755229
 21
-2158.280029317423
 31
0.0
  0
LINE
  5
7ED
330
1E
100
AcDbEntity
  8
図面枠
  6
Continuous
100
AcDbLine
 10
-266.3087302755229
 20
-2158.280029317423
 30
0.0
 11
-266.3087302755229
 21
-2120.733493850255
 31
0.0
  0
LINE
  5
7EE
330
1E
100
AcDbEntity
  8
図面枠
  6
Continuous
100
AcDbLine
 10
11.53563218151794
 20
-2169.543989957573
 30
0.0
 11
-1434.005983304433
 21
-2169.543989957573
 31
0.0
  0
LINE
  5
7EF
330
1E
100
AcDbEntity
  8
図面枠
  6
Continuous
100
AcDbLine
 10
0.271671541363844
 20
-1159.54218589077
 30
0.0
 11
0.271671541363844
 21
-2158.280029317423
 31
0.0
  0
LINE
  5
7F0
330
1E
100
AcDbEntity
  8
図面枠
  6
Continuous
100
AcDbLine
 10
11.53563218151794
 20
-1148.278225250619
 30
0.0
 11
11.53563218151794
 21
-2169.543989957573
 31
0.0
  0
LINE
  5
7F2
330
1E
100
AcDbEntity
  8
ﾚｲﾔ1
100
AcDbLine
 10
-333.6116071165118
 20
-1338.5597100708
 30
0.0
 11
-41.57134805106512
 21
-1338.5597100708
 31
0.0
  0
LINE
  5
7F3
330
1E
100
AcDbEntity
  8
ﾚｲﾔ1
100
AcDbLine
 10
-333.6116071165118
 20
-1285.099710070763
 30
0.0
 11
-41.57134805106512
 21
-1285.099710070763
 31
0.0
  0
LINE
  5
7F4
330
1E
100
AcDbEntity
  8
ﾚｲﾔ1
100
AcDbLine
 10
-333.6116071165118
 20
-1231.639710070916
 30
0.0
 11
-41.57134805106512
 21
-1231.639710070916
 31
0.0
  0
LINE
  5
7F5
330
1E
100
AcDbEntity
  8
ﾚｲﾔ1
100
AcDbLine
 10
-333.6116071165118
 20
-1258.369710070839
 30
0.0
 11
-41.57134805106512
 21
-1258.369710070839
 31
0.0
  0
LINE
  5
7F6
330
1E
100
AcDbEntity
  8
ﾚｲﾔ1
100
AcDbLine
 10
-333.6116071165118
 20
-1204.9097100708
 30
0.0
 11
-41.57134805106512
 21
-1204.9097100708
 31
0.0
  0
LINE
  5
7F7
330
1E
100
AcDbEntity
  8
ﾚｲﾔ1
100
AcDbLine
 10
-333.6116071165118
 20
-1311.829710070878
 30
0.0
 11
-41.57134805106512
 21
-1311.829710070878
 31
0.0
  0
LINE
  5
7F8
330
1E
100
AcDbEntity
  8
ﾚｲﾔ1
100
AcDbLine
 10
-333.6116071165118
 20
-1338.5597100708
 30
0.0
 11
-41.57134805106512
 21
-1338.5597100708
 31
0.0
  0
MTEXT
  5
7F9
330
1E
100
AcDbEntity
  8
ﾚｲﾔ1
100
AcDbMText
 10
-332.5901575631182
 20
-1328.548836546683
 30
0.0
 40
8.909999999999993
 41
1434.293483753237
 71
     1
 72
     5
  1
重　　量
 73
     1
 44
1.0
  0
MTEXT
  5
7FA
330
1E
100
AcDbEntity
  8
ﾚｲﾔ1
100
AcDbMText
 10
-332.0311465075255
 20
-1193.076048637247
 30
0.0
 40
10.395
 41
1434.293483753237
 71
     1
 72
     5
  1
{最 高 使 用 圧 力}
 73
     1
 44
1.0
1001
ACAD
1000
ACAD_MTEXT_DEFINED_HEIGHT_BEGIN
1070
    46
1040
10.395
1000
ACAD_MTEXT_DEFINED_HEIGHT_END
  0
MTEXT
  5
7FC
330
1E
100
AcDbEntity
  8
ﾚｲﾔ1
100
AcDbMText
 10
-332.3579805035825
 20
-1272.459433884722
 30
0.0
 40
10.395
 41
1434.293483753237
 71
     1
 72
     5
  1
{全        長}
 73
     1
 44
1.0
1001
ACAD
1000
ACAD_MTEXT_DEFINED_HEIGHT_BEGIN
1070
    46
1040
10.395
1000
ACAD_MTEXT_DEFINED_HEIGHT_END
  0
MTEXT
  5
7FD
330
1E
100
AcDbEntity
  8
ﾚｲﾔ1
100
AcDbMText
 10
-331.8395772121495
 20
-1218.53141961328
 30
0.0
 40
10.395
 41
1434.293483753236
 71
     1
 72
     5
  1
{吐 出 量(高圧)}
 73
     1
 44
1.0
1001
ACAD
1000
ACAD_MTEXT_DEFINED_HEIGHT_BEGIN
1070
    46
1040
10.395
1000
ACAD_MTEXT_DEFINED_HEIGHT_END
  0
MTEXT
  5
7FE
330
1E
100
AcDbEntity
  8
ﾚｲﾔ1
100
AcDbMText
 10
-332.2829115909448
 20
-1298.725990497404
 30
0.0
 40
10.395
 41
1434.293483753237
 71
     1
 72
     5
  1
{有 効  油 量}
 73
     1
 44
1.0
1001
ACAD
1000
ACAD_MTEXT_DEFINED_HEIGHT_BEGIN
1070
    46
1040
10.395
1000
ACAD_MTEXT_DEFINED_HEIGHT_END
  0
MTEXT
  5
7FF
330
1E
100
AcDbEntity
  8
ﾚｲﾔ1
100
AcDbMText
 10
-332.5593491704742
 20
-1246.479795404926
 30
0.0
 40
10.395
 41
1434.293483753237
 71
     1
 72
     5
  1
{吐 出 量(低圧)}
 73
     1
 44
1.0
1001
ACAD
1000
ACAD_MTEXT_DEFINED_HEIGHT_BEGIN
1070
    46
1040
10.395
1000
ACAD_MTEXT_DEFINED_HEIGHT_END
  0
TEXT
  5
800
330
1E
100
AcDbEntity
  8
ﾚｲﾔ1
100
AcDbText
 10
-67.96019656975318
 20
-1201.698747494029
 30
0.0
 40
9.9
  1
MPa
 50
360.0
100
AcDbText
  0
TEXT
  5
801
330
1E
100
AcDbEntity
  8
ﾚｲﾔ1
100
AcDbText
 10
-127.1724096526228
 20
-1201.40996997966
 30
0.0
 40
9.9
  1
70
 50
360.0
100
AcDbText
  0
TEXT
  5
802
330
1E
100
AcDbEntity
  8
ﾚｲﾔ1
100
AcDbText
 10
-61.71475582795832
 20
-1228.706222867711
 30
0.0
 40
9.9
  1
CC
 50
360.0
100
AcDbText
  0
TEXT
  5
805
330
1E
100
AcDbEntity
  8
ﾚｲﾔ1
100
AcDbText
 10
-54.39941516888615
 20
-1308.633288240107
 30
0.0
 40
9.9
  1
L
 50
360.0
100
AcDbText
  0
TEXT
  5
806
330
1E
100
AcDbEntity
  8
ﾚｲﾔ1
100
AcDbText
 10
-61.71475582795832
 20
-1255.596107511515
 30
0.0
 40
9.9
  1
CC
 50
360.0
100
AcDbText
  0
TEXT
  5
807
330
1E
100
AcDbEntity
  8
ﾚｲﾔ1
100
AcDbText
 10
-61.71475582795832
 20
-1335.908484816965
 30
0.0
 40
9.9
  1
Kg
 50
360.0
100
AcDbText
  0
TEXT
  5
808
330
1E
100
AcDbEntity
  8
ﾚｲﾔ1
100
AcDbText
 10
-61.50173419714713
 20
-1282.417809296429
 30
0.0
 40
9.9
  1
mm
 50
360.0
100
AcDbText
  0
TEXT
  5
80A
330
1E
100
AcDbEntity
  8
ﾚｲﾔ1
100
AcDbText
 10
-127.1724096526228
 20
-1228.811087344955
 30
0.0
 40
9.9
  1
3.8
 50
360.0
100
AcDbText
  0
TEXT
  5
80B
330
1E
100
AcDbEntity
  8
ﾚｲﾔ1
100
AcDbText
 10
-127.1724096526228
 20
-1255.602246762435
 30
0.0
 40
9.9
  1
42
 50
360.0
100
AcDbText
  0
TEXT
  5
80C
330
1E
100
AcDbEntity
  8
ﾚｲﾔ1
100
AcDbText
 10
-127.1724096526228
 20
-1282.681827752579
 30
0.0
 40
9.9
  1
820
 50
360.0
100
AcDbText
  0
TEXT
  5
80D
330
1E
100
AcDbEntity
  8
ﾚｲﾔ1
100
AcDbText
 10
-109.8208681411795
 20
-1308.490154544886
 30
0.0
 40
9.9
  1
2
 50
360.0
100
AcDbText
  0
TEXT
  5
80E
330
1E
100
AcDbEntity
  8
ﾚｲﾔ1
100
AcDbText
 10
-117.4013759885322
 20
-1336.129679972109
 30
0.0
 40
9.9
  1
20
 50
360.0
100
AcDbText
  0
LINE
  5
810
330
1E
100
AcDbEntity
  8
ﾚｲﾔ1
100
AcDbLine
 10
-333.6116071165118
 20
-1178.17613006282
 30
0.0
 11
-295.7450645395486
 21
-1178.188273074427
 31
0.0
  0
MTEXT
  5
811
330
1E
100
AcDbEntity
  8
ﾚｲﾔ1
100
AcDbMText
 10
-331.6140165739035
 20
-1168.325326241001
 30
0.0
 40
8.909999999999993
 41
1434.293483753237
 71
     1
 72
     5
  1
仕  様
 73
     1
 44
1.0
  0
TEXT
  5
812
102
{ACAD_REACTORS
102
}
330
1E
100
AcDbEntity
  8
図面枠
100
AcDbText
 10
-264.1562057820395
 20
-2088.946903077129
 30
0.0
 40
16.89594096022534
  1
名
100
AcDbText
  0
TEXT
  5
813
102
{ACAD_REACTORS
102
}
330
1E
100
AcDbEntity
  8
図面枠
100
AcDbText
 10
-264.1562057820395
 20
-2115.549055999852
 30
0.0
 40
16.89594096022534
  1
称
100
AcDbText
  0
DIMENSION
  5
A86
102
{ACAD_XDICTIONARY
360
A93
102
}
330
1E
100
AcDbEntity
  8
寸法
100
AcDbDimension
  2
*D21
 10
-369.1578759901695
 20
-1401.527617365803
 30
0.0
 11
-749.1088953083511
 21
-1395.527617365803
 31
0.0
 70
    32
 71
     5
 42
759.9020386363632
  3
Standard
100
AcDbAlignedDimension
 13
-1129.059914626533
 23
-1478.76024793356
 33
0.0
 14
-369.1578759901695
 24
-1519.623884297197
 34
0.0
100
AcDbRotatedDimension
1001
ACAD
1000
DSTYLE
1002
{
1070
    41
1040
5.0
1070
   342
1005
543
1070
   176
1070
     1
1070
   177
1070
     1
1070
   178
1070
     1
1070
   271
1070
     0
1070
    43
1040
0.5
1070
    44
1040
0.5
1070
    42
1040
0.5
1070
   147
1040
1.0
1070
   341
1005
543
1070
    77
1070
     1
1070
   272
1070
     0
1070
    73
1070
     0
1070
   279
1070
     2
1070
    74
1070
     0
1070
   140
1040
12.0
1002
}
1001
ENABLE_CUSTOM_SPLIT
1070
     1
  0
LWPOLYLINE
  5
A99
330
1E
100
AcDbEntity
  8
ﾚｲﾔ1
100
AcDbPolyline
 90
        4
 70
     1
 43
0.0
 10
360.4555823767078
 20
-1072.405814011051
 10
1964.278474808217
 20
-1072.405814011051
 10
1964.278474808217
 20
-2206.40590397108
 10
360.4555823767078
 20
-2206.40590397108
  0
LINE
  5
A9A
330
1E
100
AcDbEntity
  8
図面枠
  6
Continuous
100
AcDbLine
 10
444.1572385915169
 20
-1130.793466684864
 30
0.0
 11
1867.170932797161
 21
-1130.793466684864
 31
0.0
  0
LINE
  5
A9B
330
1E
100
AcDbEntity
  8
図面枠
  6
Continuous
100
AcDbLine
 10
1878.434893437315
 20
-1119.529506044713
 30
0.0
 11
432.8932779513639
 21
-1119.529506044713
 31
0.0
  0
LINE
  5
A9C
330
1E
100
AcDbEntity
  8
ﾚｲﾔ1
100
AcDbLine
 10
1533.287654139285
 20
-1309.810990864894
 30
0.0
 11
1825.327913204732
 21
-1309.810990864894
 31
0.0
  0
LINE
  5
A9D
330
1E
100
AcDbEntity
  8
ﾚｲﾔ1
100
AcDbLine
 10
1533.287654139285
 20
-1283.080990864971
 30
0.0
 11
1825.327913204732
 21
-1283.080990864971
 31
0.0
  0
LINE
  5
A9E
330
1E
100
AcDbEntity
  8
ﾚｲﾔ1
100
AcDbLine
 10
1533.287654139285
 20
-1309.810990864894
 30
0.0
 11
1825.327913204732
 21
-1309.810990864894
 31
0.0
  0
MTEXT
  5
A9F
330
1E
100
AcDbEntity
  8
ﾚｲﾔ1
100
AcDbMText
 10
1534.309103692678
 20
-1299.800117340777
 30
0.0
 40
8.909999999999993
 41
1434.293483753237
 71
     1
 72
     5
  1
重　　量
 73
     1
 44
1.0
  0
MTEXT
  5
AA0
330
1E
100
AcDbEntity
  8
ﾚｲﾔ1
100
AcDbMText
 10
1534.616349664852
 20
-1269.977271291498
 30
0.0
 40
10.395
 41
1434.293483753237
 71
     1
 72
     5
  1
{有 効  油 量}
 73
     1
 44
1.0
1001
ACAD
1000
ACAD_MTEXT_DEFINED_HEIGHT_BEGIN
1070
    46
1040
10.395
1000
ACAD_MTEXT_DEFINED_HEIGHT_END
  0
TEXT
  5
AA1
330
1E
100
AcDbEntity
  8
ﾚｲﾔ1
100
AcDbText
 10
1812.499846086911
 20
-1279.884569034201
 30
0.0
 40
9.9
  1
L
 50
360.0
100
AcDbText
  0
TEXT
  5
AA2
330
1E
100
AcDbEntity
  8
ﾚｲﾔ1
100
AcDbText
 10
1805.184505427839
 20
-1307.159765611059
 30
0.0
 40
9.9
  1
Kg
 50
360.0
100
AcDbText
  0
TEXT
  5
AA3
330
1E
100
AcDbEntity
  8
ﾚｲﾔ1
100
AcDbText
 10
1749.497885267265
 20
-1307.380960766203
 30
0.0
 40
9.9
  1
20
 50
360.0
100
AcDbText
  0
TEXT
  5
AA4
330
1E
100
AcDbEntity
  8
ﾚｲﾔ1
100
AcDbText
 10
1757.078393114617
 20
-1279.741435338979
 30
0.0
 40
9.9
  1
2
 50
360.0
100
AcDbText
  0
TEXT
  5
AA5
330
1E
100
AcDbEntity
  8
ﾚｲﾔ1
100
AcDbText
 10
1798.939064686044
 20
-1172.950028288123
 30
0.0
 40
9.9
  1
MPa
 50
360.0
100
AcDbText
  0
TEXT
  5
AA6
330
1E
100
AcDbEntity
  8
ﾚｲﾔ1
100
AcDbText
 10
1739.726851603174
 20
-1172.661250773754
 30
0.0
 40
9.9
  1
70
 50
360.0
100
AcDbText
  0
MTEXT
  5
AA7
330
1E
100
AcDbEntity
  8
ﾚｲﾔ1
100
AcDbMText
 10
1535.285244681893
 20
-1139.576607035095
 30
0.0
 40
8.909999999999993
 41
1434.293483753237
 71
     1
 72
     5
  1
仕  様
 73
     1
 44
1.0
  0
LINE
  5
AA8
330
1E
100
AcDbEntity
  8
ﾚｲﾔ1
100
AcDbLine
 10
1533.287654139285
 20
-1229.620990864933
 30
0.0
 11
1825.327913204732
 21
-1229.620990864933
 31
0.0
  0
LINE
  5
AA9
330
1E
100
AcDbEntity
  8
ﾚｲﾔ1
100
AcDbLine
 10
1533.287654139285
 20
-1149.427410856914
 30
0.0
 11
1571.154196716248
 21
-1149.439553868521
 31
0.0
  0
LINE
  5
AAA
330
1E
100
AcDbEntity
  8
ﾚｲﾔ1
100
AcDbLine
 10
1533.287654139285
 20
-1256.350990864856
 30
0.0
 11
1825.327913204732
 21
-1256.350990864856
 31
0.0
  0
LINE
  5
AAB
330
1E
100
AcDbEntity
  8
ﾚｲﾔ1
100
AcDbLine
 10
1533.287654139285
 20
-1202.89099086501
 30
0.0
 11
1825.327913204732
 21
-1202.89099086501
 31
0.0
  0
LINE
  5
AAC
330
1E
100
AcDbEntity
  8
ﾚｲﾔ1
100
AcDbLine
 10
1533.287654139285
 20
-1176.160990864894
 30
0.0
 11
1825.327913204732
 21
-1176.160990864894
 31
0.0
  0
MTEXT
  5
AAD
330
1E
100
AcDbEntity
  8
ﾚｲﾔ1
100
AcDbMText
 10
1535.059684043647
 20
-1189.782700407374
 30
0.0
 40
10.395
 41
1434.293483753236
 71
     1
 72
     5
  1
{吐 出 量(高圧)}
 73
     1
 44
1.0
1001
ACAD
1000
ACAD_MTEXT_DEFINED_HEIGHT_BEGIN
1070
    46
1040
10.395
1000
ACAD_MTEXT_DEFINED_HEIGHT_END
  0
MTEXT
  5
AAE
330
1E
100
AcDbEntity
  8
ﾚｲﾔ1
100
AcDbMText
 10
1534.339912085323
 20
-1217.73107619902
 30
0.0
 40
10.395
 41
1434.293483753237
 71
     1
 72
     5
  1
{吐 出 量(低圧)}
 73
     1
 44
1.0
1001
ACAD
1000
ACAD_MTEXT_DEFINED_HEIGHT_BEGIN
1070
    46
1040
10.395
1000
ACAD_MTEXT_DEFINED_HEIGHT_END
  0
MTEXT
  5
AAF
330
1E
100
AcDbEntity
  8
ﾚｲﾔ1
100
AcDbMText
 10
1534.868114748271
 20
-1164.327329431341
 30
0.0
 40
10.395
 41
1434.293483753237
 71
     1
 72
     5
  1
{最 高 使 用 圧 力}
 73
     1
 44
1.0
1001
ACAD
1000
ACAD_MTEXT_DEFINED_HEIGHT_BEGIN
1070
    46
1040
10.395
1000
ACAD_MTEXT_DEFINED_HEIGHT_END
  0
TEXT
  5
AB0
330
1E
100
AcDbEntity
  8
ﾚｲﾔ1
100
AcDbText
 10
1805.184505427839
 20
-1199.957503661805
 30
0.0
 40
9.9
  1
CC
 50
360.0
100
AcDbText
  0
TEXT
  5
AB1
330
1E
100
AcDbEntity
  8
ﾚｲﾔ1
100
AcDbText
 10
1805.184505427839
 20
-1226.847388305609
 30
0.0
 40
9.9
  1
CC
 50
360.0
100
AcDbText
  0
TEXT
  5
AB2
330
1E
100
AcDbEntity
  8
ﾚｲﾔ1
100
AcDbText
 10
1805.39752705865
 20
-1253.669090090523
 30
0.0
 40
9.9
  1
mm
 50
360.0
100
AcDbText
  0
TEXT
  5
AB3
330
1E
100
AcDbEntity
  8
ﾚｲﾔ1
100
AcDbText
 10
1739.726851603174
 20
-1253.933108546673
 30
0.0
 40
9.9
  1
820
 50
360.0
100
AcDbText
  0
TEXT
  5
AB4
330
1E
100
AcDbEntity
  8
ﾚｲﾔ1
100
AcDbText
 10
1739.726851603174
 20
-1200.062368139049
 30
0.0
 40
9.9
  1
3.8
 50
360.0
100
AcDbText
  0
TEXT
  5
AB5
330
1E
100
AcDbEntity
  8
ﾚｲﾔ1
100
AcDbText
 10
1739.726851603174
 20
-1226.853527556528
 30
0.0
 40
9.9
  1
42
 50
360.0
100
AcDbText
  0
MTEXT
  5
AB6
330
1E
100
AcDbEntity
  8
ﾚｲﾔ1
100
AcDbMText
 10
1534.541280752214
 20
-1243.710714678816
 30
0.0
 40
10.395
 41
1434.293483753237
 71
     1
 72
     5
  1
{全        長}
 73
     1
 44
1.0
1001
ACAD
1000
ACAD_MTEXT_DEFINED_HEIGHT_BEGIN
1070
    46
1040
10.395
1000
ACAD_MTEXT_DEFINED_HEIGHT_END
  0
LINE
  5
AB7
330
1E
100
AcDbEntity
  8
図面枠
  6
Continuous
100
AcDbLine
 10
1878.434893437315
 20
-1119.529506044713
 30
0.0
 11
1878.434893437315
 21
-2140.795270751667
 31
0.0
  0
LINE
  5
AB8
330
1E
100
AcDbEntity
  8
図面枠
  6
Continuous
100
AcDbLine
 10
1867.170932797161
 20
-1130.793466684864
 30
0.0
 11
1867.170932797161
 21
-2129.531310111517
 31
0.0
  0
MTEXT
  5
AB9
330
1E
100
AcDbEntity
  8
図面枠
370
    30
100
AcDbMText
 10
1621.816001343128
 20
-2143.805009545346
 30
0.0
 40
16.52047560555367
 41
272.6602263767259
 71
     1
 72
     5
  1
株式会社　関東油機サービス
 73
     1
 44
1.0
  0
LINE
  5
ABA
330
1E
100
AcDbEntity
  8
図面枠
  6
Continuous
100
AcDbLine
 10
1867.170932797161
 20
-2035.664971443598
 30
0.0
 11
1600.590530980274
 21
-2035.664971443598
 31
0.0
  0
LINE
  5
ABB
330
1E
100
AcDbEntity
  8
図面枠
  6
Continuous
100
AcDbLine
 10
1619.363798713854
 20
-2035.664971443598
 30
0.0
 11
1867.170932797161
 21
-2035.664971443598
 31
0.0
  0
LINE
  5
ABC
330
1E
100
AcDbEntity
  8
図面枠
  6
Continuous
100
AcDbLine
 10
1867.170932797161
 20
-2091.984774644349
 30
0.0
 11
1709.475483835057
 21
-2091.984774644349
 31
0.0
  0
LINE
  5
ABD
330
1E
100
AcDbEntity
  8
図面枠
  6
Continuous
100
AcDbLine
 10
1709.475483835057
 20
-2129.531310111517
 30
0.0
 11
1867.170932797161
 21
-2129.531310111517
 31
0.0
  0
LINE
  5
ABE
330
1E
100
AcDbEntity
  8
図面枠
  6
Continuous
100
AcDbLine
 10
1867.170932797161
 20
-2091.984774644349
 30
0.0
 11
1619.363798713854
 21
-2091.984774644349
 31
0.0
  0
LINE
  5
ABF
330
1E
100
AcDbEntity
  8
図面枠
  6
Continuous
100
AcDbLine
 10
1630.627759354011
 20
-2066.077665172003
 30
0.0
 11
1855.156041447669
 21
-2066.077665172003
 31
0.0
  0
TEXT
  5
AC0
102
{ACAD_REACTORS
102
}
330
1E
100
AcDbEntity
  8
図面枠
100
AcDbText
 10
1602.743055473757
 20
-2060.198183871223
 30
0.0
 40
16.89594096022534
  1
名
100
AcDbText
  0
LINE
  5
AC1
330
1E
100
AcDbEntity
  8
図面枠
  6
Continuous
100
AcDbLine
 10
1600.590530980274
 20
-2035.664971443598
 30
0.0
 11
1600.590530980274
 21
-2091.984774644349
 31
0.0
  0
LINE
  5
AC2
330
1E
100
AcDbEntity
  8
図面枠
  6
Continuous
100
AcDbLine
 10
1619.363798713854
 20
-2091.984774644349
 30
0.0
 11
1619.363798713854
 21
-2035.664971443598
 31
0.0
  0
LINE
  5
AC3
330
1E
100
AcDbEntity
  8
図面枠
  6
Continuous
100
AcDbLine
 10
1600.590530980274
 20
-2035.664971443598
 30
0.0
 11
1600.590530980274
 21
-2054.438239177183
 31
0.0
  0
LINE
  5
AC4
330
1E
100
AcDbEntity
  8
図面枠
  6
Continuous
100
AcDbLine
 10
1619.363798713854
 20
-2091.984774644349
 30
0.0
 11
1619.363798713854
 21
-2035.664971443598
 31
0.0
  0
LINE
  5
AC5
330
1E
100
AcDbEntity
  8
図面枠
  6
Continuous
100
AcDbLine
 10
1600.590530980274
 20
-2129.531310111517
 30
0.0
 11
1653.155680634307
 21
-2129.531310111517
 31
0.0
  0
LINE
  5
AC6
330
1E
100
AcDbEntity
  8
図面枠
  6
Continuous
100
AcDbLine
 10
1653.155680634307
 20
-2091.984774644349
 30
0.0
 11
1600.590530980274
 21
-2091.984774644349
 31
0.0
  0
LINE
  5
AC7
330
1E
100
AcDbEntity
  8
図面枠
  6
Continuous
100
AcDbLine
 10
1600.590530980274
 20
-2110.758042377931
 30
0.0
 11
1694.456869648192
 21
-2110.758042377931
 31
0.0
  0
MTEXT
  5
AC8
330
1E
100
AcDbEntity
  8
ﾚｲﾔ1
100
AcDbMText
 10
1628.318636065189
 20
-2051.259139866564
 30
0.0
 40
10.8
 41
231.0922981248569
 71
     1
 72
     5
  1
{複動型手動ポンプ}
 73
     1
 44
1.0
1001
ACAD
1000
ACAD_MTEXT_DEFINED_HEIGHT_BEGIN
1070
    46
1040
10.8
1000
ACAD_MTEXT_DEFINED_HEIGHT_END
  0
MTEXT
  5
AC9
330
1E
100
AcDbEntity
  8
ﾚｲﾔ1
100
AcDbMText
 10
1629.759931396893
 20
-2073.611495855251
 30
0.0
 40
13.5
 41
231.0922981248571
 71
     1
 72
     5
  1
{HPW-4}
 73
     1
 44
1.0
1001
ACAD
1000
ACAD_MTEXT_DEFINED_HEIGHT_BEGIN
1070
    46
1040
13.5
1000
ACAD_MTEXT_DEFINED_HEIGHT_END
  0
LINE
  5
ACA
330
1E
100
AcDbEntity
  8
図面枠
  6
Continuous
100
AcDbLine
 10
1600.590530980274
 20
-2129.531310111517
 30
0.0
 11
1600.590530980274
 21
-2091.984774644349
 31
0.0
  0
LINE
  5
ACB
330
1E
100
AcDbEntity
  8
図面枠
  6
Continuous
100
AcDbLine
 10
1600.590530980274
 20
-2091.984774644349
 30
0.0
 11
1600.590530980274
 21
-2129.531310111517
 31
0.0
  0
TEXT
  5
ACC
330
1E
100
AcDbEntity
  8
図面枠
100
AcDbText
 10
1607.233763047578
 20
-2109.032511519519
 30
0.0
 40
15.01861418686697
  1
尺度
 41
1.125
100
AcDbText
  0
TEXT
  5
ACD
102
{ACAD_REACTORS
102
}
330
1E
100
AcDbEntity
  8
図面枠
100
AcDbText
 10
1602.743055473757
 20
-2086.800336793946
 30
0.0
 40
16.89594096022534
  1
称
100
AcDbText
  0
LINE
  5
ACE
330
1E
100
AcDbEntity
  8
図面枠
  6
Continuous
100
AcDbLine
 10
1600.590530980274
 20
-2073.211506910766
 30
0.0
 11
1600.590530980274
 21
-2091.984774644349
 31
0.0
  0
LINE
  5
ACF
330
1E
100
AcDbEntity
  8
図面枠
  6
Continuous
100
AcDbLine
 10
1600.590530980274
 20
-2091.984774644349
 30
0.0
 11
1619.363798713854
 21
-2091.984774644349
 31
0.0
  0
LINE
  5
AD0
330
1E
100
AcDbEntity
  8
図面枠
  6
Continuous
100
AcDbLine
 10
1600.590530980274
 20
-2054.438239177183
 30
0.0
 11
1600.590530980274
 21
-2073.211506910766
 31
0.0
  0
TEXT
  5
AD1
330
1E
100
AcDbEntity
  8
図面枠
100
AcDbText
 10
1609.830815178687
 20
-2127.508531526713
 30
0.0
 40
11.26396064015023
  1
１：3
100
AcDbText
  0
LINE
  5
AD2
330
1E
100
AcDbEntity
  8
図面枠
  6
Continuous
100
AcDbLine
 10
1653.155680634307
 20
-2091.984774644349
 30
0.0
 11
1653.155680634307
 21
-2129.531310111517
 31
0.0
  0
LINE
  5
AD3
330
1E
100
AcDbEntity
  8
図面枠
  6
Continuous
100
AcDbLine
 10
1653.155680634307
 20
-2129.531310111517
 30
0.0
 11
1653.155680634307
 21
-2091.984774644349
 31
0.0
  0
TEXT
  5
AD4
330
1E
100
AcDbEntity
  8
図面枠
100
AcDbText
 10
1696.897394453554
 20
-2106.915491885638
 30
0.0
 40
11.26396064015023
  1
図
100
AcDbText
  0
TEXT
  5
AD5
330
1E
100
AcDbEntity
  8
図面枠
100
AcDbText
 10
1696.897394453554
 20
-2124.650260500787
 30
0.0
 40
11.26396064015023
  1
番
100
AcDbText
  0
LINE
  5
AD6
330
1E
100
AcDbEntity
  8
図面枠
  6
Continuous
100
AcDbLine
 10
1694.456869648192
 20
-2129.531310111517
 30
0.0
 11
1709.475483835057
 21
-2129.531310111517
 31
0.0
  0
LINE
  5
AD7
330
1E
100
AcDbEntity
  8
図面枠
  6
Continuous
100
AcDbLine
 10
1709.475483835057
 20
-2091.984774644349
 30
0.0
 11
1709.475483835057
 21
-2129.531310111517
 31
0.0
  0
LINE
  5
AD8
330
1E
100
AcDbEntity
  8
図面枠
  6
Continuous
100
AcDbLine
 10
1709.475483835057
 20
-2091.984774644349
 30
0.0
 11
1694.456869648192
 21
-2091.984774644349
 31
0.0
  0
LINE
  5
AD9
330
1E
100
AcDbEntity
  8
図面枠
  6
Continuous
100
AcDbLine
 10
1709.475483835057
 20
-2129.531310111517
 30
0.0
 11
1709.475483835057
 21
-2091.984774644349
 31
0.0
  0
LINE
  5
ADA
330
1E
100
AcDbEntity
  8
図面枠
  6
Continuous
100
AcDbLine
 10
1694.456869648192
 20
-2091.984774644349
 30
0.0
 11
1653.155680634307
 21
-2091.984774644349
 31
0.0
  0
LINE
  5
ADB
330
1E
100
AcDbEntity
  8
図面枠
  6
Continuous
100
AcDbLine
 10
1694.456869648192
 20
-2091.984774644349
 30
0.0
 11
1694.456869648192
 21
-2129.531310111517
 31
0.0
  0
LINE
  5
ADC
330
1E
100
AcDbEntity
  8
図面枠
  6
Continuous
100
AcDbLine
 10
1694.456869648192
 20
-2129.531310111517
 30
0.0
 11
1694.456869648192
 21
-2091.984774644349
 31
0.0
  0
LINE
  5
ADD
330
1E
100
AcDbEntity
  8
図面枠
  6
Continuous
100
AcDbLine
 10
1653.155680634307
 20
-2129.531310111517
 30
0.0
 11
1694.456869648192
 21
-2129.531310111517
 31
0.0
  0
LINE
  5
ADE
330
1E
100
AcDbEntity
  8
図面枠
  6
Continuous
100
AcDbLine
 10
1619.363798713854
 20
-2035.664971443598
 30
0.0
 11
1600.590530980274
 21
-2035.664971443598
 31
0.0
  0
LINE
  5
ADF
330
1E
100
AcDbEntity
  8
図面枠
  6
Continuous
100
AcDbLine
 10
1867.170932797161
 20
-2129.531310111517
 30
0.0
 11
1867.170932797161
 21
-2091.984774644349
 31
0.0
  0
LINE
  5
AE0
330
1E
100
AcDbEntity
  8
図面枠
  6
Continuous
100
AcDbLine
 10
1867.170932797161
 20
-2035.664971443598
 30
0.0
 11
1867.170932797161
 21
-2091.984774644349
 31
0.0
  0
LINE
  5
AE1
330
1E
100
AcDbEntity
  8
図面枠
  6
Continuous
100
AcDbLine
 10
1878.434893437315
 20
-2140.795270751667
 30
0.0
 11
432.8932779513639
 21
-2140.795270751667
 31
0.0
  0
LINE
  5
AE2
330
1E
100
AcDbEntity
  8
図面枠
  6
Continuous
100
AcDbLine
 10
1867.170932797161
 20
-2129.531310111517
 30
0.0
 11
444.1572385915169
 21
-2129.531310111517
 31
0.0
  0
LINE
  5
AE3
330
1E
100
AcDbEntity
  8
図面枠
  6
Continuous
100
AcDbLine
 10
432.8932779513639
 20
-1119.529506044713
 30
0.0
 11
432.8932779513639
 21
-2140.795270751667
 31
0.0
  0
LINE
  5
AE4
330
1E
100
AcDbEntity
  8
図面枠
  6
Continuous
100
AcDbLine
 10
444.1572385915169
 20
-2129.531310111517
 30
0.0
 11
444.1572385915169
 21
-1130.793466684864
 31
0.0
  0
ENDSEC
  0
SECTION
  2
OBJECTS
  0
DICTIONARY
  5
C
330
0
100
AcDbDictionary
281
     1
  3
ACAD_DETAILVIEWSTYLE
350
862
  3
ACAD_GROUP
350
D
  3
ACAD_LAYOUT
350
19
  3
ACAD_MLINESTYLE
350
16
  3
ACAD_PLOTSETTINGS
350
18
  3
ACAD_PLOTSTYLENAME
350
E
  3
ACAD_SCALELIST
350
5DB
  3
ACAD_SECTIONVIEWSTYLE
350
863
  3
AcDbVariableDictionary
350
5D0
  3
APPDATA
350
61D
  3
DWGPROPS
350
B35
  0
DICTIONARY
  5
750
330
2
100
AcDbDictionary
280
     1
281
     1
  3
ACAD_LAYERSTATES
360
751
  0
DICTIONARY
  5
B33
330
1E
100
AcDbDictionary
280
     1
281
     1
  3
DIM_BOUNDING_BOXES_V1
360
B34
  0
DICTIONARY
  5
A93
330
A86
100
AcDbDictionary
280
     1
281
     1
  3
ACAD_CUSTOM_BREAKDATA
360
A94
  0
DICTIONARY
  5
862
102
{ACAD_REACTORS
330
C
102
}
330
C
100
AcDbDictionary
281
     1
  0
DICTIONARY
  5
D
102
{ACAD_REACTORS
330
C
102
}
330
C
100
AcDbDictionary
281
     1
  0
DICTIONARY
  5
19
102
{ACAD_REACTORS
330
C
102
}
330
C
100
AcDbDictionary
281
     1
  3
Model
350
21
  3
ﾚｲｱｳﾄ1
350
1D
  0
DICTIONARY
  5
16
102
{ACAD_REACTORS
330
C
102
}
330
C
100
AcDbDictionary
281
     1
  3
Standard
350
17
  0
DICTIONARY
  5
18
102
{ACAD_REACTORS
330
C
102
}
330
C
100
AcDbDictionary
281
     1
  0
ACDBDICTIONARYWDFLT
  5
E
102
{ACAD_REACTORS
330
C
102
}
330
C
100
AcDbDictionary
281
     1
  3
Normal
350
F
100
AcDbDictionaryWithDefault
340
F
  0
DICTIONARY
  5
5DB
102
{ACAD_REACTORS
330
C
102
}
330
C
100
AcDbDictionary
281
     1
  3
A0
350
5DC
  3
A1
350
5DD
  3
A2
350
5DE
  3
A3
350
5DF
  3
A4
350
5E0
  3
A5
350
5E1
  3
A6
350
5E2
  3
A7
350
5E3
  3
A8
350
5E4
  3
A9
350
5E5
  3
B0
350
5E6
  3
B1
350
5E7
  3
B2
350
5E8
  3
B3
350
5E9
  3
B4
350
5EA
  3
B5
350
5EB
  3
B6
350
5EC
  3
B7
350
5ED
  3
B8
350
5EE
  3
B9
350
5EF
  3
C0
350
5F0
  3
C1
350
5F1
  3
C2
350
5F2
  3
C3
350
5F3
  3
C4
350
5F4
  3
C5
350
5F5
  3
C6
350
5F6
  3
C7
350
5F7
  3
C8
350
5F8
  3
C9
350
5F9
  3
D0
350
5FA
  3
D1
350
5FB
  3
D2
350
5FC
  0
DICTIONARY
  5
863
102
{ACAD_REACTORS
330
C
102
}
330
C
100
AcDbDictionary
281
     1
  0
DICTIONARY
  5
5D0
102
{ACAD_REACTORS
330
C
102
}
330
C
100
AcDbDictionary
281
     1
  3
DIMASSOC
350
5D1
  3
PROJECTNAME
350
5D2
  0
DICTIONARY
  5
61D
102
{ACAD_REACTORS
330
C
102
}
330
C
100
AcDbDictionary
281
     1
  0
XRECORD
  5
B35
102
{ACAD_REACTORS
330
C
102
}
330
C
100
AcDbXrecord
280
     1
  1
DWGPROPS COOKIE
  2

  3

  4

  6

  7

  8
Hiroki Noike
  9

300
=
301
=
302
=
303
=
304
=
305
=
306
=
307
=
308
=
309
=
 40
0.0
 41
2449944.550517361
 42
2459775.335062523
  1

 90
        0
  0
DICTIONARY
  5
751
102
{ACAD_REACTORS
330
750
102
}
330
750
100
AcDbDictionary
281
     1
  0
DICTIONARY
  5
B34
102
{ACAD_REACTORS
330
B33
102
}
330
B33
100
AcDbDictionary
281
     1
  0
BREAKDATA
  5
A94
102
{ACAD_REACTORS
330
A93
102
}
330
A93
100
AcDbBreakData
 70
     0
330
A86
 90
        0
  0
LAYOUT
  5
21
102
{ACAD_REACTORS
330
19
102
}
330
19
100
AcDbPlotSettings
  1

  2
\\SOUKO01\倉庫プリンタ
  4
A3
  6

 40
5.873749732971191
 41
5.873747825622558
 42
5.873748779296875
 43
5.873748779296875
 44
296.9259948730469
 45
419.9466552734374
 46
0.0
 47
2.45
 48
0.0
 49
0.0
140
0.0
141
0.0
142
1.0
143
3.124754461940232
 70
 11956
 72
     1
 73
     1
 74
     1
  7

 75
     0
147
0.3200251450730234
148
2970.180792573586
149
2100.127817405543
100
AcDbLayout
  1
Model
 70
     1
 71
     0
 10
0.0
 20
0.0
 11
12.0
 21
9.0
 12
0.0
 22
0.0
 32
0.0
 14
-1506.443678879089
 24
-2235.154623176986
 34
0.0
 15
1964.278474808217
 25
-1072.405814011051
 35
0.0
146
0.0
 13
0.0
 23
0.0
 33
0.0
 16
1.0
 26
0.0
 36
0.0
 17
0.0
 27
1.0
 37
0.0
 76
     0
330
1E
331
5D3
  0
LAYOUT
  5
1D
102
{ACAD_REACTORS
330
19
102
}
330
19
100
AcDbPlotSettings
  1

  2
Canon LBP-2160
  4

  6

 40
0.0
 41
0.0
 42
0.0
 43
0.0
 44
0.0
 45
0.0
 46
0.0
 47
0.0
 48
0.0
 49
0.0
140
0.0
141
0.0
142
1.0
143
1.0
 70
   688
 72
     0
 73
     0
 74
     5
  7

 75
    16
147
1.0
148
0.0
149
0.0
100
AcDbLayout
  1
ﾚｲｱｳﾄ1
 70
     1
 71
     1
 10
0.0
 20
0.0
 11
12.0
 21
9.0
 12
0.0
 22
0.0
 32
0.0
 14
1.000000000000000E+20
 24
1.000000000000000E+20
 34
1.000000000000000E+20
 15
-1.000000000000000E+20
 25
-1.000000000000000E+20
 35
-1.000000000000000E+20
146
0.0
 13
0.0
 23
0.0
 33
0.0
 16
1.0
 26
0.0
 36
0.0
 17
0.0
 27
1.0
 37
0.0
 76
     0
330
1A
  0
MLINESTYLE
  5
17
102
{ACAD_REACTORS
330
16
102
}
330
16
100
AcDbMlineStyle
  2
STANDARD
 70
     0
  3

 62
   256
 51
90.0
 52
90.0
 71
     2
 49
0.5
 62
   256
  6
BYLAYER
 49
-0.5
 62
   256
  6
BYLAYER
  0
ACDBPLACEHOLDER
  5
F
102
{ACAD_REACTORS
330
E
102
}
330
E
  0
SCALE
  5
5DC
102
{ACAD_REACTORS
330
5DB
102
}
330
5DB
100
AcDbScale
 70
     0
300
1:1
140
1.0
141
1.0
290
     1
  0
SCALE
  5
5DD
102
{ACAD_REACTORS
330
5DB
102
}
330
5DB
100
AcDbScale
 70
     0
300
1:2
140
1.0
141
2.0
290
     0
  0
SCALE
  5
5DE
102
{ACAD_REACTORS
330
5DB
102
}
330
5DB
100
AcDbScale
 70
     0
300
1:4
140
1.0
141
4.0
290
     0
  0
SCALE
  5
5DF
102
{ACAD_REACTORS
330
5DB
102
}
330
5DB
100
AcDbScale
 70
     0
300
1:5
140
1.0
141
5.0
290
     0
  0
SCALE
  5
5E0
102
{ACAD_REACTORS
330
5DB
102
}
330
5DB
100
AcDbScale
 70
     0
300
1:8
140
1.0
141
8.0
290
     0
  0
SCALE
  5
5E1
102
{ACAD_REACTORS
330
5DB
102
}
330
5DB
100
AcDbScale
 70
     0
300
1:10
140
1.0
141
10.0
290
     0
  0
SCALE
  5
5E2
102
{ACAD_REACTORS
330
5DB
102
}
330
5DB
100
AcDbScale
 70
     0
300
1:16
140
1.0
141
16.0
290
     0
  0
SCALE
  5
5E3
102
{ACAD_REACTORS
330
5DB
102
}
330
5DB
100
AcDbScale
 70
     0
300
1:20
140
1.0
141
20.0
290
     0
  0
SCALE
  5
5E4
102
{ACAD_REACTORS
330
5DB
102
}
330
5DB
100
AcDbScale
 70
     0
300
1:30
140
1.0
141
30.0
290
     0
  0
SCALE
  5
5E5
102
{ACAD_REACTORS
330
5DB
102
}
330
5DB
100
AcDbScale
 70
     0
300
1:40
140
1.0
141
40.0
290
     0
  0
SCALE
  5
5E6
102
{ACAD_REACTORS
330
5DB
102
}
330
5DB
100
AcDbScale
 70
     0
300
1:50
140
1.0
141
50.0
290
     0
  0
SCALE
  5
5E7
102
{ACAD_REACTORS
330
5DB
102
}
330
5DB
100
AcDbScale
 70
     0
300
1:100
140
1.0
141
100.0
290
     0
  0
SCALE
  5
5E8
102
{ACAD_REACTORS
330
5DB
102
}
330
5DB
100
AcDbScale
 70
     0
300
2:1
140
2.0
141
1.0
290
     0
  0
SCALE
  5
5E9
102
{ACAD_REACTORS
330
5DB
102
}
330
5DB
100
AcDbScale
 70
     0
300
4:1
140
4.0
141
1.0
290
     0
  0
SCALE
  5
5EA
102
{ACAD_REACTORS
330
5DB
102
}
330
5DB
100
AcDbScale
 70
     0
300
8:1
140
8.0
141
1.0
290
     0
  0
SCALE
  5
5EB
102
{ACAD_REACTORS
330
5DB
102
}
330
5DB
100
AcDbScale
 70
     0
300
10:1
140
10.0
141
1.0
290
     0
  0
SCALE
  5
5EC
102
{ACAD_REACTORS
330
5DB
102
}
330
5DB
100
AcDbScale
 70
     0
300
100:1
140
100.0
141
1.0
290
     0
  0
SCALE
  5
5ED
102
{ACAD_REACTORS
330
5DB
102
}
330
5DB
100
AcDbScale
 70
     0
300
1/128" = 1'-0"
140
0.0078125
141
12.0
290
     0
  0
SCALE
  5
5EE
102
{ACAD_REACTORS
330
5DB
102
}
330
5DB
100
AcDbScale
 70
     0
300
1/64" = 1'-0"
140
0.015625
141
12.0
290
     0
  0
SCALE
  5
5EF
102
{ACAD_REACTORS
330
5DB
102
}
330
5DB
100
AcDbScale
 70
     0
300
1/32" = 1'-0"
140
0.03125
141
12.0
290
     0
  0
SCALE
  5
5F0
102
{ACAD_REACTORS
330
5DB
102
}
330
5DB
100
AcDbScale
 70
     0
300
1/16" = 1'-0"
140
0.0625
141
12.0
290
     0
  0
SCALE
  5
5F1
102
{ACAD_REACTORS
330
5DB
102
}
330
5DB
100
AcDbScale
 70
     0
300
3/32" = 1'-0"
140
0.09375
141
12.0
290
     0
  0
SCALE
  5
5F2
102
{ACAD_REACTORS
330
5DB
102
}
330
5DB
100
AcDbScale
 70
     0
300
1/8" = 1'-0"
140
0.125
141
12.0
290
     0
  0
SCALE
  5
5F3
102
{ACAD_REACTORS
330
5DB
102
}
330
5DB
100
AcDbScale
 70
     0
300
3/16" = 1'-0"
140
0.1875
141
12.0
290
     0
  0
SCALE
  5
5F4
102
{ACAD_REACTORS
330
5DB
102
}
330
5DB
100
AcDbScale
 70
     0
300
1/4" = 1'-0"
140
0.25
141
12.0
290
     0
  0
SCALE
  5
5F5
102
{ACAD_REACTORS
330
5DB
102
}
330
5DB
100
AcDbScale
 70
     0
300
3/8" = 1'-0"
140
0.375
141
12.0
290
     0
  0
SCALE
  5
5F6
102
{ACAD_REACTORS
330
5DB
102
}
330
5DB
100
AcDbScale
 70
     0
300
1/2" = 1'-0"
140
0.5
141
12.0
290
     0
  0
SCALE
  5
5F7
102
{ACAD_REACTORS
330
5DB
102
}
330
5DB
100
AcDbScale
 70
     0
300
3/4" = 1'-0"
140
0.75
141
12.0
290
     0
  0
SCALE
  5
5F8
102
{ACAD_REACTORS
330
5DB
102
}
330
5DB
100
AcDbScale
 70
     0
300
1" = 1'-0"
140
1.0
141
12.0
290
     0
  0
SCALE
  5
5F9
102
{ACAD_REACTORS
330
5DB
102
}
330
5DB
100
AcDbScale
 70
     0
300
1-1/2" = 1'-0"
140
1.5
141
12.0
290
     0
  0
SCALE
  5
5FA
102
{ACAD_REACTORS
330
5DB
102
}
330
5DB
100
AcDbScale
 70
     0
300
3" = 1'-0"
140
3.0
141
12.0
290
     0
  0
SCALE
  5
5FB
102
{ACAD_REACTORS
330
5DB
102
}
330
5DB
100
AcDbScale
 70
     0
300
6" = 1'-0"
140
6.0
141
12.0
290
     0
  0
SCALE
  5
5FC
102
{ACAD_REACTORS
330
5DB
102
}
330
5DB
100
AcDbScale
 70
     0
300
1'-0" = 1'-0"
140
12.0
141
12.0
290
     0
  0
DICTIONARYVAR
  5
5D1
102
{ACAD_REACTORS
330
5D0
102
}
330
5D0
100
DictionaryVariables
280
     0
  1
1
  0
DICTIONARYVAR
  5
5D2
102
{ACAD_REACTORS
330
5D0
102
}
330
5D0
100
DictionaryVariables
280
     0
  1

  0
ENDSEC
  0
EOF
