  0
SECTION
  2
HEADER
  9
$ACADVER
  1
AC1032
  9
$ACADMAINTVER
 90
        4
  9
$DWGCODEPAGE
  3
ANSI_932
  9
$LASTSAVEDBY
  1
Hiroki Noike
  9
$REQUIREDVERSIONS
160
                 0
  9
$INSBASE
 10
0.0
 20
0.0
 30
0.0
  9
$EXTMIN
 10
2735.322131398528
 20
-310.5932295153676
 30
0.0
  9
$EXTMAX
 10
3982.739936623033
 20
571.4068404535469
 30
0.0
  9
$LIMMIN
 10
0.0
 20
0.0
  9
$LIMMAX
 10
12.0
 20
9.0
  9
$ORTHOMODE
 70
     0
  9
$REGENMODE
 70
     1
  9
$FILLMODE
 70
     1
  9
$QTEXTMODE
 70
     0
  9
$MIRRTEXT
 70
     1
  9
$LTSCALE
 40
1.0
  9
$ATTMODE
 70
     1
  9
$TEXTSIZE
 40
3.0
  9
$TRACEWID
 40
0.05
  9
$TEXTSTYLE
  7
STANDARD
  9
$CLAYER
  8
下図
  9
$CELTYPE
  6
CONTINUOUS
  9
$CECOLOR
 62
   256
  9
$CELTSCALE
 40
1.0
  9
$DISPSILH
 70
     0
  9
$DIMSCALE
 40
1.0
  9
$DIMASZ
 40
5.0
  9
$DIMEXO
 40
0.0625
  9
$DIMDLI
 40
0.38
  9
$DIMRND
 40
0.0
  9
$DIMDLE
 40
0.0
  9
$DIMEXE
 40
0.18
  9
$DIMTP
 40
0.0
  9
$DIMTM
 40
0.0
  9
$DIMTXT
 40
10.0
  9
$DIMCEN
 40
0.09
  9
$DIMTSZ
 40
0.0
  9
$DIMTOL
 70
     0
  9
$DIMLIM
 70
     0
  9
$DIMTIH
 70
     0
  9
$DIMTOH
 70
     0
  9
$DIMSE1
 70
     0
  9
$DIMSE2
 70
     0
  9
$DIMTAD
 70
     1
  9
$DIMZIN
 70
     0
  9
$DIMBLK
  1
Open30
  9
$DIMASO
 70
     1
  9
$DIMSHO
 70
     1
  9
$DIMPOST
  1

  9
$DIMAPOST
  1

  9
$DIMALT
 70
     0
  9
$DIMALTD
 70
     2
  9
$DIMALTF
 40
25.4
  9
$DIMLFAC
 40
1.0
  9
$DIMTOFL
 70
     0
  9
$DIMTVP
 40
0.0
  9
$DIMTIX
 70
     0
  9
$DIMSOXD
 70
     0
  9
$DIMSAH
 70
     0
  9
$DIMBLK1
  1

  9
$DIMBLK2
  1

  9
$DIMSTYLE
  2
Standard
  9
$DIMCLRD
 70
     1
  9
$DIMCLRE
 70
     1
  9
$DIMCLRT
 70
     1
  9
$DIMTFAC
 40
1.0
  9
$DIMGAP
 40
1.0
  9
$DIMJUST
 70
     0
  9
$DIMSD1
 70
     0
  9
$DIMSD2
 70
     0
  9
$DIMTOLJ
 70
     1
  9
$DIMTZIN
 70
     0
  9
$DIMALTZ
 70
     0
  9
$DIMALTTZ
 70
     0
  9
$DIMUPT
 70
     0
  9
$DIMDEC
 70
     0
  9
$DIMTDEC
 70
     0
  9
$DIMALTU
 70
     2
  9
$DIMALTTD
 70
     2
  9
$DIMTXSTY
  7
TEXTSTYLE01
  9
$DIMAUNIT
 70
     0
  9
$DIMADEC
 70
     0
  9
$DIMALTRND
 40
0.0
  9
$DIMAZIN
 70
     0
  9
$DIMDSEP
 70
    46
  9
$DIMATFIT
 70
     3
  9
$DIMFRAC
 70
     0
  9
$DIMLDRBLK
  1
Open30
  9
$DIMLUNIT
 70
     2
  9
$DIMLWD
 70
    -2
  9
$DIMLWE
 70
    -2
  9
$DIMTMOVE
 70
     0
  9
$DIMFXL
 40
1.0
  9
$DIMFXLON
 70
     0
  9
$DIMJOGANG
 40
0.7853981633974483
  9
$DIMTFILL
 70
     0
  9
$DIMTFILLCLR
 70
     0
  9
$DIMARCSYM
 70
     0
  9
$DIMLTYPE
  6

  9
$DIMLTEX1
  6

  9
$DIMLTEX2
  6

  9
$DIMTXTDIRECTION
 70
     0
  9
$LUNITS
 70
     2
  9
$LUPREC
 70
     4
  9
$SKETCHINC
 40
0.1
  9
$FILLETRAD
 40
0.0
  9
$AUNITS
 70
     0
  9
$AUPREC
 70
     0
  9
$MENU
  1
.
  9
$ELEVATION
 40
0.0
  9
$PELEVATION
 40
0.0
  9
$THICKNESS
 40
0.0
  9
$LIMCHECK
 70
     0
  9
$CHAMFERA
 40
0.0
  9
$CHAMFERB
 40
0.0
  9
$CHAMFERC
 40
0.0
  9
$CHAMFERD
 40
0.0
  9
$SKPOLY
 70
     0
  9
$TDCREATE
 40
2452563.647585139
  9
$TDUCREATE
 40
2452563.272585139
  9
$TDUPDATE
 40
2459740.344205185
  9
$TDUUPDATE
 40
2459739.969205185
  9
$TDINDWG
 40
0.4606886227
  9
$TDUSRTIMER
 40
0.0014673148
  9
$USRTIMER
 70
     1
  9
$ANGBASE
 50
0.0
  9
$ANGDIR
 70
     0
  9
$PDMODE
 70
     0
  9
$PDSIZE
 40
4.5
  9
$PLINEWID
 40
0.0
  9
$SPLFRAME
 70
     0
  9
$SPLINETYPE
 70
     6
  9
$SPLINESEGS
 70
     8
  9
$HANDSEED
  5
1A1F
  9
$SURFTAB1
 70
     6
  9
$SURFTAB2
 70
     6
  9
$SURFTYPE
 70
     6
  9
$SURFU
 70
     6
  9
$SURFV
 70
     6
  9
$UCSBASE
  2

  9
$UCSNAME
  2

  9
$UCSORG
 10
0.0
 20
0.0
 30
0.0
  9
$UCSXDIR
 10
1.0
 20
0.0
 30
0.0
  9
$UCSYDIR
 10
0.0
 20
1.0
 30
0.0
  9
$UCSORTHOREF
  2

  9
$UCSORTHOVIEW
 70
     0
  9
$UCSORGTOP
 10
0.0
 20
0.0
 30
0.0
  9
$UCSORGBOTTOM
 10
0.0
 20
0.0
 30
0.0
  9
$UCSORGLEFT
 10
0.0
 20
0.0
 30
0.0
  9
$UCSORGRIGHT
 10
0.0
 20
0.0
 30
0.0
  9
$UCSORGFRONT
 10
0.0
 20
0.0
 30
0.0
  9
$UCSORGBACK
 10
0.0
 20
0.0
 30
0.0
  9
$PUCSBASE
  2

  9
$PUCSNAME
  2

  9
$PUCSORG
 10
0.0
 20
0.0
 30
0.0
  9
$PUCSXDIR
 10
1.0
 20
0.0
 30
0.0
  9
$PUCSYDIR
 10
0.0
 20
1.0
 30
0.0
  9
$PUCSORTHOREF
  2

  9
$PUCSORTHOVIEW
 70
     0
  9
$PUCSORGTOP
 10
0.0
 20
0.0
 30
0.0
  9
$PUCSORGBOTTOM
 10
0.0
 20
0.0
 30
0.0
  9
$PUCSORGLEFT
 10
0.0
 20
0.0
 30
0.0
  9
$PUCSORGRIGHT
 10
0.0
 20
0.0
 30
0.0
  9
$PUCSORGFRONT
 10
0.0
 20
0.0
 30
0.0
  9
$PUCSORGBACK
 10
0.0
 20
0.0
 30
0.0
  9
$USERI1
 70
     0
  9
$USERI2
 70
     0
  9
$USERI3
 70
     0
  9
$USERI4
 70
     0
  9
$USERI5
 70
     0
  9
$USERR1
 40
0.0
  9
$USERR2
 40
0.0
  9
$USERR3
 40
0.0
  9
$USERR4
 40
0.0
  9
$USERR5
 40
0.0
  9
$WORLDVIEW
 70
     1
  9
$SHADEDGE
 70
     3
  9
$SHADEDIF
 70
    70
  9
$TILEMODE
 70
     1
  9
$MAXACTVP
 70
    64
  9
$PINSBASE
 10
0.0
 20
0.0
 30
0.0
  9
$PLIMCHECK
 70
     0
  9
$PEXTMIN
 10
1.000000000000000E+20
 20
1.000000000000000E+20
 30
1.000000000000000E+20
  9
$PEXTMAX
 10
-1.000000000000000E+20
 20
-1.000000000000000E+20
 30
-1.000000000000000E+20
  9
$PLIMMIN
 10
0.0
 20
0.0
  9
$PLIMMAX
 10
0.0
 20
0.0
  9
$UNITMODE
 70
     0
  9
$VISRETAIN
 70
     1
  9
$PLINEGEN
 70
     0
  9
$PSLTSCALE
 70
     1
  9
$TREEDEPTH
 70
  3020
  9
$CMLSTYLE
  2
Standard
  9
$CMLJUST
 70
     0
  9
$CMLSCALE
 40
1.0
  9
$PROXYGRAPHICS
 70
     1
  9
$MEASUREMENT
 70
     0
  9
$CELWEIGHT
370
    -1
  9
$ENDCAPS
280
     0
  9
$JOINSTYLE
280
     0
  9
$LWDISPLAY
290
     0
  9
$INSUNITS
 70
     0
  9
$HYPERLINKBASE
  1

  9
$STYLESHEET
  1

  9
$XEDIT
290
     1
  9
$CEPSNTYPE
380
     0
  9
$PSTYLEMODE
290
     1
  9
$FINGERPRINTGUID
  2
{A747470F-3B0D-49B8-9693-358213417623}
  9
$VERSIONGUID
  2
{29665830-4D27-4CFF-8209-B38A4FCA5424}
  9
$EXTNAMES
290
     1
  9
$PSVPSCALE
 40
0.0
  9
$OLESTARTUP
290
     0
  9
$SORTENTS
280
   127
  9
$INDEXCTL
280
     0
  9
$HIDETEXT
280
     0
  9
$XCLIPFRAME
280
     0
  9
$HALOGAP
280
     0
  9
$OBSCOLOR
 70
   257
  9
$OBSLTYPE
280
     0
  9
$INTERSECTIONDISPLAY
280
     0
  9
$INTERSECTIONCOLOR
 70
   257
  9
$DIMASSOC
280
     1
  9
$PROJECTNAME
  1

  9
$CAMERADISPLAY
290
     0
  9
$LENSLENGTH
 40
50.0
  9
$CAMERAHEIGHT
 40
0.0
  9
$STEPSPERSEC
 40
2.0
  9
$STEPSIZE
 40
6.0
  9
$3DDWFPREC
 40
2.0
  9
$PSOLWIDTH
 40
0.25
  9
$PSOLHEIGHT
 40
4.0
  9
$LOFTANG1
 40
1.570796326794897
  9
$LOFTANG2
 40
1.570796326794897
  9
$LOFTMAG1
 40
0.0
  9
$LOFTMAG2
 40
0.0
  9
$LOFTPARAM
 70
     7
  9
$LOFTNORMALS
280
     1
  9
$LATITUDE
 40
37.795
  9
$LONGITUDE
 40
-122.394
  9
$NORTHDIRECTION
 40
0.0
  9
$TIMEZONE
 70
 -8000
  9
$LIGHTGLYPHDISPLAY
280
     1
  9
$TILEMODELIGHTSYNCH
280
     1
  9
$SOLIDHIST
280
     0
  9
$SHOWHIST
280
     1
  9
$DWFFRAME
280
     2
  9
$DGNFRAME
280
     2
  9
$REALWORLDSCALE
290
     1
  9
$INTERFERECOLOR
 62
   256
  9
$CSHADOW
280
     0
  9
$SHADOWPLANELOCATION
 40
0.0
  0
ENDSEC
  0
SECTION
  2
CLASSES
  0
CLASS
  1
ACDBDICTIONARYWDFLT
  2
AcDbDictionaryWithDefault
  3
ObjectDBX Classes
 90
        0
 91
        3
280
     0
281
     0
  0
CLASS
  1
ACDBPLACEHOLDER
  2
AcDbPlaceHolder
  3
ObjectDBX Classes
 90
        0
 91
        1
280
     0
281
     0
  0
CLASS
  1
LAYOUT
  2
AcDbLayout
  3
ObjectDBX Classes
 90
        0
 91
        1
280
     0
281
     0
  0
CLASS
  1
MATERIAL
  2
AcDbMaterial
  3
ObjectDBX Classes
 90
     1153
 91
        3
280
     0
281
     0
  0
CLASS
  1
VISUALSTYLE
  2
AcDbVisualStyle
  3
ObjectDBX Classes
 90
     4095
 91
        3
280
     0
281
     0
  0
CLASS
  1
TABLESTYLE
  2
AcDbTableStyle
  3
ObjectDBX Classes
 90
     4095
 91
        3
280
     0
281
     0
  0
CLASS
  1
SCALE
  2
AcDbScale
  3
ObjectDBX Classes
 90
     1153
 91
        3
280
     0
281
     0
  0
CLASS
  1
MLEADERSTYLE
  2
AcDbMLeaderStyle
  3
ACDB_MLEADERSTYLE_CLASS
 90
     4095
 91
        3
280
     0
281
     0
  0
CLASS
  1
CELLSTYLEMAP
  2
AcDbCellStyleMap
  3
ObjectDBX Classes
 90
     1152
 91
        3
280
     0
281
     0
  0
CLASS
  1
DICTIONARYVAR
  2
AcDbDictionaryVar
  3
ObjectDBX Classes
 90
        0
 91
        3
280
     0
281
     0
  0
CLASS
  1
SORTENTSTABLE
  2
AcDbSortentsTable
  3
ObjectDBX Classes
 90
        0
 91
        3
280
     0
281
     0
  0
CLASS
  1
SUN
  2
AcDbSun
  3
SCENEOE
 90
     1153
 91
        3
280
     0
281
     0
  0
ENDSEC
  0
SECTION
  2
TABLES
  0
TABLE
  2
VPORT
  5
8
330
0
100
AcDbSymbolTable
 70
     1
  0
VPORT
  5
1687
330
8
100
AcDbSymbolTableRecord
100
AcDbViewportTableRecord
  2
*Active
 70
     0
 10
0.0
 20
0.0
 11
1.0
 21
1.0
 12
3782.684125447478
 22
-156.6378186798261
 13
0.0
 23
0.0
 14
1.0
 24
1.0
 15
0.0
 25
0.0
 16
0.0
 26
0.0
 36
1.0
 17
0.0
 27
0.0
 37
0.0
 40
283.7898800415334
 41
2.082079343365253
 42
50.0
 43
0.0
 44
0.0
 50
0.0
 51
0.0
 71
    16
 72
   100
 73
     1
 74
     1
 75
     0
 76
     0
 77
     0
 78
     0
281
     0
 65
     1
110
0.0
120
0.0
130
0.0
111
1.0
121
0.0
131
0.0
112
0.0
122
1.0
132
0.0
 79
     0
146
0.0
348
132C
 60
     3
 61
     5
292
     1
282
     1
141
0.0
142
0.0
 63
   256
361
18DC
  0
ENDTAB
  0
TABLE
  2
LTYPE
  5
5
330
0
100
AcDbSymbolTable
 70
     9
  0
LTYPE
  5
13
330
5
100
AcDbSymbolTableRecord
100
AcDbLinetypeTableRecord
  2
ByBlock
 70
     0
  3

 72
    65
 73
     0
 40
0.0
  0
LTYPE
  5
14
330
5
100
AcDbSymbolTableRecord
100
AcDbLinetypeTableRecord
  2
ByLayer
 70
     0
  3

 72
    65
 73
     0
 40
0.0
  0
LTYPE
  5
15
330
5
100
AcDbSymbolTableRecord
100
AcDbLinetypeTableRecord
  2
CONTINUOUS
 70
     0
  3
実線
 72
    65
 73
     0
 40
0.0
  0
LTYPE
  5
22
330
5
100
AcDbSymbolTableRecord
100
AcDbLinetypeTableRecord
  2
DASHED
 70
     0
  3
破線A
 72
    65
 73
     2
 40
22.5
 49
15.0
 74
     0
 49
-7.5
 74
     0
  0
LTYPE
  5
23
330
5
100
AcDbSymbolTableRecord
100
AcDbLinetypeTableRecord
  2
DASHEDX2
 70
     0
  3
破線B
 72
    65
 73
     2
 40
45.0
 49
30.0
 74
     0
 49
-15.0
 74
     0
  0
LTYPE
  5
24
330
5
100
AcDbSymbolTableRecord
100
AcDbLinetypeTableRecord
  2
DASHDOT
 70
     0
  3
１点鎖線A
 72
    65
 73
     4
 40
30.0
 49
15.0
 74
     0
 49
-7.5
 74
     0
 49
0.0
 74
     0
 49
-7.5
 74
     0
  0
LTYPE
  5
25
330
5
100
AcDbSymbolTableRecord
100
AcDbLinetypeTableRecord
  2
DASHDOTX2
 70
     0
  3
１点鎖線B
 72
    65
 73
     4
 40
60.0
 49
30.0
 74
     0
 49
-15.0
 74
     0
 49
0.0
 74
     0
 49
-15.0
 74
     0
  0
LTYPE
  5
26
330
5
100
AcDbSymbolTableRecord
100
AcDbLinetypeTableRecord
  2
DIVIDE2
 70
     0
  3
２点鎖線A
 72
    65
 73
     6
 40
18.75
 49
7.5
 74
     0
 49
-3.75
 74
     0
 49
0.0
 74
     0
 49
-3.75
 74
     0
 49
0.0
 74
     0
 49
-3.75
 74
     0
  0
LTYPE
  5
27
330
5
100
AcDbSymbolTableRecord
100
AcDbLinetypeTableRecord
  2
DIVIDE
 70
     0
  3
２点鎖線B
 72
    65
 73
     6
 40
37.5
 49
15.0
 74
     0
 49
-7.5
 74
     0
 49
0.0
 74
     0
 49
-7.5
 74
     0
 49
0.0
 74
     0
 49
-7.5
 74
     0
  0
LTYPE
  5
28
330
5
100
AcDbSymbolTableRecord
100
AcDbLinetypeTableRecord
  2
DOT
 70
     0
  3
点線A
 72
    65
 73
     2
 40
7.5
 49
0.0
 74
     0
 49
-7.5
 74
     0
  0
LTYPE
  5
29
330
5
100
AcDbSymbolTableRecord
100
AcDbLinetypeTableRecord
  2
DOTX2
 70
     0
  3
点線B
 72
    65
 73
     2
 40
15.0
 49
0.0
 74
     0
 49
-15.0
 74
     0
  0
ENDTAB
  0
TABLE
  2
LAYER
  5
2
102
{ACAD_XDICTIONARY
360
1578
102
}
330
0
100
AcDbSymbolTable
 70
     9
  0
LAYER
  5
10
102
{ACAD_XDICTIONARY
360
157B
102
}
330
2
100
AcDbSymbolTableRecord
100
AcDbLayerTableRecord
  2
0
 70
     0
 62
     7
  6
CONTINUOUS
370
    -3
390
F
347
131E
348
0
  0
LAYER
  5
2A
102
{ACAD_XDICTIONARY
360
157D
102
}
330
2
100
AcDbSymbolTableRecord
100
AcDbLayerTableRecord
  2
ﾚｲﾔ1
 70
     0
 62
     7
  6
CONTINUOUS
370
    -3
390
F
347
131E
348
0
  0
LAYER
  5
31
102
{ACAD_XDICTIONARY
360
157F
102
}
330
2
100
AcDbSymbolTableRecord
100
AcDbLayerTableRecord
  2
MOJI
 70
     0
 62
     7
  6
CONTINUOUS
370
    -3
390
F
347
131E
348
0
  0
LAYER
  5
38
102
{ACAD_XDICTIONARY
360
1581
102
}
330
2
100
AcDbSymbolTableRecord
100
AcDbLayerTableRecord
  2
SUNPOU
 70
     0
 62
     1
  6
CONTINUOUS
370
    -3
390
F
347
131E
348
0
  0
LAYER
  5
1279
330
2
100
AcDbSymbolTableRecord
100
AcDbLayerTableRecord
  2
Defpoints
 70
     0
 62
     7
  6
CONTINUOUS
290
     0
370
    -3
390
F
347
131E
348
0
  0
LAYER
  5
139A
102
{ACAD_XDICTIONARY
360
139B
102
}
330
2
100
AcDbSymbolTableRecord
100
AcDbLayerTableRecord
  2
図面
 70
     0
 62
     7
  6
CONTINUOUS
370
    40
390
F
347
131E
348
0
  0
LAYER
  5
139C
102
{ACAD_XDICTIONARY
360
139D
102
}
330
2
100
AcDbSymbolTableRecord
100
AcDbLayerTableRecord
  2
図面枠
 70
     0
 62
     5
  6
CONTINUOUS
370
    -3
390
F
347
131E
348
0
  0
LAYER
  5
139E
102
{ACAD_XDICTIONARY
360
139F
102
}
330
2
100
AcDbSymbolTableRecord
100
AcDbLayerTableRecord
  2
下図
 70
     0
 62
     8
  6
DASHDOT
290
     0
370
    -3
390
F
347
131E
348
0
  0
LAYER
  5
19FD
330
2
100
AcDbSymbolTableRecord
100
AcDbLayerTableRecord
  2
寸法
 70
     0
 62
     1
  6
CONTINUOUS
370
    -3
390
F
347
131E
348
0
  0
ENDTAB
  0
TABLE
  2
STYLE
  5
3
330
0
100
AcDbSymbolTable
 70
    14
  0
STYLE
  5
11
330
3
100
AcDbSymbolTableRecord
100
AcDbTextStyleTableRecord
  2
STANDARD
 70
     0
 40
3.0
 41
1.0
 50
0.0
 71
     0
 42
3.0
  3
TXT
  4
BIGFONT
  0
STYLE
  5
3B
330
3
100
AcDbSymbolTableRecord
100
AcDbTextStyleTableRecord
  2
TATE
 70
     4
 40
3.0
 41
1.0
 50
0.0
 71
     0
 42
3.0
  3
TXT
  4
BIGFONT
  0
STYLE
  5
3C
330
3
100
AcDbSymbolTableRecord
100
AcDbTextStyleTableRecord
  2
TEXTSTYLE01
 70
     0
 40
0.0
 41
1.0
 50
0.0
 71
     0
 42
0.0
  3
TXT
  4
BIGFONT
  0
STYLE
  5
3D
330
3
100
AcDbSymbolTableRecord
100
AcDbTextStyleTableRecord
  2
TEXTSTYLE02
 70
     0
 40
0.0
 41
1.0
 50
0.0
 71
     0
 42
0.0
  3
TXT
  4
BIGFONT
  0
STYLE
  5
3E
330
3
100
AcDbSymbolTableRecord
100
AcDbTextStyleTableRecord
  2
TEXTSTYLE03
 70
     0
 40
0.0
 41
1.0
 50
0.0
 71
     0
 42
0.0
  3
TXT
  4
BIGFONT
  0
STYLE
  5
3F
330
3
100
AcDbSymbolTableRecord
100
AcDbTextStyleTableRecord
  2
TEXTSTYLE04
 70
     0
 40
0.0
 41
1.0
 50
0.0
 71
     0
 42
0.0
  3
TXT
  4
BIGFONT
  0
STYLE
  5
40
330
3
100
AcDbSymbolTableRecord
100
AcDbTextStyleTableRecord
  2
TEXTSTYLE05
 70
     0
 40
0.0
 41
1.0
 50
0.0
 71
     0
 42
0.0
  3
TXT
  4
BIGFONT
  0
STYLE
  5
41
330
3
100
AcDbSymbolTableRecord
100
AcDbTextStyleTableRecord
  2
TEXTSTYLE06
 70
     0
 40
0.0
 41
1.0
 50
0.0
 71
     0
 42
0.0
  3

  4

  0
STYLE
  5
42
330
3
100
AcDbSymbolTableRecord
100
AcDbTextStyleTableRecord
  2
TEXTSTYLE07
 70
     0
 40
0.0
 41
1.0
 50
0.0
 71
     0
 42
0.0
  3

  4

  0
STYLE
  5
43
330
3
100
AcDbSymbolTableRecord
100
AcDbTextStyleTableRecord
  2
TEXTSTYLE08
 70
     0
 40
0.0
 41
1.0
 50
0.0
 71
     0
 42
0.0
  3

  4

  0
STYLE
  5
44
330
3
100
AcDbSymbolTableRecord
100
AcDbTextStyleTableRecord
  2
TEXTSTYLE09
 70
     0
 40
0.0
 41
1.0
 50
0.0
 71
     0
 42
0.0
  3

  4

  0
STYLE
  5
45
330
3
100
AcDbSymbolTableRecord
100
AcDbTextStyleTableRecord
  2
TEXTSTYLE10
 70
     0
 40
0.0
 41
1.0
 50
0.0
 71
     0
 42
0.0
  3

  4

  0
STYLE
  5
13A0
330
3
100
AcDbSymbolTableRecord
100
AcDbTextStyleTableRecord
  2
WMF-ＭＳ Ｐ明朝0
 70
     0
 40
0.0
 41
1.0
 50
0.0
 71
     0
 42
1.0
  3
MS PMincho.ttf
  4

1001
ACAD
1000
MS PMincho
1071
    32768
  0
STYLE
  5
18F2
330
3
100
AcDbSymbolTableRecord
100
AcDbTextStyleTableRecord
  2
DIMFONT1
 70
     0
 40
0.0
 41
1.193548387096774
 50
0.0
 71
     0
 42
3.0
  3
msgothic.ttc
  4

1001
ACAD
1000
MS PGothic
1071
    32818
  0
ENDTAB
  0
TABLE
  2
VIEW
  5
6
330
0
100
AcDbSymbolTable
 70
     0
  0
ENDTAB
  0
TABLE
  2
UCS
  5
7
330
0
100
AcDbSymbolTable
 70
     0
  0
ENDTAB
  0
TABLE
  2
APPID
  5
9
330
0
100
AcDbSymbolTable
 70
     6
  0
APPID
  5
12
330
9
100
AcDbSymbolTableRecord
100
AcDbRegAppTableRecord
  2
ACAD
 70
     0
  0
APPID
  5
135E
330
9
100
AcDbSymbolTableRecord
100
AcDbRegAppTableRecord
  2
ACAD_MLEADERVER
 70
     0
  0
APPID
  5
14FA
330
9
100
AcDbSymbolTableRecord
100
AcDbRegAppTableRecord
  2
ACAD_EXEMPT_FROM_CAD_STANDARDS
 70
     0
  0
APPID
  5
15A1
330
9
100
AcDbSymbolTableRecord
100
AcDbRegAppTableRecord
  2
ACAD_PSEXT
 70
     0
  0
APPID
  5
1821
330
9
100
AcDbSymbolTableRecord
100
AcDbRegAppTableRecord
  2
ACAD_NAV_VCDISPLAY
 70
     0
  0
APPID
  5
18DD
330
9
100
AcDbSymbolTableRecord
100
AcDbRegAppTableRecord
  2
PLOTTRANSPARENCY
 70
     0
  0
ENDTAB
  0
TABLE
  2
DIMSTYLE
  5
A
330
0
100
AcDbSymbolTable
 70
     3
100
AcDbDimStyleTable
  0
DIMSTYLE
105
1243
102
{ACAD_REACTORS
330
1278
330
128F
330
12E2
330
1509
102
}
330
A
100
AcDbSymbolTableRecord
100
AcDbDimStyleTableRecord
  2
Standard
 70
     0
 41
5.0
 73
     0
 74
     0
 77
     1
140
10.0
147
1.0
176
     1
177
     1
271
     0
178
     1
271
     0
272
     0
340
3C
341
1272
342
1272
  0
DIMSTYLE
105
18F1
330
A
100
AcDbSymbolTableRecord
100
AcDbDimStyleTableRecord
  2
DIM001
 70
     0
 40
10.0
 41
1.0
 42
0.0
 44
1.0
 45
1.0
 73
     0
 74
     0
 77
     3
140
1.216216216216216
147
0.2
172
     1
176
     7
177
     7
271
     0
178
     7
271
     0
273
     6
340
18F2
  0
DIMSTYLE
105
18F3
330
A
100
AcDbSymbolTableRecord
100
AcDbDimStyleTableRecord
  2
DIM002
 70
     0
 40
10.0
 41
1.0
 42
0.0
 44
0.0
 45
1.0
 73
     0
 74
     0
 77
     3
140
1.216216216216216
147
0.2
172
     1
176
     7
177
     7
271
     0
178
     7
271
     0
273
     6
340
18F2
  0
ENDTAB
  0
TABLE
  2
BLOCK_RECORD
  5
1
330
0
100
AcDbSymbolTable
 70
     7
  0
BLOCK_RECORD
  5
1E
102
{ACAD_XDICTIONARY
360
18D4
102
}
330
1
100
AcDbSymbolTableRecord
100
AcDbBlockTableRecord
  2
*Model_Space
340
21
 70
     0
280
     1
281
     0
  0
BLOCK_RECORD
  5
1A
330
1
100
AcDbSymbolTableRecord
100
AcDbBlockTableRecord
  2
*Paper_Space
340
1D
 70
     0
280
     1
281
     0
  0
BLOCK_RECORD
  5
1272
330
1
100
AcDbSymbolTableRecord
100
AcDbBlockTableRecord
  2
_Open30
340
0
 70
     0
280
     1
281
     0
  0
BLOCK_RECORD
  5
127A
330
1
100
AcDbSymbolTableRecord
100
AcDbBlockTableRecord
  2
*D1
340
0
 70
     0
280
     1
281
     0
  0
BLOCK_RECORD
  5
1290
330
1
100
AcDbSymbolTableRecord
100
AcDbBlockTableRecord
  2
*D2
340
0
 70
     0
280
     1
281
     0
  0
BLOCK_RECORD
  5
12E3
330
1
100
AcDbSymbolTableRecord
100
AcDbBlockTableRecord
  2
*D3
340
0
 70
     0
280
     1
281
     0
  0
BLOCK_RECORD
  5
136B
330
1
100
AcDbSymbolTableRecord
100
AcDbBlockTableRecord
  2
Ａ4枠
340
0
 70
     0
280
     1
281
     0
  0
BLOCK_RECORD
  5
150A
330
1
100
AcDbSymbolTableRecord
100
AcDbBlockTableRecord
  2
*D5
340
0
 70
     0
280
     1
281
     0
  0
BLOCK_RECORD
  5
15D9
330
1
100
AcDbSymbolTableRecord
100
AcDbBlockTableRecord
  2
_Open
340
0
102
{BLKREFS
331
1660
331
1661
331
164E
331
164F
331
1657
331
1658
331
1669
331
166A
102
}
 70
     0
280
     1
281
     0
  0
ENDTAB
  0
ENDSEC
  0
SECTION
  2
BLOCKS
  0
BLOCK
  5
1F
330
1E
100
AcDbEntity
  8
0
100
AcDbBlockBegin
  2
*Model_Space
 70
     0
 10
0.0
 20
0.0
 30
0.0
  3
*Model_Space
  1

  0
ENDBLK
  5
20
330
1E
100
AcDbEntity
  8
0
100
AcDbBlockEnd
  0
BLOCK
  5
1B
330
1A
100
AcDbEntity
 67
     1
  8
0
100
AcDbBlockBegin
  2
*Paper_Space
 70
     0
 10
0.0
 20
0.0
 30
0.0
  3
*Paper_Space
  1

  0
ENDBLK
  5
1C
330
1A
100
AcDbEntity
 67
     1
  8
0
100
AcDbBlockEnd
  0
BLOCK
  5
1276
330
1272
100
AcDbEntity
  8
0
100
AcDbBlockBegin
  2
_Open30
 70
     0
 10
0.0
 20
0.0
 30
0.0
  3
_Open30
  1

  0
LINE
  5
1273
330
1272
100
AcDbEntity
  8
ﾚｲﾔ1
  6
Continuous
 62
     0
370
    -2
100
AcDbLine
 10
-1.0
 20
0.26794919
 30
0.0
 11
0.0
 21
0.0
 31
0.0
  0
LINE
  5
1274
330
1272
100
AcDbEntity
  8
ﾚｲﾔ1
  6
Continuous
 62
     0
370
    -2
100
AcDbLine
 10
0.0
 20
0.0
 30
0.0
 11
-1.0
 21
-0.26794919
 31
0.0
  0
LINE
  5
1275
330
1272
100
AcDbEntity
  8
ﾚｲﾔ1
  6
Continuous
 62
     0
370
    -2
100
AcDbLine
 10
0.0
 20
0.0
 30
0.0
 11
-1.0
 21
0.0
 31
0.0
  0
ENDBLK
  5
1277
330
1272
100
AcDbEntity
  8
0
100
AcDbBlockEnd
  0
BLOCK
  5
1284
330
127A
100
AcDbEntity
  8
0
100
AcDbBlockBegin
  2
*D1
 70
     1
 10
0.0
 20
0.0
 30
0.0
  3
*D1
  1

  0
LINE
  5
165D
330
127A
100
AcDbEntity
  8
SUNPOU
  6
Continuous
 62
     1
370
    -2
100
AcDbLine
 10
3397.152860501431
 20
126.3250483581802
 30
0.0
 11
3363.312670987644
 21
126.3250483581802
 31
0.0
  0
LINE
  5
165E
330
127A
100
AcDbEntity
  8
SUNPOU
  6
Continuous
 62
     1
370
    -2
100
AcDbLine
 10
3397.258517036852
 20
-23.67495164182003
 30
0.0
 11
3363.312670987644
 21
-23.67495164182003
 31
0.0
  0
LINE
  5
165F
330
127A
100
AcDbEntity
  8
SUNPOU
  6
Continuous
 62
     1
370
    -2
100
AcDbLine
 10
3363.492670987644
 20
116.3250483581802
 30
0.0
 11
3363.492670987644
 21
-13.67495164182003
 31
0.0
  0
INSERT
  5
1660
330
127A
100
AcDbEntity
  8
SUNPOU
 62
     1
370
    -2
100
AcDbBlockReference
  2
_Open
 10
3363.492670987644
 20
126.3250483581802
 30
0.0
 41
10.0
 42
10.0
 43
10.0
 50
90.0
  0
INSERT
  5
1661
330
127A
100
AcDbEntity
  8
SUNPOU
 62
     1
370
    -2
100
AcDbBlockReference
  2
_Open
 10
3363.492670987644
 20
-23.67495164182003
 30
0.0
 41
10.0
 42
10.0
 43
10.0
 50
270.0
  0
MTEXT
  5
1662
330
127A
100
AcDbEntity
  8
SUNPOU
  6
Continuous
 62
     1
100
AcDbMText
 10
3352.492670987644
 20
51.32504835818007
 30
0.0
 40
20.0
 41
0.0
 46
0.0
 71
     5
 72
     1
  1
\A1;φ150
  7
TEXTSTYLE01
 11
0.0
 21
1.0
 31
0.0
 73
     1
 44
1.0
  0
POINT
  5
1663
330
127A
100
AcDbEntity
  8
Defpoints
 62
     0
100
AcDbPoint
 10
3397.215360501431
 20
126.3250483581802
 30
0.0
  0
POINT
  5
1664
330
127A
100
AcDbEntity
  8
Defpoints
 62
     0
100
AcDbPoint
 10
3397.321017036852
 20
-23.67495164182003
 30
0.0
  0
POINT
  5
1665
330
127A
100
AcDbEntity
  8
Defpoints
 62
     0
100
AcDbPoint
 10
3363.492670987644
 20
-23.67495164182003
 30
0.0
  0
ENDBLK
  5
1285
330
127A
100
AcDbEntity
  8
0
100
AcDbBlockEnd
  0
BLOCK
  5
129A
330
1290
100
AcDbEntity
  8
0
100
AcDbBlockBegin
  2
*D2
 70
     1
 10
0.0
 20
0.0
 30
0.0
  3
*D2
  1

  0
LINE
  5
164B
330
1290
100
AcDbEntity
  8
SUNPOU
  6
Continuous
 62
     1
370
    -2
100
AcDbLine
 10
2915.715360501431
 20
59.33754835818007
 30
0.0
 11
2915.715360501431
 21
275.1259774269669
 31
0.0
  0
LINE
  5
164C
330
1290
100
AcDbEntity
  8
SUNPOU
  6
Continuous
 62
     1
370
    -2
100
AcDbLine
 10
3291.61536050143
 20
59.33754835818007
 30
0.0
 11
3291.61536050143
 21
275.1259774269669
 31
0.0
  0
LINE
  5
164D
330
1290
100
AcDbEntity
  8
SUNPOU
  6
Continuous
 62
     1
370
    -2
100
AcDbLine
 10
2925.715360501431
 20
274.9459774269669
 30
0.0
 11
3281.61536050143
 21
274.9459774269669
 31
0.0
  0
INSERT
  5
164E
330
1290
100
AcDbEntity
  8
SUNPOU
 62
     1
370
    -2
100
AcDbBlockReference
  2
_Open
 10
2915.715360501431
 20
274.9459774269669
 30
0.0
 41
10.0
 42
10.0
 43
10.0
 50
180.0
  0
INSERT
  5
164F
330
1290
100
AcDbEntity
  8
SUNPOU
 62
     1
370
    -2
100
AcDbBlockReference
  2
_Open
 10
3291.61536050143
 20
274.9459774269669
 30
0.0
 41
10.0
 42
10.0
 43
10.0
  0
MTEXT
  5
1650
330
1290
100
AcDbEntity
  8
SUNPOU
  6
Continuous
 62
     1
100
AcDbMText
 10
3103.66536050143
 20
285.9459774269669
 30
0.0
 40
20.0
 41
0.0
 46
0.0
 71
     5
 72
     1
  1
\A1;376
  7
TEXTSTYLE01
 73
     1
 44
1.0
  0
POINT
  5
1651
330
1290
100
AcDbEntity
  8
Defpoints
 62
     0
100
AcDbPoint
 10
2915.715360501431
 20
59.27504835818007
 30
0.0
  0
POINT
  5
1652
330
1290
100
AcDbEntity
  8
Defpoints
 62
     0
100
AcDbPoint
 10
3291.61536050143
 20
59.27504835818007
 30
0.0
  0
POINT
  5
1653
330
1290
100
AcDbEntity
  8
Defpoints
 62
     0
100
AcDbPoint
 10
3291.61536050143
 20
274.9459774269669
 30
0.0
  0
ENDBLK
  5
129B
330
1290
100
AcDbEntity
  8
0
100
AcDbBlockEnd
  0
BLOCK
  5
12ED
330
12E3
100
AcDbEntity
  8
0
100
AcDbBlockBegin
  2
*D3
 70
     1
 10
0.0
 20
0.0
 30
0.0
  3
*D3
  1

  0
LINE
  5
1654
330
12E3
100
AcDbEntity
  8
SUNPOU
  6
Continuous
 62
     1
370
    -2
100
AcDbLine
 10
3397.215360501431
 20
244.99254835818
 30
0.0
 11
3397.215360501431
 21
259.1835365287092
 31
0.0
  0
LINE
  5
1655
330
12E3
100
AcDbEntity
  8
SUNPOU
  6
Continuous
 62
     1
370
    -2
100
AcDbLine
 10
3697.215360501431
 20
244.8125483581801
 30
0.0
 11
3697.215360501431
 21
259.1835365287092
 31
0.0
  0
LINE
  5
1656
330
12E3
100
AcDbEntity
  8
SUNPOU
  6
Continuous
 62
     1
370
    -2
100
AcDbLine
 10
3407.215360501431
 20
259.0035365287092
 30
0.0
 11
3687.215360501431
 21
259.0035365287092
 31
0.0
  0
INSERT
  5
1657
330
12E3
100
AcDbEntity
  8
SUNPOU
 62
     1
370
    -2
100
AcDbBlockReference
  2
_Open
 10
3397.215360501431
 20
259.0035365287092
 30
0.0
 41
10.0
 42
10.0
 43
10.0
 50
180.0
  0
INSERT
  5
1658
330
12E3
100
AcDbEntity
  8
SUNPOU
 62
     1
370
    -2
100
AcDbBlockReference
  2
_Open
 10
3697.215360501431
 20
259.0035365287092
 30
0.0
 41
10.0
 42
10.0
 43
10.0
  0
MTEXT
  5
1659
330
12E3
100
AcDbEntity
  8
SUNPOU
  6
Continuous
 62
     1
100
AcDbMText
 10
3547.215360501431
 20
270.0035365287092
 30
0.0
 40
20.0
 41
0.0
 46
0.0
 71
     5
 72
     1
  1
\A1;300
  7
TEXTSTYLE01
 73
     1
 44
1.0
  0
POINT
  5
165A
330
12E3
100
AcDbEntity
  8
Defpoints
 62
     0
100
AcDbPoint
 10
3397.215360501431
 20
244.93004835818
 30
0.0
  0
POINT
  5
165B
330
12E3
100
AcDbEntity
  8
Defpoints
 62
     0
100
AcDbPoint
 10
3697.215360501431
 20
244.7500483581801
 30
0.0
  0
POINT
  5
165C
330
12E3
100
AcDbEntity
  8
Defpoints
 62
     0
100
AcDbPoint
 10
3697.215360501431
 20
259.0035365287092
 30
0.0
  0
ENDBLK
  5
12EE
330
12E3
100
AcDbEntity
  8
0
100
AcDbBlockEnd
  0
BLOCK
  5
136C
330
136B
100
AcDbEntity
  8
0
100
AcDbBlockBegin
  2
Ａ4枠
 70
     0
 10
0.0
 20
0.0
 30
0.0
  3
Ａ4枠
  1

  0
LINE
  5
136D
330
136B
100
AcDbEntity
  8
図面枠
  6
Continuous
100
AcDbLine
 10
1055.659269749143
 20
41.36489548622558
 30
0.0
 11
1055.659269749143
 21
-133.6351045137744
 31
0.0
  0
LINE
  5
136E
330
136B
100
AcDbEntity
  8
図面枠
  6
Continuous
100
AcDbLine
 10
783.6592697491432
 20
41.36489548622558
 30
0.0
 11
1055.659269749143
 21
41.36489548622558
 31
0.0
  0
LINE
  5
136F
330
136B
100
AcDbEntity
  8
図面枠
  6
Continuous
100
AcDbLine
 10
967.659269749143
 20
-130.6351045137744
 30
0.0
 11
981.659269749143
 21
-130.6351045137744
 31
0.0
  0
LINE
  5
1370
330
136B
100
AcDbEntity
  8
図面枠
  6
Continuous
100
AcDbLine
 10
981.659269749143
 20
-130.6351045137744
 30
0.0
 11
981.659269749143
 21
-120.6351045137744
 31
0.0
  0
LINE
  5
1371
330
136B
100
AcDbEntity
  8
図面枠
  6
Continuous
100
AcDbLine
 10
981.659269749143
 20
-120.6351045137744
 30
0.0
 11
981.659269749143
 21
-130.6351045137744
 31
0.0
  0
LINE
  5
1372
330
136B
100
AcDbEntity
  8
図面枠
  6
Continuous
100
AcDbLine
 10
981.659269749143
 20
-130.6351045137744
 30
0.0
 11
995.6592697491432
 21
-130.6351045137744
 31
0.0
  0
LINE
  5
1373
330
136B
100
AcDbEntity
  8
図面枠
  6
Continuous
100
AcDbLine
 10
995.6592697491432
 20
-130.6351045137744
 30
0.0
 11
995.6592697491432
 21
-120.6351045137744
 31
0.0
  0
LINE
  5
1374
330
136B
100
AcDbEntity
  8
図面枠
  6
Continuous
100
AcDbLine
 10
995.6592697491432
 20
-120.6351045137744
 30
0.0
 11
995.6592697491432
 21
-130.6351045137744
 31
0.0
  0
LINE
  5
1375
330
136B
100
AcDbEntity
  8
図面枠
  6
Continuous
100
AcDbLine
 10
995.6592697491432
 20
-130.6351045137744
 30
0.0
 11
1006.659269749143
 21
-130.6351045137744
 31
0.0
  0
LINE
  5
1376
330
136B
100
AcDbEntity
  8
図面枠
  6
Continuous
100
AcDbLine
 10
1006.659269749143
 20
-130.6351045137744
 30
0.0
 11
1006.659269749143
 21
-120.6351045137744
 31
0.0
  0
LINE
  5
1377
330
136B
100
AcDbEntity
  8
図面枠
  6
Continuous
100
AcDbLine
 10
1006.659269749143
 20
-120.6351045137744
 30
0.0
 11
1006.659269749143
 21
-130.6351045137744
 31
0.0
  0
LINE
  5
1378
330
136B
100
AcDbEntity
  8
図面枠
  6
Continuous
100
AcDbLine
 10
1006.659269749143
 20
-130.6351045137744
 30
0.0
 11
1010.659269749143
 21
-130.6351045137744
 31
0.0
  0
LINE
  5
1379
330
136B
100
AcDbEntity
  8
図面枠
  6
Continuous
100
AcDbLine
 10
1010.659269749143
 20
-130.6351045137744
 30
0.0
 11
1010.659269749143
 21
-120.6351045137744
 31
0.0
  0
LINE
  5
137A
330
136B
100
AcDbEntity
  8
図面枠
  6
Continuous
100
AcDbLine
 10
1010.659269749143
 20
-120.6351045137744
 30
0.0
 11
1010.659269749143
 21
-130.6351045137744
 31
0.0
  0
LINE
  5
137B
330
136B
100
AcDbEntity
  8
図面枠
  6
Continuous
100
AcDbLine
 10
1010.659269749143
 20
-130.6351045137744
 30
0.0
 11
1052.659269749143
 21
-130.6351045137744
 31
0.0
  0
LINE
  5
137C
330
136B
100
AcDbEntity
  8
図面枠
  6
Continuous
100
AcDbLine
 10
1052.659269749143
 20
-130.6351045137744
 30
0.0
 11
1052.659269749143
 21
-120.6351045137744
 31
0.0
  0
LINE
  5
137D
330
136B
100
AcDbEntity
  8
図面枠
  6
Continuous
100
AcDbLine
 10
981.659269749143
 20
-115.6351045137744
 30
0.0
 11
981.659269749143
 21
-120.6351045137744
 31
0.0
  0
LINE
  5
137E
330
136B
100
AcDbEntity
  8
図面枠
  6
Continuous
100
AcDbLine
 10
981.659269749143
 20
-110.6351045137744
 30
0.0
 11
981.659269749143
 21
-115.6351045137744
 31
0.0
  0
LINE
  5
137F
330
136B
100
AcDbEntity
  8
図面枠
  6
Continuous
100
AcDbLine
 10
981.659269749143
 20
-105.6351045137744
 30
0.0
 11
981.659269749143
 21
-110.6351045137744
 31
0.0
  0
LINE
  5
1380
330
136B
100
AcDbEntity
  8
図面枠
  6
Continuous
100
AcDbLine
 10
981.659269749143
 20
-105.6351045137744
 30
0.0
 11
981.659269749143
 21
-120.6351045137744
 31
0.0
  0
LINE
  5
1381
330
136B
100
AcDbEntity
  8
図面枠
  6
Continuous
100
AcDbLine
 10
981.659269749143
 20
-120.6351045137744
 30
0.0
 11
986.6592697491432
 21
-120.6351045137744
 31
0.0
  0
LINE
  5
1382
330
136B
100
AcDbEntity
  8
図面枠
  6
Continuous
100
AcDbLine
 10
986.6592697491432
 20
-120.6351045137744
 30
0.0
 11
986.6592697491432
 21
-105.6351045137744
 31
0.0
  0
LINE
  5
1383
330
136B
100
AcDbEntity
  8
図面枠
  6
Continuous
100
AcDbLine
 10
986.6592697491432
 20
-120.6351045137744
 30
0.0
 11
986.6592697491432
 21
-105.6351045137744
 31
0.0
  0
LINE
  5
1384
330
136B
100
AcDbEntity
  8
図面枠
  6
Continuous
100
AcDbLine
 10
1052.659269749143
 20
-105.6351045137744
 30
0.0
 11
1052.659269749143
 21
-120.6351045137744
 31
0.0
  0
LINE
  5
1385
330
136B
100
AcDbEntity
  8
図面枠
  6
Continuous
100
AcDbLine
 10
1052.659269749143
 20
-120.6351045137744
 30
0.0
 11
986.6592697491432
 21
-120.6351045137744
 31
0.0
  0
LINE
  5
1386
330
136B
100
AcDbEntity
  8
図面枠
  6
Continuous
100
AcDbLine
 10
1055.659269749143
 20
-88.63510451377441
 30
0.0
 11
1055.659269749143
 21
-108.6351045137744
 31
0.0
  0
LINE
  5
1387
330
136B
100
AcDbEntity
  8
図面枠
  6
Continuous
100
AcDbLine
 10
1052.659269749143
 20
-105.6351045137744
 30
0.0
 11
981.659269749143
 21
-105.6351045137744
 31
0.0
  0
LINE
  5
1388
330
136B
100
AcDbEntity
  8
図面枠
  6
Continuous
100
AcDbLine
 10
981.659269749143
 20
-125.6351045137744
 30
0.0
 11
1006.659269749143
 21
-125.6351045137744
 31
0.0
  0
LINE
  5
1389
330
136B
100
AcDbEntity
  8
図面枠
  6
Continuous
100
AcDbLine
 10
989.659269749143
 20
-113.7351045137748
 30
0.0
 11
1049.459269749142
 21
-113.7351045137748
 31
0.0
  0
LINE
  5
138A
330
136B
100
AcDbEntity
  8
図面枠
  6
Continuous
100
AcDbLine
 10
786.659269749143
 20
38.36489548622558
 30
0.0
 11
1052.659269749143
 21
38.36489548622558
 31
0.0
  0
LINE
  5
138B
330
136B
100
AcDbEntity
  8
図面枠
  6
Continuous
100
AcDbLine
 10
1052.659269749143
 20
38.36489548622558
 30
0.0
 11
1052.659269749143
 21
-130.6351045137744
 31
0.0
  0
TEXT
  5
138C
330
136B
100
AcDbEntity
  8
図面枠
100
AcDbText
 10
983.4286026542031
 20
-125.1755332545508
 30
0.0
 40
4.0
  1
尺度
  7
WMF-ＭＳ Ｐ明朝0
100
AcDbText
  0
TEXT
  5
138D
330
136B
100
AcDbEntity
  8
図面枠
100
AcDbText
 10
981.9888250191834
 20
-107.5728530725946
 30
0.0
 40
3.75
  1
名 称
 50
270.0
  7
WMF-ＭＳ Ｐ明朝0
100
AcDbText
  0
TEXT
  5
138E
330
136B
100
AcDbEntity
  8
図面枠
100
AcDbText
 10
1006.536926568038
 20
-129.3351045137742
 30
0.0
 40
3.0
  1
番
  7
WMF-ＭＳ Ｐ明朝0
100
AcDbText
  0
TEXT
  5
138F
330
136B
100
AcDbEntity
  8
図面枠
100
AcDbText
 10
1006.536926568038
 20
-124.6116943789948
 30
0.0
 40
3.0
  1
図
  7
WMF-ＭＳ Ｐ明朝0
100
AcDbText
  0
MTEXT
  5
1390
330
136B
100
AcDbEntity
  8
図面枠
370
    30
100
AcDbMText
 10
987.3123799758904
 20
-134.4367067804633
 30
0.0
 40
4.399999999999998
 41
72.6192771141704
 46
0.0
 71
     1
 72
     5
  1
株式会社　関東油機サービス
 73
     1
 44
1.0
  0
LINE
  5
1391
330
136B
100
AcDbEntity
  8
図面枠
  6
Continuous
100
AcDbLine
 10
783.6592697491432
 20
41.36489548622558
 30
0.0
 11
783.6592697491432
 21
-133.6351045137744
 31
0.0
  0
LINE
  5
1392
330
136B
100
AcDbEntity
  8
図面枠
  6
Continuous
100
AcDbLine
 10
783.6592697491432
 20
-133.6351045137744
 30
0.0
 11
1055.659269749143
 21
-133.6351045137744
 31
0.0
  0
LINE
  5
1393
330
136B
100
AcDbEntity
  8
図面枠
  6
Continuous
100
AcDbLine
 10
786.659269749143
 20
-130.6351045137744
 30
0.0
 11
786.659269749143
 21
38.36489548622558
 31
0.0
  0
LINE
  5
1394
330
136B
100
AcDbEntity
  8
図面枠
  6
Continuous
100
AcDbLine
 10
1052.659269749143
 20
-130.6351045137744
 30
0.0
 11
786.659269749143
 21
-130.6351045137744
 31
0.0
  0
LINE
  5
1395
330
136B
100
AcDbEntity
  8
図面枠
  6
Continuous
 62
   254
100
AcDbLine
 10
1067.755275316775
 20
-153.6351045137744
 30
0.0
 11
1067.755275316775
 21
56.36489548622558
 31
0.0
  0
LINE
  5
1396
330
136B
100
AcDbEntity
  8
図面枠
  6
Continuous
 62
   254
100
AcDbLine
 10
1067.755275316775
 20
56.36489548622558
 30
0.0
 11
770.7552753167756
 21
56.36489548622558
 31
0.0
  0
LINE
  5
1397
330
136B
100
AcDbEntity
  8
図面枠
  6
Continuous
 62
   254
100
AcDbLine
 10
770.7552753167756
 20
56.36489548622558
 30
0.0
 11
770.7552753167756
 21
-153.6351045137744
 31
0.0
  0
LINE
  5
1398
330
136B
100
AcDbEntity
  8
図面枠
  6
Continuous
 62
   254
100
AcDbLine
 10
770.7552753167756
 20
-153.6351045137744
 30
0.0
 11
1067.755275316775
 21
-153.6351045137744
 31
0.0
  0
ENDBLK
  5
1399
330
136B
100
AcDbEntity
  8
0
100
AcDbBlockEnd
  0
BLOCK
  5
150B
330
150A
100
AcDbEntity
  8
0
100
AcDbBlockBegin
  2
*D5
 70
     1
 10
0.0
 20
0.0
 30
0.0
  3
*D5
  1

  0
LINE
  5
1666
330
150A
100
AcDbEntity
  8
図面
  6
Continuous
 62
     1
370
    -2
100
AcDbLine
 10
3695.252860501431
 20
-88.67495164181992
 30
0.0
 11
3737.327684051855
 21
-88.67495164181994
 31
0.0
  0
LINE
  5
1667
330
150A
100
AcDbEntity
  8
図面
  6
Continuous
 62
     1
370
    -2
100
AcDbLine
 10
3695.252860501431
 20
191.3250483581801
 30
0.0
 11
3737.327684051855
 21
191.3250483581801
 31
0.0
  0
LINE
  5
1668
330
150A
100
AcDbEntity
  8
図面
  6
Continuous
 62
     1
370
    -2
100
AcDbLine
 10
3737.147684051855
 20
-78.67495164181994
 30
0.0
 11
3737.147684051855
 21
181.3250483581801
 31
0.0
  0
INSERT
  5
1669
330
150A
100
AcDbEntity
  8
図面
 62
     1
370
    -2
100
AcDbBlockReference
  2
_Open
 10
3737.147684051855
 20
-88.67495164181994
 30
0.0
 41
10.0
 42
10.0
 43
10.0
 50
270.0
  0
INSERT
  5
166A
330
150A
100
AcDbEntity
  8
図面
 62
     1
370
    -2
100
AcDbBlockReference
  2
_Open
 10
3737.147684051855
 20
191.3250483581801
 30
0.0
 41
10.0
 42
10.0
 43
10.0
 50
90.0
  0
MTEXT
  5
166B
330
150A
100
AcDbEntity
  8
図面
  6
Continuous
 62
     1
100
AcDbMText
 10
3726.147684051855
 20
51.32504835818006
 30
0.0
 40
20.0
 41
0.0
 46
0.0
 71
     5
 72
     1
  1
\A1;280
  7
TEXTSTYLE01
 11
0.0
 21
1.0
 31
0.0
 73
     1
 44
1.0
  0
POINT
  5
166C
330
150A
100
AcDbEntity
  8
Defpoints
 62
     0
100
AcDbPoint
 10
3695.190360501431
 20
-88.67495164181992
 30
0.0
  0
POINT
  5
166D
330
150A
100
AcDbEntity
  8
Defpoints
 62
     0
100
AcDbPoint
 10
3695.190360501431
 20
191.3250483581801
 30
0.0
  0
POINT
  5
166E
330
150A
100
AcDbEntity
  8
Defpoints
 62
     0
100
AcDbPoint
 10
3737.147684051855
 20
191.3250483581801
 30
0.0
  0
ENDBLK
  5
150C
330
150A
100
AcDbEntity
  8
0
100
AcDbBlockEnd
  0
BLOCK
  5
15DD
330
15D9
100
AcDbEntity
  8
0
100
AcDbBlockBegin
  2
_Open
 70
     0
 10
0.0
 20
0.0
 30
0.0
  3
_Open
  1

  0
LINE
  5
15DA
330
15D9
100
AcDbEntity
  8
0
  6
ByBlock
 62
     0
370
    -2
100
AcDbLine
 10
-1.0
 20
0.1666666666666666
 30
0.0
 11
0.0
 21
0.0
 31
0.0
  0
LINE
  5
15DB
330
15D9
100
AcDbEntity
  8
0
  6
ByBlock
 62
     0
370
    -2
100
AcDbLine
 10
-1.0
 20
-0.1666666666666666
 30
0.0
 11
0.0
 21
0.0
 31
0.0
  0
LINE
  5
15DC
330
15D9
100
AcDbEntity
  8
0
  6
ByBlock
 62
     0
370
    -2
100
AcDbLine
 10
0.0
 20
0.0
 30
0.0
 11
-1.0
 21
0.0
 31
0.0
  0
ENDBLK
  5
15DE
330
15D9
100
AcDbEntity
  8
0
100
AcDbBlockEnd
  0
ENDSEC
  0
SECTION
  2
ENTITIES
  0
LINE
  5
2D5
330
1E
100
AcDbEntity
  8
ﾚｲﾔ1
  6
DASHDOTX2
100
AcDbLine
 10
3103.665360501431
 20
255.32504835818
 30
0.0
 11
3103.665360501431
 21
-145.4749516418199
 31
0.0
  0
LINE
  5
2D6
330
1E
100
AcDbEntity
  8
ﾚｲﾔ1
  6
Continuous
100
AcDbLine
 10
3695.190360501431
 20
51.32504835818008
 30
0.0
 11
3695.127860501431
 21
191.3250483581801
 31
0.0
  0
LINE
  5
2D7
330
1E
100
AcDbEntity
  8
ﾚｲﾔ1
  6
Continuous
100
AcDbLine
 10
3404.16536050143
 20
191.3250483581801
 30
0.0
 11
3404.16536050143
 21
51.32504835818008
 31
0.0
  0
LINE
  5
2D8
330
1E
100
AcDbEntity
  8
ﾚｲﾔ1
  6
Continuous
100
AcDbLine
 10
3402.215360501431
 20
126.3250483581802
 30
0.0
 11
3402.215360501431
 21
51.32504835818008
 31
0.0
  0
LINE
  5
2D9
330
1E
100
AcDbEntity
  8
ﾚｲﾔ1
  6
Continuous
100
AcDbLine
 10
3401.215360501431
 20
126.3250483581802
 30
0.0
 11
3401.215360501431
 21
51.32504835818008
 31
0.0
  0
LINE
  5
2DA
330
1E
100
AcDbEntity
  8
ﾚｲﾔ1
  6
Continuous
100
AcDbLine
 10
3401.215360501431
 20
-23.67495164182003
 30
0.0
 11
3401.215360501431
 21
51.32504835818008
 31
0.0
  0
LINE
  5
2DB
330
1E
100
AcDbEntity
  8
ﾚｲﾔ1
  6
Continuous
100
AcDbLine
 10
3402.215360501431
 20
-23.67495164182003
 30
0.0
 11
3402.215360501431
 21
51.32504835818008
 31
0.0
  0
LINE
  5
2DC
330
1E
100
AcDbEntity
  8
ﾚｲﾔ1
  6
Continuous
100
AcDbLine
 10
3404.16536050143
 20
-88.67495164181992
 30
0.0
 11
3404.16536050143
 21
51.32504835818008
 31
0.0
  0
LINE
  5
2DD
330
1E
100
AcDbEntity
  8
ﾚｲﾔ1
  6
Continuous
100
AcDbLine
 10
3695.190360501431
 20
51.32504835818008
 30
0.0
 11
3695.190360501431
 21
-88.67495164181992
 31
0.0
  0
LINE
  5
2DE
330
1E
100
AcDbEntity
  8
ﾚｲﾔ1
  6
Continuous
100
AcDbLine
 10
3522.165360501431
 20
59.27504835818007
 30
0.0
 11
3522.165360501431
 21
51.32504835818008
 31
0.0
  0
LINE
  5
2DF
330
1E
100
AcDbEntity
  8
ﾚｲﾔ1
  6
Continuous
100
AcDbLine
 10
3482.190360501431
 20
59.27504835818007
 30
0.0
 11
3482.190360501431
 21
51.32504835818008
 31
0.0
  0
LINE
  5
2E0
330
1E
100
AcDbEntity
  8
ﾚｲﾔ1
  6
Continuous
100
AcDbLine
 10
3522.165360501431
 20
43.37504835818018
 30
0.0
 11
3522.165360501431
 21
51.32504835818008
 31
0.0
  0
LINE
  5
2E1
330
1E
100
AcDbEntity
  8
ﾚｲﾔ1
  6
Continuous
100
AcDbLine
 10
3482.190360501431
 20
43.37504835818018
 30
0.0
 11
3482.190360501431
 21
51.32504835818008
 31
0.0
  0
LINE
  5
2E2
330
1E
100
AcDbEntity
  8
ﾚｲﾔ1
  6
Continuous
100
AcDbLine
 10
3472.215360501431
 20
51.32504835818008
 30
0.0
 11
3472.215360501431
 21
59.27504835818007
 31
0.0
  0
LINE
  5
2E3
330
1E
100
AcDbEntity
  8
ﾚｲﾔ1
  6
Continuous
100
AcDbLine
 10
3532.215360501431
 20
43.37504835818018
 30
0.0
 11
3532.215360501431
 21
51.32504835818008
 31
0.0
  0
LINE
  5
2E4
330
1E
100
AcDbEntity
  8
ﾚｲﾔ1
  6
Continuous
100
AcDbLine
 10
3472.215360501431
 20
43.37504835818018
 30
0.0
 11
3532.215360501431
 21
43.37504835818018
 31
0.0
  0
LINE
  5
2E5
330
1E
100
AcDbEntity
  8
ﾚｲﾔ1
  6
Continuous
100
AcDbLine
 10
3472.215360501431
 20
59.27504835818007
 30
0.0
 11
3532.215360501431
 21
59.27504835818007
 31
0.0
  0
LINE
  5
2E6
330
1E
100
AcDbEntity
  8
ﾚｲﾔ1
  6
Continuous
100
AcDbLine
 10
3264.090360501431
 20
93.7750483581801
 30
0.0
 11
3264.090360501431
 21
59.27504835818007
 31
0.0
  0
LINE
  5
2E7
330
1E
100
AcDbEntity
  8
ﾚｲﾔ1
  6
Continuous
100
AcDbLine
 10
3279.09036050143
 20
93.7750483581801
 30
0.0
 11
3279.09036050143
 21
59.27504835818007
 31
0.0
  0
LINE
  5
2E8
330
1E
100
AcDbEntity
  8
ﾚｲﾔ1
  6
Continuous
100
AcDbLine
 10
3279.09036050143
 20
8.875048358180067
 30
0.0
 11
3279.09036050143
 21
43.37504835818018
 31
0.0
  0
LINE
  5
2E9
330
1E
100
AcDbEntity
  8
ﾚｲﾔ1
  6
Continuous
100
AcDbLine
 10
3264.090360501431
 20
8.875048358180067
 30
0.0
 11
3264.090360501431
 21
43.37504835818018
 31
0.0
  0
LINE
  5
2EA
330
1E
100
AcDbEntity
  8
ﾚｲﾔ1
  6
Continuous
100
AcDbLine
 10
2943.240360501431
 20
93.7750483581801
 30
0.0
 11
2943.240360501431
 21
59.27504835818007
 31
0.0
  0
LINE
  5
2EB
330
1E
100
AcDbEntity
  8
ﾚｲﾔ1
  6
Continuous
100
AcDbLine
 10
2928.240360501431
 20
93.7750483581801
 30
0.0
 11
2928.240360501431
 21
59.27504835818007
 31
0.0
  0
LINE
  5
2EC
330
1E
100
AcDbEntity
  8
ﾚｲﾔ1
  6
Continuous
100
AcDbLine
 10
2928.240360501431
 20
8.875048358180067
 30
0.0
 11
2928.240360501431
 21
43.37504835818018
 31
0.0
  0
LINE
  5
2ED
330
1E
100
AcDbEntity
  8
ﾚｲﾔ1
  6
Continuous
100
AcDbLine
 10
2943.240360501431
 20
8.875048358180067
 30
0.0
 11
2943.240360501431
 21
43.37504835818018
 31
0.0
  0
LINE
  5
2EE
330
1E
100
AcDbEntity
  8
ﾚｲﾔ1
  6
DASHDOTX2
100
AcDbLine
 10
2891.940360501429
 20
51.32504835818008
 30
0.0
 11
3719.565360501431
 21
51.32504835818008
 31
0.0
  0
LINE
  5
5F0
330
1E
100
AcDbEntity
  8
ﾚｲﾔ1
  6
DASHDOT
 62
   253
100
AcDbLine
 10
3482.215360501431
 20
201.2250483581801
 30
0.0
 11
3482.215360501431
 21
164.2321164842735
 31
0.0
  0
LINE
  5
5F1
330
1E
100
AcDbEntity
  8
ﾚｲﾔ1
  6
DASHED
 62
   253
100
AcDbLine
 10
3475.165360501431
 20
191.2500483581801
 30
0.0
 11
3475.165360501431
 21
176.2500483581801
 31
0.0
  0
LINE
  5
5F2
330
1E
100
AcDbEntity
  8
ﾚｲﾔ1
  6
DASHED
 62
   253
100
AcDbLine
 10
3475.165360501431
 20
176.2500483581801
 30
0.0
 11
3482.215360501431
 21
173.2500483581801
 31
0.0
  0
LINE
  5
5F3
330
1E
100
AcDbEntity
  8
ﾚｲﾔ1
  6
DASHED
 62
   253
100
AcDbLine
 10
3482.215360501431
 20
173.2500483581801
 30
0.0
 11
3489.190360501431
 21
176.2500483581801
 31
0.0
  0
LINE
  5
5F4
330
1E
100
AcDbEntity
  8
ﾚｲﾔ1
  6
DASHED
 62
   253
100
AcDbLine
 10
3489.190360501431
 20
176.2500483581801
 30
0.0
 11
3489.190360501431
 21
191.2500483581801
 31
0.0
  0
LINE
  5
5F5
330
1E
100
AcDbEntity
  8
ﾚｲﾔ1
  6
DASHED
 62
   253
100
AcDbLine
 10
3474.115360501431
 20
191.2500483581801
 30
0.0
 11
3474.115360501431
 21
178.2000483581801
 31
0.0
  0
LINE
  5
5F6
330
1E
100
AcDbEntity
  8
ﾚｲﾔ1
  6
DASHED
 62
   253
100
AcDbLine
 10
3474.115360501431
 20
178.2000483581801
 30
0.0
 11
3490.165360501431
 21
178.2000483581801
 31
0.0
  0
LINE
  5
5F7
330
1E
100
AcDbEntity
  8
ﾚｲﾔ1
  6
DASHED
 62
   253
100
AcDbLine
 10
3490.165360501431
 20
178.2000483581801
 30
0.0
 11
3490.165360501431
 21
191.2500483581801
 31
0.0
  0
LINE
  5
5F8
330
1E
100
AcDbEntity
  8
ﾚｲﾔ1
  6
DASHED
 62
   253
100
AcDbLine
 10
3474.115360501431
 20
191.3250483581801
 30
0.0
 11
3490.165360501431
 21
191.3250483581801
 31
0.0
  0
LINE
  5
5F9
330
1E
100
AcDbEntity
  8
ﾚｲﾔ1
  6
DASHDOT
 62
   253
100
AcDbLine
 10
3632.21536050143
 20
201.2250483581801
 30
0.0
 11
3632.21536050143
 21
164.2321164842735
 31
0.0
  0
LINE
  5
5FA
330
1E
100
AcDbEntity
  8
ﾚｲﾔ1
  6
DASHED
 62
   253
100
AcDbLine
 10
3625.165360501431
 20
191.2500483581801
 30
0.0
 11
3625.165360501431
 21
176.2500483581801
 31
0.0
  0
LINE
  5
5FB
330
1E
100
AcDbEntity
  8
ﾚｲﾔ1
  6
DASHED
 62
   253
100
AcDbLine
 10
3625.165360501431
 20
176.2500483581801
 30
0.0
 11
3632.21536050143
 21
173.2500483581801
 31
0.0
  0
LINE
  5
5FC
330
1E
100
AcDbEntity
  8
ﾚｲﾔ1
  6
DASHED
 62
   253
100
AcDbLine
 10
3632.21536050143
 20
173.2500483581801
 30
0.0
 11
3639.190360501431
 21
176.2500483581801
 31
0.0
  0
LINE
  5
5FD
330
1E
100
AcDbEntity
  8
ﾚｲﾔ1
  6
DASHED
 62
   253
100
AcDbLine
 10
3639.190360501431
 20
176.2500483581801
 30
0.0
 11
3639.190360501431
 21
191.2500483581801
 31
0.0
  0
LINE
  5
5FE
330
1E
100
AcDbEntity
  8
ﾚｲﾔ1
  6
DASHED
 62
   253
100
AcDbLine
 10
3624.115360501432
 20
191.2500483581801
 30
0.0
 11
3624.115360501432
 21
178.2000483581801
 31
0.0
  0
LINE
  5
5FF
330
1E
100
AcDbEntity
  8
ﾚｲﾔ1
  6
DASHED
 62
   253
100
AcDbLine
 10
3624.115360501432
 20
178.2000483581801
 30
0.0
 11
3640.165360501431
 21
178.2000483581801
 31
0.0
  0
LINE
  5
600
330
1E
100
AcDbEntity
  8
ﾚｲﾔ1
  6
DASHED
 62
   253
100
AcDbLine
 10
3640.165360501431
 20
178.2000483581801
 30
0.0
 11
3640.165360501431
 21
191.2500483581801
 31
0.0
  0
LINE
  5
601
330
1E
100
AcDbEntity
  8
ﾚｲﾔ1
  6
DASHED
 62
   253
100
AcDbLine
 10
3629.190360501431
 20
191.3250483581801
 30
0.0
 11
3645.240360501431
 21
191.3250483581801
 31
0.0
  0
LINE
  5
67F
330
1E
100
AcDbEntity
  8
ﾚｲﾔ1
  6
Continuous
100
AcDbLine
 10
3397.215360501431
 20
51.32504835818008
 30
0.0
 11
3397.215360501431
 21
121.3000483581801
 31
0.0
  0
LINE
  5
680
330
1E
100
AcDbEntity
  8
ﾚｲﾔ1
  6
Continuous
100
AcDbLine
 10
3397.215360501431
 20
121.3000483581801
 30
0.0
 11
3401.215360501431
 21
126.3250483581802
 31
0.0
  0
LINE
  5
682
330
1E
100
AcDbEntity
  8
ﾚｲﾔ1
  6
Continuous
100
AcDbLine
 10
3402.215360501431
 20
126.3250483581802
 30
0.0
 11
3402.215360501431
 21
189.3000483581802
 31
0.0
  0
LINE
  5
683
330
1E
100
AcDbEntity
  8
ﾚｲﾔ1
  6
Continuous
100
AcDbLine
 10
3402.215360501431
 20
189.3000483581802
 30
0.0
 11
3404.16536050143
 21
191.3250483581801
 31
0.0
  0
LINE
  5
684
330
1E
100
AcDbEntity
  8
ﾚｲﾔ1
  6
Continuous
100
AcDbLine
 10
3404.16536050143
 20
191.3250483581801
 30
0.0
 11
3695.190360501431
 21
191.3250483581801
 31
0.0
  0
LINE
  5
685
330
1E
100
AcDbEntity
  8
ﾚｲﾔ1
  6
Continuous
100
AcDbLine
 10
3695.127860501431
 20
191.3250483581801
 30
0.0
 11
3697.152860501431
 21
189.3000483581802
 31
0.0
  0
LINE
  5
686
330
1E
100
AcDbEntity
  8
ﾚｲﾔ1
  6
Continuous
100
AcDbLine
 10
3697.152860501431
 20
189.3000483581802
 30
0.0
 11
3697.215360501431
 21
51.32504835818008
 31
0.0
  0
LINE
  5
687
330
1E
100
AcDbEntity
  8
ﾚｲﾔ1
  6
Continuous
100
AcDbLine
 10
3397.215360501431
 20
51.32504835818008
 30
0.0
 11
3397.215360501431
 21
-18.64995164181991
 31
0.0
  0
LINE
  5
688
330
1E
100
AcDbEntity
  8
ﾚｲﾔ1
  6
Continuous
100
AcDbLine
 10
3397.215360501431
 20
-18.64995164181991
 30
0.0
 11
3401.215360501431
 21
-23.67495164182003
 31
0.0
  0
LINE
  5
68A
330
1E
100
AcDbEntity
  8
ﾚｲﾔ1
  6
Continuous
100
AcDbLine
 10
3402.215360501431
 20
-23.67495164182003
 30
0.0
 11
3402.215360501431
 21
-86.64995164181992
 31
0.0
  0
LINE
  5
68B
330
1E
100
AcDbEntity
  8
ﾚｲﾔ1
  6
Continuous
100
AcDbLine
 10
3402.215360501431
 20
-86.64995164181992
 30
0.0
 11
3404.16536050143
 21
-88.67495164181992
 31
0.0
  0
LINE
  5
68C
330
1E
100
AcDbEntity
  8
ﾚｲﾔ1
  6
Continuous
100
AcDbLine
 10
3404.16536050143
 20
-88.67495164181992
 30
0.0
 11
3695.190360501431
 21
-88.67495164181992
 31
0.0
  0
LINE
  5
68D
330
1E
100
AcDbEntity
  8
ﾚｲﾔ1
  6
Continuous
100
AcDbLine
 10
3695.190360501431
 20
-88.67495164181992
 30
0.0
 11
3697.215360501431
 21
-86.64995164181992
 31
0.0
  0
LINE
  5
68E
330
1E
100
AcDbEntity
  8
ﾚｲﾔ1
  6
Continuous
100
AcDbLine
 10
3697.215360501431
 20
-86.64995164181992
 30
0.0
 11
3697.215360501431
 21
54.80004835818008
 31
0.0
  0
LINE
  5
9B6
330
1E
100
AcDbEntity
  8
ﾚｲﾔ1
  6
Continuous
100
AcDbLine
 10
3532.215360501431
 20
59.27504835818007
 30
0.0
 11
3532.215360501431
 21
51.32504835818008
 31
0.0
  0
LINE
  5
9B7
330
1E
100
AcDbEntity
  8
ﾚｲﾔ1
  6
Continuous
100
AcDbLine
 10
3472.215360501431
 20
51.32504835818008
 30
0.0
 11
3472.215360501431
 21
43.37504835818018
 31
0.0
  0
LINE
  5
9B8
330
1E
100
AcDbEntity
  8
ﾚｲﾔ1
  6
Continuous
100
AcDbLine
 10
3271.590360501431
 20
101.2750483581802
 30
0.0
 11
3271.365360501431
 21
101.2750483581802
 31
0.0
  0
LINE
  5
9B9
330
1E
100
AcDbEntity
  8
ﾚｲﾔ1
  6
Continuous
100
AcDbLine
 10
3271.365360501431
 20
101.2750483581802
 30
0.0
 11
3271.140360501431
 21
101.2750483581802
 31
0.0
  0
LINE
  5
9BA
330
1E
100
AcDbEntity
  8
ﾚｲﾔ1
  6
Continuous
100
AcDbLine
 10
3271.140360501431
 20
101.2750483581802
 30
0.0
 11
3270.915360501431
 21
101.2750483581802
 31
0.0
  0
LINE
  5
9BB
330
1E
100
AcDbEntity
  8
ﾚｲﾔ1
  6
Continuous
100
AcDbLine
 10
3270.915360501431
 20
101.2750483581802
 30
0.0
 11
3270.615360501431
 21
101.2000483581801
 31
0.0
  0
LINE
  5
9BC
330
1E
100
AcDbEntity
  8
ﾚｲﾔ1
  6
Continuous
100
AcDbLine
 10
3270.615360501431
 20
101.2000483581801
 30
0.0
 11
3270.39036050143
 21
101.2000483581801
 31
0.0
  0
LINE
  5
9BD
330
1E
100
AcDbEntity
  8
ﾚｲﾔ1
  6
Continuous
100
AcDbLine
 10
3270.39036050143
 20
101.2000483581801
 30
0.0
 11
3270.16536050143
 21
101.1250483581801
 31
0.0
  0
LINE
  5
9BE
330
1E
100
AcDbEntity
  8
ﾚｲﾔ1
  6
Continuous
100
AcDbLine
 10
3270.16536050143
 20
101.1250483581801
 30
0.0
 11
3269.940360501429
 21
101.1250483581801
 31
0.0
  0
LINE
  5
9BF
330
1E
100
AcDbEntity
  8
ﾚｲﾔ1
  6
Continuous
100
AcDbLine
 10
3269.940360501429
 20
101.1250483581801
 30
0.0
 11
3269.71536050143
 21
101.0500483581802
 31
0.0
  0
LINE
  5
9C0
330
1E
100
AcDbEntity
  8
ﾚｲﾔ1
  6
Continuous
100
AcDbLine
 10
3269.71536050143
 20
101.0500483581802
 30
0.0
 11
3269.490360501431
 21
100.9750483581801
 31
0.0
  0
LINE
  5
9C1
330
1E
100
AcDbEntity
  8
ﾚｲﾔ1
  6
Continuous
100
AcDbLine
 10
3269.490360501431
 20
100.9750483581801
 30
0.0
 11
3269.26536050143
 21
100.9000483581802
 31
0.0
  0
LINE
  5
9C2
330
1E
100
AcDbEntity
  8
ﾚｲﾔ1
  6
Continuous
100
AcDbLine
 10
3269.26536050143
 20
100.9000483581802
 30
0.0
 11
3269.040360501431
 21
100.8250483581801
 31
0.0
  0
LINE
  5
9C3
330
1E
100
AcDbEntity
  8
ﾚｲﾔ1
  6
Continuous
100
AcDbLine
 10
3269.040360501431
 20
100.8250483581801
 30
0.0
 11
3268.815360501429
 21
100.7500483581802
 31
0.0
  0
LINE
  5
9C4
330
1E
100
AcDbEntity
  8
ﾚｲﾔ1
  6
Continuous
100
AcDbLine
 10
3268.815360501429
 20
100.7500483581802
 30
0.0
 11
3268.59036050143
 21
100.6750483581802
 31
0.0
  0
LINE
  5
9C5
330
1E
100
AcDbEntity
  8
ﾚｲﾔ1
  6
Continuous
100
AcDbLine
 10
3268.59036050143
 20
100.6750483581802
 30
0.0
 11
3268.365360501431
 21
100.5250483581802
 31
0.0
  0
LINE
  5
9C6
330
1E
100
AcDbEntity
  8
ﾚｲﾔ1
  6
Continuous
100
AcDbLine
 10
3268.365360501431
 20
100.5250483581802
 30
0.0
 11
3268.215360501431
 21
100.4500483581802
 31
0.0
  0
LINE
  5
9C7
330
1E
100
AcDbEntity
  8
ﾚｲﾔ1
  6
Continuous
100
AcDbLine
 10
3268.215360501431
 20
100.4500483581802
 30
0.0
 11
3267.990360501431
 21
100.3750483581802
 31
0.0
  0
LINE
  5
9C8
330
1E
100
AcDbEntity
  8
ﾚｲﾔ1
  6
Continuous
100
AcDbLine
 10
3267.990360501431
 20
100.3750483581802
 30
0.0
 11
3267.76536050143
 21
100.2250483581801
 31
0.0
  0
LINE
  5
9C9
330
1E
100
AcDbEntity
  8
ﾚｲﾔ1
  6
Continuous
100
AcDbLine
 10
3267.76536050143
 20
100.2250483581801
 30
0.0
 11
3267.540360501431
 21
100.0750483581801
 31
0.0
  0
LINE
  5
9CA
330
1E
100
AcDbEntity
  8
ﾚｲﾔ1
  6
Continuous
100
AcDbLine
 10
3267.540360501431
 20
100.0750483581801
 30
0.0
 11
3267.39036050143
 21
100.0000483581801
 31
0.0
  0
LINE
  5
9CB
330
1E
100
AcDbEntity
  8
ﾚｲﾔ1
  6
Continuous
100
AcDbLine
 10
3267.39036050143
 20
100.0000483581801
 30
0.0
 11
3267.165360501431
 21
99.85004835818009
 31
0.0
  0
LINE
  5
9CC
330
1E
100
AcDbEntity
  8
ﾚｲﾔ1
  6
Continuous
100
AcDbLine
 10
3267.165360501431
 20
99.85004835818009
 30
0.0
 11
3267.015360501431
 21
99.70004835818006
 31
0.0
  0
LINE
  5
9CD
330
1E
100
AcDbEntity
  8
ﾚｲﾔ1
  6
Continuous
100
AcDbLine
 10
3267.015360501431
 20
99.70004835818006
 30
0.0
 11
3266.790360501431
 21
99.55004835818019
 31
0.0
  0
LINE
  5
9CE
330
1E
100
AcDbEntity
  8
ﾚｲﾔ1
  6
Continuous
100
AcDbLine
 10
3266.790360501431
 20
99.55004835818019
 30
0.0
 11
3266.640360501431
 21
99.40004835818016
 31
0.0
  0
LINE
  5
9CF
330
1E
100
AcDbEntity
  8
ﾚｲﾔ1
  6
Continuous
100
AcDbLine
 10
3266.640360501431
 20
99.40004835818016
 30
0.0
 11
3266.490360501431
 21
99.25004835818018
 31
0.0
  0
LINE
  5
9D0
330
1E
100
AcDbEntity
  8
ﾚｲﾔ1
  6
Continuous
100
AcDbLine
 10
3266.490360501431
 20
99.25004835818018
 30
0.0
 11
3266.265360501431
 21
99.10004835818009
 31
0.0
  0
LINE
  5
9D1
330
1E
100
AcDbEntity
  8
ﾚｲﾔ1
  6
Continuous
100
AcDbLine
 10
3266.265360501431
 20
99.10004835818009
 30
0.0
 11
3266.115360501431
 21
98.87504835818007
 31
0.0
  0
LINE
  5
9D2
330
1E
100
AcDbEntity
  8
ﾚｲﾔ1
  6
Continuous
100
AcDbLine
 10
3266.115360501431
 20
98.87504835818007
 30
0.0
 11
3265.965360501431
 21
98.72504835818009
 31
0.0
  0
LINE
  5
9D3
330
1E
100
AcDbEntity
  8
ﾚｲﾔ1
  6
Continuous
100
AcDbLine
 10
3265.965360501431
 20
98.72504835818009
 30
0.0
 11
3265.815360501431
 21
98.57504835818006
 31
0.0
  0
LINE
  5
9D4
330
1E
100
AcDbEntity
  8
ﾚｲﾔ1
  6
Continuous
100
AcDbLine
 10
3265.815360501431
 20
98.57504835818006
 30
0.0
 11
3265.66536050143
 21
98.35004835818009
 31
0.0
  0
LINE
  5
9D5
330
1E
100
AcDbEntity
  8
ﾚｲﾔ1
  6
Continuous
100
AcDbLine
 10
3265.66536050143
 20
98.35004835818009
 30
0.0
 11
3265.515360501431
 21
98.20004835818006
 31
0.0
  0
LINE
  5
9D6
330
1E
100
AcDbEntity
  8
ﾚｲﾔ1
  6
Continuous
100
AcDbLine
 10
3265.515360501431
 20
98.20004835818006
 30
0.0
 11
3265.365360501431
 21
97.97504835818009
 31
0.0
  0
LINE
  5
9D7
330
1E
100
AcDbEntity
  8
ﾚｲﾔ1
  6
Continuous
100
AcDbLine
 10
3265.365360501431
 20
97.97504835818009
 30
0.0
 11
3265.29036050143
 21
97.82504835818006
 31
0.0
  0
LINE
  5
9D8
330
1E
100
AcDbEntity
  8
ﾚｲﾔ1
  6
Continuous
100
AcDbLine
 10
3265.29036050143
 20
97.82504835818006
 30
0.0
 11
3265.140360501431
 21
97.60004835818009
 31
0.0
  0
LINE
  5
9D9
330
1E
100
AcDbEntity
  8
ﾚｲﾔ1
  6
Continuous
100
AcDbLine
 10
3265.140360501431
 20
97.60004835818009
 30
0.0
 11
3264.990360501431
 21
97.37504835818007
 31
0.0
  0
LINE
  5
9DA
330
1E
100
AcDbEntity
  8
ﾚｲﾔ1
  6
Continuous
100
AcDbLine
 10
3264.990360501431
 20
97.37504835818007
 30
0.0
 11
3264.91536050143
 21
97.15004835818027
 31
0.0
  0
LINE
  5
9DB
330
1E
100
AcDbEntity
  8
ﾚｲﾔ1
  6
Continuous
100
AcDbLine
 10
3264.91536050143
 20
97.15004835818027
 30
0.0
 11
3264.840360501431
 21
97.00004835818018
 31
0.0
  0
LINE
  5
9DC
330
1E
100
AcDbEntity
  8
ﾚｲﾔ1
  6
Continuous
100
AcDbLine
 10
3264.840360501431
 20
97.00004835818018
 30
0.0
 11
3264.690360501431
 21
96.7750483581801
 31
0.0
  0
LINE
  5
9DD
330
1E
100
AcDbEntity
  8
ﾚｲﾔ1
  6
Continuous
100
AcDbLine
 10
3264.690360501431
 20
96.7750483581801
 30
0.0
 11
3264.615360501431
 21
96.55004835818008
 31
0.0
  0
LINE
  5
9DE
330
1E
100
AcDbEntity
  8
ﾚｲﾔ1
  6
Continuous
100
AcDbLine
 10
3264.615360501431
 20
96.55004835818008
 30
0.0
 11
3264.54036050143
 21
96.32504835818006
 31
0.0
  0
LINE
  5
9DF
330
1E
100
AcDbEntity
  8
ﾚｲﾔ1
  6
Continuous
100
AcDbLine
 10
3264.54036050143
 20
96.32504835818006
 30
0.0
 11
3264.465360501431
 21
96.1000483581802
 31
0.0
  0
LINE
  5
9E0
330
1E
100
AcDbEntity
  8
ﾚｲﾔ1
  6
Continuous
100
AcDbLine
 10
3264.465360501431
 20
96.1000483581802
 30
0.0
 11
3264.390360501431
 21
95.87504835818018
 31
0.0
  0
LINE
  5
9E1
330
1E
100
AcDbEntity
  8
ﾚｲﾔ1
  6
Continuous
100
AcDbLine
 10
3264.390360501431
 20
95.87504835818018
 30
0.0
 11
3264.315360501431
 21
95.6500483581801
 31
0.0
  0
LINE
  5
9E2
330
1E
100
AcDbEntity
  8
ﾚｲﾔ1
  6
Continuous
100
AcDbLine
 10
3264.315360501431
 20
95.6500483581801
 30
0.0
 11
3264.240360501431
 21
95.42504835818008
 31
0.0
  0
LINE
  5
9E3
330
1E
100
AcDbEntity
  8
ﾚｲﾔ1
  6
Continuous
100
AcDbLine
 10
3264.240360501431
 20
95.42504835818008
 30
0.0
 11
3264.240360501431
 21
95.20004835818006
 31
0.0
  0
LINE
  5
9E4
330
1E
100
AcDbEntity
  8
ﾚｲﾔ1
  6
Continuous
100
AcDbLine
 10
3264.240360501431
 20
95.20004835818006
 30
0.0
 11
3264.16536050143
 21
94.9750483581802
 31
0.0
  0
LINE
  5
9E5
330
1E
100
AcDbEntity
  8
ﾚｲﾔ1
  6
Continuous
100
AcDbLine
 10
3264.16536050143
 20
94.9750483581802
 30
0.0
 11
3264.16536050143
 21
94.75004835818018
 31
0.0
  0
LINE
  5
9E6
330
1E
100
AcDbEntity
  8
ﾚｲﾔ1
  6
Continuous
100
AcDbLine
 10
3264.16536050143
 20
94.75004835818018
 30
0.0
 11
3264.090360501431
 21
94.45004835818006
 31
0.0
  0
LINE
  5
9E7
330
1E
100
AcDbEntity
  8
ﾚｲﾔ1
  6
Continuous
100
AcDbLine
 10
3264.090360501431
 20
94.45004835818006
 30
0.0
 11
3264.090360501431
 21
94.2250483581802
 31
0.0
  0
LINE
  5
9E8
330
1E
100
AcDbEntity
  8
ﾚｲﾔ1
  6
Continuous
100
AcDbLine
 10
3264.090360501431
 20
94.2250483581802
 30
0.0
 11
3264.090360501431
 21
94.00004835818007
 31
0.0
  0
LINE
  5
9E9
330
1E
100
AcDbEntity
  8
ﾚｲﾔ1
  6
Continuous
100
AcDbLine
 10
3264.090360501431
 20
94.00004835818007
 30
0.0
 11
3264.090360501431
 21
93.7750483581801
 31
0.0
  0
LINE
  5
9EA
330
1E
100
AcDbEntity
  8
ﾚｲﾔ1
  6
Continuous
100
AcDbLine
 10
3271.590360501431
 20
101.2750483581802
 30
0.0
 11
3271.815360501429
 21
101.2750483581802
 31
0.0
  0
LINE
  5
9EB
330
1E
100
AcDbEntity
  8
ﾚｲﾔ1
  6
Continuous
100
AcDbLine
 10
3271.815360501429
 20
101.2750483581802
 30
0.0
 11
3272.040360501431
 21
101.2750483581802
 31
0.0
  0
LINE
  5
9EC
330
1E
100
AcDbEntity
  8
ﾚｲﾔ1
  6
Continuous
100
AcDbLine
 10
3272.040360501431
 20
101.2750483581802
 30
0.0
 11
3272.265360501431
 21
101.2750483581802
 31
0.0
  0
LINE
  5
9ED
330
1E
100
AcDbEntity
  8
ﾚｲﾔ1
  6
Continuous
100
AcDbLine
 10
3272.265360501431
 20
101.2750483581802
 30
0.0
 11
3272.565360501429
 21
101.2000483581801
 31
0.0
  0
LINE
  5
9EE
330
1E
100
AcDbEntity
  8
ﾚｲﾔ1
  6
Continuous
100
AcDbLine
 10
3272.565360501429
 20
101.2000483581801
 30
0.0
 11
3272.790360501431
 21
101.2000483581801
 31
0.0
  0
LINE
  5
9EF
330
1E
100
AcDbEntity
  8
ﾚｲﾔ1
  6
Continuous
100
AcDbLine
 10
3272.790360501431
 20
101.2000483581801
 30
0.0
 11
3273.015360501431
 21
101.1250483581801
 31
0.0
  0
LINE
  5
9F0
330
1E
100
AcDbEntity
  8
ﾚｲﾔ1
  6
Continuous
100
AcDbLine
 10
3273.015360501431
 20
101.1250483581801
 30
0.0
 11
3273.240360501431
 21
101.1250483581801
 31
0.0
  0
LINE
  5
9F1
330
1E
100
AcDbEntity
  8
ﾚｲﾔ1
  6
Continuous
100
AcDbLine
 10
3273.240360501431
 20
101.1250483581801
 30
0.0
 11
3273.465360501431
 21
101.0500483581802
 31
0.0
  0
LINE
  5
9F2
330
1E
100
AcDbEntity
  8
ﾚｲﾔ1
  6
Continuous
100
AcDbLine
 10
3273.465360501431
 20
101.0500483581802
 30
0.0
 11
3273.690360501429
 21
100.9750483581801
 31
0.0
  0
LINE
  5
9F3
330
1E
100
AcDbEntity
  8
ﾚｲﾔ1
  6
Continuous
100
AcDbLine
 10
3273.690360501429
 20
100.9750483581801
 30
0.0
 11
3273.915360501431
 21
100.9000483581802
 31
0.0
  0
LINE
  5
9F4
330
1E
100
AcDbEntity
  8
ﾚｲﾔ1
  6
Continuous
100
AcDbLine
 10
3273.915360501431
 20
100.9000483581802
 30
0.0
 11
3274.140360501431
 21
100.8250483581801
 31
0.0
  0
LINE
  5
9F5
330
1E
100
AcDbEntity
  8
ﾚｲﾔ1
  6
Continuous
100
AcDbLine
 10
3274.140360501431
 20
100.8250483581801
 30
0.0
 11
3274.365360501431
 21
100.7500483581802
 31
0.0
  0
LINE
  5
9F6
330
1E
100
AcDbEntity
  8
ﾚｲﾔ1
  6
Continuous
100
AcDbLine
 10
3274.365360501431
 20
100.7500483581802
 30
0.0
 11
3274.590360501431
 21
100.6750483581802
 31
0.0
  0
LINE
  5
9F7
330
1E
100
AcDbEntity
  8
ﾚｲﾔ1
  6
Continuous
100
AcDbLine
 10
3274.590360501431
 20
100.6750483581802
 30
0.0
 11
3274.815360501429
 21
100.5250483581802
 31
0.0
  0
LINE
  5
9F8
330
1E
100
AcDbEntity
  8
ﾚｲﾔ1
  6
Continuous
100
AcDbLine
 10
3274.815360501429
 20
100.5250483581802
 30
0.0
 11
3274.965360501431
 21
100.4500483581802
 31
0.0
  0
LINE
  5
9F9
330
1E
100
AcDbEntity
  8
ﾚｲﾔ1
  6
Continuous
100
AcDbLine
 10
3274.965360501431
 20
100.4500483581802
 30
0.0
 11
3275.190360501429
 21
100.3750483581802
 31
0.0
  0
LINE
  5
9FA
330
1E
100
AcDbEntity
  8
ﾚｲﾔ1
  6
Continuous
100
AcDbLine
 10
3275.190360501429
 20
100.3750483581802
 30
0.0
 11
3275.415360501431
 21
100.2250483581801
 31
0.0
  0
LINE
  5
9FB
330
1E
100
AcDbEntity
  8
ﾚｲﾔ1
  6
Continuous
100
AcDbLine
 10
3275.415360501431
 20
100.2250483581801
 30
0.0
 11
3275.640360501431
 21
100.0750483581801
 31
0.0
  0
LINE
  5
9FC
330
1E
100
AcDbEntity
  8
ﾚｲﾔ1
  6
Continuous
100
AcDbLine
 10
3275.640360501431
 20
100.0750483581801
 30
0.0
 11
3275.790360501431
 21
100.0000483581801
 31
0.0
  0
LINE
  5
9FD
330
1E
100
AcDbEntity
  8
ﾚｲﾔ1
  6
Continuous
100
AcDbLine
 10
3275.790360501431
 20
100.0000483581801
 30
0.0
 11
3276.015360501431
 21
99.85004835818009
 31
0.0
  0
LINE
  5
9FE
330
1E
100
AcDbEntity
  8
ﾚｲﾔ1
  6
Continuous
100
AcDbLine
 10
3276.015360501431
 20
99.85004835818009
 30
0.0
 11
3276.165360501431
 21
99.70004835818006
 31
0.0
  0
LINE
  5
9FF
330
1E
100
AcDbEntity
  8
ﾚｲﾔ1
  6
Continuous
100
AcDbLine
 10
3276.165360501431
 20
99.70004835818006
 30
0.0
 11
3276.390360501431
 21
99.55004835818019
 31
0.0
  0
LINE
  5
A00
330
1E
100
AcDbEntity
  8
ﾚｲﾔ1
  6
Continuous
100
AcDbLine
 10
3276.390360501431
 20
99.55004835818019
 30
0.0
 11
3276.540360501431
 21
99.40004835818016
 31
0.0
  0
LINE
  5
A01
330
1E
100
AcDbEntity
  8
ﾚｲﾔ1
  6
Continuous
100
AcDbLine
 10
3276.540360501431
 20
99.40004835818016
 30
0.0
 11
3276.690360501429
 21
99.25004835818018
 31
0.0
  0
LINE
  5
A02
330
1E
100
AcDbEntity
  8
ﾚｲﾔ1
  6
Continuous
100
AcDbLine
 10
3276.690360501429
 20
99.25004835818018
 30
0.0
 11
3276.915360501431
 21
99.10004835818009
 31
0.0
  0
LINE
  5
A03
330
1E
100
AcDbEntity
  8
ﾚｲﾔ1
  6
Continuous
100
AcDbLine
 10
3276.915360501431
 20
99.10004835818009
 30
0.0
 11
3277.065360501429
 21
98.87504835818007
 31
0.0
  0
LINE
  5
A04
330
1E
100
AcDbEntity
  8
ﾚｲﾔ1
  6
Continuous
100
AcDbLine
 10
3277.065360501429
 20
98.87504835818007
 30
0.0
 11
3277.215360501431
 21
98.72504835818009
 31
0.0
  0
LINE
  5
A05
330
1E
100
AcDbEntity
  8
ﾚｲﾔ1
  6
Continuous
100
AcDbLine
 10
3277.215360501431
 20
98.72504835818009
 30
0.0
 11
3277.365360501431
 21
98.57504835818006
 31
0.0
  0
LINE
  5
A06
330
1E
100
AcDbEntity
  8
ﾚｲﾔ1
  6
Continuous
100
AcDbLine
 10
3277.365360501431
 20
98.57504835818006
 30
0.0
 11
3277.51536050143
 21
98.35004835818009
 31
0.0
  0
LINE
  5
A07
330
1E
100
AcDbEntity
  8
ﾚｲﾔ1
  6
Continuous
100
AcDbLine
 10
3277.51536050143
 20
98.35004835818009
 30
0.0
 11
3277.665360501431
 21
98.20004835818006
 31
0.0
  0
LINE
  5
A08
330
1E
100
AcDbEntity
  8
ﾚｲﾔ1
  6
Continuous
100
AcDbLine
 10
3277.665360501431
 20
98.20004835818006
 30
0.0
 11
3277.815360501429
 21
97.97504835818009
 31
0.0
  0
LINE
  5
A09
330
1E
100
AcDbEntity
  8
ﾚｲﾔ1
  6
Continuous
100
AcDbLine
 10
3277.815360501429
 20
97.97504835818009
 30
0.0
 11
3277.89036050143
 21
97.82504835818006
 31
0.0
  0
LINE
  5
A0A
330
1E
100
AcDbEntity
  8
ﾚｲﾔ1
  6
Continuous
100
AcDbLine
 10
3277.89036050143
 20
97.82504835818006
 30
0.0
 11
3278.040360501431
 21
97.60004835818009
 31
0.0
  0
LINE
  5
A0B
330
1E
100
AcDbEntity
  8
ﾚｲﾔ1
  6
Continuous
100
AcDbLine
 10
3278.040360501431
 20
97.60004835818009
 30
0.0
 11
3278.190360501429
 21
97.37504835818007
 31
0.0
  0
LINE
  5
A0C
330
1E
100
AcDbEntity
  8
ﾚｲﾔ1
  6
Continuous
100
AcDbLine
 10
3278.190360501429
 20
97.37504835818007
 30
0.0
 11
3278.26536050143
 21
97.15004835818027
 31
0.0
  0
LINE
  5
A0D
330
1E
100
AcDbEntity
  8
ﾚｲﾔ1
  6
Continuous
100
AcDbLine
 10
3278.26536050143
 20
97.15004835818027
 30
0.0
 11
3278.34036050143
 21
97.00004835818018
 31
0.0
  0
LINE
  5
A0E
330
1E
100
AcDbEntity
  8
ﾚｲﾔ1
  6
Continuous
100
AcDbLine
 10
3278.34036050143
 20
97.00004835818018
 30
0.0
 11
3278.490360501431
 21
96.7750483581801
 31
0.0
  0
LINE
  5
A0F
330
1E
100
AcDbEntity
  8
ﾚｲﾔ1
  6
Continuous
100
AcDbLine
 10
3278.490360501431
 20
96.7750483581801
 30
0.0
 11
3278.565360501429
 21
96.55004835818008
 31
0.0
  0
LINE
  5
A10
330
1E
100
AcDbEntity
  8
ﾚｲﾔ1
  6
Continuous
100
AcDbLine
 10
3278.565360501429
 20
96.55004835818008
 30
0.0
 11
3278.64036050143
 21
96.32504835818006
 31
0.0
  0
LINE
  5
A11
330
1E
100
AcDbEntity
  8
ﾚｲﾔ1
  6
Continuous
100
AcDbLine
 10
3278.64036050143
 20
96.32504835818006
 30
0.0
 11
3278.71536050143
 21
96.1000483581802
 31
0.0
  0
LINE
  5
A12
330
1E
100
AcDbEntity
  8
ﾚｲﾔ1
  6
Continuous
100
AcDbLine
 10
3278.71536050143
 20
96.1000483581802
 30
0.0
 11
3278.790360501431
 21
95.87504835818018
 31
0.0
  0
LINE
  5
A13
330
1E
100
AcDbEntity
  8
ﾚｲﾔ1
  6
Continuous
100
AcDbLine
 10
3278.790360501431
 20
95.87504835818018
 30
0.0
 11
3278.865360501431
 21
95.6500483581801
 31
0.0
  0
LINE
  5
A14
330
1E
100
AcDbEntity
  8
ﾚｲﾔ1
  6
Continuous
100
AcDbLine
 10
3278.865360501431
 20
95.6500483581801
 30
0.0
 11
3278.940360501429
 21
95.42504835818008
 31
0.0
  0
LINE
  5
A15
330
1E
100
AcDbEntity
  8
ﾚｲﾔ1
  6
Continuous
100
AcDbLine
 10
3278.940360501429
 20
95.42504835818008
 30
0.0
 11
3278.940360501429
 21
95.20004835818006
 31
0.0
  0
LINE
  5
A16
330
1E
100
AcDbEntity
  8
ﾚｲﾔ1
  6
Continuous
100
AcDbLine
 10
3278.940360501429
 20
95.20004835818006
 30
0.0
 11
3279.01536050143
 21
94.9750483581802
 31
0.0
  0
LINE
  5
A17
330
1E
100
AcDbEntity
  8
ﾚｲﾔ1
  6
Continuous
100
AcDbLine
 10
3279.01536050143
 20
94.9750483581802
 30
0.0
 11
3279.01536050143
 21
94.75004835818018
 31
0.0
  0
LINE
  5
A18
330
1E
100
AcDbEntity
  8
ﾚｲﾔ1
  6
Continuous
100
AcDbLine
 10
3279.01536050143
 20
94.75004835818018
 30
0.0
 11
3279.09036050143
 21
94.45004835818006
 31
0.0
  0
LINE
  5
A19
330
1E
100
AcDbEntity
  8
ﾚｲﾔ1
  6
Continuous
100
AcDbLine
 10
3279.09036050143
 20
94.45004835818006
 30
0.0
 11
3279.09036050143
 21
94.2250483581802
 31
0.0
  0
LINE
  5
A1A
330
1E
100
AcDbEntity
  8
ﾚｲﾔ1
  6
Continuous
100
AcDbLine
 10
3279.09036050143
 20
94.2250483581802
 30
0.0
 11
3279.09036050143
 21
94.00004835818007
 31
0.0
  0
LINE
  5
A1B
330
1E
100
AcDbEntity
  8
ﾚｲﾔ1
  6
Continuous
100
AcDbLine
 10
3279.09036050143
 20
94.00004835818007
 30
0.0
 11
3279.09036050143
 21
93.7750483581801
 31
0.0
  0
LINE
  5
A1C
330
1E
100
AcDbEntity
  8
ﾚｲﾔ1
  6
Continuous
100
AcDbLine
 10
3271.590360501431
 20
1.375048358180067
 30
0.0
 11
3271.815360501429
 21
1.375048358180067
 31
0.0
  0
LINE
  5
A1D
330
1E
100
AcDbEntity
  8
ﾚｲﾔ1
  6
Continuous
100
AcDbLine
 10
3271.815360501429
 20
1.375048358180067
 30
0.0
 11
3272.040360501431
 21
1.375048358180067
 31
0.0
  0
LINE
  5
A1E
330
1E
100
AcDbEntity
  8
ﾚｲﾔ1
  6
Continuous
100
AcDbLine
 10
3272.040360501431
 20
1.375048358180067
 30
0.0
 11
3272.265360501431
 21
1.375048358180067
 31
0.0
  0
LINE
  5
A1F
330
1E
100
AcDbEntity
  8
ﾚｲﾔ1
  6
Continuous
100
AcDbLine
 10
3272.265360501431
 20
1.375048358180067
 30
0.0
 11
3272.565360501429
 21
1.450048358180084
 31
0.0
  0
LINE
  5
A20
330
1E
100
AcDbEntity
  8
ﾚｲﾔ1
  6
Continuous
100
AcDbLine
 10
3272.565360501429
 20
1.450048358180084
 30
0.0
 11
3272.790360501431
 21
1.450048358180084
 31
0.0
  0
LINE
  5
A21
330
1E
100
AcDbEntity
  8
ﾚｲﾔ1
  6
Continuous
100
AcDbLine
 10
3272.790360501431
 20
1.450048358180084
 30
0.0
 11
3273.015360501431
 21
1.525048358180072
 31
0.0
  0
LINE
  5
A22
330
1E
100
AcDbEntity
  8
ﾚｲﾔ1
  6
Continuous
100
AcDbLine
 10
3273.015360501431
 20
1.525048358180072
 30
0.0
 11
3273.240360501431
 21
1.525048358180072
 31
0.0
  0
LINE
  5
A23
330
1E
100
AcDbEntity
  8
ﾚｲﾔ1
  6
Continuous
100
AcDbLine
 10
3273.240360501431
 20
1.525048358180072
 30
0.0
 11
3273.465360501431
 21
1.600048358180089
 31
0.0
  0
LINE
  5
A24
330
1E
100
AcDbEntity
  8
ﾚｲﾔ1
  6
Continuous
100
AcDbLine
 10
3273.465360501431
 20
1.600048358180089
 30
0.0
 11
3273.690360501429
 21
1.675048358180078
 31
0.0
  0
LINE
  5
A25
330
1E
100
AcDbEntity
  8
ﾚｲﾔ1
  6
Continuous
100
AcDbLine
 10
3273.690360501429
 20
1.675048358180078
 30
0.0
 11
3273.915360501431
 21
1.750048358179981
 31
0.0
  0
LINE
  5
A26
330
1E
100
AcDbEntity
  8
ﾚｲﾔ1
  6
Continuous
100
AcDbLine
 10
3273.915360501431
 20
1.750048358179981
 30
0.0
 11
3274.140360501431
 21
1.825048358180084
 31
0.0
  0
LINE
  5
A27
330
1E
100
AcDbEntity
  8
ﾚｲﾔ1
  6
Continuous
100
AcDbLine
 10
3274.140360501431
 20
1.825048358180084
 30
0.0
 11
3274.365360501431
 21
1.900048358180072
 31
0.0
  0
LINE
  5
A28
330
1E
100
AcDbEntity
  8
ﾚｲﾔ1
  6
Continuous
100
AcDbLine
 10
3274.365360501431
 20
1.900048358180072
 30
0.0
 11
3274.590360501431
 21
1.975048358180089
 31
0.0
  0
LINE
  5
A29
330
1E
100
AcDbEntity
  8
ﾚｲﾔ1
  6
Continuous
100
AcDbLine
 10
3274.590360501431
 20
1.975048358180089
 30
0.0
 11
3274.815360501429
 21
2.125048358180067
 31
0.0
  0
LINE
  5
A2A
330
1E
100
AcDbEntity
  8
ﾚｲﾔ1
  6
Continuous
100
AcDbLine
 10
3274.815360501429
 20
2.125048358180067
 30
0.0
 11
3274.965360501431
 21
2.200048358180084
 31
0.0
  0
LINE
  5
A2B
330
1E
100
AcDbEntity
  8
ﾚｲﾔ1
  6
Continuous
100
AcDbLine
 10
3274.965360501431
 20
2.200048358180084
 30
0.0
 11
3275.190360501429
 21
2.275048358180072
 31
0.0
  0
LINE
  5
A2C
330
1E
100
AcDbEntity
  8
ﾚｲﾔ1
  6
Continuous
100
AcDbLine
 10
3275.190360501429
 20
2.275048358180072
 30
0.0
 11
3275.415360501431
 21
2.425048358180078
 31
0.0
  0
LINE
  5
A2D
330
1E
100
AcDbEntity
  8
ﾚｲﾔ1
  6
Continuous
100
AcDbLine
 10
3275.415360501431
 20
2.425048358180078
 30
0.0
 11
3275.640360501431
 21
2.575048358180084
 31
0.0
  0
LINE
  5
A2E
330
1E
100
AcDbEntity
  8
ﾚｲﾔ1
  6
Continuous
100
AcDbLine
 10
3275.640360501431
 20
2.575048358180084
 30
0.0
 11
3275.790360501431
 21
2.650048358180072
 31
0.0
  0
LINE
  5
A2F
330
1E
100
AcDbEntity
  8
ﾚｲﾔ1
  6
Continuous
100
AcDbLine
 10
3275.790360501431
 20
2.650048358180072
 30
0.0
 11
3276.015360501431
 21
2.800048358180078
 31
0.0
  0
LINE
  5
A30
330
1E
100
AcDbEntity
  8
ﾚｲﾔ1
  6
Continuous
100
AcDbLine
 10
3276.015360501431
 20
2.800048358180078
 30
0.0
 11
3276.165360501431
 21
2.950048358180084
 31
0.0
  0
LINE
  5
A31
330
1E
100
AcDbEntity
  8
ﾚｲﾔ1
  6
Continuous
100
AcDbLine
 10
3276.165360501431
 20
2.950048358180084
 30
0.0
 11
3276.390360501431
 21
3.100048358180089
 31
0.0
  0
LINE
  5
A32
330
1E
100
AcDbEntity
  8
ﾚｲﾔ1
  6
Continuous
100
AcDbLine
 10
3276.390360501431
 20
3.100048358180089
 30
0.0
 11
3276.540360501431
 21
3.250048358180067
 31
0.0
  0
LINE
  5
A33
330
1E
100
AcDbEntity
  8
ﾚｲﾔ1
  6
Continuous
100
AcDbLine
 10
3276.540360501431
 20
3.250048358180067
 30
0.0
 11
3276.690360501429
 21
3.400048358180072
 31
0.0
  0
LINE
  5
A34
330
1E
100
AcDbEntity
  8
ﾚｲﾔ1
  6
Continuous
100
AcDbLine
 10
3276.690360501429
 20
3.400048358180072
 30
0.0
 11
3276.915360501431
 21
3.550048358180078
 31
0.0
  0
LINE
  5
A35
330
1E
100
AcDbEntity
  8
ﾚｲﾔ1
  6
Continuous
100
AcDbLine
 10
3276.915360501431
 20
3.550048358180078
 30
0.0
 11
3277.065360501429
 21
3.775048358180072
 31
0.0
  0
LINE
  5
A36
330
1E
100
AcDbEntity
  8
ﾚｲﾔ1
  6
Continuous
100
AcDbLine
 10
3277.065360501429
 20
3.775048358180072
 30
0.0
 11
3277.215360501431
 21
3.925048358180078
 31
0.0
  0
LINE
  5
A37
330
1E
100
AcDbEntity
  8
ﾚｲﾔ1
  6
Continuous
100
AcDbLine
 10
3277.215360501431
 20
3.925048358180078
 30
0.0
 11
3277.365360501431
 21
4.075048358180084
 31
0.0
  0
LINE
  5
A38
330
1E
100
AcDbEntity
  8
ﾚｲﾔ1
  6
Continuous
100
AcDbLine
 10
3277.365360501431
 20
4.075048358180084
 30
0.0
 11
3277.51536050143
 21
4.300048358180078
 31
0.0
  0
LINE
  5
A39
330
1E
100
AcDbEntity
  8
ﾚｲﾔ1
  6
Continuous
100
AcDbLine
 10
3277.51536050143
 20
4.300048358180078
 30
0.0
 11
3277.665360501431
 21
4.450048358180084
 31
0.0
  0
LINE
  5
A3A
330
1E
100
AcDbEntity
  8
ﾚｲﾔ1
  6
Continuous
100
AcDbLine
 10
3277.665360501431
 20
4.450048358180084
 30
0.0
 11
3277.815360501429
 21
4.675048358180078
 31
0.0
  0
LINE
  5
A3B
330
1E
100
AcDbEntity
  8
ﾚｲﾔ1
  6
Continuous
100
AcDbLine
 10
3277.815360501429
 20
4.675048358180078
 30
0.0
 11
3277.89036050143
 21
4.825048358180084
 31
0.0
  0
LINE
  5
A3C
330
1E
100
AcDbEntity
  8
ﾚｲﾔ1
  6
Continuous
100
AcDbLine
 10
3277.89036050143
 20
4.825048358180084
 30
0.0
 11
3278.040360501431
 21
5.050048358180078
 31
0.0
  0
LINE
  5
A3D
330
1E
100
AcDbEntity
  8
ﾚｲﾔ1
  6
Continuous
100
AcDbLine
 10
3278.040360501431
 20
5.050048358180078
 30
0.0
 11
3278.190360501429
 21
5.275048358180072
 31
0.0
  0
LINE
  5
A3E
330
1E
100
AcDbEntity
  8
ﾚｲﾔ1
  6
Continuous
100
AcDbLine
 10
3278.190360501429
 20
5.275048358180072
 30
0.0
 11
3278.26536050143
 21
5.500048358180067
 31
0.0
  0
LINE
  5
A3F
330
1E
100
AcDbEntity
  8
ﾚｲﾔ1
  6
Continuous
100
AcDbLine
 10
3278.26536050143
 20
5.500048358180067
 30
0.0
 11
3278.34036050143
 21
5.650048358180072
 31
0.0
  0
LINE
  5
A40
330
1E
100
AcDbEntity
  8
ﾚｲﾔ1
  6
Continuous
100
AcDbLine
 10
3278.34036050143
 20
5.650048358180072
 30
0.0
 11
3278.490360501431
 21
5.875048358180067
 31
0.0
  0
LINE
  5
A41
330
1E
100
AcDbEntity
  8
ﾚｲﾔ1
  6
Continuous
100
AcDbLine
 10
3278.490360501431
 20
5.875048358180067
 30
0.0
 11
3278.565360501429
 21
6.100048358180089
 31
0.0
  0
LINE
  5
A42
330
1E
100
AcDbEntity
  8
ﾚｲﾔ1
  6
Continuous
100
AcDbLine
 10
3278.565360501429
 20
6.100048358180089
 30
0.0
 11
3278.64036050143
 21
6.325048358180084
 31
0.0
  0
LINE
  5
A43
330
1E
100
AcDbEntity
  8
ﾚｲﾔ1
  6
Continuous
100
AcDbLine
 10
3278.64036050143
 20
6.325048358180084
 30
0.0
 11
3278.71536050143
 21
6.550048358180078
 31
0.0
  0
LINE
  5
A44
330
1E
100
AcDbEntity
  8
ﾚｲﾔ1
  6
Continuous
100
AcDbLine
 10
3278.71536050143
 20
6.550048358180078
 30
0.0
 11
3278.790360501431
 21
6.775048358180072
 31
0.0
  0
LINE
  5
A45
330
1E
100
AcDbEntity
  8
ﾚｲﾔ1
  6
Continuous
100
AcDbLine
 10
3278.790360501431
 20
6.775048358180072
 30
0.0
 11
3278.865360501431
 21
7.000048358180067
 31
0.0
  0
LINE
  5
A46
330
1E
100
AcDbEntity
  8
ﾚｲﾔ1
  6
Continuous
100
AcDbLine
 10
3278.865360501431
 20
7.000048358180067
 30
0.0
 11
3278.940360501429
 21
7.225048358180089
 31
0.0
  0
LINE
  5
A47
330
1E
100
AcDbEntity
  8
ﾚｲﾔ1
  6
Continuous
100
AcDbLine
 10
3278.940360501429
 20
7.225048358180089
 30
0.0
 11
3278.940360501429
 21
7.450048358180084
 31
0.0
  0
LINE
  5
A48
330
1E
100
AcDbEntity
  8
ﾚｲﾔ1
  6
Continuous
100
AcDbLine
 10
3278.940360501429
 20
7.450048358180084
 30
0.0
 11
3279.01536050143
 21
7.675048358180078
 31
0.0
  0
LINE
  5
A49
330
1E
100
AcDbEntity
  8
ﾚｲﾔ1
  6
Continuous
100
AcDbLine
 10
3279.01536050143
 20
7.675048358180078
 30
0.0
 11
3279.01536050143
 21
7.900048358180072
 31
0.0
  0
LINE
  5
A4A
330
1E
100
AcDbEntity
  8
ﾚｲﾔ1
  6
Continuous
100
AcDbLine
 10
3279.01536050143
 20
7.900048358180072
 30
0.0
 11
3279.09036050143
 21
8.200048358180084
 31
0.0
  0
LINE
  5
A4B
330
1E
100
AcDbEntity
  8
ﾚｲﾔ1
  6
Continuous
100
AcDbLine
 10
3279.09036050143
 20
8.200048358180084
 30
0.0
 11
3279.09036050143
 21
8.425048358180078
 31
0.0
  0
LINE
  5
A4C
330
1E
100
AcDbEntity
  8
ﾚｲﾔ1
  6
Continuous
100
AcDbLine
 10
3279.09036050143
 20
8.425048358180078
 30
0.0
 11
3279.09036050143
 21
8.650048358180072
 31
0.0
  0
LINE
  5
A4D
330
1E
100
AcDbEntity
  8
ﾚｲﾔ1
  6
Continuous
100
AcDbLine
 10
3279.09036050143
 20
8.650048358180072
 30
0.0
 11
3279.09036050143
 21
8.875048358180067
 31
0.0
  0
LINE
  5
A4E
330
1E
100
AcDbEntity
  8
ﾚｲﾔ1
  6
Continuous
100
AcDbLine
 10
3271.590360501431
 20
1.375048358180067
 30
0.0
 11
3271.365360501431
 21
1.375048358180067
 31
0.0
  0
LINE
  5
A4F
330
1E
100
AcDbEntity
  8
ﾚｲﾔ1
  6
Continuous
100
AcDbLine
 10
3271.365360501431
 20
1.375048358180067
 30
0.0
 11
3271.140360501431
 21
1.375048358180067
 31
0.0
  0
LINE
  5
A50
330
1E
100
AcDbEntity
  8
ﾚｲﾔ1
  6
Continuous
100
AcDbLine
 10
3271.140360501431
 20
1.375048358180067
 30
0.0
 11
3270.915360501431
 21
1.375048358180067
 31
0.0
  0
LINE
  5
A51
330
1E
100
AcDbEntity
  8
ﾚｲﾔ1
  6
Continuous
100
AcDbLine
 10
3270.915360501431
 20
1.375048358180067
 30
0.0
 11
3270.615360501431
 21
1.450048358180084
 31
0.0
  0
LINE
  5
A52
330
1E
100
AcDbEntity
  8
ﾚｲﾔ1
  6
Continuous
100
AcDbLine
 10
3270.615360501431
 20
1.450048358180084
 30
0.0
 11
3270.39036050143
 21
1.450048358180084
 31
0.0
  0
LINE
  5
A53
330
1E
100
AcDbEntity
  8
ﾚｲﾔ1
  6
Continuous
100
AcDbLine
 10
3270.39036050143
 20
1.450048358180084
 30
0.0
 11
3270.16536050143
 21
1.525048358180072
 31
0.0
  0
LINE
  5
A54
330
1E
100
AcDbEntity
  8
ﾚｲﾔ1
  6
Continuous
100
AcDbLine
 10
3270.16536050143
 20
1.525048358180072
 30
0.0
 11
3269.940360501429
 21
1.525048358180072
 31
0.0
  0
LINE
  5
A55
330
1E
100
AcDbEntity
  8
ﾚｲﾔ1
  6
Continuous
100
AcDbLine
 10
3269.940360501429
 20
1.525048358180072
 30
0.0
 11
3269.71536050143
 21
1.600048358180089
 31
0.0
  0
LINE
  5
A56
330
1E
100
AcDbEntity
  8
ﾚｲﾔ1
  6
Continuous
100
AcDbLine
 10
3269.71536050143
 20
1.600048358180089
 30
0.0
 11
3269.490360501431
 21
1.675048358180078
 31
0.0
  0
LINE
  5
A57
330
1E
100
AcDbEntity
  8
ﾚｲﾔ1
  6
Continuous
100
AcDbLine
 10
3269.490360501431
 20
1.675048358180078
 30
0.0
 11
3269.26536050143
 21
1.750048358179981
 31
0.0
  0
LINE
  5
A58
330
1E
100
AcDbEntity
  8
ﾚｲﾔ1
  6
Continuous
100
AcDbLine
 10
3269.26536050143
 20
1.750048358179981
 30
0.0
 11
3269.040360501431
 21
1.825048358180084
 31
0.0
  0
LINE
  5
A59
330
1E
100
AcDbEntity
  8
ﾚｲﾔ1
  6
Continuous
100
AcDbLine
 10
3269.040360501431
 20
1.825048358180084
 30
0.0
 11
3268.815360501429
 21
1.900048358180072
 31
0.0
  0
LINE
  5
A5A
330
1E
100
AcDbEntity
  8
ﾚｲﾔ1
  6
Continuous
100
AcDbLine
 10
3268.815360501429
 20
1.900048358180072
 30
0.0
 11
3268.59036050143
 21
1.975048358180089
 31
0.0
  0
LINE
  5
A5B
330
1E
100
AcDbEntity
  8
ﾚｲﾔ1
  6
Continuous
100
AcDbLine
 10
3268.59036050143
 20
1.975048358180089
 30
0.0
 11
3268.365360501431
 21
2.125048358180067
 31
0.0
  0
LINE
  5
A5C
330
1E
100
AcDbEntity
  8
ﾚｲﾔ1
  6
Continuous
100
AcDbLine
 10
3268.365360501431
 20
2.125048358180067
 30
0.0
 11
3268.215360501431
 21
2.200048358180084
 31
0.0
  0
LINE
  5
A5D
330
1E
100
AcDbEntity
  8
ﾚｲﾔ1
  6
Continuous
100
AcDbLine
 10
3268.215360501431
 20
2.200048358180084
 30
0.0
 11
3267.990360501431
 21
2.275048358180072
 31
0.0
  0
LINE
  5
A5E
330
1E
100
AcDbEntity
  8
ﾚｲﾔ1
  6
Continuous
100
AcDbLine
 10
3267.990360501431
 20
2.275048358180072
 30
0.0
 11
3267.76536050143
 21
2.425048358180078
 31
0.0
  0
LINE
  5
A5F
330
1E
100
AcDbEntity
  8
ﾚｲﾔ1
  6
Continuous
100
AcDbLine
 10
3267.76536050143
 20
2.425048358180078
 30
0.0
 11
3267.540360501431
 21
2.575048358180084
 31
0.0
  0
LINE
  5
A60
330
1E
100
AcDbEntity
  8
ﾚｲﾔ1
  6
Continuous
100
AcDbLine
 10
3267.540360501431
 20
2.575048358180084
 30
0.0
 11
3267.39036050143
 21
2.650048358180072
 31
0.0
  0
LINE
  5
A61
330
1E
100
AcDbEntity
  8
ﾚｲﾔ1
  6
Continuous
100
AcDbLine
 10
3267.39036050143
 20
2.650048358180072
 30
0.0
 11
3267.165360501431
 21
2.800048358180078
 31
0.0
  0
LINE
  5
A62
330
1E
100
AcDbEntity
  8
ﾚｲﾔ1
  6
Continuous
100
AcDbLine
 10
3267.165360501431
 20
2.800048358180078
 30
0.0
 11
3267.015360501431
 21
2.950048358180084
 31
0.0
  0
LINE
  5
A63
330
1E
100
AcDbEntity
  8
ﾚｲﾔ1
  6
Continuous
100
AcDbLine
 10
3267.015360501431
 20
2.950048358180084
 30
0.0
 11
3266.790360501431
 21
3.100048358180089
 31
0.0
  0
LINE
  5
A64
330
1E
100
AcDbEntity
  8
ﾚｲﾔ1
  6
Continuous
100
AcDbLine
 10
3266.790360501431
 20
3.100048358180089
 30
0.0
 11
3266.640360501431
 21
3.250048358180067
 31
0.0
  0
LINE
  5
A65
330
1E
100
AcDbEntity
  8
ﾚｲﾔ1
  6
Continuous
100
AcDbLine
 10
3266.640360501431
 20
3.250048358180067
 30
0.0
 11
3266.490360501431
 21
3.400048358180072
 31
0.0
  0
LINE
  5
A66
330
1E
100
AcDbEntity
  8
ﾚｲﾔ1
  6
Continuous
100
AcDbLine
 10
3266.490360501431
 20
3.400048358180072
 30
0.0
 11
3266.265360501431
 21
3.550048358180078
 31
0.0
  0
LINE
  5
A67
330
1E
100
AcDbEntity
  8
ﾚｲﾔ1
  6
Continuous
100
AcDbLine
 10
3266.265360501431
 20
3.550048358180078
 30
0.0
 11
3266.115360501431
 21
3.775048358180072
 31
0.0
  0
LINE
  5
A68
330
1E
100
AcDbEntity
  8
ﾚｲﾔ1
  6
Continuous
100
AcDbLine
 10
3266.115360501431
 20
3.775048358180072
 30
0.0
 11
3265.965360501431
 21
3.925048358180078
 31
0.0
  0
LINE
  5
A69
330
1E
100
AcDbEntity
  8
ﾚｲﾔ1
  6
Continuous
100
AcDbLine
 10
3265.965360501431
 20
3.925048358180078
 30
0.0
 11
3265.815360501431
 21
4.075048358180084
 31
0.0
  0
LINE
  5
A6A
330
1E
100
AcDbEntity
  8
ﾚｲﾔ1
  6
Continuous
100
AcDbLine
 10
3265.815360501431
 20
4.075048358180084
 30
0.0
 11
3265.66536050143
 21
4.300048358180078
 31
0.0
  0
LINE
  5
A6B
330
1E
100
AcDbEntity
  8
ﾚｲﾔ1
  6
Continuous
100
AcDbLine
 10
3265.66536050143
 20
4.300048358180078
 30
0.0
 11
3265.515360501431
 21
4.450048358180084
 31
0.0
  0
LINE
  5
A6C
330
1E
100
AcDbEntity
  8
ﾚｲﾔ1
  6
Continuous
100
AcDbLine
 10
3265.515360501431
 20
4.450048358180084
 30
0.0
 11
3265.365360501431
 21
4.675048358180078
 31
0.0
  0
LINE
  5
A6D
330
1E
100
AcDbEntity
  8
ﾚｲﾔ1
  6
Continuous
100
AcDbLine
 10
3265.365360501431
 20
4.675048358180078
 30
0.0
 11
3265.29036050143
 21
4.825048358180084
 31
0.0
  0
LINE
  5
A6E
330
1E
100
AcDbEntity
  8
ﾚｲﾔ1
  6
Continuous
100
AcDbLine
 10
3265.29036050143
 20
4.825048358180084
 30
0.0
 11
3265.140360501431
 21
5.050048358180078
 31
0.0
  0
LINE
  5
A6F
330
1E
100
AcDbEntity
  8
ﾚｲﾔ1
  6
Continuous
100
AcDbLine
 10
3265.140360501431
 20
5.050048358180078
 30
0.0
 11
3264.990360501431
 21
5.275048358180072
 31
0.0
  0
LINE
  5
A70
330
1E
100
AcDbEntity
  8
ﾚｲﾔ1
  6
Continuous
100
AcDbLine
 10
3264.990360501431
 20
5.275048358180072
 30
0.0
 11
3264.91536050143
 21
5.500048358180067
 31
0.0
  0
LINE
  5
A71
330
1E
100
AcDbEntity
  8
ﾚｲﾔ1
  6
Continuous
100
AcDbLine
 10
3264.91536050143
 20
5.500048358180067
 30
0.0
 11
3264.840360501431
 21
5.650048358180072
 31
0.0
  0
LINE
  5
A72
330
1E
100
AcDbEntity
  8
ﾚｲﾔ1
  6
Continuous
100
AcDbLine
 10
3264.840360501431
 20
5.650048358180072
 30
0.0
 11
3264.690360501431
 21
5.875048358180067
 31
0.0
  0
LINE
  5
A73
330
1E
100
AcDbEntity
  8
ﾚｲﾔ1
  6
Continuous
100
AcDbLine
 10
3264.690360501431
 20
5.875048358180067
 30
0.0
 11
3264.615360501431
 21
6.100048358180089
 31
0.0
  0
LINE
  5
A74
330
1E
100
AcDbEntity
  8
ﾚｲﾔ1
  6
Continuous
100
AcDbLine
 10
3264.615360501431
 20
6.100048358180089
 30
0.0
 11
3264.54036050143
 21
6.325048358180084
 31
0.0
  0
LINE
  5
A75
330
1E
100
AcDbEntity
  8
ﾚｲﾔ1
  6
Continuous
100
AcDbLine
 10
3264.54036050143
 20
6.325048358180084
 30
0.0
 11
3264.465360501431
 21
6.550048358180078
 31
0.0
  0
LINE
  5
A76
330
1E
100
AcDbEntity
  8
ﾚｲﾔ1
  6
Continuous
100
AcDbLine
 10
3264.465360501431
 20
6.550048358180078
 30
0.0
 11
3264.390360501431
 21
6.775048358180072
 31
0.0
  0
LINE
  5
A77
330
1E
100
AcDbEntity
  8
ﾚｲﾔ1
  6
Continuous
100
AcDbLine
 10
3264.390360501431
 20
6.775048358180072
 30
0.0
 11
3264.315360501431
 21
7.000048358180067
 31
0.0
  0
LINE
  5
A78
330
1E
100
AcDbEntity
  8
ﾚｲﾔ1
  6
Continuous
100
AcDbLine
 10
3264.315360501431
 20
7.000048358180067
 30
0.0
 11
3264.240360501431
 21
7.225048358180089
 31
0.0
  0
LINE
  5
A79
330
1E
100
AcDbEntity
  8
ﾚｲﾔ1
  6
Continuous
100
AcDbLine
 10
3264.240360501431
 20
7.225048358180089
 30
0.0
 11
3264.240360501431
 21
7.450048358180084
 31
0.0
  0
LINE
  5
A7A
330
1E
100
AcDbEntity
  8
ﾚｲﾔ1
  6
Continuous
100
AcDbLine
 10
3264.240360501431
 20
7.450048358180084
 30
0.0
 11
3264.16536050143
 21
7.675048358180078
 31
0.0
  0
LINE
  5
A7B
330
1E
100
AcDbEntity
  8
ﾚｲﾔ1
  6
Continuous
100
AcDbLine
 10
3264.16536050143
 20
7.675048358180078
 30
0.0
 11
3264.16536050143
 21
7.900048358180072
 31
0.0
  0
LINE
  5
A7C
330
1E
100
AcDbEntity
  8
ﾚｲﾔ1
  6
Continuous
100
AcDbLine
 10
3264.16536050143
 20
7.900048358180072
 30
0.0
 11
3264.090360501431
 21
8.200048358180084
 31
0.0
  0
LINE
  5
A7D
330
1E
100
AcDbEntity
  8
ﾚｲﾔ1
  6
Continuous
100
AcDbLine
 10
3264.090360501431
 20
8.200048358180084
 30
0.0
 11
3264.090360501431
 21
8.425048358180078
 31
0.0
  0
LINE
  5
A7E
330
1E
100
AcDbEntity
  8
ﾚｲﾔ1
  6
Continuous
100
AcDbLine
 10
3264.090360501431
 20
8.425048358180078
 30
0.0
 11
3264.090360501431
 21
8.650048358180072
 31
0.0
  0
LINE
  5
A7F
330
1E
100
AcDbEntity
  8
ﾚｲﾔ1
  6
Continuous
100
AcDbLine
 10
3264.090360501431
 20
8.650048358180072
 30
0.0
 11
3264.090360501431
 21
8.875048358180067
 31
0.0
  0
LINE
  5
A80
330
1E
100
AcDbEntity
  8
ﾚｲﾔ1
  6
Continuous
100
AcDbLine
 10
3243.439455025416
 20
59.27504835818007
 30
0.0
 11
3291.61536050143
 21
59.27504835818007
 31
0.0
  0
LINE
  5
A81
330
1E
100
AcDbEntity
  8
ﾚｲﾔ1
  6
Continuous
100
AcDbLine
 10
3291.61536050143
 20
59.27504835818007
 30
0.0
 11
3291.61536050143
 21
43.22504835818017
 31
0.0
  0
LINE
  5
A82
330
1E
100
AcDbEntity
  8
ﾚｲﾔ1
  6
Continuous
100
AcDbLine
 10
3291.61536050143
 20
43.22504835818017
 30
0.0
 11
3243.430842649206
 21
43.22504835818017
 31
0.0
  0
LINE
  5
A83
330
1E
100
AcDbEntity
  8
ﾚｲﾔ1
  6
Continuous
100
AcDbLine
 10
2935.740360501431
 20
101.2750483581802
 30
0.0
 11
2935.965360501431
 21
101.2750483581802
 31
0.0
  0
LINE
  5
A84
330
1E
100
AcDbEntity
  8
ﾚｲﾔ1
  6
Continuous
100
AcDbLine
 10
2935.965360501431
 20
101.2750483581802
 30
0.0
 11
2936.190360501429
 21
101.2750483581802
 31
0.0
  0
LINE
  5
A85
330
1E
100
AcDbEntity
  8
ﾚｲﾔ1
  6
Continuous
100
AcDbLine
 10
2936.190360501429
 20
101.2750483581802
 30
0.0
 11
2936.41536050143
 21
101.2750483581802
 31
0.0
  0
LINE
  5
A86
330
1E
100
AcDbEntity
  8
ﾚｲﾔ1
  6
Continuous
100
AcDbLine
 10
2936.41536050143
 20
101.2750483581802
 30
0.0
 11
2936.715360501431
 21
101.2000483581801
 31
0.0
  0
LINE
  5
A87
330
1E
100
AcDbEntity
  8
ﾚｲﾔ1
  6
Continuous
100
AcDbLine
 10
2936.715360501431
 20
101.2000483581801
 30
0.0
 11
2936.940360501429
 21
101.2000483581801
 31
0.0
  0
LINE
  5
A88
330
1E
100
AcDbEntity
  8
ﾚｲﾔ1
  6
Continuous
100
AcDbLine
 10
2936.940360501429
 20
101.2000483581801
 30
0.0
 11
2937.16536050143
 21
101.1250483581801
 31
0.0
  0
LINE
  5
A89
330
1E
100
AcDbEntity
  8
ﾚｲﾔ1
  6
Continuous
100
AcDbLine
 10
2937.16536050143
 20
101.1250483581801
 30
0.0
 11
2937.39036050143
 21
101.1250483581801
 31
0.0
  0
LINE
  5
A8A
330
1E
100
AcDbEntity
  8
ﾚｲﾔ1
  6
Continuous
100
AcDbLine
 10
2937.39036050143
 20
101.1250483581801
 30
0.0
 11
2937.615360501431
 21
101.0500483581802
 31
0.0
  0
LINE
  5
A8B
330
1E
100
AcDbEntity
  8
ﾚｲﾔ1
  6
Continuous
100
AcDbLine
 10
2937.615360501431
 20
101.0500483581802
 30
0.0
 11
2937.84036050143
 21
100.9750483581801
 31
0.0
  0
LINE
  5
A8C
330
1E
100
AcDbEntity
  8
ﾚｲﾔ1
  6
Continuous
100
AcDbLine
 10
2937.84036050143
 20
100.9750483581801
 30
0.0
 11
2938.065360501429
 21
100.9000483581802
 31
0.0
  0
LINE
  5
A8D
330
1E
100
AcDbEntity
  8
ﾚｲﾔ1
  6
Continuous
100
AcDbLine
 10
2938.065360501429
 20
100.9000483581802
 30
0.0
 11
2938.290360501431
 21
100.8250483581801
 31
0.0
  0
LINE
  5
A8E
330
1E
100
AcDbEntity
  8
ﾚｲﾔ1
  6
Continuous
100
AcDbLine
 10
2938.290360501431
 20
100.8250483581801
 30
0.0
 11
2938.515360501431
 21
100.7500483581802
 31
0.0
  0
LINE
  5
A8F
330
1E
100
AcDbEntity
  8
ﾚｲﾔ1
  6
Continuous
100
AcDbLine
 10
2938.515360501431
 20
100.7500483581802
 30
0.0
 11
2938.740360501431
 21
100.6750483581802
 31
0.0
  0
LINE
  5
A90
330
1E
100
AcDbEntity
  8
ﾚｲﾔ1
  6
Continuous
100
AcDbLine
 10
2938.740360501431
 20
100.6750483581802
 30
0.0
 11
2938.965360501431
 21
100.5250483581802
 31
0.0
  0
LINE
  5
A91
330
1E
100
AcDbEntity
  8
ﾚｲﾔ1
  6
Continuous
100
AcDbLine
 10
2938.965360501431
 20
100.5250483581802
 30
0.0
 11
2939.115360501431
 21
100.4500483581802
 31
0.0
  0
LINE
  5
A92
330
1E
100
AcDbEntity
  8
ﾚｲﾔ1
  6
Continuous
100
AcDbLine
 10
2939.115360501431
 20
100.4500483581802
 30
0.0
 11
2939.340360501431
 21
100.3750483581802
 31
0.0
  0
LINE
  5
A93
330
1E
100
AcDbEntity
  8
ﾚｲﾔ1
  6
Continuous
100
AcDbLine
 10
2939.340360501431
 20
100.3750483581802
 30
0.0
 11
2939.565360501429
 21
100.2250483581801
 31
0.0
  0
LINE
  5
A94
330
1E
100
AcDbEntity
  8
ﾚｲﾔ1
  6
Continuous
100
AcDbLine
 10
2939.565360501429
 20
100.2250483581801
 30
0.0
 11
2939.790360501431
 21
100.0750483581801
 31
0.0
  0
LINE
  5
A95
330
1E
100
AcDbEntity
  8
ﾚｲﾔ1
  6
Continuous
100
AcDbLine
 10
2939.790360501431
 20
100.0750483581801
 30
0.0
 11
2939.940360501429
 21
100.0000483581801
 31
0.0
  0
LINE
  5
A96
330
1E
100
AcDbEntity
  8
ﾚｲﾔ1
  6
Continuous
100
AcDbLine
 10
2939.940360501429
 20
100.0000483581801
 30
0.0
 11
2940.165360501431
 21
99.85004835818009
 31
0.0
  0
LINE
  5
A97
330
1E
100
AcDbEntity
  8
ﾚｲﾔ1
  6
Continuous
100
AcDbLine
 10
2940.165360501431
 20
99.85004835818009
 30
0.0
 11
2940.315360501429
 21
99.70004835818006
 31
0.0
  0
LINE
  5
A98
330
1E
100
AcDbEntity
  8
ﾚｲﾔ1
  6
Continuous
100
AcDbLine
 10
2940.315360501429
 20
99.70004835818006
 30
0.0
 11
2940.540360501431
 21
99.55004835818019
 31
0.0
  0
LINE
  5
A99
330
1E
100
AcDbEntity
  8
ﾚｲﾔ1
  6
Continuous
100
AcDbLine
 10
2940.540360501431
 20
99.55004835818019
 30
0.0
 11
2940.690360501429
 21
99.40004835818016
 31
0.0
  0
LINE
  5
A9A
330
1E
100
AcDbEntity
  8
ﾚｲﾔ1
  6
Continuous
100
AcDbLine
 10
2940.690360501429
 20
99.40004835818016
 30
0.0
 11
2940.840360501431
 21
99.25004835818018
 31
0.0
  0
LINE
  5
A9B
330
1E
100
AcDbEntity
  8
ﾚｲﾔ1
  6
Continuous
100
AcDbLine
 10
2940.840360501431
 20
99.25004835818018
 30
0.0
 11
2941.065360501429
 21
99.10004835818009
 31
0.0
  0
LINE
  5
A9C
330
1E
100
AcDbEntity
  8
ﾚｲﾔ1
  6
Continuous
100
AcDbLine
 10
2941.065360501429
 20
99.10004835818009
 30
0.0
 11
2941.215360501431
 21
98.87504835818007
 31
0.0
  0
LINE
  5
A9D
330
1E
100
AcDbEntity
  8
ﾚｲﾔ1
  6
Continuous
100
AcDbLine
 10
2941.215360501431
 20
98.87504835818007
 30
0.0
 11
2941.36536050143
 21
98.72504835818009
 31
0.0
  0
LINE
  5
A9E
330
1E
100
AcDbEntity
  8
ﾚｲﾔ1
  6
Continuous
100
AcDbLine
 10
2941.36536050143
 20
98.72504835818009
 30
0.0
 11
2941.51536050143
 21
98.57504835818006
 31
0.0
  0
LINE
  5
A9F
330
1E
100
AcDbEntity
  8
ﾚｲﾔ1
  6
Continuous
100
AcDbLine
 10
2941.51536050143
 20
98.57504835818006
 30
0.0
 11
2941.665360501431
 21
98.35004835818009
 31
0.0
  0
LINE
  5
AA0
330
1E
100
AcDbEntity
  8
ﾚｲﾔ1
  6
Continuous
100
AcDbLine
 10
2941.665360501431
 20
98.35004835818009
 30
0.0
 11
2941.815360501429
 21
98.20004835818006
 31
0.0
  0
LINE
  5
AA1
330
1E
100
AcDbEntity
  8
ﾚｲﾔ1
  6
Continuous
100
AcDbLine
 10
2941.815360501429
 20
98.20004835818006
 30
0.0
 11
2941.965360501431
 21
97.97504835818009
 31
0.0
  0
LINE
  5
AA2
330
1E
100
AcDbEntity
  8
ﾚｲﾔ1
  6
Continuous
100
AcDbLine
 10
2941.965360501431
 20
97.97504835818009
 30
0.0
 11
2942.040360501431
 21
97.82504835818006
 31
0.0
  0
LINE
  5
AA3
330
1E
100
AcDbEntity
  8
ﾚｲﾔ1
  6
Continuous
100
AcDbLine
 10
2942.040360501431
 20
97.82504835818006
 30
0.0
 11
2942.190360501429
 21
97.60004835818009
 31
0.0
  0
LINE
  5
AA4
330
1E
100
AcDbEntity
  8
ﾚｲﾔ1
  6
Continuous
100
AcDbLine
 10
2942.190360501429
 20
97.60004835818009
 30
0.0
 11
2942.34036050143
 21
97.37504835818007
 31
0.0
  0
LINE
  5
AA5
330
1E
100
AcDbEntity
  8
ﾚｲﾔ1
  6
Continuous
100
AcDbLine
 10
2942.34036050143
 20
97.37504835818007
 30
0.0
 11
2942.415360501431
 21
97.15004835818027
 31
0.0
  0
LINE
  5
AA6
330
1E
100
AcDbEntity
  8
ﾚｲﾔ1
  6
Continuous
100
AcDbLine
 10
2942.415360501431
 20
97.15004835818027
 30
0.0
 11
2942.49036050143
 21
97.00004835818018
 31
0.0
  0
LINE
  5
AA7
330
1E
100
AcDbEntity
  8
ﾚｲﾔ1
  6
Continuous
100
AcDbLine
 10
2942.49036050143
 20
97.00004835818018
 30
0.0
 11
2942.64036050143
 21
96.7750483581801
 31
0.0
  0
LINE
  5
AA8
330
1E
100
AcDbEntity
  8
ﾚｲﾔ1
  6
Continuous
100
AcDbLine
 10
2942.64036050143
 20
96.7750483581801
 30
0.0
 11
2942.715360501431
 21
96.55004835818008
 31
0.0
  0
LINE
  5
AA9
330
1E
100
AcDbEntity
  8
ﾚｲﾔ1
  6
Continuous
100
AcDbLine
 10
2942.715360501431
 20
96.55004835818008
 30
0.0
 11
2942.790360501431
 21
96.32504835818006
 31
0.0
  0
LINE
  5
AAA
330
1E
100
AcDbEntity
  8
ﾚｲﾔ1
  6
Continuous
100
AcDbLine
 10
2942.790360501431
 20
96.32504835818006
 30
0.0
 11
2942.865360501431
 21
96.1000483581802
 31
0.0
  0
LINE
  5
AAB
330
1E
100
AcDbEntity
  8
ﾚｲﾔ1
  6
Continuous
100
AcDbLine
 10
2942.865360501431
 20
96.1000483581802
 30
0.0
 11
2942.940360501429
 21
95.87504835818018
 31
0.0
  0
LINE
  5
AAC
330
1E
100
AcDbEntity
  8
ﾚｲﾔ1
  6
Continuous
100
AcDbLine
 10
2942.940360501429
 20
95.87504835818018
 30
0.0
 11
2943.01536050143
 21
95.6500483581801
 31
0.0
  0
LINE
  5
AAD
330
1E
100
AcDbEntity
  8
ﾚｲﾔ1
  6
Continuous
100
AcDbLine
 10
2943.01536050143
 20
95.6500483581801
 30
0.0
 11
2943.090360501431
 21
95.42504835818008
 31
0.0
  0
LINE
  5
AAE
330
1E
100
AcDbEntity
  8
ﾚｲﾔ1
  6
Continuous
100
AcDbLine
 10
2943.090360501431
 20
95.42504835818008
 30
0.0
 11
2943.090360501431
 21
95.20004835818006
 31
0.0
  0
LINE
  5
AAF
330
1E
100
AcDbEntity
  8
ﾚｲﾔ1
  6
Continuous
100
AcDbLine
 10
2943.090360501431
 20
95.20004835818006
 30
0.0
 11
2943.165360501431
 21
94.9750483581802
 31
0.0
  0
LINE
  5
AB0
330
1E
100
AcDbEntity
  8
ﾚｲﾔ1
  6
Continuous
100
AcDbLine
 10
2943.165360501431
 20
94.9750483581802
 30
0.0
 11
2943.165360501431
 21
94.75004835818018
 31
0.0
  0
LINE
  5
AB1
330
1E
100
AcDbEntity
  8
ﾚｲﾔ1
  6
Continuous
100
AcDbLine
 10
2943.165360501431
 20
94.75004835818018
 30
0.0
 11
2943.240360501431
 21
94.45004835818006
 31
0.0
  0
LINE
  5
AB2
330
1E
100
AcDbEntity
  8
ﾚｲﾔ1
  6
Continuous
100
AcDbLine
 10
2943.240360501431
 20
94.45004835818006
 30
0.0
 11
2943.240360501431
 21
94.2250483581802
 31
0.0
  0
LINE
  5
AB3
330
1E
100
AcDbEntity
  8
ﾚｲﾔ1
  6
Continuous
100
AcDbLine
 10
2943.240360501431
 20
94.2250483581802
 30
0.0
 11
2943.240360501431
 21
94.00004835818007
 31
0.0
  0
LINE
  5
AB4
330
1E
100
AcDbEntity
  8
ﾚｲﾔ1
  6
Continuous
100
AcDbLine
 10
2943.240360501431
 20
94.00004835818007
 30
0.0
 11
2943.240360501431
 21
93.7750483581801
 31
0.0
  0
LINE
  5
AB5
330
1E
100
AcDbEntity
  8
ﾚｲﾔ1
  6
Continuous
100
AcDbLine
 10
2935.740360501431
 20
101.2750483581802
 30
0.0
 11
2935.515360501431
 21
101.2750483581802
 31
0.0
  0
LINE
  5
AB6
330
1E
100
AcDbEntity
  8
ﾚｲﾔ1
  6
Continuous
100
AcDbLine
 10
2935.515360501431
 20
101.2750483581802
 30
0.0
 11
2935.29036050143
 21
101.2750483581802
 31
0.0
  0
LINE
  5
AB7
330
1E
100
AcDbEntity
  8
ﾚｲﾔ1
  6
Continuous
100
AcDbLine
 10
2935.29036050143
 20
101.2750483581802
 30
0.0
 11
2935.065360501431
 21
101.2750483581802
 31
0.0
  0
LINE
  5
AB8
330
1E
100
AcDbEntity
  8
ﾚｲﾔ1
  6
Continuous
100
AcDbLine
 10
2935.065360501431
 20
101.2750483581802
 30
0.0
 11
2934.765360501431
 21
101.2000483581801
 31
0.0
  0
LINE
  5
AB9
330
1E
100
AcDbEntity
  8
ﾚｲﾔ1
  6
Continuous
100
AcDbLine
 10
2934.765360501431
 20
101.2000483581801
 30
0.0
 11
2934.54036050143
 21
101.2000483581801
 31
0.0
  0
LINE
  5
ABA
330
1E
100
AcDbEntity
  8
ﾚｲﾔ1
  6
Continuous
100
AcDbLine
 10
2934.54036050143
 20
101.2000483581801
 30
0.0
 11
2934.315360501431
 21
101.1250483581801
 31
0.0
  0
LINE
  5
ABB
330
1E
100
AcDbEntity
  8
ﾚｲﾔ1
  6
Continuous
100
AcDbLine
 10
2934.315360501431
 20
101.1250483581801
 30
0.0
 11
2934.090360501431
 21
101.1250483581801
 31
0.0
  0
LINE
  5
ABC
330
1E
100
AcDbEntity
  8
ﾚｲﾔ1
  6
Continuous
100
AcDbLine
 10
2934.090360501431
 20
101.1250483581801
 30
0.0
 11
2933.865360501431
 21
101.0500483581802
 31
0.0
  0
LINE
  5
ABD
330
1E
100
AcDbEntity
  8
ﾚｲﾔ1
  6
Continuous
100
AcDbLine
 10
2933.865360501431
 20
101.0500483581802
 30
0.0
 11
2933.640360501431
 21
100.9750483581801
 31
0.0
  0
LINE
  5
ABE
330
1E
100
AcDbEntity
  8
ﾚｲﾔ1
  6
Continuous
100
AcDbLine
 10
2933.640360501431
 20
100.9750483581801
 30
0.0
 11
2933.415360501431
 21
100.9000483581802
 31
0.0
  0
LINE
  5
ABF
330
1E
100
AcDbEntity
  8
ﾚｲﾔ1
  6
Continuous
100
AcDbLine
 10
2933.415360501431
 20
100.9000483581802
 30
0.0
 11
2933.190360501429
 21
100.8250483581801
 31
0.0
  0
LINE
  5
AC0
330
1E
100
AcDbEntity
  8
ﾚｲﾔ1
  6
Continuous
100
AcDbLine
 10
2933.190360501429
 20
100.8250483581801
 30
0.0
 11
2932.96536050143
 21
100.7500483581802
 31
0.0
  0
LINE
  5
AC1
330
1E
100
AcDbEntity
  8
ﾚｲﾔ1
  6
Continuous
100
AcDbLine
 10
2932.96536050143
 20
100.7500483581802
 30
0.0
 11
2932.740360501431
 21
100.6750483581802
 31
0.0
  0
LINE
  5
AC2
330
1E
100
AcDbEntity
  8
ﾚｲﾔ1
  6
Continuous
100
AcDbLine
 10
2932.740360501431
 20
100.6750483581802
 30
0.0
 11
2932.51536050143
 21
100.5250483581802
 31
0.0
  0
LINE
  5
AC3
330
1E
100
AcDbEntity
  8
ﾚｲﾔ1
  6
Continuous
100
AcDbLine
 10
2932.51536050143
 20
100.5250483581802
 30
0.0
 11
2932.365360501431
 21
100.4500483581802
 31
0.0
  0
LINE
  5
AC4
330
1E
100
AcDbEntity
  8
ﾚｲﾔ1
  6
Continuous
100
AcDbLine
 10
2932.365360501431
 20
100.4500483581802
 30
0.0
 11
2932.14036050143
 21
100.3750483581802
 31
0.0
  0
LINE
  5
AC5
330
1E
100
AcDbEntity
  8
ﾚｲﾔ1
  6
Continuous
100
AcDbLine
 10
2932.14036050143
 20
100.3750483581802
 30
0.0
 11
2931.915360501431
 21
100.2250483581801
 31
0.0
  0
LINE
  5
AC6
330
1E
100
AcDbEntity
  8
ﾚｲﾔ1
  6
Continuous
100
AcDbLine
 10
2931.915360501431
 20
100.2250483581801
 30
0.0
 11
2931.690360501429
 21
100.0750483581801
 31
0.0
  0
LINE
  5
AC7
330
1E
100
AcDbEntity
  8
ﾚｲﾔ1
  6
Continuous
100
AcDbLine
 10
2931.690360501429
 20
100.0750483581801
 30
0.0
 11
2931.540360501431
 21
100.0000483581801
 31
0.0
  0
LINE
  5
AC8
330
1E
100
AcDbEntity
  8
ﾚｲﾔ1
  6
Continuous
100
AcDbLine
 10
2931.540360501431
 20
100.0000483581801
 30
0.0
 11
2931.315360501429
 21
99.85004835818009
 31
0.0
  0
LINE
  5
AC9
330
1E
100
AcDbEntity
  8
ﾚｲﾔ1
  6
Continuous
100
AcDbLine
 10
2931.315360501429
 20
99.85004835818009
 30
0.0
 11
2931.165360501431
 21
99.70004835818006
 31
0.0
  0
LINE
  5
ACA
330
1E
100
AcDbEntity
  8
ﾚｲﾔ1
  6
Continuous
100
AcDbLine
 10
2931.165360501431
 20
99.70004835818006
 30
0.0
 11
2930.940360501429
 21
99.55004835818019
 31
0.0
  0
LINE
  5
ACB
330
1E
100
AcDbEntity
  8
ﾚｲﾔ1
  6
Continuous
100
AcDbLine
 10
2930.940360501429
 20
99.55004835818019
 30
0.0
 11
2930.79036050143
 21
99.40004835818016
 31
0.0
  0
LINE
  5
ACC
330
1E
100
AcDbEntity
  8
ﾚｲﾔ1
  6
Continuous
100
AcDbLine
 10
2930.79036050143
 20
99.40004835818016
 30
0.0
 11
2930.640360501431
 21
99.25004835818018
 31
0.0
  0
LINE
  5
ACD
330
1E
100
AcDbEntity
  8
ﾚｲﾔ1
  6
Continuous
100
AcDbLine
 10
2930.640360501431
 20
99.25004835818018
 30
0.0
 11
2930.41536050143
 21
99.10004835818009
 31
0.0
  0
LINE
  5
ACE
330
1E
100
AcDbEntity
  8
ﾚｲﾔ1
  6
Continuous
100
AcDbLine
 10
2930.41536050143
 20
99.10004835818009
 30
0.0
 11
2930.265360501431
 21
98.87504835818007
 31
0.0
  0
LINE
  5
ACF
330
1E
100
AcDbEntity
  8
ﾚｲﾔ1
  6
Continuous
100
AcDbLine
 10
2930.265360501431
 20
98.87504835818007
 30
0.0
 11
2930.115360501431
 21
98.72504835818009
 31
0.0
  0
LINE
  5
AD0
330
1E
100
AcDbEntity
  8
ﾚｲﾔ1
  6
Continuous
100
AcDbLine
 10
2930.115360501431
 20
98.72504835818009
 30
0.0
 11
2929.96536050143
 21
98.57504835818006
 31
0.0
  0
LINE
  5
AD1
330
1E
100
AcDbEntity
  8
ﾚｲﾔ1
  6
Continuous
100
AcDbLine
 10
2929.96536050143
 20
98.57504835818006
 30
0.0
 11
2929.815360501431
 21
98.35004835818009
 31
0.0
  0
LINE
  5
AD2
330
1E
100
AcDbEntity
  8
ﾚｲﾔ1
  6
Continuous
100
AcDbLine
 10
2929.815360501431
 20
98.35004835818009
 30
0.0
 11
2929.66536050143
 21
98.20004835818006
 31
0.0
  0
LINE
  5
AD3
330
1E
100
AcDbEntity
  8
ﾚｲﾔ1
  6
Continuous
100
AcDbLine
 10
2929.66536050143
 20
98.20004835818006
 30
0.0
 11
2929.515360501431
 21
97.97504835818009
 31
0.0
  0
LINE
  5
AD4
330
1E
100
AcDbEntity
  8
ﾚｲﾔ1
  6
Continuous
100
AcDbLine
 10
2929.515360501431
 20
97.97504835818009
 30
0.0
 11
2929.440360501431
 21
97.82504835818006
 31
0.0
  0
LINE
  5
AD5
330
1E
100
AcDbEntity
  8
ﾚｲﾔ1
  6
Continuous
100
AcDbLine
 10
2929.440360501431
 20
97.82504835818006
 30
0.0
 11
2929.290360501431
 21
97.60004835818009
 31
0.0
  0
LINE
  5
AD6
330
1E
100
AcDbEntity
  8
ﾚｲﾔ1
  6
Continuous
100
AcDbLine
 10
2929.290360501431
 20
97.60004835818009
 30
0.0
 11
2929.140360501431
 21
97.37504835818007
 31
0.0
  0
LINE
  5
AD7
330
1E
100
AcDbEntity
  8
ﾚｲﾔ1
  6
Continuous
100
AcDbLine
 10
2929.140360501431
 20
97.37504835818007
 30
0.0
 11
2929.065360501431
 21
97.15004835818027
 31
0.0
  0
LINE
  5
AD8
330
1E
100
AcDbEntity
  8
ﾚｲﾔ1
  6
Continuous
100
AcDbLine
 10
2929.065360501431
 20
97.15004835818027
 30
0.0
 11
2928.990360501431
 21
97.00004835818018
 31
0.0
  0
LINE
  5
AD9
330
1E
100
AcDbEntity
  8
ﾚｲﾔ1
  6
Continuous
100
AcDbLine
 10
2928.990360501431
 20
97.00004835818018
 30
0.0
 11
2928.84036050143
 21
96.7750483581801
 31
0.0
  0
LINE
  5
ADA
330
1E
100
AcDbEntity
  8
ﾚｲﾔ1
  6
Continuous
100
AcDbLine
 10
2928.84036050143
 20
96.7750483581801
 30
0.0
 11
2928.765360501431
 21
96.55004835818008
 31
0.0
  0
LINE
  5
ADB
330
1E
100
AcDbEntity
  8
ﾚｲﾔ1
  6
Continuous
100
AcDbLine
 10
2928.765360501431
 20
96.55004835818008
 30
0.0
 11
2928.690360501431
 21
96.32504835818006
 31
0.0
  0
LINE
  5
ADC
330
1E
100
AcDbEntity
  8
ﾚｲﾔ1
  6
Continuous
100
AcDbLine
 10
2928.690360501431
 20
96.32504835818006
 30
0.0
 11
2928.615360501431
 21
96.1000483581802
 31
0.0
  0
LINE
  5
ADD
330
1E
100
AcDbEntity
  8
ﾚｲﾔ1
  6
Continuous
100
AcDbLine
 10
2928.615360501431
 20
96.1000483581802
 30
0.0
 11
2928.540360501431
 21
95.87504835818018
 31
0.0
  0
LINE
  5
ADE
330
1E
100
AcDbEntity
  8
ﾚｲﾔ1
  6
Continuous
100
AcDbLine
 10
2928.540360501431
 20
95.87504835818018
 30
0.0
 11
2928.46536050143
 21
95.6500483581801
 31
0.0
  0
LINE
  5
ADF
330
1E
100
AcDbEntity
  8
ﾚｲﾔ1
  6
Continuous
100
AcDbLine
 10
2928.46536050143
 20
95.6500483581801
 30
0.0
 11
2928.39036050143
 21
95.42504835818008
 31
0.0
  0
LINE
  5
AE0
330
1E
100
AcDbEntity
  8
ﾚｲﾔ1
  6
Continuous
100
AcDbLine
 10
2928.39036050143
 20
95.42504835818008
 30
0.0
 11
2928.39036050143
 21
95.20004835818006
 31
0.0
  0
LINE
  5
AE1
330
1E
100
AcDbEntity
  8
ﾚｲﾔ1
  6
Continuous
100
AcDbLine
 10
2928.39036050143
 20
95.20004835818006
 30
0.0
 11
2928.315360501429
 21
94.9750483581802
 31
0.0
  0
LINE
  5
AE2
330
1E
100
AcDbEntity
  8
ﾚｲﾔ1
  6
Continuous
100
AcDbLine
 10
2928.315360501429
 20
94.9750483581802
 30
0.0
 11
2928.315360501429
 21
94.75004835818018
 31
0.0
  0
LINE
  5
AE3
330
1E
100
AcDbEntity
  8
ﾚｲﾔ1
  6
Continuous
100
AcDbLine
 10
2928.315360501429
 20
94.75004835818018
 30
0.0
 11
2928.240360501431
 21
94.45004835818006
 31
0.0
  0
LINE
  5
AE4
330
1E
100
AcDbEntity
  8
ﾚｲﾔ1
  6
Continuous
100
AcDbLine
 10
2928.240360501431
 20
94.45004835818006
 30
0.0
 11
2928.240360501431
 21
94.2250483581802
 31
0.0
  0
LINE
  5
AE5
330
1E
100
AcDbEntity
  8
ﾚｲﾔ1
  6
Continuous
100
AcDbLine
 10
2928.240360501431
 20
94.2250483581802
 30
0.0
 11
2928.240360501431
 21
94.00004835818007
 31
0.0
  0
LINE
  5
AE6
330
1E
100
AcDbEntity
  8
ﾚｲﾔ1
  6
Continuous
100
AcDbLine
 10
2928.240360501431
 20
94.00004835818007
 30
0.0
 11
2928.240360501431
 21
93.7750483581801
 31
0.0
  0
LINE
  5
AE7
330
1E
100
AcDbEntity
  8
ﾚｲﾔ1
  6
Continuous
100
AcDbLine
 10
2935.740360501431
 20
1.375048358180067
 30
0.0
 11
2935.965360501431
 21
1.375048358180067
 31
0.0
  0
LINE
  5
AE8
330
1E
100
AcDbEntity
  8
ﾚｲﾔ1
  6
Continuous
100
AcDbLine
 10
2935.965360501431
 20
1.375048358180067
 30
0.0
 11
2936.190360501429
 21
1.375048358180067
 31
0.0
  0
LINE
  5
AE9
330
1E
100
AcDbEntity
  8
ﾚｲﾔ1
  6
Continuous
100
AcDbLine
 10
2936.190360501429
 20
1.375048358180067
 30
0.0
 11
2936.41536050143
 21
1.375048358180067
 31
0.0
  0
LINE
  5
AEA
330
1E
100
AcDbEntity
  8
ﾚｲﾔ1
  6
Continuous
100
AcDbLine
 10
2936.41536050143
 20
1.375048358180067
 30
0.0
 11
2936.715360501431
 21
1.450048358180084
 31
0.0
  0
LINE
  5
AEB
330
1E
100
AcDbEntity
  8
ﾚｲﾔ1
  6
Continuous
100
AcDbLine
 10
2936.715360501431
 20
1.450048358180084
 30
0.0
 11
2936.940360501429
 21
1.450048358180084
 31
0.0
  0
LINE
  5
AEC
330
1E
100
AcDbEntity
  8
ﾚｲﾔ1
  6
Continuous
100
AcDbLine
 10
2936.940360501429
 20
1.450048358180084
 30
0.0
 11
2937.16536050143
 21
1.525048358180072
 31
0.0
  0
LINE
  5
AED
330
1E
100
AcDbEntity
  8
ﾚｲﾔ1
  6
Continuous
100
AcDbLine
 10
2937.16536050143
 20
1.525048358180072
 30
0.0
 11
2937.39036050143
 21
1.525048358180072
 31
0.0
  0
LINE
  5
AEE
330
1E
100
AcDbEntity
  8
ﾚｲﾔ1
  6
Continuous
100
AcDbLine
 10
2937.39036050143
 20
1.525048358180072
 30
0.0
 11
2937.615360501431
 21
1.600048358180089
 31
0.0
  0
LINE
  5
AEF
330
1E
100
AcDbEntity
  8
ﾚｲﾔ1
  6
Continuous
100
AcDbLine
 10
2937.615360501431
 20
1.600048358180089
 30
0.0
 11
2937.84036050143
 21
1.675048358180078
 31
0.0
  0
LINE
  5
AF0
330
1E
100
AcDbEntity
  8
ﾚｲﾔ1
  6
Continuous
100
AcDbLine
 10
2937.84036050143
 20
1.675048358180078
 30
0.0
 11
2938.065360501429
 21
1.750048358179981
 31
0.0
  0
LINE
  5
AF1
330
1E
100
AcDbEntity
  8
ﾚｲﾔ1
  6
Continuous
100
AcDbLine
 10
2938.065360501429
 20
1.750048358179981
 30
0.0
 11
2938.290360501431
 21
1.825048358180084
 31
0.0
  0
LINE
  5
AF2
330
1E
100
AcDbEntity
  8
ﾚｲﾔ1
  6
Continuous
100
AcDbLine
 10
2938.290360501431
 20
1.825048358180084
 30
0.0
 11
2938.515360501431
 21
1.900048358180072
 31
0.0
  0
LINE
  5
AF3
330
1E
100
AcDbEntity
  8
ﾚｲﾔ1
  6
Continuous
100
AcDbLine
 10
2938.515360501431
 20
1.900048358180072
 30
0.0
 11
2938.740360501431
 21
1.975048358180089
 31
0.0
  0
LINE
  5
AF4
330
1E
100
AcDbEntity
  8
ﾚｲﾔ1
  6
Continuous
100
AcDbLine
 10
2938.740360501431
 20
1.975048358180089
 30
0.0
 11
2938.965360501431
 21
2.125048358180067
 31
0.0
  0
LINE
  5
AF5
330
1E
100
AcDbEntity
  8
ﾚｲﾔ1
  6
Continuous
100
AcDbLine
 10
2938.965360501431
 20
2.125048358180067
 30
0.0
 11
2939.115360501431
 21
2.200048358180084
 31
0.0
  0
LINE
  5
AF6
330
1E
100
AcDbEntity
  8
ﾚｲﾔ1
  6
Continuous
100
AcDbLine
 10
2939.115360501431
 20
2.200048358180084
 30
0.0
 11
2939.340360501431
 21
2.275048358180072
 31
0.0
  0
LINE
  5
AF7
330
1E
100
AcDbEntity
  8
ﾚｲﾔ1
  6
Continuous
100
AcDbLine
 10
2939.340360501431
 20
2.275048358180072
 30
0.0
 11
2939.565360501429
 21
2.425048358180078
 31
0.0
  0
LINE
  5
AF8
330
1E
100
AcDbEntity
  8
ﾚｲﾔ1
  6
Continuous
100
AcDbLine
 10
2939.565360501429
 20
2.425048358180078
 30
0.0
 11
2939.790360501431
 21
2.575048358180084
 31
0.0
  0
LINE
  5
AF9
330
1E
100
AcDbEntity
  8
ﾚｲﾔ1
  6
Continuous
100
AcDbLine
 10
2939.790360501431
 20
2.575048358180084
 30
0.0
 11
2939.940360501429
 21
2.650048358180072
 31
0.0
  0
LINE
  5
AFA
330
1E
100
AcDbEntity
  8
ﾚｲﾔ1
  6
Continuous
100
AcDbLine
 10
2939.940360501429
 20
2.650048358180072
 30
0.0
 11
2940.165360501431
 21
2.800048358180078
 31
0.0
  0
LINE
  5
AFB
330
1E
100
AcDbEntity
  8
ﾚｲﾔ1
  6
Continuous
100
AcDbLine
 10
2940.165360501431
 20
2.800048358180078
 30
0.0
 11
2940.315360501429
 21
2.950048358180084
 31
0.0
  0
LINE
  5
AFC
330
1E
100
AcDbEntity
  8
ﾚｲﾔ1
  6
Continuous
100
AcDbLine
 10
2940.315360501429
 20
2.950048358180084
 30
0.0
 11
2940.540360501431
 21
3.100048358180089
 31
0.0
  0
LINE
  5
AFD
330
1E
100
AcDbEntity
  8
ﾚｲﾔ1
  6
Continuous
100
AcDbLine
 10
2940.540360501431
 20
3.100048358180089
 30
0.0
 11
2940.690360501429
 21
3.250048358180067
 31
0.0
  0
LINE
  5
AFE
330
1E
100
AcDbEntity
  8
ﾚｲﾔ1
  6
Continuous
100
AcDbLine
 10
2940.690360501429
 20
3.250048358180067
 30
0.0
 11
2940.840360501431
 21
3.400048358180072
 31
0.0
  0
LINE
  5
AFF
330
1E
100
AcDbEntity
  8
ﾚｲﾔ1
  6
Continuous
100
AcDbLine
 10
2940.840360501431
 20
3.400048358180072
 30
0.0
 11
2941.065360501429
 21
3.550048358180078
 31
0.0
  0
LINE
  5
B00
330
1E
100
AcDbEntity
  8
ﾚｲﾔ1
  6
Continuous
100
AcDbLine
 10
2941.065360501429
 20
3.550048358180078
 30
0.0
 11
2941.215360501431
 21
3.775048358180072
 31
0.0
  0
LINE
  5
B01
330
1E
100
AcDbEntity
  8
ﾚｲﾔ1
  6
Continuous
100
AcDbLine
 10
2941.215360501431
 20
3.775048358180072
 30
0.0
 11
2941.36536050143
 21
3.925048358180078
 31
0.0
  0
LINE
  5
B02
330
1E
100
AcDbEntity
  8
ﾚｲﾔ1
  6
Continuous
100
AcDbLine
 10
2941.36536050143
 20
3.925048358180078
 30
0.0
 11
2941.51536050143
 21
4.075048358180084
 31
0.0
  0
LINE
  5
B03
330
1E
100
AcDbEntity
  8
ﾚｲﾔ1
  6
Continuous
100
AcDbLine
 10
2941.51536050143
 20
4.075048358180084
 30
0.0
 11
2941.665360501431
 21
4.300048358180078
 31
0.0
  0
LINE
  5
B04
330
1E
100
AcDbEntity
  8
ﾚｲﾔ1
  6
Continuous
100
AcDbLine
 10
2941.665360501431
 20
4.300048358180078
 30
0.0
 11
2941.815360501429
 21
4.450048358180084
 31
0.0
  0
LINE
  5
B05
330
1E
100
AcDbEntity
  8
ﾚｲﾔ1
  6
Continuous
100
AcDbLine
 10
2941.815360501429
 20
4.450048358180084
 30
0.0
 11
2941.965360501431
 21
4.675048358180078
 31
0.0
  0
LINE
  5
B06
330
1E
100
AcDbEntity
  8
ﾚｲﾔ1
  6
Continuous
100
AcDbLine
 10
2941.965360501431
 20
4.675048358180078
 30
0.0
 11
2942.040360501431
 21
4.825048358180084
 31
0.0
  0
LINE
  5
B07
330
1E
100
AcDbEntity
  8
ﾚｲﾔ1
  6
Continuous
100
AcDbLine
 10
2942.040360501431
 20
4.825048358180084
 30
0.0
 11
2942.190360501429
 21
5.050048358180078
 31
0.0
  0
LINE
  5
B08
330
1E
100
AcDbEntity
  8
ﾚｲﾔ1
  6
Continuous
100
AcDbLine
 10
2942.190360501429
 20
5.050048358180078
 30
0.0
 11
2942.34036050143
 21
5.275048358180072
 31
0.0
  0
LINE
  5
B09
330
1E
100
AcDbEntity
  8
ﾚｲﾔ1
  6
Continuous
100
AcDbLine
 10
2942.34036050143
 20
5.275048358180072
 30
0.0
 11
2942.415360501431
 21
5.500048358180067
 31
0.0
  0
LINE
  5
B0A
330
1E
100
AcDbEntity
  8
ﾚｲﾔ1
  6
Continuous
100
AcDbLine
 10
2942.415360501431
 20
5.500048358180067
 30
0.0
 11
2942.49036050143
 21
5.650048358180072
 31
0.0
  0
LINE
  5
B0B
330
1E
100
AcDbEntity
  8
ﾚｲﾔ1
  6
Continuous
100
AcDbLine
 10
2942.49036050143
 20
5.650048358180072
 30
0.0
 11
2942.64036050143
 21
5.875048358180067
 31
0.0
  0
LINE
  5
B0C
330
1E
100
AcDbEntity
  8
ﾚｲﾔ1
  6
Continuous
100
AcDbLine
 10
2942.64036050143
 20
5.875048358180067
 30
0.0
 11
2942.715360501431
 21
6.100048358180089
 31
0.0
  0
LINE
  5
B0D
330
1E
100
AcDbEntity
  8
ﾚｲﾔ1
  6
Continuous
100
AcDbLine
 10
2942.715360501431
 20
6.100048358180089
 30
0.0
 11
2942.790360501431
 21
6.325048358180084
 31
0.0
  0
LINE
  5
B0E
330
1E
100
AcDbEntity
  8
ﾚｲﾔ1
  6
Continuous
100
AcDbLine
 10
2942.790360501431
 20
6.325048358180084
 30
0.0
 11
2942.865360501431
 21
6.550048358180078
 31
0.0
  0
LINE
  5
B0F
330
1E
100
AcDbEntity
  8
ﾚｲﾔ1
  6
Continuous
100
AcDbLine
 10
2942.865360501431
 20
6.550048358180078
 30
0.0
 11
2942.940360501429
 21
6.775048358180072
 31
0.0
  0
LINE
  5
B10
330
1E
100
AcDbEntity
  8
ﾚｲﾔ1
  6
Continuous
100
AcDbLine
 10
2942.940360501429
 20
6.775048358180072
 30
0.0
 11
2943.01536050143
 21
7.000048358180067
 31
0.0
  0
LINE
  5
B11
330
1E
100
AcDbEntity
  8
ﾚｲﾔ1
  6
Continuous
100
AcDbLine
 10
2943.01536050143
 20
7.000048358180067
 30
0.0
 11
2943.090360501431
 21
7.225048358180089
 31
0.0
  0
LINE
  5
B12
330
1E
100
AcDbEntity
  8
ﾚｲﾔ1
  6
Continuous
100
AcDbLine
 10
2943.090360501431
 20
7.225048358180089
 30
0.0
 11
2943.090360501431
 21
7.450048358180084
 31
0.0
  0
LINE
  5
B13
330
1E
100
AcDbEntity
  8
ﾚｲﾔ1
  6
Continuous
100
AcDbLine
 10
2943.090360501431
 20
7.450048358180084
 30
0.0
 11
2943.165360501431
 21
7.675048358180078
 31
0.0
  0
LINE
  5
B14
330
1E
100
AcDbEntity
  8
ﾚｲﾔ1
  6
Continuous
100
AcDbLine
 10
2943.165360501431
 20
7.675048358180078
 30
0.0
 11
2943.165360501431
 21
7.900048358180072
 31
0.0
  0
LINE
  5
B15
330
1E
100
AcDbEntity
  8
ﾚｲﾔ1
  6
Continuous
100
AcDbLine
 10
2943.165360501431
 20
7.900048358180072
 30
0.0
 11
2943.240360501431
 21
8.200048358180084
 31
0.0
  0
LINE
  5
B16
330
1E
100
AcDbEntity
  8
ﾚｲﾔ1
  6
Continuous
100
AcDbLine
 10
2943.240360501431
 20
8.200048358180084
 30
0.0
 11
2943.240360501431
 21
8.425048358180078
 31
0.0
  0
LINE
  5
B17
330
1E
100
AcDbEntity
  8
ﾚｲﾔ1
  6
Continuous
100
AcDbLine
 10
2943.240360501431
 20
8.425048358180078
 30
0.0
 11
2943.240360501431
 21
8.650048358180072
 31
0.0
  0
LINE
  5
B18
330
1E
100
AcDbEntity
  8
ﾚｲﾔ1
  6
Continuous
100
AcDbLine
 10
2943.240360501431
 20
8.650048358180072
 30
0.0
 11
2943.240360501431
 21
8.875048358180067
 31
0.0
  0
LINE
  5
B19
330
1E
100
AcDbEntity
  8
ﾚｲﾔ1
  6
Continuous
100
AcDbLine
 10
2935.740360501431
 20
1.375048358180067
 30
0.0
 11
2935.515360501431
 21
1.375048358180067
 31
0.0
  0
LINE
  5
B1A
330
1E
100
AcDbEntity
  8
ﾚｲﾔ1
  6
Continuous
100
AcDbLine
 10
2935.515360501431
 20
1.375048358180067
 30
0.0
 11
2935.29036050143
 21
1.375048358180067
 31
0.0
  0
LINE
  5
B1B
330
1E
100
AcDbEntity
  8
ﾚｲﾔ1
  6
Continuous
100
AcDbLine
 10
2935.29036050143
 20
1.375048358180067
 30
0.0
 11
2935.065360501431
 21
1.375048358180067
 31
0.0
  0
LINE
  5
B1C
330
1E
100
AcDbEntity
  8
ﾚｲﾔ1
  6
Continuous
100
AcDbLine
 10
2935.065360501431
 20
1.375048358180067
 30
0.0
 11
2934.765360501431
 21
1.450048358180084
 31
0.0
  0
LINE
  5
B1D
330
1E
100
AcDbEntity
  8
ﾚｲﾔ1
  6
Continuous
100
AcDbLine
 10
2934.765360501431
 20
1.450048358180084
 30
0.0
 11
2934.54036050143
 21
1.450048358180084
 31
0.0
  0
LINE
  5
B1E
330
1E
100
AcDbEntity
  8
ﾚｲﾔ1
  6
Continuous
100
AcDbLine
 10
2934.54036050143
 20
1.450048358180084
 30
0.0
 11
2934.315360501431
 21
1.525048358180072
 31
0.0
  0
LINE
  5
B1F
330
1E
100
AcDbEntity
  8
ﾚｲﾔ1
  6
Continuous
100
AcDbLine
 10
2934.315360501431
 20
1.525048358180072
 30
0.0
 11
2934.090360501431
 21
1.525048358180072
 31
0.0
  0
LINE
  5
B20
330
1E
100
AcDbEntity
  8
ﾚｲﾔ1
  6
Continuous
100
AcDbLine
 10
2934.090360501431
 20
1.525048358180072
 30
0.0
 11
2933.865360501431
 21
1.600048358180089
 31
0.0
  0
LINE
  5
B21
330
1E
100
AcDbEntity
  8
ﾚｲﾔ1
  6
Continuous
100
AcDbLine
 10
2933.865360501431
 20
1.600048358180089
 30
0.0
 11
2933.640360501431
 21
1.675048358180078
 31
0.0
  0
LINE
  5
B22
330
1E
100
AcDbEntity
  8
ﾚｲﾔ1
  6
Continuous
100
AcDbLine
 10
2933.640360501431
 20
1.675048358180078
 30
0.0
 11
2933.415360501431
 21
1.750048358179981
 31
0.0
  0
LINE
  5
B23
330
1E
100
AcDbEntity
  8
ﾚｲﾔ1
  6
Continuous
100
AcDbLine
 10
2933.415360501431
 20
1.750048358179981
 30
0.0
 11
2933.190360501429
 21
1.825048358180084
 31
0.0
  0
LINE
  5
B24
330
1E
100
AcDbEntity
  8
ﾚｲﾔ1
  6
Continuous
100
AcDbLine
 10
2933.190360501429
 20
1.825048358180084
 30
0.0
 11
2932.96536050143
 21
1.900048358180072
 31
0.0
  0
LINE
  5
B25
330
1E
100
AcDbEntity
  8
ﾚｲﾔ1
  6
Continuous
100
AcDbLine
 10
2932.96536050143
 20
1.900048358180072
 30
0.0
 11
2932.740360501431
 21
1.975048358180089
 31
0.0
  0
LINE
  5
B26
330
1E
100
AcDbEntity
  8
ﾚｲﾔ1
  6
Continuous
100
AcDbLine
 10
2932.740360501431
 20
1.975048358180089
 30
0.0
 11
2932.51536050143
 21
2.125048358180067
 31
0.0
  0
LINE
  5
B27
330
1E
100
AcDbEntity
  8
ﾚｲﾔ1
  6
Continuous
100
AcDbLine
 10
2932.51536050143
 20
2.125048358180067
 30
0.0
 11
2932.365360501431
 21
2.200048358180084
 31
0.0
  0
LINE
  5
B28
330
1E
100
AcDbEntity
  8
ﾚｲﾔ1
  6
Continuous
100
AcDbLine
 10
2932.365360501431
 20
2.200048358180084
 30
0.0
 11
2932.14036050143
 21
2.275048358180072
 31
0.0
  0
LINE
  5
B29
330
1E
100
AcDbEntity
  8
ﾚｲﾔ1
  6
Continuous
100
AcDbLine
 10
2932.14036050143
 20
2.275048358180072
 30
0.0
 11
2931.915360501431
 21
2.425048358180078
 31
0.0
  0
LINE
  5
B2A
330
1E
100
AcDbEntity
  8
ﾚｲﾔ1
  6
Continuous
100
AcDbLine
 10
2931.915360501431
 20
2.425048358180078
 30
0.0
 11
2931.690360501429
 21
2.575048358180084
 31
0.0
  0
LINE
  5
B2B
330
1E
100
AcDbEntity
  8
ﾚｲﾔ1
  6
Continuous
100
AcDbLine
 10
2931.690360501429
 20
2.575048358180084
 30
0.0
 11
2931.540360501431
 21
2.650048358180072
 31
0.0
  0
LINE
  5
B2C
330
1E
100
AcDbEntity
  8
ﾚｲﾔ1
  6
Continuous
100
AcDbLine
 10
2931.540360501431
 20
2.650048358180072
 30
0.0
 11
2931.315360501429
 21
2.800048358180078
 31
0.0
  0
LINE
  5
B2D
330
1E
100
AcDbEntity
  8
ﾚｲﾔ1
  6
Continuous
100
AcDbLine
 10
2931.315360501429
 20
2.800048358180078
 30
0.0
 11
2931.165360501431
 21
2.950048358180084
 31
0.0
  0
LINE
  5
B2E
330
1E
100
AcDbEntity
  8
ﾚｲﾔ1
  6
Continuous
100
AcDbLine
 10
2931.165360501431
 20
2.950048358180084
 30
0.0
 11
2930.940360501429
 21
3.100048358180089
 31
0.0
  0
LINE
  5
B2F
330
1E
100
AcDbEntity
  8
ﾚｲﾔ1
  6
Continuous
100
AcDbLine
 10
2930.940360501429
 20
3.100048358180089
 30
0.0
 11
2930.79036050143
 21
3.250048358180067
 31
0.0
  0
LINE
  5
B30
330
1E
100
AcDbEntity
  8
ﾚｲﾔ1
  6
Continuous
100
AcDbLine
 10
2930.79036050143
 20
3.250048358180067
 30
0.0
 11
2930.640360501431
 21
3.400048358180072
 31
0.0
  0
LINE
  5
B31
330
1E
100
AcDbEntity
  8
ﾚｲﾔ1
  6
Continuous
100
AcDbLine
 10
2930.640360501431
 20
3.400048358180072
 30
0.0
 11
2930.41536050143
 21
3.550048358180078
 31
0.0
  0
LINE
  5
B32
330
1E
100
AcDbEntity
  8
ﾚｲﾔ1
  6
Continuous
100
AcDbLine
 10
2930.41536050143
 20
3.550048358180078
 30
0.0
 11
2930.265360501431
 21
3.775048358180072
 31
0.0
  0
LINE
  5
B33
330
1E
100
AcDbEntity
  8
ﾚｲﾔ1
  6
Continuous
100
AcDbLine
 10
2930.265360501431
 20
3.775048358180072
 30
0.0
 11
2930.115360501431
 21
3.925048358180078
 31
0.0
  0
LINE
  5
B34
330
1E
100
AcDbEntity
  8
ﾚｲﾔ1
  6
Continuous
100
AcDbLine
 10
2930.115360501431
 20
3.925048358180078
 30
0.0
 11
2929.96536050143
 21
4.075048358180084
 31
0.0
  0
LINE
  5
B35
330
1E
100
AcDbEntity
  8
ﾚｲﾔ1
  6
Continuous
100
AcDbLine
 10
2929.96536050143
 20
4.075048358180084
 30
0.0
 11
2929.815360501431
 21
4.300048358180078
 31
0.0
  0
LINE
  5
B36
330
1E
100
AcDbEntity
  8
ﾚｲﾔ1
  6
Continuous
100
AcDbLine
 10
2929.815360501431
 20
4.300048358180078
 30
0.0
 11
2929.66536050143
 21
4.450048358180084
 31
0.0
  0
LINE
  5
B37
330
1E
100
AcDbEntity
  8
ﾚｲﾔ1
  6
Continuous
100
AcDbLine
 10
2929.66536050143
 20
4.450048358180084
 30
0.0
 11
2929.515360501431
 21
4.675048358180078
 31
0.0
  0
LINE
  5
B38
330
1E
100
AcDbEntity
  8
ﾚｲﾔ1
  6
Continuous
100
AcDbLine
 10
2929.515360501431
 20
4.675048358180078
 30
0.0
 11
2929.440360501431
 21
4.825048358180084
 31
0.0
  0
LINE
  5
B39
330
1E
100
AcDbEntity
  8
ﾚｲﾔ1
  6
Continuous
100
AcDbLine
 10
2929.440360501431
 20
4.825048358180084
 30
0.0
 11
2929.290360501431
 21
5.050048358180078
 31
0.0
  0
LINE
  5
B3A
330
1E
100
AcDbEntity
  8
ﾚｲﾔ1
  6
Continuous
100
AcDbLine
 10
2929.290360501431
 20
5.050048358180078
 30
0.0
 11
2929.140360501431
 21
5.275048358180072
 31
0.0
  0
LINE
  5
B3B
330
1E
100
AcDbEntity
  8
ﾚｲﾔ1
  6
Continuous
100
AcDbLine
 10
2929.140360501431
 20
5.275048358180072
 30
0.0
 11
2929.065360501431
 21
5.500048358180067
 31
0.0
  0
LINE
  5
B3C
330
1E
100
AcDbEntity
  8
ﾚｲﾔ1
  6
Continuous
100
AcDbLine
 10
2929.065360501431
 20
5.500048358180067
 30
0.0
 11
2928.990360501431
 21
5.650048358180072
 31
0.0
  0
LINE
  5
B3D
330
1E
100
AcDbEntity
  8
ﾚｲﾔ1
  6
Continuous
100
AcDbLine
 10
2928.990360501431
 20
5.650048358180072
 30
0.0
 11
2928.84036050143
 21
5.875048358180067
 31
0.0
  0
LINE
  5
B3E
330
1E
100
AcDbEntity
  8
ﾚｲﾔ1
  6
Continuous
100
AcDbLine
 10
2928.84036050143
 20
5.875048358180067
 30
0.0
 11
2928.765360501431
 21
6.100048358180089
 31
0.0
  0
LINE
  5
B3F
330
1E
100
AcDbEntity
  8
ﾚｲﾔ1
  6
Continuous
100
AcDbLine
 10
2928.765360501431
 20
6.100048358180089
 30
0.0
 11
2928.690360501431
 21
6.325048358180084
 31
0.0
  0
LINE
  5
B40
330
1E
100
AcDbEntity
  8
ﾚｲﾔ1
  6
Continuous
100
AcDbLine
 10
2928.690360501431
 20
6.325048358180084
 30
0.0
 11
2928.615360501431
 21
6.550048358180078
 31
0.0
  0
LINE
  5
B41
330
1E
100
AcDbEntity
  8
ﾚｲﾔ1
  6
Continuous
100
AcDbLine
 10
2928.615360501431
 20
6.550048358180078
 30
0.0
 11
2928.540360501431
 21
6.775048358180072
 31
0.0
  0
LINE
  5
B42
330
1E
100
AcDbEntity
  8
ﾚｲﾔ1
  6
Continuous
100
AcDbLine
 10
2928.540360501431
 20
6.775048358180072
 30
0.0
 11
2928.46536050143
 21
7.000048358180067
 31
0.0
  0
LINE
  5
B43
330
1E
100
AcDbEntity
  8
ﾚｲﾔ1
  6
Continuous
100
AcDbLine
 10
2928.46536050143
 20
7.000048358180067
 30
0.0
 11
2928.39036050143
 21
7.225048358180089
 31
0.0
  0
LINE
  5
B44
330
1E
100
AcDbEntity
  8
ﾚｲﾔ1
  6
Continuous
100
AcDbLine
 10
2928.39036050143
 20
7.225048358180089
 30
0.0
 11
2928.39036050143
 21
7.450048358180084
 31
0.0
  0
LINE
  5
B45
330
1E
100
AcDbEntity
  8
ﾚｲﾔ1
  6
Continuous
100
AcDbLine
 10
2928.39036050143
 20
7.450048358180084
 30
0.0
 11
2928.315360501429
 21
7.675048358180078
 31
0.0
  0
LINE
  5
B46
330
1E
100
AcDbEntity
  8
ﾚｲﾔ1
  6
Continuous
100
AcDbLine
 10
2928.315360501429
 20
7.675048358180078
 30
0.0
 11
2928.315360501429
 21
7.900048358180072
 31
0.0
  0
LINE
  5
B47
330
1E
100
AcDbEntity
  8
ﾚｲﾔ1
  6
Continuous
100
AcDbLine
 10
2928.315360501429
 20
7.900048358180072
 30
0.0
 11
2928.240360501431
 21
8.200048358180084
 31
0.0
  0
LINE
  5
B48
330
1E
100
AcDbEntity
  8
ﾚｲﾔ1
  6
Continuous
100
AcDbLine
 10
2928.240360501431
 20
8.200048358180084
 30
0.0
 11
2928.240360501431
 21
8.425048358180078
 31
0.0
  0
LINE
  5
B49
330
1E
100
AcDbEntity
  8
ﾚｲﾔ1
  6
Continuous
100
AcDbLine
 10
2928.240360501431
 20
8.425048358180078
 30
0.0
 11
2928.240360501431
 21
8.650048358180072
 31
0.0
  0
LINE
  5
B4A
330
1E
100
AcDbEntity
  8
ﾚｲﾔ1
  6
Continuous
100
AcDbLine
 10
2928.240360501431
 20
8.650048358180072
 30
0.0
 11
2928.240360501431
 21
8.875048358180067
 31
0.0
  0
LINE
  5
B4B
330
1E
100
AcDbEntity
  8
ﾚｲﾔ1
  6
Continuous
100
AcDbLine
 10
2963.891265977445
 20
59.27504835818007
 30
0.0
 11
2915.715360501431
 21
59.27504835818007
 31
0.0
  0
LINE
  5
B4C
330
1E
100
AcDbEntity
  8
ﾚｲﾔ1
  6
Continuous
100
AcDbLine
 10
2915.715360501431
 20
59.27504835818007
 30
0.0
 11
2915.715360501431
 21
43.22504835818017
 31
0.0
  0
LINE
  5
B4D
330
1E
100
AcDbEntity
  8
ﾚｲﾔ1
  6
Continuous
100
AcDbLine
 10
2915.715360501431
 20
43.22504835818017
 30
0.0
 11
2963.899878353656
 21
43.22504835818017
 31
0.0
  0
LINE
  5
FBA
330
1E
100
AcDbEntity
  8
MOJI
100
AcDbLine
 10
3504.977860501431
 20
216.66254835818
 30
0.0
 11
3511.727860501431
 21
216.66254835818
 31
0.0
  0
LINE
  5
FBB
330
1E
100
AcDbEntity
  8
MOJI
100
AcDbLine
 10
3508.352860501431
 20
218.35004835818
 30
0.0
 11
3508.352860501431
 21
211.03754835818
 31
0.0
  0
LINE
  5
FBC
330
1E
100
AcDbEntity
  8
MOJI
100
AcDbLine
 10
3506.665360501431
 20
214.97504835818
 30
0.0
 11
3504.977860501431
 21
211.60004835818
 31
0.0
  0
LINE
  5
FBD
330
1E
100
AcDbEntity
  8
MOJI
100
AcDbLine
 10
3510.040360501431
 20
214.97504835818
 30
0.0
 11
3511.727860501431
 21
211.60004835818
 31
0.0
  0
LINE
  5
FBE
330
1E
100
AcDbEntity
  8
MOJI
100
AcDbLine
 10
3510.602860501431
 20
217.22504835818
 30
0.0
 11
3510.602860501431
 21
217.78754835818
 31
0.0
  0
LINE
  5
FBF
330
1E
100
AcDbEntity
  8
MOJI
100
AcDbLine
 10
3510.602860501431
 20
217.78754835818
 30
0.0
 11
3511.165360501431
 21
218.35004835818
 31
0.0
  0
LINE
  5
FC0
330
1E
100
AcDbEntity
  8
MOJI
100
AcDbLine
 10
3511.165360501431
 20
218.35004835818
 30
0.0
 11
3511.727860501431
 21
218.35004835818
 31
0.0
  0
LINE
  5
FC1
330
1E
100
AcDbEntity
  8
MOJI
100
AcDbLine
 10
3511.727860501431
 20
218.35004835818
 30
0.0
 11
3512.290360501431
 21
217.78754835818
 31
0.0
  0
LINE
  5
FC2
330
1E
100
AcDbEntity
  8
MOJI
100
AcDbLine
 10
3512.290360501431
 20
217.78754835818
 30
0.0
 11
3512.290360501431
 21
217.22504835818
 31
0.0
  0
LINE
  5
FC3
330
1E
100
AcDbEntity
  8
MOJI
100
AcDbLine
 10
3512.290360501431
 20
217.22504835818
 30
0.0
 11
3511.727860501431
 21
216.66254835818
 31
0.0
  0
LINE
  5
FC4
330
1E
100
AcDbEntity
  8
MOJI
100
AcDbLine
 10
3511.727860501431
 20
216.66254835818
 30
0.0
 11
3511.165360501431
 21
216.66254835818
 31
0.0
  0
LINE
  5
FC5
330
1E
100
AcDbEntity
  8
MOJI
100
AcDbLine
 10
3511.165360501431
 20
216.66254835818
 30
0.0
 11
3510.602860501431
 21
217.22504835818
 31
0.0
  0
LINE
  5
FC6
330
1E
100
AcDbEntity
  8
MOJI
100
AcDbLine
 10
3515.590360501431
 20
214.97504835818
 30
0.0
 11
3521.215360501431
 21
214.97504835818
 31
0.0
  0
LINE
  5
FC7
330
1E
100
AcDbEntity
  8
MOJI
100
AcDbLine
 10
3526.765360501431
 20
218.35004835818
 30
0.0
 11
3526.765360501431
 21
211.03754835818
 31
0.0
  0
LINE
  5
FC8
330
1E
100
AcDbEntity
  8
MOJI
100
AcDbLine
 10
3526.765360501431
 20
215.53754835818
 30
0.0
 11
3530.702860501431
 21
213.8500483581801
 31
0.0
  0
LINE
  5
FC9
330
1E
100
AcDbEntity
  8
MOJI
100
AcDbLine
 10
3535.127860501431
 20
217.78754835818
 30
0.0
 11
3541.87786050143
 21
217.78754835818
 31
0.0
  0
LINE
  5
FCA
330
1E
100
AcDbEntity
  8
MOJI
100
AcDbLine
 10
3541.87786050143
 20
217.78754835818
 30
0.0
 11
3541.87786050143
 21
211.03754835818
 31
0.0
  0
LINE
  5
FCB
330
1E
100
AcDbEntity
  8
MOJI
100
AcDbLine
 10
3541.87786050143
 20
211.03754835818
 30
0.0
 11
3535.127860501431
 21
211.03754835818
 31
0.0
  0
LINE
  5
FCC
330
1E
100
AcDbEntity
  8
MOJI
100
AcDbLine
 10
3535.127860501431
 20
211.03754835818
 30
0.0
 11
3535.127860501431
 21
217.78754835818
 31
0.0
  0
LINE
  5
FCD
330
1E
100
AcDbEntity
  8
MOJI
100
AcDbLine
 10
3556.165360501431
 20
216.1000483581801
 30
0.0
 11
3556.165360501431
 21
216.66254835818
 31
0.0
  0
LINE
  5
FCE
330
1E
100
AcDbEntity
  8
MOJI
100
AcDbLine
 10
3556.165360501431
 20
216.66254835818
 30
0.0
 11
3556.727860501431
 21
217.78754835818
 31
0.0
  0
LINE
  5
FCF
330
1E
100
AcDbEntity
  8
MOJI
100
AcDbLine
 10
3556.727860501431
 20
217.78754835818
 30
0.0
 11
3557.852860501431
 21
218.35004835818
 31
0.0
  0
LINE
  5
FD0
330
1E
100
AcDbEntity
  8
MOJI
100
AcDbLine
 10
3557.852860501431
 20
218.35004835818
 30
0.0
 11
3560.102860501431
 21
218.35004835818
 31
0.0
  0
LINE
  5
FD1
330
1E
100
AcDbEntity
  8
MOJI
100
AcDbLine
 10
3560.102860501431
 20
218.35004835818
 30
0.0
 11
3561.227860501431
 21
217.78754835818
 31
0.0
  0
LINE
  5
FD2
330
1E
100
AcDbEntity
  8
MOJI
100
AcDbLine
 10
3561.227860501431
 20
217.78754835818
 30
0.0
 11
3561.79036050143
 21
216.66254835818
 31
0.0
  0
LINE
  5
FD3
330
1E
100
AcDbEntity
  8
MOJI
100
AcDbLine
 10
3561.79036050143
 20
216.66254835818
 30
0.0
 11
3561.79036050143
 21
216.1000483581801
 31
0.0
  0
LINE
  5
FD4
330
1E
100
AcDbEntity
  8
MOJI
100
AcDbLine
 10
3561.79036050143
 20
216.1000483581801
 30
0.0
 11
3561.227860501431
 21
214.97504835818
 31
0.0
  0
LINE
  5
FD5
330
1E
100
AcDbEntity
  8
MOJI
100
AcDbLine
 10
3561.227860501431
 20
214.97504835818
 30
0.0
 11
3560.102860501431
 21
214.41254835818
 31
0.0
  0
LINE
  5
FD6
330
1E
100
AcDbEntity
  8
MOJI
100
AcDbLine
 10
3560.102860501431
 20
214.41254835818
 30
0.0
 11
3558.415360501431
 21
213.8500483581801
 31
0.0
  0
LINE
  5
FD7
330
1E
100
AcDbEntity
  8
MOJI
100
AcDbLine
 10
3558.415360501431
 20
213.8500483581801
 30
0.0
 11
3557.290360501431
 21
213.28754835818
 31
0.0
  0
LINE
  5
FD8
330
1E
100
AcDbEntity
  8
MOJI
100
AcDbLine
 10
3557.290360501431
 20
213.28754835818
 30
0.0
 11
3556.727860501431
 21
212.72504835818
 31
0.0
  0
LINE
  5
FD9
330
1E
100
AcDbEntity
  8
MOJI
100
AcDbLine
 10
3556.727860501431
 20
212.72504835818
 30
0.0
 11
3556.165360501431
 21
211.60004835818
 31
0.0
  0
LINE
  5
FDA
330
1E
100
AcDbEntity
  8
MOJI
100
AcDbLine
 10
3556.165360501431
 20
211.60004835818
 30
0.0
 11
3556.165360501431
 21
211.03754835818
 31
0.0
  0
LINE
  5
FDB
330
1E
100
AcDbEntity
  8
MOJI
100
AcDbLine
 10
3556.165360501431
 20
211.03754835818
 30
0.0
 11
3561.79036050143
 21
211.03754835818
 31
0.0
  0
LINE
  5
FDC
330
1E
100
AcDbEntity
  8
MOJI
100
AcDbLine
 10
3566.215360501432
 20
214.97504835818
 30
0.0
 11
3571.840360501431
 21
214.97504835818
 31
0.0
  0
LINE
  5
FDD
330
1E
100
AcDbEntity
  8
MOJI
100
AcDbLine
 10
3576.827860501431
 20
211.60004835818
 30
0.0
 11
3576.827860501431
 21
218.35004835818
 31
0.0
  0
LINE
  5
FDE
330
1E
100
AcDbEntity
  8
MOJI
100
AcDbLine
 10
3576.827860501431
 20
218.35004835818
 30
0.0
 11
3580.202860501431
 21
218.35004835818
 31
0.0
  0
LINE
  5
FDF
330
1E
100
AcDbEntity
  8
MOJI
100
AcDbLine
 10
3580.202860501431
 20
218.35004835818
 30
0.0
 11
3581.327860501431
 21
217.78754835818
 31
0.0
  0
LINE
  5
FE0
330
1E
100
AcDbEntity
  8
MOJI
100
AcDbLine
 10
3581.327860501431
 20
217.78754835818
 30
0.0
 11
3581.890360501431
 21
217.22504835818
 31
0.0
  0
LINE
  5
FE1
330
1E
100
AcDbEntity
  8
MOJI
100
AcDbLine
 10
3581.890360501431
 20
217.22504835818
 30
0.0
 11
3581.890360501431
 21
216.1000483581801
 31
0.0
  0
LINE
  5
FE2
330
1E
100
AcDbEntity
  8
MOJI
100
AcDbLine
 10
3581.890360501431
 20
216.1000483581801
 30
0.0
 11
3581.327860501431
 21
215.53754835818
 31
0.0
  0
LINE
  5
FE3
330
1E
100
AcDbEntity
  8
MOJI
100
AcDbLine
 10
3581.327860501431
 20
215.53754835818
 30
0.0
 11
3580.202860501431
 21
214.97504835818
 31
0.0
  0
LINE
  5
FE4
330
1E
100
AcDbEntity
  8
MOJI
100
AcDbLine
 10
3580.202860501431
 20
214.97504835818
 30
0.0
 11
3576.827860501431
 21
214.97504835818
 31
0.0
  0
LINE
  5
FE5
330
1E
100
AcDbEntity
  8
MOJI
100
AcDbLine
 10
3585.752860501431
 20
218.35004835818
 30
0.0
 11
3592.502860501431
 21
218.35004835818
 31
0.0
  0
LINE
  5
FE6
330
1E
100
AcDbEntity
  8
MOJI
100
AcDbLine
 10
3589.127860501431
 20
218.35004835818
 30
0.0
 11
3589.127860501431
 21
211.60004835818
 31
0.0
  0
LINE
  5
FE7
330
1E
100
AcDbEntity
  8
MOJI
100
AcDbLine
 10
3596.365360501431
 20
216.66254835818
 30
0.0
 11
3596.365360501431
 21
217.22504835818
 31
0.0
  0
LINE
  5
FE8
330
1E
100
AcDbEntity
  8
MOJI
100
AcDbLine
 10
3596.365360501431
 20
217.22504835818
 30
0.0
 11
3596.927860501431
 21
217.78754835818
 31
0.0
  0
LINE
  5
FE9
330
1E
100
AcDbEntity
  8
MOJI
100
AcDbLine
 10
3596.927860501431
 20
217.78754835818
 30
0.0
 11
3598.052860501431
 21
218.35004835818
 31
0.0
  0
LINE
  5
FEA
330
1E
100
AcDbEntity
  8
MOJI
100
AcDbLine
 10
3598.052860501431
 20
218.35004835818
 30
0.0
 11
3600.302860501432
 21
218.35004835818
 31
0.0
  0
LINE
  5
FEB
330
1E
100
AcDbEntity
  8
MOJI
100
AcDbLine
 10
3600.302860501432
 20
218.35004835818
 30
0.0
 11
3601.427860501432
 21
217.78754835818
 31
0.0
  0
LINE
  5
FEC
330
1E
100
AcDbEntity
  8
MOJI
100
AcDbLine
 10
3601.427860501432
 20
217.78754835818
 30
0.0
 11
3601.990360501431
 21
217.22504835818
 31
0.0
  0
LINE
  5
FED
330
1E
100
AcDbEntity
  8
MOJI
100
AcDbLine
 10
3601.990360501431
 20
217.22504835818
 30
0.0
 11
3601.990360501431
 21
216.1000483581801
 31
0.0
  0
LINE
  5
FEE
330
1E
100
AcDbEntity
  8
MOJI
100
AcDbLine
 10
3601.990360501431
 20
216.1000483581801
 30
0.0
 11
3601.427860501432
 21
215.53754835818
 31
0.0
  0
LINE
  5
FEF
330
1E
100
AcDbEntity
  8
MOJI
100
AcDbLine
 10
3601.427860501432
 20
215.53754835818
 30
0.0
 11
3600.302860501432
 21
214.97504835818
 31
0.0
  0
LINE
  5
FF0
330
1E
100
AcDbEntity
  8
MOJI
100
AcDbLine
 10
3600.302860501432
 20
214.97504835818
 30
0.0
 11
3598.615360501431
 21
214.97504835818
 31
0.0
  0
LINE
  5
FF1
330
1E
100
AcDbEntity
  8
MOJI
100
AcDbLine
 10
3600.302860501432
 20
214.97504835818
 30
0.0
 11
3601.427860501432
 21
214.41254835818
 31
0.0
  0
LINE
  5
FF2
330
1E
100
AcDbEntity
  8
MOJI
100
AcDbLine
 10
3601.427860501432
 20
214.41254835818
 30
0.0
 11
3601.990360501431
 21
213.8500483581801
 31
0.0
  0
LINE
  5
FF3
330
1E
100
AcDbEntity
  8
MOJI
100
AcDbLine
 10
3601.990360501431
 20
213.8500483581801
 30
0.0
 11
3601.990360501431
 21
212.16254835818
 31
0.0
  0
LINE
  5
FF4
330
1E
100
AcDbEntity
  8
MOJI
100
AcDbLine
 10
3601.990360501431
 20
212.16254835818
 30
0.0
 11
3601.427860501432
 21
211.60004835818
 31
0.0
  0
LINE
  5
FF5
330
1E
100
AcDbEntity
  8
MOJI
100
AcDbLine
 10
3601.427860501432
 20
211.60004835818
 30
0.0
 11
3600.302860501432
 21
211.03754835818
 31
0.0
  0
LINE
  5
FF6
330
1E
100
AcDbEntity
  8
MOJI
100
AcDbLine
 10
3600.302860501432
 20
211.03754835818
 30
0.0
 11
3598.052860501431
 21
211.03754835818
 31
0.0
  0
LINE
  5
FF7
330
1E
100
AcDbEntity
  8
MOJI
100
AcDbLine
 10
3598.052860501431
 20
211.03754835818
 30
0.0
 11
3596.927860501431
 21
211.60004835818
 31
0.0
  0
LINE
  5
FF8
330
1E
100
AcDbEntity
  8
MOJI
100
AcDbLine
 10
3596.927860501431
 20
211.60004835818
 30
0.0
 11
3596.365360501431
 21
212.16254835818
 31
0.0
  0
LINE
  5
FF9
330
1E
100
AcDbEntity
  8
MOJI
100
AcDbLine
 10
3596.365360501431
 20
212.16254835818
 30
0.0
 11
3596.365360501431
 21
212.72504835818
 31
0.0
  0
LINE
  5
FFA
330
1E
100
AcDbEntity
  8
MOJI
100
AcDbLine
 10
3605.290360501431
 20
210.4750483581801
 30
0.0
 11
3613.16536050143
 21
218.35004835818
 31
0.0
  0
LINE
  5
FFB
330
1E
100
AcDbEntity
  8
MOJI
100
AcDbLine
 10
3618.152860501431
 20
214.97504835818
 30
0.0
 11
3617.027860501431
 21
215.53754835818
 31
0.0
  0
LINE
  5
FFC
330
1E
100
AcDbEntity
  8
MOJI
100
AcDbLine
 10
3617.027860501431
 20
215.53754835818
 30
0.0
 11
3616.465360501431
 21
216.1000483581801
 31
0.0
  0
LINE
  5
FFD
330
1E
100
AcDbEntity
  8
MOJI
100
AcDbLine
 10
3616.465360501431
 20
216.1000483581801
 30
0.0
 11
3616.465360501431
 21
217.22504835818
 31
0.0
  0
LINE
  5
FFE
330
1E
100
AcDbEntity
  8
MOJI
100
AcDbLine
 10
3616.465360501431
 20
217.22504835818
 30
0.0
 11
3617.027860501431
 21
217.78754835818
 31
0.0
  0
LINE
  5
FFF
330
1E
100
AcDbEntity
  8
MOJI
100
AcDbLine
 10
3617.027860501431
 20
217.78754835818
 30
0.0
 11
3618.152860501431
 21
218.35004835818
 31
0.0
  0
LINE
  5
1000
330
1E
100
AcDbEntity
  8
MOJI
100
AcDbLine
 10
3618.152860501431
 20
218.35004835818
 30
0.0
 11
3620.402860501431
 21
218.35004835818
 31
0.0
  0
LINE
  5
1001
330
1E
100
AcDbEntity
  8
MOJI
100
AcDbLine
 10
3620.402860501431
 20
218.35004835818
 30
0.0
 11
3621.527860501431
 21
217.78754835818
 31
0.0
  0
LINE
  5
1002
330
1E
100
AcDbEntity
  8
MOJI
100
AcDbLine
 10
3621.527860501431
 20
217.78754835818
 30
0.0
 11
3622.090360501431
 21
217.22504835818
 31
0.0
  0
LINE
  5
1003
330
1E
100
AcDbEntity
  8
MOJI
100
AcDbLine
 10
3622.090360501431
 20
217.22504835818
 30
0.0
 11
3622.090360501431
 21
216.1000483581801
 31
0.0
  0
LINE
  5
1004
330
1E
100
AcDbEntity
  8
MOJI
100
AcDbLine
 10
3622.090360501431
 20
216.1000483581801
 30
0.0
 11
3621.527860501431
 21
215.53754835818
 31
0.0
  0
LINE
  5
1005
330
1E
100
AcDbEntity
  8
MOJI
100
AcDbLine
 10
3621.527860501431
 20
215.53754835818
 30
0.0
 11
3620.402860501431
 21
214.97504835818
 31
0.0
  0
LINE
  5
1006
330
1E
100
AcDbEntity
  8
MOJI
100
AcDbLine
 10
3620.402860501431
 20
214.97504835818
 30
0.0
 11
3618.152860501431
 21
214.97504835818
 31
0.0
  0
LINE
  5
1007
330
1E
100
AcDbEntity
  8
MOJI
100
AcDbLine
 10
3618.152860501431
 20
214.97504835818
 30
0.0
 11
3617.027860501431
 21
214.41254835818
 31
0.0
  0
LINE
  5
1008
330
1E
100
AcDbEntity
  8
MOJI
100
AcDbLine
 10
3617.027860501431
 20
214.41254835818
 30
0.0
 11
3616.465360501431
 21
213.8500483581801
 31
0.0
  0
LINE
  5
1009
330
1E
100
AcDbEntity
  8
MOJI
100
AcDbLine
 10
3616.465360501431
 20
213.8500483581801
 30
0.0
 11
3616.465360501431
 21
212.16254835818
 31
0.0
  0
LINE
  5
100A
330
1E
100
AcDbEntity
  8
MOJI
100
AcDbLine
 10
3616.465360501431
 20
212.16254835818
 30
0.0
 11
3617.027860501431
 21
211.60004835818
 31
0.0
  0
LINE
  5
100B
330
1E
100
AcDbEntity
  8
MOJI
100
AcDbLine
 10
3617.027860501431
 20
211.60004835818
 30
0.0
 11
3618.152860501431
 21
211.03754835818
 31
0.0
  0
LINE
  5
100C
330
1E
100
AcDbEntity
  8
MOJI
100
AcDbLine
 10
3618.152860501431
 20
211.03754835818
 30
0.0
 11
3620.402860501431
 21
211.03754835818
 31
0.0
  0
LINE
  5
100D
330
1E
100
AcDbEntity
  8
MOJI
100
AcDbLine
 10
3620.402860501431
 20
211.03754835818
 30
0.0
 11
3621.527860501431
 21
211.60004835818
 31
0.0
  0
LINE
  5
100E
330
1E
100
AcDbEntity
  8
MOJI
100
AcDbLine
 10
3621.527860501431
 20
211.60004835818
 30
0.0
 11
3622.090360501431
 21
212.16254835818
 31
0.0
  0
LINE
  5
100F
330
1E
100
AcDbEntity
  8
MOJI
100
AcDbLine
 10
3622.090360501431
 20
212.16254835818
 30
0.0
 11
3622.090360501431
 21
213.8500483581801
 31
0.0
  0
LINE
  5
1010
330
1E
100
AcDbEntity
  8
MOJI
100
AcDbLine
 10
3622.090360501431
 20
213.8500483581801
 30
0.0
 11
3621.527860501431
 21
214.41254835818
 31
0.0
  0
LINE
  5
1011
330
1E
100
AcDbEntity
  8
MOJI
100
AcDbLine
 10
3621.527860501431
 20
214.41254835818
 30
0.0
 11
3620.402860501431
 21
214.97504835818
 31
0.0
  0
LINE
  5
1121
330
1E
100
AcDbEntity
  8
SUNPOU
  6
Continuous
100
AcDbLine
 10
3397.215360501431
 20
244.7500483581801
 30
0.0
 11
3397.215360501431
 21
185.53754835818
 31
0.0
  0
LINE
  5
1128
330
1E
100
AcDbEntity
  8
SUNPOU
  6
Continuous
100
AcDbLine
 10
3697.215360501431
 20
244.7500483581801
 30
0.0
 11
3697.215360501431
 21
199.7500483581801
 31
0.0
  0
LINE
  5
1240
330
1E
100
AcDbEntity
  8
SUNPOU
  6
Continuous
100
AcDbLine
 10
3482.815360501429
 20
193.6750483581802
 30
0.0
 11
3502.615360501431
 21
210.4750483581801
 31
0.0
  0
LINE
  5
1241
330
1E
100
AcDbEntity
  8
SUNPOU
  6
Continuous
 62
   253
100
AcDbLine
 10
3486.190360501431
 20
198.55004835818
 30
0.0
 11
3482.815360501429
 21
193.6750483581802
 31
0.0
  0
LINE
  5
1242
330
1E
100
AcDbEntity
  8
SUNPOU
  6
Continuous
 62
   253
100
AcDbLine
 10
3482.815360501429
 20
193.6750483581802
 30
0.0
 11
3488.215360501431
 21
196.2250483581801
 31
0.0
  0
CIRCLE
  5
124E
330
1E
100
AcDbEntity
  8
ﾚｲﾔ1
  6
Continuous
100
AcDbCircle
 10
3103.665360501431
 20
51.32504835818008
 30
0.0
 40
74.99779499999998
  0
CIRCLE
  5
124F
330
1E
100
AcDbEntity
  8
ﾚｲﾔ1
  6
Continuous
100
AcDbCircle
 10
3103.665360501431
 20
51.32504835818008
 30
0.0
 40
69.94986
  0
CIRCLE
  5
1250
330
1E
100
AcDbEntity
  8
ﾚｲﾔ1
  6
Continuous
100
AcDbCircle
 10
3103.665360501431
 20
51.32504835818008
 30
0.0
 40
60.0081939970446
  0
CIRCLE
  5
1251
330
1E
100
AcDbEntity
  8
ﾚｲﾔ1
  6
Continuous
100
AcDbCircle
 10
3103.665360501431
 20
51.32504835818008
 30
0.0
 40
57.91229925957892
  0
CIRCLE
  5
1252
330
1E
100
AcDbEntity
  8
ﾚｲﾔ1
  6
Continuous
100
AcDbCircle
 10
3103.665360501431
 20
51.32504835818008
 30
0.0
 40
45.03332999999996
  0
CIRCLE
  5
1253
330
1E
100
AcDbEntity
  8
ﾚｲﾔ1
  6
Continuous
100
AcDbCircle
 10
3103.665360501431
 20
51.32504835818008
 30
0.0
 40
42.929865
  0
CIRCLE
  5
1254
330
1E
100
AcDbEntity
  8
ﾚｲﾔ1
  6
Continuous
100
AcDbCircle
 10
3103.665360501431
 20
51.32504835818008
 30
0.0
 40
22.92202442963727
  0
CIRCLE
  5
1255
330
1E
100
AcDbEntity
  8
ﾚｲﾔ1
  6
Continuous
100
AcDbCircle
 10
3103.665360501431
 20
51.32504835818008
 30
0.0
 40
24.91652999999997
  0
CIRCLE
  5
1256
330
1E
100
AcDbEntity
  8
ﾚｲﾔ1
  6
Continuous
100
AcDbCircle
 10
3103.665360501431
 20
51.32504835818008
 30
0.0
 40
9.934390753043086
  0
CIRCLE
  5
1257
330
1E
100
AcDbEntity
  8
ﾚｲﾔ1
  6
Continuous
100
AcDbCircle
 10
3103.665360501431
 20
51.32504835818008
 30
0.0
 40
24.91652999999997
  0
CIRCLE
  5
1258
330
1E
100
AcDbEntity
  8
ﾚｲﾔ1
  6
Continuous
100
AcDbCircle
 10
3103.665360501431
 20
51.32504835818008
 30
0.0
 40
9.94167742718109
  0
CIRCLE
  5
1259
330
1E
100
AcDbEntity
  8
ﾚｲﾔ1
  6
Continuous
100
AcDbCircle
 10
3103.665360501431
 20
51.32504835818008
 30
0.0
 40
12.00537106709798
  0
CIRCLE
  5
125A
330
1E
100
AcDbEntity
  8
ﾚｲﾔ1
  6
Continuous
100
AcDbCircle
 10
2993.847102496794
 20
51.31883067846948
 30
0.0
 40
3.893209630392366
  0
CIRCLE
  5
125B
330
1E
100
AcDbEntity
  8
ﾚｲﾔ1
  6
Continuous
100
AcDbCircle
 10
3213.483618506067
 20
51.31883067846948
 30
0.0
 40
3.893209630392366
  0
CIRCLE
  5
125C
330
1E
100
AcDbEntity
  8
ﾚｲﾔ1
  6
Continuous
100
AcDbCircle
 10
3103.862385317171
 20
161.1119405829383
 30
0.0
 40
3.893209630392366
  0
CIRCLE
  5
125D
330
1E
100
AcDbEntity
  8
ﾚｲﾔ1
  6
Continuous
100
AcDbCircle
 10
3103.862385317171
 20
-58.46184386657802
 30
0.0
 40
3.893209630392366
  0
ARC
  5
1266
330
1E
100
AcDbEntity
  8
ﾚｲﾔ1
  6
Continuous
100
AcDbCircle
 10
3545.602860501431
 20
51.32504835818008
 30
0.0
 40
50.89960246652232
100
AcDbArc
 50
188.9858087126419
 51
171.014191287358
  0
ARC
  5
1267
330
1E
100
AcDbEntity
  8
ﾚｲﾔ1
  6
Continuous
100
AcDbCircle
 10
3545.602860501431
 20
51.32504835818008
 30
0.0
 40
35.85354977195428
100
AcDbArc
 50
192.8109798902723
 51
167.1890201097276
  0
DIMENSION
  5
1278
330
1E
100
AcDbEntity
  8
SUNPOU
  6
Continuous
100
AcDbDimension
280
     0
  2
*D1
 10
3363.492670987644
 20
-23.67495164182003
 30
0.0
 11
3352.492670987644
 21
51.32504835818007
 31
0.0
 70
    32
  1
φ150
 71
     5
 42
150.0000000000002
 73
     0
 74
     0
 75
     0
  3
Standard
100
AcDbAlignedDimension
 13
3397.215360501431
 23
126.3250483581802
 33
0.0
 14
3397.321017036852
 24
-23.67495164182003
 34
0.0
 50
90.0
100
AcDbRotatedDimension
1001
ACAD
1000
DSTYLE
1002
{
1070
   140
1040
20.0
1070
    41
1040
10.0
1070
   343
1005
15D9
1070
   342
1005
0
1070
   173
1070
     1
1070
   344
1005
15D9
1002
}
  0
DIMENSION
  5
128F
330
1E
100
AcDbEntity
  8
SUNPOU
  6
Continuous
100
AcDbDimension
280
     0
  2
*D2
 10
3291.61536050143
 20
274.9459774269669
 30
0.0
 11
3103.66536050143
 21
285.9459774269669
 31
0.0
 70
    32
 71
     5
 42
375.8999999999987
 73
     0
 74
     0
 75
     0
  3
Standard
100
AcDbAlignedDimension
 13
2915.715360501431
 23
59.27504835818007
 33
0.0
 14
3291.61536050143
 24
59.27504835818007
 34
0.0
100
AcDbRotatedDimension
1001
ACAD
1000
DSTYLE
1002
{
1070
   140
1040
20.0
1070
    41
1040
10.0
1070
   343
1005
15D9
1070
   342
1005
0
1070
   173
1070
     1
1070
   344
1005
15D9
1002
}
  0
DIMENSION
  5
12E2
330
1E
100
AcDbEntity
  8
SUNPOU
  6
Continuous
100
AcDbDimension
280
     0
  2
*D3
 10
3697.215360501431
 20
259.0035365287092
 30
0.0
 11
3547.215360501431
 21
270.0035365287092
 31
0.0
 70
    32
 71
     5
 42
300.0
 73
     0
 74
     0
 75
     0
  3
Standard
100
AcDbAlignedDimension
 13
3397.215360501431
 23
244.93004835818
 33
0.0
 14
3697.215360501431
 24
244.7500483581801
 34
0.0
100
AcDbRotatedDimension
1001
ACAD
1000
DSTYLE
1002
{
1070
   140
1040
20.0
1070
    41
1040
10.0
1070
   343
1005
15D9
1070
   342
1005
0
1070
   173
1070
     1
1070
   344
1005
15D9
1002
}
  0
DIMENSION
  5
1509
330
1E
100
AcDbEntity
  8
図面
  6
Continuous
100
AcDbDimension
280
     0
  2
*D5
 10
3737.147684051855
 20
191.3250483581801
 30
0.0
 11
3726.147684051855
 21
51.32504835818006
 31
0.0
 70
    32
 71
     5
 42
280.0
 73
     0
 74
     0
 75
     0
  3
Standard
100
AcDbAlignedDimension
 13
3695.190360501431
 23
-88.67495164181992
 33
0.0
 14
3695.190360501431
 24
191.3250483581801
 34
0.0
 50
90.0
100
AcDbRotatedDimension
1001
ACAD
1000
DSTYLE
1002
{
1070
   140
1040
20.0
1070
    41
1040
10.0
1070
   343
1005
15D9
1070
   342
1005
0
1070
   173
1070
     1
1070
   344
1005
15D9
1002
}
  0
CIRCLE
  5
1516
330
1E
100
AcDbEntity
  8
図面
  6
Continuous
100
AcDbCircle
 10
3103.665360501431
 20
51.32504835818008
 30
0.0
 40
78.5
  0
CIRCLE
  5
1517
330
1E
100
AcDbEntity
  8
図面
  6
Continuous
100
AcDbCircle
 10
3103.665360501431
 20
51.32504835818008
 30
0.0
 40
140.0
  0
CIRCLE
  5
151A
330
1E
100
AcDbEntity
  8
図面
  6
Continuous
100
AcDbCircle
 10
3103.665360501431
 20
51.32504835818017
 30
0.0
 40
137.975
  0
LINE
  5
1535
330
1E
100
AcDbEntity
  8
図面
  6
Continuous
100
AcDbLine
 10
3401.215360501431
 20
126.3250483581802
 30
0.0
 11
3402.215360501431
 21
126.3250483581802
 31
0.0
  0
LINE
  5
1536
330
1E
100
AcDbEntity
  8
図面
  6
Continuous
100
AcDbLine
 10
3401.215360501431
 20
-23.67495164182003
 30
0.0
 11
3402.215360501431
 21
-23.67495164182003
 31
0.0
  0
LWPOLYLINE
  5
1959
330
1E
100
AcDbEntity
  8
ﾚｲﾔ1
100
AcDbPolyline
 90
        4
 70
     1
 43
0.0
 10
2735.322131398528
 20
571.4068404535469
 10
3982.739936623033
 20
571.4068404535469
 10
3982.739936623033
 20
-310.5932295153676
 10
2735.322131398528
 20
-310.5932295153676
  0
LINE
  5
195A
330
1E
100
AcDbEntity
  8
図面枠
  6
Continuous
100
AcDbLine
 10
3915.972706667867
 20
534.7550799829127
 30
0.0
 11
2791.662561289917
 21
534.7550799829127
 31
0.0
  0
LINE
  5
195B
330
1E
100
AcDbEntity
  8
図面枠
  6
Continuous
100
AcDbLine
 10
2800.423419565612
 20
525.9942217072179
 30
0.0
 11
3907.211848392254
 21
525.9942217072179
 31
0.0
  0
LINE
  5
195C
330
1E
100
AcDbEntity
  8
図面枠
  6
Continuous
100
AcDbLine
 10
2791.662561289917
 20
534.7550799829127
 30
0.0
 11
2791.662561289917
 21
-259.5627370114033
 31
0.0
  0
LINE
  5
195D
330
1E
100
AcDbEntity
  8
図面枠
  6
Continuous
100
AcDbLine
 10
2800.423419565612
 20
-250.8018787357085
 30
0.0
 11
2800.423419565612
 21
525.9942217072179
 31
0.0
  0
LINE
  5
195E
330
1E
100
AcDbEntity
  8
図面枠
  6
Continuous
100
AcDbLine
 10
3907.211848392254
 20
-250.8018787357085
 30
0.0
 11
2800.423419565612
 21
-250.8018787357085
 31
0.0
  0
LINE
  5
195F
330
1E
100
AcDbEntity
  8
図面枠
  6
Continuous
100
AcDbLine
 10
3915.972706667867
 20
-259.5627370114033
 30
0.0
 11
2791.662561289917
 21
-259.5627370114033
 31
0.0
  0
LINE
  5
1960
330
1E
100
AcDbEntity
  8
図面枠
  6
Continuous
100
AcDbLine
 10
3907.211848392254
 20
-221.5990178168346
 30
0.0
 11
3784.559832532853
 21
-221.5990178168346
 31
0.0
  0
LINE
  5
1961
330
1E
100
AcDbEntity
  8
図面枠
  6
Continuous
100
AcDbLine
 10
3723.233824603071
 20
-201.4490437827366
 30
0.0
 11
3897.866932898152
 21
-201.4490437827366
 31
0.0
  0
LINE
  5
1962
330
1E
100
AcDbEntity
  8
図面枠
  6
Continuous
100
AcDbLine
 10
3784.559832532853
 20
-250.8018787357085
 30
0.0
 11
3907.211848392254
 21
-250.8018787357085
 31
0.0
  0
LINE
  5
1963
330
1E
100
AcDbEntity
  8
図面枠
  6
Continuous
100
AcDbLine
 10
3714.472966327377
 20
-177.7947264385237
 30
0.0
 11
3907.211848392254
 21
-177.7947264385237
 31
0.0
  0
LINE
  5
1964
330
1E
100
AcDbEntity
  8
図面枠
  6
Continuous
100
AcDbLine
 10
3907.211848392254
 20
-177.7947264385237
 30
0.0
 11
3699.871535867939
 21
-177.7947264385237
 31
0.0
  0
LINE
  5
1965
330
1E
100
AcDbEntity
  8
図面枠
  6
Continuous
100
AcDbLine
 10
3907.211848392254
 20
-221.5990178168346
 30
0.0
 11
3714.472966327377
 21
-221.5990178168346
 31
0.0
  0
MTEXT
  5
1966
330
1E
100
AcDbEntity
  8
図面枠
370
    30
100
AcDbMText
 10
3716.380235039161
 20
-261.9036449620328
 30
0.0
 40
12.84925880431951
 41
212.0690649596757
 46
0.0
 71
     1
 72
     5
  1
株式会社　関東油機サービス
 73
     1
 44
1.0
  0
LINE
  5
1967
330
1E
100
AcDbEntity
  8
図面枠
  6
Continuous
100
AcDbLine
 10
3740.755541154461
 20
-221.5990178168346
 30
0.0
 11
3699.871535867939
 21
-221.5990178168346
 31
0.0
  0
LINE
  5
1968
330
1E
100
AcDbEntity
  8
図面枠
  6
Continuous
100
AcDbLine
 10
3699.871535867939
 20
-236.2004482762715
 30
0.0
 11
3772.878688165206
 21
-236.2004482762715
 31
0.0
  0
LINE
  5
1969
330
1E
100
AcDbEntity
  8
図面枠
  6
Continuous
100
AcDbLine
 10
3699.871535867939
 20
-250.8018787357085
 30
0.0
 11
3740.755541154461
 21
-250.8018787357085
 31
0.0
  0
MTEXT
  5
196A
330
1E
100
AcDbEntity
  8
ﾚｲﾔ1
100
AcDbMText
 10
3724.445424598733
 20
-211.3134326344416
 30
0.0
 40
8.819999999999999
 41
165.5802214102046
 46
8.819999999999999
 71
     1
 72
     5
  1
{HMO-20010}
 73
     1
 44
1.0
  0
MTEXT
  5
196B
330
1E
100
AcDbEntity
  8
ﾚｲﾔ1
100
AcDbMText
 10
3723.960884185948
 20
-190.4364936353699
 30
0.0
 40
8.819999999999999
 41
165.5802214102046
 46
8.819999999999999
 71
     1
 72
     5
  1
{2000KN100st(旧型)}
 73
     1
 44
1.0
  0
LINE
  5
196C
330
1E
100
AcDbEntity
  8
図面枠
  6
Continuous
100
AcDbLine
 10
3699.871535867939
 20
-192.3961568979607
 30
0.0
 11
3699.871535867939
 21
-206.9975873573976
 31
0.0
  0
LINE
  5
196D
330
1E
100
AcDbEntity
  8
図面枠
  6
Continuous
100
AcDbLine
 10
3699.871535867939
 20
-206.9975873573976
 30
0.0
 11
3699.871535867939
 21
-221.5990178168346
 31
0.0
  0
LINE
  5
196E
330
1E
100
AcDbEntity
  8
図面枠
  6
Continuous
100
AcDbLine
 10
3699.871535867939
 20
-221.5990178168346
 30
0.0
 11
3699.871535867939
 21
-250.8018787357085
 31
0.0
  0
LINE
  5
196F
330
1E
100
AcDbEntity
  8
図面枠
  6
Continuous
100
AcDbLine
 10
3699.871535867939
 20
-221.5990178168346
 30
0.0
 11
3714.472966327377
 21
-221.5990178168346
 31
0.0
  0
LINE
  5
1970
330
1E
100
AcDbEntity
  8
図面枠
  6
Continuous
100
AcDbLine
 10
3699.871535867939
 20
-177.7947264385237
 30
0.0
 11
3699.871535867939
 21
-221.5990178168346
 31
0.0
  0
LINE
  5
1971
330
1E
100
AcDbEntity
  8
図面枠
  6
Continuous
100
AcDbLine
 10
3714.472966327377
 20
-221.5990178168346
 30
0.0
 11
3714.472966327377
 21
-177.7947264385237
 31
0.0
  0
LINE
  5
1972
330
1E
100
AcDbEntity
  8
図面枠
  6
Continuous
100
AcDbLine
 10
3699.871535867939
 20
-250.8018787357085
 30
0.0
 11
3699.871535867939
 21
-221.5990178168346
 31
0.0
  0
LINE
  5
1973
330
1E
100
AcDbEntity
  8
図面枠
  6
Continuous
100
AcDbLine
 10
3699.871535867939
 20
-177.7947264385237
 30
0.0
 11
3699.871535867939
 21
-192.3961568979607
 31
0.0
  0
LINE
  5
1974
330
1E
100
AcDbEntity
  8
図面枠
  6
Continuous
100
AcDbLine
 10
3714.472966327377
 20
-177.7947264385237
 30
0.0
 11
3699.871535867939
 21
-177.7947264385237
 31
0.0
  0
LINE
  5
1975
330
1E
100
AcDbEntity
  8
図面枠
  6
Continuous
100
AcDbLine
 10
3714.472966327377
 20
-221.5990178168346
 30
0.0
 11
3714.472966327377
 21
-177.7947264385237
 31
0.0
  0
TEXT
  5
1977
330
1E
100
AcDbEntity
  8
図面枠
100
AcDbText
 10
3707.058423577829
 20
-249.2286065032067
 30
0.0
 40
8.760858275672398
  1
１：3
100
AcDbText
  0
TEXT
  5
1978
330
1E
100
AcDbEntity
  8
図面枠
100
AcDbText
 10
3705.03849414248
 20
-234.8583687198409
 30
0.0
 40
11.6811443675632
  1
尺度
 41
1.125
100
AcDbText
  0
LINE
  5
1979
330
1E
100
AcDbEntity
  8
図面枠
  6
Continuous
100
AcDbLine
 10
3784.559832532853
 20
-250.8018787357085
 30
0.0
 11
3784.559832532853
 21
-221.5990178168346
 31
0.0
  0
LINE
  5
197A
330
1E
100
AcDbEntity
  8
図面枠
  6
Continuous
100
AcDbLine
 10
3784.559832532853
 20
-221.5990178168346
 30
0.0
 11
3772.878688165206
 21
-221.5990178168346
 31
0.0
  0
LINE
  5
197B
330
1E
100
AcDbEntity
  8
図面枠
  6
Continuous
100
AcDbLine
 10
3772.878688165206
 20
-250.8018787357085
 30
0.0
 11
3784.559832532853
 21
-250.8018787357085
 31
0.0
  0
LINE
  5
197C
330
1E
100
AcDbEntity
  8
図面枠
  6
Continuous
100
AcDbLine
 10
3772.878688165206
 20
-221.5990178168346
 30
0.0
 11
3740.755541154461
 21
-221.5990178168346
 31
0.0
  0
LINE
  5
197D
330
1E
100
AcDbEntity
  8
図面枠
  6
Continuous
100
AcDbLine
 10
3772.878688165206
 20
-221.5990178168346
 30
0.0
 11
3772.878688165206
 21
-250.8018787357085
 31
0.0
  0
LINE
  5
197E
330
1E
100
AcDbEntity
  8
図面枠
  6
Continuous
100
AcDbLine
 10
3740.755541154461
 20
-221.5990178168346
 30
0.0
 11
3740.755541154461
 21
-250.8018787357085
 31
0.0
  0
LINE
  5
197F
330
1E
100
AcDbEntity
  8
図面枠
  6
Continuous
100
AcDbLine
 10
3772.878688165206
 20
-250.8018787357085
 30
0.0
 11
3772.878688165206
 21
-221.5990178168346
 31
0.0
  0
LINE
  5
1980
330
1E
100
AcDbEntity
  8
図面枠
  6
Continuous
100
AcDbLine
 10
3740.755541154461
 20
-250.8018787357085
 30
0.0
 11
3772.878688165206
 21
-250.8018787357085
 31
0.0
  0
LINE
  5
1981
330
1E
100
AcDbEntity
  8
図面枠
  6
Continuous
100
AcDbLine
 10
3784.559832532853
 20
-221.5990178168346
 30
0.0
 11
3784.559832532853
 21
-250.8018787357085
 31
0.0
  0
LINE
  5
1982
330
1E
100
AcDbEntity
  8
図面枠
  6
Continuous
100
AcDbLine
 10
3740.755541154461
 20
-250.8018787357085
 30
0.0
 11
3740.755541154461
 21
-221.5990178168346
 31
0.0
  0
TEXT
  5
1983
330
1E
100
AcDbEntity
  8
図面枠
100
AcDbText
 10
3774.776874124967
 20
-247.0055068163494
 30
0.0
 40
8.760858275672398
  1
番
100
AcDbText
  0
TEXT
  5
1984
330
1E
100
AcDbEntity
  8
図面枠
100
AcDbText
 10
3774.776874124967
 20
-233.2117978934725
 30
0.0
 40
8.760858275672398
  1
図
100
AcDbText
  0
LINE
  5
1985
330
1E
100
AcDbEntity
  8
図面枠
  6
Continuous
100
AcDbLine
 10
3907.211848392254
 20
-177.7947264385237
 30
0.0
 11
3907.211848392254
 21
-221.5990178168346
 31
0.0
  0
LINE
  5
1986
330
1E
100
AcDbEntity
  8
図面枠
  6
Continuous
100
AcDbLine
 10
3907.211848392254
 20
-250.8018787357085
 30
0.0
 11
3907.211848392254
 21
-221.5990178168346
 31
0.0
  0
LINE
  5
1987
330
1E
100
AcDbEntity
  8
ﾚｲﾔ1
100
AcDbLine
 10
3628.629857336075
 20
359.5973469694085
 30
0.0
 11
3876.421592300616
 21
359.5973469694085
 31
0.0
  0
LINE
  5
1988
330
1E
100
AcDbEntity
  8
ﾚｲﾔ1
100
AcDbLine
 10
3628.629857336075
 20
404.957346969441
 30
0.0
 11
3876.421592300616
 21
404.957346969441
 31
0.0
  0
LINE
  5
1989
330
1E
100
AcDbEntity
  8
ﾚｲﾔ1
100
AcDbLine
 10
3628.629857336075
 20
450.3173469693106
 30
0.0
 11
3876.421592300616
 21
450.3173469693106
 31
0.0
  0
LINE
  5
198A
330
1E
100
AcDbEntity
  8
ﾚｲﾔ1
100
AcDbLine
 10
3628.629857336075
 20
427.6373469693758
 30
0.0
 11
3876.421592300616
 21
427.6373469693758
 31
0.0
  0
LINE
  5
198B
330
1E
100
AcDbEntity
  8
ﾚｲﾔ1
100
AcDbLine
 10
3628.629857336075
 20
472.9973469694085
 30
0.0
 11
3876.421592300616
 21
472.9973469694085
 31
0.0
  0
LINE
  5
198C
330
1E
100
AcDbEntity
  8
ﾚｲﾔ1
100
AcDbLine
 10
3628.629857336075
 20
382.2773469693433
 30
0.0
 11
3876.421592300616
 21
382.2773469693433
 31
0.0
  0
LINE
  5
198D
330
1E
100
AcDbEntity
  8
ﾚｲﾔ1
100
AcDbLine
 10
3628.629857336075
 20
336.9173469694737
 30
0.0
 11
3876.421592300616
 21
336.9173469694737
 31
0.0
  0
MTEXT
  5
198E
330
1E
100
AcDbEntity
  8
ﾚｲﾔ1
100
AcDbMText
 10
3629.496541805621
 20
345.411421474785
 30
0.0
 40
7.559999999999993
 41
1216.97628924517
 46
0.0
 71
     1
 72
     5
  1
重　　量
 73
     1
 44
1.0
101
Embedded Object
 70
     1
 10
1.0
 20
0.0
 30
0.0
 11
3629.496541805621
 21
345.411421474785
 31
0.0
 40
1216.97628924517
 41
0.0
 42
33.64199999999997
 43
7.559999999999993
 71
     2
 72
     1
 44
1216.97628924517
 45
27.0
 73
     0
 74
     0
 46
0.0
  0
MTEXT
  5
198F
330
1E
100
AcDbEntity
  8
ﾚｲﾔ1
100
AcDbMText
 10
3629.970854216183
 20
483.0380293978783
 30
0.0
 40
8.819999999999999
 41
1216.97628924517
 46
0.0
 71
     1
 72
     5
  1
能　　力
 73
     1
 44
1.0
101
Embedded Object
 70
     1
 10
1.0
 20
0.0
 30
0.0
 11
3629.970854216183
 21
483.0380293978783
 31
0.0
 40
1216.97628924517
 41
0.0
 42
38.51399999999999
 43
8.819999999999999
 71
     2
 72
     1
 44
1216.97628924517
 45
27.0
 73
     0
 74
     0
 46
0.0
  0
MTEXT
  5
1990
330
1E
100
AcDbEntity
  8
ﾚｲﾔ1
100
AcDbMText
 10
3631.220140668293
 20
369.7279909852831
 30
0.0
 40
7.559999999999993
 41
1216.97628924517
 46
0.0
 71
     1
 72
     5
  1
ロ　ッ　ド　径
 73
     1
 44
1.0
101
Embedded Object
 70
     1
 10
1.0
 20
0.0
 30
0.0
 11
3631.220140668293
 21
369.7279909852831
 31
0.0
 40
1216.97628924517
 41
0.0
 42
59.72399999999994
 43
7.559999999999993
 71
     2
 72
     1
 44
1216.97628924517
 45
27.0
 73
     0
 74
     0
 46
0.0
  0
MTEXT
  5
1991
330
1E
100
AcDbEntity
  8
ﾚｲﾔ1
100
AcDbMText
 10
3629.69354052264
 20
415.68242979396
 30
0.0
 40
8.819999999999999
 41
1216.97628924517
 46
0.0
 71
     1
 72
     5
  1
使　用　圧　力
 73
     1
 44
1.0
101
Embedded Object
 70
     1
 10
1.0
 20
0.0
 30
0.0
 11
3629.69354052264
 21
415.68242979396
 31
0.0
 40
1216.97628924517
 41
0.0
 42
70.85399999999998
 43
8.819999999999999
 71
     2
 72
     1
 44
1216.97628924517
 45
27.0
 73
     0
 74
     0
 46
0.0
  0
MTEXT
  5
1992
330
1E
100
AcDbEntity
  8
ﾚｲﾔ1
100
AcDbMText
 10
3629.844205502221
 20
437.7257594131804
 30
0.0
 40
8.819999999999999
 41
1216.976289245169
 46
6.3
 71
     1
 72
     5
  1
{ス　ト　ロ　-　ク}
 73
     1
 44
1.0
  0
MTEXT
  5
1993
330
1E
100
AcDbEntity
  8
ﾚｲﾔ1
100
AcDbMText
 10
3629.757235357768
 20
393.3956544862301
 30
0.0
 40
8.819999999999999
 41
1216.97628924517
 46
0.0
 71
     1
 72
     5
  1
受　圧　面　積
 73
     1
 44
1.0
101
Embedded Object
 70
     1
 10
1.0
 20
0.0
 30
0.0
 11
3629.757235357768
 21
393.3956544862301
 31
0.0
 40
1216.97628924517
 41
0.0
 42
71.27399999999999
 43
8.819999999999999
 71
     2
 72
     1
 44
1216.97628924517
 45
27.0
 73
     0
 74
     0
 46
0.0
  0
MTEXT
  5
1994
330
1E
100
AcDbEntity
  8
ﾚｲﾔ1
100
AcDbMText
 10
3629.522682259823
 20
461.4840183160208
 30
0.0
 40
8.819999999999999
 41
1216.97628924517
 46
0.0
 71
     1
 72
     5
  1
機　械　高　さ
 73
     1
 44
1.0
101
Embedded Object
 70
     1
 10
1.0
 20
0.0
 30
0.0
 11
3629.522682259823
 21
461.4840183160208
 31
0.0
 40
1216.97628924517
 41
0.0
 42
69.46799999999998
 43
8.819999999999999
 71
     2
 72
     1
 44
1216.97628924517
 45
27.0
 73
     0
 74
     0
 46
0.0
  0
TEXT
  5
1995
330
1E
100
AcDbEntity
  8
ﾚｲﾔ1
100
AcDbText
 10
3859.330216004988
 20
475.714002263633
 30
0.0
 40
8.399999999999999
  1
KN
 50
360.0
100
AcDbText
  0
TEXT
  5
1996
330
1E
100
AcDbEntity
  8
ﾚｲﾔ1
100
AcDbText
 10
3803.790388517312
 20
475.9668234103764
 30
0.0
 40
8.399999999999999
  1
2000
 50
360.0
100
AcDbText
  0
TEXT
  5
1997
330
1E
100
AcDbEntity
  8
ﾚｲﾔ1
100
AcDbText
 10
3859.330216004988
 20
452.8063664144543
 30
0.0
 40
8.399999999999999
  1
mm
 50
360.0
100
AcDbText
  0
MTEXT
  5
1998
330
1E
100
AcDbEntity
  8
ﾚｲﾔ1
100
AcDbMText
 10
3801.335181549993
 20
347.0879548377529
 30
0.0
 40
8.399999999999999
 41
0.0
 46
6.0
 71
     1
 72
     5
  1
{約}
 73
     1
 44
1.0
  0
MTEXT
  5
1999
330
1E
100
AcDbEntity
  8
ﾚｲﾔ1
100
AcDbMText
 10
3803.605122313948
 20
369.2536221235697
 30
0.0
 40
8.399999999999999
 41
0.0
 46
12.0
 71
     1
 72
     5
  1
{Φ}
 73
     1
 44
1.0
  0
TEXT
  5
199A
330
1E
100
AcDbEntity
  8
ﾚｲﾔ1
100
AcDbText
 10
3853.72711446065
 20
383.9625009616776
 30
0.0
 40
8.399999999999999
  1
cm2
 50
360.0
100
AcDbText
  0
TEXT
  5
199B
330
1E
100
AcDbEntity
  8
ﾚｲﾔ1
100
AcDbText
 10
3859.330216004988
 20
429.9907067166813
 30
0.0
 40
8.399999999999999
  1
mm
 50
360.0
100
AcDbText
  0
TEXT
  5
199C
330
1E
100
AcDbEntity
  8
ﾚｲﾔ1
100
AcDbText
 10
3859.330216004988
 20
339.1668714272729
 30
0.0
 40
8.399999999999999
  1
Kg
 50
360.0
100
AcDbText
  0
TEXT
  5
199D
330
1E
100
AcDbEntity
  8
ﾚｲﾔ1
100
AcDbText
 10
3853.72711446065
 20
407.758703429828
 30
0.0
 40
8.399999999999999
  1
Mpa
 50
360.0
100
AcDbText
  0
TEXT
  5
199E
330
1E
100
AcDbEntity
  8
ﾚｲﾔ1
100
AcDbText
 10
3859.330216004988
 20
362.6049210976283
 30
0.0
 40
8.399999999999999
  1
mm
 50
360.0
100
AcDbText
  0
TEXT
  5
199F
330
1E
100
AcDbEntity
  8
ﾚｲﾔ1
100
AcDbText
 10
3803.790388517312
 20
452.7173904943685
 30
0.0
 40
8.399999999999999
  1
300
 50
360.0
100
AcDbText
  0
TEXT
  5
19A0
330
1E
100
AcDbEntity
  8
ﾚｲﾔ1
100
AcDbText
 10
3803.790388517312
 20
429.9854976552944
 30
0.0
 40
8.399999999999999
  1
100
 50
360.0
100
AcDbText
  0
TEXT
  5
19A1
330
1E
100
AcDbEntity
  8
ﾚｲﾔ1
100
AcDbText
 10
3803.790388517312
 20
407.0088834818392
 30
0.0
 40
8.399999999999999
  1
70
 50
360.0
100
AcDbText
  0
TEXT
  5
19A2
330
1E
100
AcDbEntity
  8
ﾚｲﾔ1
100
AcDbText
 10
3803.790388517312
 20
384.8480070897084
 30
0.0
 40
8.399999999999999
  1
283.4
 50
360.0
100
AcDbText
  0
TEXT
  5
19A3
330
1E
100
AcDbEntity
  8
ﾚｲﾔ1
100
AcDbText
 10
3812.080962535329
 20
361.6591906895102
 30
0.0
 40
8.399999999999999
  1
150
 50
360.0
100
AcDbText
  0
TEXT
  5
19A4
330
1E
100
AcDbEntity
  8
ﾚｲﾔ1
100
AcDbText
 10
3814.273250777715
 20
338.5716982936426
 30
0.0
 40
8.399999999999999
  1
150
 50
360.0
100
AcDbText
  0
LINE
  5
19A5
330
1E
100
AcDbEntity
  8
ﾚｲﾔ1
100
AcDbLine
 10
3628.629857336075
 20
495.6803845519372
 30
0.0
 11
3660.759044976972
 21
495.6700813905741
 31
0.0
  0
MTEXT
  5
19A6
330
1E
100
AcDbEntity
  8
ﾚｲﾔ1
100
AcDbMText
 10
3630.324782644792
 20
504.0386423401474
 30
0.0
 40
7.559999999999993
 41
1216.97628924517
 46
0.0
 71
     1
 72
     5
  1
仕  様
 73
     1
 44
1.0
101
Embedded Object
 70
     1
 10
1.0
 20
0.0
 30
0.0
 11
3630.324782644792
 21
504.0386423401474
 31
0.0
 40
1216.97628924517
 41
0.0
 42
24.82199999999998
 43
7.559999999999993
 71
     2
 72
     1
 44
1216.97628924517
 45
27.0
 73
     0
 74
     0
 46
0.0
  0
LINE
  5
19A7
330
1E
100
AcDbEntity
  8
図面枠
  6
Continuous
100
AcDbLine
 10
3907.211848392254
 20
525.9942217072179
 30
0.0
 11
3907.211848392254
 21
-250.8018787357085
 31
0.0
  0
LINE
  5
19A8
330
1E
100
AcDbEntity
  8
図面枠
  6
Continuous
100
AcDbLine
 10
3915.972706667867
 20
534.7550799829127
 30
0.0
 11
3915.972706667867
 21
-259.5627370114033
 31
0.0
  0
TEXT
  5
1A19
102
{ACAD_REACTORS
330
1A1B
102
}
330
1E
100
AcDbEntity
  8
図面枠
100
AcDbText
 10
3701.852953578218
 20
-196.8201727874111
 30
0.0
 40
12.671955720169
  1
名
100
AcDbText
  0
TEXT
  5
1A1A
102
{ACAD_REACTORS
330
1A1B
102
}
330
1E
100
AcDbEntity
  8
図面枠
100
AcDbText
 10
3701.852953578218
 20
-216.7717874794499
 30
0.0
 40
12.671955720169
  1
称
100
AcDbText
  0
ENDSEC
  0
SECTION
  2
OBJECTS
  0
DICTIONARY
  5
C
330
0
100
AcDbDictionary
281
     1
  3
ACAD_COLOR
350
1337
  3
ACAD_DETAILVIEWSTYLE
350
18DA
  3
ACAD_GROUP
350
D
  3
ACAD_LAYOUT
350
19
  3
ACAD_MATERIAL
350
130D
  3
ACAD_MLEADERSTYLE
350
135C
  3
ACAD_MLINESTYLE
350
16
  3
ACAD_PLOTSETTINGS
350
18
  3
ACAD_PLOTSTYLENAME
350
E
  3
ACAD_SCALELIST
350
133A
  3
ACAD_SECTIONVIEWSTYLE
350
18DB
  3
ACAD_TABLESTYLE
350
1338
  3
ACAD_VISUALSTYLE
350
1326
  3
ACDB_RECOMPOSE_DATA
350
1A1E
  3
AcDbVariableDictionary
350
15B6
  3
APPDATA
350
1692
  0
SUN
  5
18DC
330
1687
100
AcDbSun
 90
        1
290
     0
 63
     7
421
 16777215
 40
1.0
291
     1
 91
  2455826
 92
 54000000
292
     0
 70
     2
 71
   256
280
     1
  0
DICTIONARY
  5
1578
330
2
100
AcDbDictionary
280
     1
281
     1
  3
ACAD_LAYERFILTERS
360
157A
  3
ACAD_LAYERSTATES
360
1881
  3
ACLYDICTIONARY
360
1579
  0
DICTIONARY
  5
157B
330
10
100
AcDbDictionary
280
     1
281
     1
  3
ADSK_XREC_LAYER_RECONCILED
360
157C
  0
DICTIONARY
  5
157D
330
2A
100
AcDbDictionary
280
     1
281
     1
  3
ADSK_XREC_LAYER_RECONCILED
360
157E
  0
DICTIONARY
  5
157F
330
31
100
AcDbDictionary
280
     1
281
     1
  3
ADSK_XREC_LAYER_RECONCILED
360
1580
  0
DICTIONARY
  5
1581
330
38
100
AcDbDictionary
280
     1
281
     1
  3
ADSK_XREC_LAYER_RECONCILED
360
1582
  0
DICTIONARY
  5
139B
330
139A
100
AcDbDictionary
280
     1
281
     1
  3
ADSK_XREC_LAYER_RECONCILED
360
1583
  0
DICTIONARY
  5
139D
330
139C
100
AcDbDictionary
280
     1
281
     1
  3
ADSK_XREC_LAYER_RECONCILED
360
1584
  0
DICTIONARY
  5
139F
330
139E
100
AcDbDictionary
280
     1
281
     1
  3
ADSK_XREC_LAYER_RECONCILED
360
1585
  0
DICTIONARY
  5
18D4
330
1E
100
AcDbDictionary
280
     1
281
     1
  3
DIM_BOUNDING_BOXES_V1
360
18D5
  0
DICTIONARY
  5
1337
102
{ACAD_REACTORS
330
C
102
}
330
C
100
AcDbDictionary
281
     1
  0
DICTIONARY
  5
18DA
102
{ACAD_REACTORS
330
C
102
}
330
C
100
AcDbDictionary
281
     1
  0
DICTIONARY
  5
D
102
{ACAD_REACTORS
330
C
102
}
330
C
100
AcDbDictionary
281
     1
  3
*A1
350
1A1B
  0
DICTIONARY
  5
19
102
{ACAD_REACTORS
330
C
102
}
330
C
100
AcDbDictionary
281
     1
  3
Model
350
21
  3
ﾚｲｱｳﾄ1
350
1D
  0
DICTIONARY
  5
130D
102
{ACAD_REACTORS
330
C
102
}
330
C
100
AcDbDictionary
281
     1
  3
ByBlock
350
1316
  3
ByLayer
350
130E
  3
Global
350
131E
  0
DICTIONARY
  5
135C
102
{ACAD_REACTORS
330
C
102
}
330
C
100
AcDbDictionary
281
     1
  3
Standard
350
135D
  0
DICTIONARY
  5
16
102
{ACAD_REACTORS
330
C
102
}
330
C
100
AcDbDictionary
281
     1
  3
Standard
350
17
  0
DICTIONARY
  5
18
102
{ACAD_REACTORS
330
C
102
}
330
C
100
AcDbDictionary
281
     1
  0
ACDBDICTIONARYWDFLT
  5
E
102
{ACAD_REACTORS
330
C
102
}
330
C
100
AcDbDictionary
281
     1
  3
Normal
350
F
100
AcDbDictionaryWithDefault
340
F
  0
DICTIONARY
  5
133A
102
{ACAD_REACTORS
330
C
102
}
330
C
100
AcDbDictionary
281
     1
  3
A0
350
133B
  3
A1
350
133C
  3
A2
350
133D
  3
A3
350
133E
  3
A4
350
133F
  3
A5
350
1340
  3
A6
350
1341
  3
A7
350
1342
  3
A8
350
1343
  3
A9
350
1344
  3
B0
350
1345
  3
B1
350
1346
  3
B2
350
1347
  3
B3
350
1348
  3
B4
350
1349
  3
B5
350
134A
  3
B6
350
134B
  3
B7
350
134C
  3
B8
350
134D
  3
B9
350
134E
  3
C0
350
134F
  3
C1
350
1350
  3
C2
350
1351
  3
C3
350
1352
  3
C4
350
1353
  3
C5
350
1354
  3
C6
350
1355
  3
C7
350
1356
  3
C8
350
1357
  3
C9
350
1358
  3
D0
350
1359
  3
D1
350
135A
  3
D2
350
135B
  0
DICTIONARY
  5
18DB
102
{ACAD_REACTORS
330
C
102
}
330
C
100
AcDbDictionary
281
     1
  0
DICTIONARY
  5
1338
102
{ACAD_REACTORS
330
C
102
}
330
C
100
AcDbDictionary
281
     1
  3
Standard
350
1339
  0
DICTIONARY
  5
1326
102
{ACAD_REACTORS
330
C
102
}
330
C
100
AcDbDictionary
281
     1
  3
2dWireframe
350
132C
  3
3D Hidden
350
132E
  3
3dWireframe
350
132D
  3
Basic
350
132B
  3
Brighten
350
1332
  3
ColorChange
350
1336
  3
Conceptual
350
132F
  3
Dim
350
1331
  3
EdgeColorOff
350
168C
  3
Facepattern
350
1335
  3
Flat
350
1327
  3
FlatWithEdges
350
1328
  3
Gouraud
350
1329
  3
GouraudWithEdges
350
132A
  3
Hidden
350
1689
  3
JitterOff
350
168A
  3
Linepattern
350
1334
  3
OverhangOff
350
168B
  3
Realistic
350
1330
  3
Shaded
350
1691
  3
Shaded with edges
350
1690
  3
Shades of Gray
350
168D
  3
Sketchy
350
168E
  3
Thicken
350
1333
  3
Wireframe
350
1688
  3
X-Ray
350
168F
  0
XRECORD
  5
1A1E
102
{ACAD_REACTORS
330
C
102
}
330
C
100
AcDbXrecord
280
     1
 90
        1
330
1339
  0
DICTIONARY
  5
15B6
102
{ACAD_REACTORS
330
C
102
}
330
C
100
AcDbDictionary
281
     1
  3
CANNOSCALE
350
15BA
  3
CMLEADERSTYLE
350
15B8
  3
CTABLESTYLE
350
15B7
  3
DIMASSOC
350
1676
  3
LIGHTINGUNITS
350
15BB
  3
MSLTSCALE
350
15B9
  3
PROJECTNAME
350
1677
  3
XCLIPFRAME
350
18D9
  0
DICTIONARY
  5
1692
102
{ACAD_REACTORS
330
C
102
}
330
C
100
AcDbDictionary
281
     1
  0
DICTIONARY
  5
157A
102
{ACAD_REACTORS
330
1578
102
}
330
1578
100
AcDbDictionary
281
     1
  0
DICTIONARY
  5
1881
102
{ACAD_REACTORS
330
1578
102
}
330
1578
100
AcDbDictionary
281
     1
  0
DICTIONARY
  5
1579
102
{ACAD_REACTORS
330
1578
102
}
330
1578
100
AcDbDictionary
281
     1
1001
ACAD
1000
<All
  0
XRECORD
  5
157C
102
{ACAD_REACTORS
330
157B
102
}
330
157B
100
AcDbXrecord
280
     1
290
     1
  0
XRECORD
  5
157E
102
{ACAD_REACTORS
330
157D
102
}
330
157D
100
AcDbXrecord
280
     1
290
     1
  0
XRECORD
  5
1580
102
{ACAD_REACTORS
330
157F
102
}
330
157F
100
AcDbXrecord
280
     1
290
     1
  0
XRECORD
  5
1582
102
{ACAD_REACTORS
330
1581
102
}
330
1581
100
AcDbXrecord
280
     1
290
     1
  0
XRECORD
  5
1583
102
{ACAD_REACTORS
330
139B
102
}
330
139B
100
AcDbXrecord
280
     1
290
     1
  0
XRECORD
  5
1584
102
{ACAD_REACTORS
330
139D
102
}
330
139D
100
AcDbXrecord
280
     1
290
     1
  0
XRECORD
  5
1585
102
{ACAD_REACTORS
330
139F
102
}
330
139F
100
AcDbXrecord
280
     1
290
     1
  0
DICTIONARY
  5
18D5
102
{ACAD_REACTORS
330
18D4
102
}
330
18D4
100
AcDbDictionary
281
     1
  0
GROUP
  5
1A1B
102
{ACAD_REACTORS
330
D
102
}
330
D
100
AcDbGroup
300

 70
     1
 71
     1
340
1A19
340
1A1A
  0
LAYOUT
  5
21
102
{ACAD_REACTORS
330
19
102
}
330
19
100
AcDbPlotSettings
  1

  2
none_device
  4
Letter_(8.50_x_11.00_Inches)
  6

 40
6.349999904632567
 41
6.349999904632567
 42
6.350006103515625
 43
6.350006103515625
 44
215.8999938964844
 45
279.3999938964844
 46
0.0
 47
0.0
 48
0.0
 49
0.0
140
0.0
141
0.0
142
1.0
143
215.7523563520808
 70
 11952
 72
     0
 73
     1
 74
     0
  7

 75
     0
 76
     0
 77
     2
 78
   300
147
0.0046349435848947
148
-20118.4321794372
149
15820.95322352378
100
AcDbLayout
  1
Model
 70
     1
 71
     0
 10
0.0
 20
0.0
 11
12.0
 21
9.0
 12
0.0
 22
0.0
 32
0.0
 14
2735.322131398528
 24
-310.5932295153676
 34
0.0
 15
3982.739936623033
 25
571.4068404535469
 35
0.0
146
0.0
 13
0.0
 23
0.0
 33
0.0
 16
1.0
 26
0.0
 36
0.0
 17
0.0
 27
1.0
 37
0.0
 76
     0
330
1E
331
1687
1001
ACAD_PSEXT
1000
なし
1000
なし
1000
適切ではありません
1000
新しいプロッタ環境設定名を選択しない限り、レイアウトは印刷されません。
1070
     0
  0
LAYOUT
  5
1D
102
{ACAD_REACTORS
330
19
102
}
330
19
100
AcDbPlotSettings
  1

  2
\\SOUKO01\倉庫プリンタ
  4

  6

 40
0.0
 41
0.0
 42
0.0
 43
0.0
 44
0.0
 45
0.0
 46
0.0
 47
0.0
 48
0.0
 49
0.0
140
0.0
141
0.0
142
1.0
143
1.0
 70
   688
 72
     0
 73
     0
 74
     5
  7

 75
    16
 76
     0
 77
     2
 78
   300
147
1.0
148
0.0
149
0.0
100
AcDbLayout
  1
ﾚｲｱｳﾄ1
 70
     1
 71
     1
 10
0.0
 20
0.0
 11
12.0
 21
9.0
 12
0.0
 22
0.0
 32
0.0
 14
1.000000000000000E+20
 24
1.000000000000000E+20
 34
1.000000000000000E+20
 15
-1.000000000000000E+20
 25
-1.000000000000000E+20
 35
-1.000000000000000E+20
146
0.0
 13
0.0
 23
0.0
 33
0.0
 16
1.0
 26
0.0
 36
0.0
 17
0.0
 27
1.0
 37
0.0
 76
     0
330
1A
  0
MATERIAL
  5
1316
330
130D
100
AcDbMaterial
  1
ByBlock
 72
     0
 73
     2
 43
0.0208333333333333
 43
0.0
 43
0.0
 43
0.0
 43
0.0
 43
0.0208333333333333
 43
0.0
 43
0.0
 43
0.0
 43
0.0
 43
1.0
 43
0.0
 43
0.0
 43
0.0
 43
0.0
 43
1.0
 77
     0
 78
     2
 47
0.0208333333333333
 47
0.0
 47
0.0
 47
0.0
 47
0.0
 47
0.0208333333333333
 47
0.0
 47
0.0
 47
0.0
 47
0.0
 47
1.0
 47
0.0
 47
0.0
 47
0.0
 47
0.0
 47
1.0
171
     0
172
     2
 49
0.0208333333333333
 49
0.0
 49
0.0
 49
0.0
 49
0.0
 49
0.0208333333333333
 49
0.0
 49
0.0
 49
0.0
 49
0.0
 49
1.0
 49
0.0
 49
0.0
 49
0.0
 49
0.0
 49
1.0
175
     0
176
     2
142
0.0208333333333333
142
0.0
142
0.0
142
0.0
142
0.0
142
0.0208333333333333
142
0.0
142
0.0
142
0.0
142
0.0
142
1.0
142
0.0
142
0.0
142
0.0
142
0.0
142
1.0
179
     0
270
     2
144
0.0208333333333333
144
0.0
144
0.0
144
0.0
144
0.0
144
0.0208333333333333
144
0.0
144
0.0
144
0.0
144
0.0
144
1.0
144
0.0
144
0.0
144
0.0
144
0.0
144
1.0
274
     2
147
0.0208333333333333
147
0.0
147
0.0
147
0.0
147
0.0
147
0.0208333333333333
147
0.0
147
0.0
147
0.0
147
0.0
147
1.0
147
0.0
147
0.0
147
0.0
147
0.0
147
1.0
 94
      127
  0
MATERIAL
  5
130E
330
130D
100
AcDbMaterial
  1
ByLayer
 72
     0
 73
     2
 43
0.0208333333333333
 43
0.0
 43
0.0
 43
0.0
 43
0.0
 43
0.0208333333333333
 43
0.0
 43
0.0
 43
0.0
 43
0.0
 43
1.0
 43
0.0
 43
0.0
 43
0.0
 43
0.0
 43
1.0
 77
     0
 78
     2
 47
0.0208333333333333
 47
0.0
 47
0.0
 47
0.0
 47
0.0
 47
0.0208333333333333
 47
0.0
 47
0.0
 47
0.0
 47
0.0
 47
1.0
 47
0.0
 47
0.0
 47
0.0
 47
0.0
 47
1.0
171
     0
172
     2
 49
0.0208333333333333
 49
0.0
 49
0.0
 49
0.0
 49
0.0
 49
0.0208333333333333
 49
0.0
 49
0.0
 49
0.0
 49
0.0
 49
1.0
 49
0.0
 49
0.0
 49
0.0
 49
0.0
 49
1.0
175
     0
176
     2
142
0.0208333333333333
142
0.0
142
0.0
142
0.0
142
0.0
142
0.0208333333333333
142
0.0
142
0.0
142
0.0
142
0.0
142
1.0
142
0.0
142
0.0
142
0.0
142
0.0
142
1.0
179
     0
270
     2
144
0.0208333333333333
144
0.0
144
0.0
144
0.0
144
0.0
144
0.0208333333333333
144
0.0
144
0.0
144
0.0
144
0.0
144
1.0
144
0.0
144
0.0
144
0.0
144
0.0
144
1.0
274
     2
147
0.0208333333333333
147
0.0
147
0.0
147
0.0
147
0.0
147
0.0208333333333333
147
0.0
147
0.0
147
0.0
147
0.0
147
1.0
147
0.0
147
0.0
147
0.0
147
0.0
147
1.0
 94
      127
  0
MATERIAL
  5
131E
330
130D
100
AcDbMaterial
  1
Global
 72
     0
 73
     2
 43
0.0208333333333333
 43
0.0
 43
0.0
 43
0.0
 43
0.0
 43
0.0208333333333333
 43
0.0
 43
0.0
 43
0.0
 43
0.0
 43
1.0
 43
0.0
 43
0.0
 43
0.0
 43
0.0
 43
1.0
 77
     0
 78
     2
 47
0.0208333333333333
 47
0.0
 47
0.0
 47
0.0
 47
0.0
 47
0.0208333333333333
 47
0.0
 47
0.0
 47
0.0
 47
0.0
 47
1.0
 47
0.0
 47
0.0
 47
0.0
 47
0.0
 47
1.0
171
     0
172
     2
 49
0.0208333333333333
 49
0.0
 49
0.0
 49
0.0
 49
0.0
 49
0.0208333333333333
 49
0.0
 49
0.0
 49
0.0
 49
0.0
 49
1.0
 49
0.0
 49
0.0
 49
0.0
 49
0.0
 49
1.0
175
     0
176
     2
142
0.0208333333333333
142
0.0
142
0.0
142
0.0
142
0.0
142
0.0208333333333333
142
0.0
142
0.0
142
0.0
142
0.0
142
1.0
142
0.0
142
0.0
142
0.0
142
0.0
142
1.0
179
     0
270
     2
144
0.0208333333333333
144
0.0
144
0.0
144
0.0
144
0.0
144
0.0208333333333333
144
0.0
144
0.0
144
0.0
144
0.0
144
1.0
144
0.0
144
0.0
144
0.0
144
0.0
144
1.0
274
     2
147
0.0208333333333333
147
0.0
147
0.0
147
0.0
147
0.0
147
0.0208333333333333
147
0.0
147
0.0
147
0.0
147
0.0
147
1.0
147
0.0
147
0.0
147
0.0
147
0.0
147
1.0
 94
      127
  0
MLEADERSTYLE
  5
135D
102
{ACAD_REACTORS
330
135C
102
}
330
135C
100
AcDbMLeaderStyle
179
     2
170
     2
171
     1
172
     0
 90
        2
 40
0.0
 41
0.0
173
     1
 91
-1056964608
340
13
 92
       -2
290
     1
 42
0.09
291
     1
 43
0.36
  3
Standard
341
0
 44
0.18
300

342
11
174
     1
178
     6
175
     1
176
     0
 93
-1056964608
 45
0.18
292
     0
297
     0
 46
0.18
343
0
 94
-1056964608
 47
1.0
 49
1.0
140
1.0
293
     1
141
0.0
294
     1
177
     0
142
1.0
295
     0
296
     0
143
0.125
271
     0
272
     9
273
     9
298
     0
1001
ACAD
1000
AcRTDxfName
1000
MLEADERSTYLE
  0
MLINESTYLE
  5
17
102
{ACAD_REACTORS
330
16
102
}
330
16
100
AcDbMlineStyle
  2
STANDARD
 70
     0
  3

 62
   256
 51
90.0
 52
90.0
 71
     2
 49
0.5
 62
   256
  6
BYLAYER
 49
-0.5
 62
   256
  6
BYLAYER
  0
ACDBPLACEHOLDER
  5
F
102
{ACAD_REACTORS
330
E
102
}
330
E
  0
SCALE
  5
133B
102
{ACAD_REACTORS
330
133A
102
}
330
133A
100
AcDbScale
 70
     0
300
1:1
140
1.0
141
1.0
290
     1
1001
ACAD
1000
AcRTDxfName
1000
SCALE
  0
SCALE
  5
133C
102
{ACAD_REACTORS
330
133A
102
}
330
133A
100
AcDbScale
 70
     0
300
1:2
140
1.0
141
2.0
290
     0
1001
ACAD
1000
AcRTDxfName
1000
SCALE
  0
SCALE
  5
133D
102
{ACAD_REACTORS
330
133A
102
}
330
133A
100
AcDbScale
 70
     0
300
1:4
140
1.0
141
4.0
290
     0
1001
ACAD
1000
AcRTDxfName
1000
SCALE
  0
SCALE
  5
133E
102
{ACAD_REACTORS
330
133A
102
}
330
133A
100
AcDbScale
 70
     0
300
1:5
140
1.0
141
5.0
290
     0
1001
ACAD
1000
AcRTDxfName
1000
SCALE
  0
SCALE
  5
133F
102
{ACAD_REACTORS
330
133A
102
}
330
133A
100
AcDbScale
 70
     0
300
1:8
140
1.0
141
8.0
290
     0
1001
ACAD
1000
AcRTDxfName
1000
SCALE
  0
SCALE
  5
1340
102
{ACAD_REACTORS
330
133A
102
}
330
133A
100
AcDbScale
 70
     0
300
1:10
140
1.0
141
10.0
290
     0
1001
ACAD
1000
AcRTDxfName
1000
SCALE
  0
SCALE
  5
1341
102
{ACAD_REACTORS
330
133A
102
}
330
133A
100
AcDbScale
 70
     0
300
1:16
140
1.0
141
16.0
290
     0
1001
ACAD
1000
AcRTDxfName
1000
SCALE
  0
SCALE
  5
1342
102
{ACAD_REACTORS
330
133A
102
}
330
133A
100
AcDbScale
 70
     0
300
1:20
140
1.0
141
20.0
290
     0
1001
ACAD
1000
AcRTDxfName
1000
SCALE
  0
SCALE
  5
1343
102
{ACAD_REACTORS
330
133A
102
}
330
133A
100
AcDbScale
 70
     0
300
1:30
140
1.0
141
30.0
290
     0
1001
ACAD
1000
AcRTDxfName
1000
SCALE
  0
SCALE
  5
1344
102
{ACAD_REACTORS
330
133A
102
}
330
133A
100
AcDbScale
 70
     0
300
1:40
140
1.0
141
40.0
290
     0
1001
ACAD
1000
AcRTDxfName
1000
SCALE
  0
SCALE
  5
1345
102
{ACAD_REACTORS
330
133A
102
}
330
133A
100
AcDbScale
 70
     0
300
1:50
140
1.0
141
50.0
290
     0
1001
ACAD
1000
AcRTDxfName
1000
SCALE
  0
SCALE
  5
1346
102
{ACAD_REACTORS
330
133A
102
}
330
133A
100
AcDbScale
 70
     0
300
1:100
140
1.0
141
100.0
290
     0
1001
ACAD
1000
AcRTDxfName
1000
SCALE
  0
SCALE
  5
1347
102
{ACAD_REACTORS
330
133A
102
}
330
133A
100
AcDbScale
 70
     0
300
2:1
140
2.0
141
1.0
290
     0
1001
ACAD
1000
AcRTDxfName
1000
SCALE
  0
SCALE
  5
1348
102
{ACAD_REACTORS
330
133A
102
}
330
133A
100
AcDbScale
 70
     0
300
4:1
140
4.0
141
1.0
290
     0
1001
ACAD
1000
AcRTDxfName
1000
SCALE
  0
SCALE
  5
1349
102
{ACAD_REACTORS
330
133A
102
}
330
133A
100
AcDbScale
 70
     0
300
8:1
140
8.0
141
1.0
290
     0
1001
ACAD
1000
AcRTDxfName
1000
SCALE
  0
SCALE
  5
134A
102
{ACAD_REACTORS
330
133A
102
}
330
133A
100
AcDbScale
 70
     0
300
10:1
140
10.0
141
1.0
290
     0
1001
ACAD
1000
AcRTDxfName
1000
SCALE
  0
SCALE
  5
134B
102
{ACAD_REACTORS
330
133A
102
}
330
133A
100
AcDbScale
 70
     0
300
100:1
140
100.0
141
1.0
290
     0
1001
ACAD
1000
AcRTDxfName
1000
SCALE
  0
SCALE
  5
134C
102
{ACAD_REACTORS
330
133A
102
}
330
133A
100
AcDbScale
 70
     0
300
1/128" = 1'-0"
140
0.0078125
141
12.0
290
     0
1001
ACAD
1000
AcRTDxfName
1000
SCALE
  0
SCALE
  5
134D
102
{ACAD_REACTORS
330
133A
102
}
330
133A
100
AcDbScale
 70
     0
300
1/64" = 1'-0"
140
0.015625
141
12.0
290
     0
1001
ACAD
1000
AcRTDxfName
1000
SCALE
  0
SCALE
  5
134E
102
{ACAD_REACTORS
330
133A
102
}
330
133A
100
AcDbScale
 70
     0
300
1/32" = 1'-0"
140
0.03125
141
12.0
290
     0
1001
ACAD
1000
AcRTDxfName
1000
SCALE
  0
SCALE
  5
134F
102
{ACAD_REACTORS
330
133A
102
}
330
133A
100
AcDbScale
 70
     0
300
1/16" = 1'-0"
140
0.0625
141
12.0
290
     0
1001
ACAD
1000
AcRTDxfName
1000
SCALE
  0
SCALE
  5
1350
102
{ACAD_REACTORS
330
133A
102
}
330
133A
100
AcDbScale
 70
     0
300
3/32" = 1'-0"
140
0.09375
141
12.0
290
     0
1001
ACAD
1000
AcRTDxfName
1000
SCALE
  0
SCALE
  5
1351
102
{ACAD_REACTORS
330
133A
102
}
330
133A
100
AcDbScale
 70
     0
300
1/8" = 1'-0"
140
0.125
141
12.0
290
     0
1001
ACAD
1000
AcRTDxfName
1000
SCALE
  0
SCALE
  5
1352
102
{ACAD_REACTORS
330
133A
102
}
330
133A
100
AcDbScale
 70
     0
300
3/16" = 1'-0"
140
0.1875
141
12.0
290
     0
1001
ACAD
1000
AcRTDxfName
1000
SCALE
  0
SCALE
  5
1353
102
{ACAD_REACTORS
330
133A
102
}
330
133A
100
AcDbScale
 70
     0
300
1/4" = 1'-0"
140
0.25
141
12.0
290
     0
1001
ACAD
1000
AcRTDxfName
1000
SCALE
  0
SCALE
  5
1354
102
{ACAD_REACTORS
330
133A
102
}
330
133A
100
AcDbScale
 70
     0
300
3/8" = 1'-0"
140
0.375
141
12.0
290
     0
1001
ACAD
1000
AcRTDxfName
1000
SCALE
  0
SCALE
  5
1355
102
{ACAD_REACTORS
330
133A
102
}
330
133A
100
AcDbScale
 70
     0
300
1/2" = 1'-0"
140
0.5
141
12.0
290
     0
1001
ACAD
1000
AcRTDxfName
1000
SCALE
  0
SCALE
  5
1356
102
{ACAD_REACTORS
330
133A
102
}
330
133A
100
AcDbScale
 70
     0
300
3/4" = 1'-0"
140
0.75
141
12.0
290
     0
1001
ACAD
1000
AcRTDxfName
1000
SCALE
  0
SCALE
  5
1357
102
{ACAD_REACTORS
330
133A
102
}
330
133A
100
AcDbScale
 70
     0
300
1" = 1'-0"
140
1.0
141
12.0
290
     0
1001
ACAD
1000
AcRTDxfName
1000
SCALE
  0
SCALE
  5
1358
102
{ACAD_REACTORS
330
133A
102
}
330
133A
100
AcDbScale
 70
     0
300
1-1/2" = 1'-0"
140
1.5
141
12.0
290
     0
1001
ACAD
1000
AcRTDxfName
1000
SCALE
  0
SCALE
  5
1359
102
{ACAD_REACTORS
330
133A
102
}
330
133A
100
AcDbScale
 70
     0
300
3" = 1'-0"
140
3.0
141
12.0
290
     0
1001
ACAD
1000
AcRTDxfName
1000
SCALE
  0
SCALE
  5
135A
102
{ACAD_REACTORS
330
133A
102
}
330
133A
100
AcDbScale
 70
     0
300
6" = 1'-0"
140
6.0
141
12.0
290
     0
1001
ACAD
1000
AcRTDxfName
1000
SCALE
  0
SCALE
  5
135B
102
{ACAD_REACTORS
330
133A
102
}
330
133A
100
AcDbScale
 70
     0
300
1'-0" = 1'-0"
140
12.0
141
12.0
290
     0
1001
ACAD
1000
AcRTDxfName
1000
SCALE
  0
TABLESTYLE
  5
1339
102
{ACAD_REACTORS
330
1338
102
}
102
{ACAD_XDICTIONARY
360
1A1C
102
}
330
1338
100
AcDbTableStyle
  3
Standard
 70
     0
 71
     0
 40
0.06
 41
0.06
280
     0
281
     0
  7
STANDARD
140
0.18
170
     2
 62
     0
 63
   257
283
     0
 90
      512
 91
        0
  1

274
    -2
284
     1
 64
     0
275
    -2
285
     1
 65
     0
276
    -2
286
     1
 66
     0
277
    -2
287
     1
 67
     0
278
    -2
288
     1
 68
     0
279
    -2
289
     1
 69
     0
  7
STANDARD
140
0.25
170
     5
 62
     0
 63
   257
283
     0
 90
      512
 91
        0
  1

274
    -2
284
     1
 64
     0
275
    -2
285
     1
 65
     0
276
    -2
286
     1
 66
     0
277
    -2
287
     1
 67
     0
278
    -2
288
     1
 68
     0
279
    -2
289
     1
 69
     0
  7
STANDARD
140
0.18
170
     5
 62
     0
 63
   257
283
     0
 90
      512
 91
        0
  1

274
    -2
284
     1
 64
     0
275
    -2
285
     1
 65
     0
276
    -2
286
     1
 66
     0
277
    -2
287
     1
 67
     0
278
    -2
288
     1
 68
     0
279
    -2
289
     1
 69
     0
1001
ACAD
1000
AcRTDxfName
1000
TABLESTYLE
  0
VISUALSTYLE
  5
132C
102
{ACAD_REACTORS
330
1326
102
}
330
1326
100
AcDbVisualStyle
  2
2dWireframe
 70
     4
177
     3
291
     0
 70
    58
 90
        0
176
     1
 90
        2
176
     1
 90
        0
176
     1
 90
        0
176
     1
 40
-0.6
176
     1
 40
-30.0
176
     1
 62
     7
420
 16777215
176
     1
 90
        1
176
     1
 90
        4
176
     1
 62
     7
176
     1
 62
   257
176
     1
 90
        1
176
     1
 90
        1
176
     1
 40
1.0
176
     1
 90
        0
176
     1
 62
   257
176
     1
 40
1.0
176
     1
 90
        1
176
     1
 90
        6
176
     1
 90
        2
176
     1
 62
     7
176
     1
 90
        5
176
     1
 90
        0
176
     1
 90
        0
176
     1
290
     0
176
     1
 90
        1
176
     1
 40
0.0
176
     1
 90
        0
176
     1
290
     1
176
     1
290
     1
176
     1
290
     0
176
     1
290
     0
176
     1
290
     0
176
     1
290
     0
176
     1
290
     0
176
     1
290
     0
176
     1
290
     0
176
     1
 90
       50
176
     1
 40
0.0
176
     1
 40
1.0
176
     1
 90
        0
176
     1
 62
    18
420
        0
176
     1
 90
       50
176
     1
 90
        3
176
     1
 62
     5
420
      255
176
     1
290
     0
176
     1
 90
       50
176
     1
 90
       50
176
     1
 90
       50
176
     1
290
     0
176
     1
 90
       50
176
     1
 62
   256
176
     0
 40
1.0
176
     0
 90
        2
176
     1
  1
strokes_ogs.tif
176
     1
290
     0
176
     1
 40
1.0
176
     1
 40
1.0
176
     1
1001
ACAD
1000
AcRTDxfName
1000
VISUALSTYLE
  0
VISUALSTYLE
  5
132E
102
{ACAD_REACTORS
330
1326
102
}
330
1326
100
AcDbVisualStyle
  2
3D Hidden
 70
     6
177
     3
291
     0
 70
    58
 90
        1
176
     1
 90
        2
176
     1
 90
        2
176
     1
 90
        0
176
     1
 40
-0.6
176
     1
 40
-30.0
176
     1
 62
     7
420
 16777215
176
     1
 90
        2
176
     1
 90
        2
176
     1
 62
     7
176
     1
 62
   257
176
     1
 90
        2
176
     1
 90
        1
176
     1
 40
40.0
176
     1
 90
        0
176
     1
 62
   257
176
     1
 40
1.0
176
     1
 90
        1
176
     1
 90
        6
176
     1
 90
        2
176
     1
 62
     7
176
     1
 90
        3
176
     1
 90
        0
176
     1
 90
        0
176
     1
290
     0
176
     1
 90
        1
176
     1
 40
0.0
176
     1
 90
        0
176
     1
290
     0
176
     1
290
     1
176
     1
290
     1
176
     1
290
     0
176
     1
290
     0
176
     1
290
     0
176
     1
290
     0
176
     1
290
     0
176
     1
290
     0
176
     1
 90
       50
176
     1
 40
0.0
176
     1
 40
1.0
176
     1
 90
        0
176
     1
 62
    18
420
        0
176
     1
 90
       50
176
     1
 90
        3
176
     1
 62
     5
420
      255
176
     1
290
     0
176
     1
 90
       50
176
     1
 90
       50
176
     1
 90
       50
176
     1
290
     0
176
     1
 90
       50
176
     1
 62
   256
176
     0
 40
1.0
176
     0
 90
        2
176
     1
  1
strokes_ogs.tif
176
     1
290
     0
176
     1
 40
1.0
176
     1
 40
1.0
176
     1
1001
ACAD
1000
AcRTDxfName
1000
VISUALSTYLE
  0
VISUALSTYLE
  5
132D
102
{ACAD_REACTORS
330
1326
102
}
330
1326
100
AcDbVisualStyle
  2
3dWireframe
 70
     5
177
     3
291
     0
 70
    58
 90
        0
176
     1
 90
        2
176
     1
 90
        0
176
     1
 90
        0
176
     1
 40
-0.6
176
     1
 40
-30.0
176
     1
 62
     7
420
 16777215
176
     1
 90
        1
176
     1
 90
        4
176
     1
 62
     7
176
     1
 62
   257
176
     1
 90
        1
176
     1
 90
        1
176
     1
 40
1.0
176
     1
 90
        0
176
     1
 62
   257
176
     1
 40
1.0
176
     1
 90
        1
176
     1
 90
        6
176
     1
 90
        2
176
     1
 62
     7
176
     1
 90
        5
176
     1
 90
        0
176
     1
 90
        0
176
     1
290
     0
176
     1
 90
        1
176
     1
 40
0.0
176
     1
 90
        0
176
     1
290
     0
176
     1
290
     1
176
     1
290
     1
176
     1
290
     0
176
     1
290
     0
176
     1
290
     0
176
     1
290
     0
176
     1
290
     0
176
     1
290
     0
176
     1
 90
       50
176
     1
 40
0.0
176
     1
 40
1.0
176
     1
 90
        0
176
     1
 62
    18
420
        0
176
     1
 90
       50
176
     1
 90
        3
176
     1
 62
     5
420
      255
176
     1
290
     0
176
     1
 90
       50
176
     1
 90
       50
176
     1
 90
       50
176
     1
290
     0
176
     1
 90
       50
176
     1
 62
   256
176
     0
 40
1.0
176
     0
 90
        2
176
     1
  1
strokes_ogs.tif
176
     1
290
     0
176
     1
 40
1.0
176
     1
 40
1.0
176
     1
1001
ACAD
1000
AcRTDxfName
1000
VISUALSTYLE
  0
VISUALSTYLE
  5
132B
102
{ACAD_REACTORS
330
1326
102
}
330
1326
100
AcDbVisualStyle
  2
Basic
 70
     7
177
     3
291
     1
 70
    58
 90
        1
176
     1
 90
        0
176
     1
 90
        1
176
     1
 90
        0
176
     1
 40
-0.6
176
     1
 40
-30.0
176
     1
 62
     7
420
 16777215
176
     1
 90
        0
176
     1
 90
        4
176
     1
 62
     7
176
     1
 62
   257
176
     1
 90
        1
176
     1
 90
        1
176
     1
 40
1.0
176
     1
 90
        8
176
     1
 62
     7
176
     1
 40
1.0
176
     1
 90
        1
176
     1
 90
        6
176
     1
 90
        2
176
     1
 62
     7
176
     1
 90
        5
176
     1
 90
        0
176
     1
 90
        0
176
     1
290
     0
176
     1
 90
        1
176
     1
 40
0.0
176
     1
 90
        0
176
     1
290
     0
176
     1
290
     1
176
     1
290
     1
176
     1
290
     0
176
     1
290
     0
176
     1
290
     0
176
     1
290
     0
176
     1
290
     0
176
     1
290
     0
176
     1
 90
       50
176
     1
 40
0.0
176
     1
 40
1.0
176
     1
 90
        0
176
     1
 62
    18
420
        0
176
     1
 90
       50
176
     1
 90
        3
176
     1
 62
     5
420
      255
176
     1
290
     0
176
     1
 90
       50
176
     1
 90
       50
176
     1
 90
       50
176
     1
290
     0
176
     1
 90
       50
176
     1
 62
   256
176
     0
 40
1.0
176
     0
 90
        2
176
     1
  1
strokes_ogs.tif
176
     1
290
     0
176
     1
 40
1.0
176
     1
 40
1.0
176
     1
1001
ACAD
1000
AcRTDxfName
1000
VISUALSTYLE
  0
VISUALSTYLE
  5
1332
102
{ACAD_REACTORS
330
1326
102
}
330
1326
100
AcDbVisualStyle
  2
Brighten
 70
    12
177
     3
291
     1
 70
    58
 90
        2
176
     1
 90
        2
176
     1
 90
        0
176
     1
 90
        0
176
     1
 40
-0.6
176
     1
 40
-30.0
176
     1
 62
     7
420
 16777215
176
     1
 90
        1
176
     1
 90
        4
176
     1
 62
     7
176
     1
 62
   257
176
     1
 90
        1
176
     1
 90
        1
176
     1
 40
1.0
176
     1
 90
        8
176
     1
 62
     7
176
     1
 40
1.0
176
     1
 90
        1
176
     1
 90
        6
176
     1
 90
        2
176
     1
 62
     7
176
     1
 90
        5
176
     1
 90
        0
176
     1
 90
        0
176
     1
290
     0
176
     1
 90
        1
176
     1
 40
50.0
176
     1
 90
        0
176
     1
290
     0
176
     1
290
     1
176
     1
290
     1
176
     1
290
     0
176
     1
290
     0
176
     1
290
     0
176
     1
290
     0
176
     1
290
     0
176
     1
290
     0
176
     1
 90
       50
176
     1
 40
0.0
176
     1
 40
1.0
176
     1
 90
        0
176
     1
 62
    18
420
        0
176
     1
 90
       50
176
     1
 90
        3
176
     1
 62
     5
420
      255
176
     1
290
     0
176
     1
 90
       50
176
     1
 90
       50
176
     1
 90
       50
176
     1
290
     0
176
     1
 90
       50
176
     1
 62
   256
176
     0
 40
1.0
176
     0
 90
        2
176
     1
  1
strokes_ogs.tif
176
     1
290
     0
176
     1
 40
1.0
176
     1
 40
1.0
176
     1
1001
ACAD
1000
AcRTDxfName
1000
VISUALSTYLE
  0
VISUALSTYLE
  5
1336
102
{ACAD_REACTORS
330
1326
102
}
330
1326
100
AcDbVisualStyle
  2
ColorChange
 70
    16
177
     3
291
     1
 70
    58
 90
        2
176
     1
 90
        2
176
     1
 90
        3
176
     1
 90
        0
176
     1
 40
-0.6
176
     1
 40
-30.0
176
     1
 62
     8
420
  8421504
176
     1
 90
        1
176
     1
 90
        4
176
     1
 62
     7
176
     1
 62
   257
176
     1
 90
        1
176
     1
 90
        1
176
     1
 40
1.0
176
     1
 90
        8
176
     1
 62
     8
420
  8421504
176
     1
 40
1.0
176
     1
 90
        1
176
     1
 90
        6
176
     1
 90
        2
176
     1
 62
     7
176
     1
 90
        5
176
     1
 90
        0
176
     1
 90
        0
176
     1
290
     0
176
     1
 90
        1
176
     1
 40
0.0
176
     1
 90
        0
176
     1
290
     0
176
     1
290
     1
176
     1
290
     1
176
     1
290
     0
176
     1
290
     0
176
     1
290
     0
176
     1
290
     0
176
     1
290
     0
176
     1
290
     0
176
     1
 90
       50
176
     1
 40
0.0
176
     1
 40
1.0
176
     1
 90
        0
176
     1
 62
    18
420
        0
176
     1
 90
       50
176
     1
 90
        3
176
     1
 62
     5
420
      255
176
     1
290
     0
176
     1
 90
       50
176
     1
 90
       50
176
     1
 90
       50
176
     1
290
     0
176
     1
 90
       50
176
     1
 62
   256
176
     0
 40
1.0
176
     0
 90
        2
176
     1
  1
strokes_ogs.tif
176
     1
290
     0
176
     1
 40
1.0
176
     1
 40
1.0
176
     1
1001
ACAD
1000
AcRTDxfName
1000
VISUALSTYLE
  0
VISUALSTYLE
  5
132F
102
{ACAD_REACTORS
330
1326
102
}
330
1326
100
AcDbVisualStyle
  2
Conceptual
 70
     9
177
     3
291
     0
 70
    58
 90
        3
176
     1
 90
        2
176
     1
 90
        0
176
     1
 90
        0
176
     1
 40
-0.6
176
     1
 40
-30.0
176
     1
 62
     7
420
 16777215
176
     1
 90
        2
176
     1
 90
        2
176
     1
 62
     7
176
     1
 62
   257
176
     1
 90
        1
176
     1
 90
        1
176
     1
 40
40.0
176
     1
 90
        8
176
     1
 62
     7
176
     1
 40
1.0
176
     1
 90
        1
176
     1
 90
        6
176
     1
 90
        2
176
     1
 62
     7
176
     1
 90
        3
176
     1
 90
        0
176
     1
 90
        0
176
     1
290
     0
176
     1
 90
        1
176
     1
 40
0.0
176
     1
 90
        0
176
     1
290
     0
176
     1
290
     1
176
     1
290
     1
176
     1
290
     0
176
     1
290
     0
176
     1
290
     0
176
     1
290
     0
176
     1
290
     0
176
     1
290
     0
176
     1
 90
       50
176
     1
 40
0.0
176
     1
 40
1.0
176
     1
 90
        0
176
     1
 62
    18
420
        0
176
     1
 90
       50
176
     1
 90
        3
176
     1
 62
     5
420
      255
176
     1
290
     0
176
     1
 90
       50
176
     1
 90
       50
176
     1
 90
       50
176
     1
290
     0
176
     1
 90
       50
176
     1
 62
   256
176
     0
 40
1.0
176
     0
 90
        2
176
     1
  1
strokes_ogs.tif
176
     1
290
     0
176
     1
 40
1.0
176
     1
 40
1.0
176
     1
1001
ACAD
1000
AcRTDxfName
1000
VISUALSTYLE
  0
VISUALSTYLE
  5
1331
102
{ACAD_REACTORS
330
1326
102
}
330
1326
100
AcDbVisualStyle
  2
Dim
 70
    11
177
     3
291
     1
 70
    58
 90
        2
176
     1
 90
        2
176
     1
 90
        0
176
     1
 90
        0
176
     1
 40
-0.6
176
     1
 40
-30.0
176
     1
 62
     7
420
 16777215
176
     1
 90
        1
176
     1
 90
        4
176
     1
 62
     7
176
     1
 62
   257
176
     1
 90
        1
176
     1
 90
        1
176
     1
 40
1.0
176
     1
 90
        8
176
     1
 62
     7
176
     1
 40
1.0
176
     1
 90
        1
176
     1
 90
        6
176
     1
 90
        2
176
     1
 62
     7
176
     1
 90
        5
176
     1
 90
        0
176
     1
 90
        0
176
     1
290
     0
176
     1
 90
        1
176
     1
 40
-50.0
176
     1
 90
        0
176
     1
290
     0
176
     1
290
     1
176
     1
290
     1
176
     1
290
     0
176
     1
290
     0
176
     1
290
     0
176
     1
290
     0
176
     1
290
     0
176
     1
290
     0
176
     1
 90
       50
176
     1
 40
0.0
176
     1
 40
1.0
176
     1
 90
        0
176
     1
 62
    18
420
        0
176
     1
 90
       50
176
     1
 90
        3
176
     1
 62
     5
420
      255
176
     1
290
     0
176
     1
 90
       50
176
     1
 90
       50
176
     1
 90
       50
176
     1
290
     0
176
     1
 90
       50
176
     1
 62
   256
176
     0
 40
1.0
176
     0
 90
        2
176
     1
  1
strokes_ogs.tif
176
     1
290
     0
176
     1
 40
1.0
176
     1
 40
1.0
176
     1
1001
ACAD
1000
AcRTDxfName
1000
VISUALSTYLE
  0
VISUALSTYLE
  5
168C
102
{ACAD_REACTORS
330
1326
102
}
330
1326
100
AcDbVisualStyle
  2
EdgeColorOff
 70
    22
177
     3
291
     1
 70
    58
 90
        2
176
     0
 90
        2
176
     0
 90
        0
176
     0
 90
        0
176
     0
 40
0.6
176
     0
 40
30.0
176
     0
 62
     7
420
 16777215
176
     0
 90
        1
176
     0
 90
        4
176
     0
 62
     7
176
     0
 62
   257
176
     0
 90
        1
176
     0
 90
        1
176
     0
 40
1.0
176
     0
 90
        8
176
     2
 62
     7
176
     0
 40
1.0
176
     0
 90
        1
176
     0
 90
        6
176
     0
 90
        2
176
     0
 62
     7
176
     0
 90
        5
176
     0
 90
        0
176
     0
 90
        0
176
     0
290
     0
176
     0
 90
        1
176
     0
 40
0.0
176
     0
 90
        0
176
     0
290
     0
176
     0
290
     1
176
     0
290
     1
176
     0
290
     0
176
     0
290
     0
176
     0
290
     0
176
     0
290
     0
176
     0
290
     0
176
     0
290
     0
176
     0
 90
       50
176
     0
 40
0.0
176
     0
 40
1.0
176
     0
 90
        0
176
     0
 62
    18
420
        0
176
     0
 90
       50
176
     0
 90
        3
176
     0
 62
     5
420
      255
176
     0
290
     0
176
     0
 90
       50
176
     0
 90
       50
176
     0
 90
       50
176
     0
290
     0
176
     0
 90
       50
176
     0
 62
   256
176
     0
 40
1.0
176
     0
 90
        2
176
     0
  1
strokes_ogs.tif
176
     0
290
     0
176
     0
 40
1.0
176
     0
 40
1.0
176
     0
  0
VISUALSTYLE
  5
1335
102
{ACAD_REACTORS
330
1326
102
}
330
1326
100
AcDbVisualStyle
  2
Facepattern
 70
    15
177
     3
291
     1
 70
    58
 90
        2
176
     1
 90
        2
176
     1
 90
        0
176
     1
 90
        0
176
     1
 40
-0.6
176
     1
 40
-30.0
176
     1
 62
     7
420
 16777215
176
     1
 90
        1
176
     1
 90
        4
176
     1
 62
     7
176
     1
 62
   257
176
     1
 90
        1
176
     1
 90
        1
176
     1
 40
1.0
176
     1
 90
        8
176
     1
 62
     7
176
     1
 40
1.0
176
     1
 90
        1
176
     1
 90
        6
176
     1
 90
        2
176
     1
 62
     7
176
     1
 90
        5
176
     1
 90
        0
176
     1
 90
        0
176
     1
290
     0
176
     1
 90
        1
176
     1
 40
0.0
176
     1
 90
        0
176
     1
290
     0
176
     1
290
     1
176
     1
290
     1
176
     1
290
     0
176
     1
290
     0
176
     1
290
     0
176
     1
290
     0
176
     1
290
     0
176
     1
290
     0
176
     1
 90
       50
176
     1
 40
0.0
176
     1
 40
1.0
176
     1
 90
        0
176
     1
 62
    18
420
        0
176
     1
 90
       50
176
     1
 90
        3
176
     1
 62
     5
420
      255
176
     1
290
     0
176
     1
 90
       50
176
     1
 90
       50
176
     1
 90
       50
176
     1
290
     0
176
     1
 90
       50
176
     1
 62
   256
176
     0
 40
1.0
176
     0
 90
        2
176
     1
  1
strokes_ogs.tif
176
     1
290
     0
176
     1
 40
1.0
176
     1
 40
1.0
176
     1
1001
ACAD
1000
AcRTDxfName
1000
VISUALSTYLE
  0
VISUALSTYLE
  5
1327
102
{ACAD_REACTORS
330
1326
102
}
330
1326
100
AcDbVisualStyle
  2
Flat
 70
     0
177
     3
291
     1
 70
    58
 90
        2
176
     1
 90
        1
176
     1
 90
        1
176
     1
 90
        2
176
     1
 40
-0.6
176
     1
 40
30.0
176
     1
 62
     7
420
 16777215
176
     1
 90
        0
176
     1
 90
        4
176
     1
 62
     7
176
     1
 62
   257
176
     1
 90
        1
176
     1
 90
        1
176
     1
 40
1.0
176
     1
 90
        8
176
     1
 62
     7
176
     1
 40
1.0
176
     1
 90
        1
176
     1
 90
        6
176
     1
 90
        2
176
     1
 62
     7
176
     1
 90
        5
176
     1
 90
        0
176
     1
 90
        0
176
     1
290
     0
176
     1
 90
       13
176
     1
 40
0.0
176
     1
 90
        0
176
     1
290
     0
176
     1
290
     1
176
     1
290
     1
176
     1
290
     0
176
     1
290
     0
176
     1
290
     0
176
     1
290
     0
176
     1
290
     0
176
     1
290
     0
176
     1
 90
       50
176
     1
 40
0.0
176
     1
 40
1.0
176
     1
 90
        0
176
     1
 62
    18
420
        0
176
     1
 90
       50
176
     1
 90
        3
176
     1
 62
     5
420
      255
176
     1
290
     0
176
     1
 90
       50
176
     1
 90
       50
176
     1
 90
       50
176
     1
290
     0
176
     1
 90
       50
176
     1
 62
   256
176
     0
 40
1.0
176
     0
 90
        2
176
     1
  1
strokes_ogs.tif
176
     1
290
     0
176
     1
 40
1.0
176
     1
 40
1.0
176
     1
1001
ACAD
1000
AcRTDxfName
1000
VISUALSTYLE
  0
VISUALSTYLE
  5
1328
102
{ACAD_REACTORS
330
1326
102
}
330
1326
100
AcDbVisualStyle
  2
FlatWithEdges
 70
     1
177
     3
291
     1
 70
    58
 90
        2
176
     1
 90
        1
176
     1
 90
        1
176
     1
 90
        2
176
     1
 40
-0.6
176
     1
 40
30.0
176
     1
 62
     7
420
 16777215
176
     1
 90
        1
176
     1
 90
        4
176
     1
 62
     7
176
     1
 62
   257
176
     1
 90
        1
176
     1
 90
        1
176
     1
 40
1.0
176
     1
 90
        0
176
     1
 62
   257
176
     1
 40
1.0
176
     1
 90
        1
176
     1
 90
        6
176
     1
 90
        2
176
     1
 62
     7
176
     1
 90
        5
176
     1
 90
        0
176
     1
 90
        0
176
     1
290
     0
176
     1
 90
       13
176
     1
 40
0.0
176
     1
 90
        0
176
     1
290
     0
176
     1
290
     1
176
     1
290
     1
176
     1
290
     0
176
     1
290
     0
176
     1
290
     0
176
     1
290
     0
176
     1
290
     0
176
     1
290
     0
176
     1
 90
       50
176
     1
 40
0.0
176
     1
 40
1.0
176
     1
 90
        0
176
     1
 62
    18
420
        0
176
     1
 90
       50
176
     1
 90
        3
176
     1
 62
     5
420
      255
176
     1
290
     0
176
     1
 90
       50
176
     1
 90
       50
176
     1
 90
       50
176
     1
290
     0
176
     1
 90
       50
176
     1
 62
   256
176
     0
 40
1.0
176
     0
 90
        2
176
     1
  1
strokes_ogs.tif
176
     1
290
     0
176
     1
 40
1.0
176
     1
 40
1.0
176
     1
1001
ACAD
1000
AcRTDxfName
1000
VISUALSTYLE
  0
VISUALSTYLE
  5
1329
102
{ACAD_REACTORS
330
1326
102
}
330
1326
100
AcDbVisualStyle
  2
Gouraud
 70
     2
177
     3
291
     1
 70
    58
 90
        2
176
     1
 90
        2
176
     1
 90
        1
176
     1
 90
        2
176
     1
 40
-0.6
176
     1
 40
30.0
176
     1
 62
     7
420
 16777215
176
     1
 90
        0
176
     1
 90
        4
176
     1
 62
     7
176
     1
 62
   257
176
     1
 90
        1
176
     1
 90
        1
176
     1
 40
1.0
176
     1
 90
        0
176
     1
 62
     7
176
     1
 40
1.0
176
     1
 90
        1
176
     1
 90
        6
176
     1
 90
        2
176
     1
 62
     7
176
     1
 90
        5
176
     1
 90
        0
176
     1
 90
        0
176
     1
290
     0
176
     1
 90
       13
176
     1
 40
0.0
176
     1
 90
        0
176
     1
290
     0
176
     1
290
     1
176
     1
290
     1
176
     1
290
     0
176
     1
290
     0
176
     1
290
     0
176
     1
290
     0
176
     1
290
     0
176
     1
290
     0
176
     1
 90
       50
176
     1
 40
0.0
176
     1
 40
1.0
176
     1
 90
        0
176
     1
 62
    18
420
        0
176
     1
 90
       50
176
     1
 90
        3
176
     1
 62
     5
420
      255
176
     1
290
     0
176
     1
 90
       50
176
     1
 90
       50
176
     1
 90
       50
176
     1
290
     0
176
     1
 90
       50
176
     1
 62
   256
176
     0
 40
1.0
176
     0
 90
        2
176
     1
  1
strokes_ogs.tif
176
     1
290
     0
176
     1
 40
1.0
176
     1
 40
1.0
176
     1
1001
ACAD
1000
AcRTDxfName
1000
VISUALSTYLE
  0
VISUALSTYLE
  5
132A
102
{ACAD_REACTORS
330
1326
102
}
330
1326
100
AcDbVisualStyle
  2
GouraudWithEdges
 70
     3
177
     3
291
     1
 70
    58
 90
        2
176
     1
 90
        2
176
     1
 90
        1
176
     1
 90
        2
176
     1
 40
-0.6
176
     1
 40
30.0
176
     1
 62
     7
420
 16777215
176
     1
 90
        1
176
     1
 90
        4
176
     1
 62
     7
176
     1
 62
   257
176
     1
 90
        1
176
     1
 90
        1
176
     1
 40
1.0
176
     1
 90
        0
176
     1
 62
   257
176
     1
 40
1.0
176
     1
 90
        1
176
     1
 90
        6
176
     1
 90
        2
176
     1
 62
     7
176
     1
 90
        5
176
     1
 90
        0
176
     1
 90
        0
176
     1
290
     0
176
     1
 90
       13
176
     1
 40
0.0
176
     1
 90
        0
176
     1
290
     0
176
     1
290
     1
176
     1
290
     1
176
     1
290
     0
176
     1
290
     0
176
     1
290
     0
176
     1
290
     0
176
     1
290
     0
176
     1
290
     0
176
     1
 90
       50
176
     1
 40
0.0
176
     1
 40
1.0
176
     1
 90
        0
176
     1
 62
    18
420
        0
176
     1
 90
       50
176
     1
 90
        3
176
     1
 62
     5
420
      255
176
     1
290
     0
176
     1
 90
       50
176
     1
 90
       50
176
     1
 90
       50
176
     1
290
     0
176
     1
 90
       50
176
     1
 62
   256
176
     0
 40
1.0
176
     0
 90
        2
176
     1
  1
strokes_ogs.tif
176
     1
290
     0
176
     1
 40
1.0
176
     1
 40
1.0
176
     1
1001
ACAD
1000
AcRTDxfName
1000
VISUALSTYLE
  0
VISUALSTYLE
  5
1689
102
{ACAD_REACTORS
330
1326
102
}
330
1326
100
AcDbVisualStyle
  2
Hidden
 70
     6
177
     3
291
     0
 70
    58
 90
        1
176
     1
 90
        2
176
     1
 90
        2
176
     1
 90
        0
176
     1
 40
0.6
176
     1
 40
30.0
176
     1
 62
     7
420
 16777215
176
     1
 90
        2
176
     1
 90
        2
176
     1
 62
     7
176
     1
 62
   257
176
     1
 90
        2
176
     1
 90
        1
176
     1
 40
40.0
176
     1
 90
        0
176
     1
 62
   257
176
     1
 40
1.0
176
     1
 90
        1
176
     1
 90
        6
176
     1
 90
        2
176
     1
 62
     7
176
     1
 90
        3
176
     1
 90
        0
176
     1
 90
        0
176
     1
290
     0
176
     1
 90
        1
176
     1
 40
0.0
176
     1
 90
        0
176
     1
290
     0
176
     1
290
     1
176
     1
290
     1
176
     1
290
     0
176
     1
290
     0
176
     1
290
     0
176
     1
290
     0
176
     1
290
     0
176
     1
290
     0
176
     1
 90
       50
176
     1
 40
0.0
176
     1
 40
1.0
176
     1
 90
        0
176
     1
 62
    18
420
        0
176
     1
 90
       50
176
     1
 90
        3
176
     1
 62
     5
420
      255
176
     1
290
     0
176
     1
 90
       50
176
     1
 90
       50
176
     1
 90
       50
176
     1
290
     0
176
     1
 90
       50
176
     1
 62
   256
176
     0
 40
1.0
176
     0
 90
        2
176
     1
  1
strokes_ogs.tif
176
     1
290
     0
176
     1
 40
1.0
176
     1
 40
1.0
176
     1
  0
VISUALSTYLE
  5
168A
102
{ACAD_REACTORS
330
1326
102
}
330
1326
100
AcDbVisualStyle
  2
JitterOff
 70
    20
177
     3
291
     1
 70
    58
 90
        2
176
     0
 90
        2
176
     0
 90
        0
176
     0
 90
        0
176
     0
 40
0.6
176
     0
 40
30.0
176
     0
 62
     7
420
 16777215
176
     0
 90
        1
176
     0
 90
        4
176
     0
 62
     7
176
     0
 62
   257
176
     0
 90
        1
176
     0
 90
        1
176
     0
 40
1.0
176
     0
 90
       10
176
     2
 62
     7
176
     0
 40
1.0
176
     0
 90
        1
176
     0
 90
        6
176
     0
 90
        2
176
     0
 62
     7
176
     0
 90
        5
176
     0
 90
        0
176
     0
 90
        0
176
     0
290
     0
176
     0
 90
        1
176
     0
 40
0.0
176
     0
 90
        0
176
     0
290
     0
176
     0
290
     1
176
     0
290
     1
176
     0
290
     0
176
     0
290
     0
176
     0
290
     0
176
     0
290
     0
176
     0
290
     0
176
     0
290
     0
176
     0
 90
       50
176
     0
 40
0.0
176
     0
 40
1.0
176
     0
 90
        0
176
     0
 62
    18
420
        0
176
     0
 90
       50
176
     0
 90
        3
176
     0
 62
     5
420
      255
176
     0
290
     0
176
     0
 90
       50
176
     0
 90
       50
176
     0
 90
       50
176
     0
290
     0
176
     0
 90
       50
176
     0
 62
   256
176
     0
 40
1.0
176
     0
 90
        2
176
     0
  1
strokes_ogs.tif
176
     0
290
     0
176
     0
 40
1.0
176
     0
 40
1.0
176
     0
  0
VISUALSTYLE
  5
1334
102
{ACAD_REACTORS
330
1326
102
}
330
1326
100
AcDbVisualStyle
  2
Linepattern
 70
    14
177
     3
291
     1
 70
    58
 90
        2
176
     1
 90
        2
176
     1
 90
        0
176
     1
 90
        0
176
     1
 40
-0.6
176
     1
 40
-30.0
176
     1
 62
     7
420
 16777215
176
     1
 90
        1
176
     1
 90
        4
176
     1
 62
     7
176
     1
 62
   257
176
     1
 90
        7
176
     1
 90
        7
176
     1
 40
1.0
176
     1
 90
        8
176
     1
 62
     7
176
     1
 40
1.0
176
     1
 90
        1
176
     1
 90
        6
176
     1
 90
        2
176
     1
 62
     7
176
     1
 90
        5
176
     1
 90
        0
176
     1
 90
        0
176
     1
290
     0
176
     1
 90
        1
176
     1
 40
0.0
176
     1
 90
        0
176
     1
290
     0
176
     1
290
     1
176
     1
290
     1
176
     1
290
     0
176
     1
290
     0
176
     1
290
     0
176
     1
290
     0
176
     1
290
     0
176
     1
290
     0
176
     1
 90
       50
176
     1
 40
0.0
176
     1
 40
1.0
176
     1
 90
        0
176
     1
 62
    18
420
        0
176
     1
 90
       50
176
     1
 90
        3
176
     1
 62
     5
420
      255
176
     1
290
     0
176
     1
 90
       50
176
     1
 90
       50
176
     1
 90
       50
176
     1
290
     0
176
     1
 90
       50
176
     1
 62
   256
176
     0
 40
1.0
176
     0
 90
        2
176
     1
  1
strokes_ogs.tif
176
     1
290
     0
176
     1
 40
1.0
176
     1
 40
1.0
176
     1
1001
ACAD
1000
AcRTDxfName
1000
VISUALSTYLE
  0
VISUALSTYLE
  5
168B
102
{ACAD_REACTORS
330
1326
102
}
330
1326
100
AcDbVisualStyle
  2
OverhangOff
 70
    21
177
     3
291
     1
 70
    58
 90
        2
176
     0
 90
        2
176
     0
 90
        0
176
     0
 90
        0
176
     0
 40
0.6
176
     0
 40
30.0
176
     0
 62
     7
420
 16777215
176
     0
 90
        1
176
     0
 90
        4
176
     0
 62
     7
176
     0
 62
   257
176
     0
 90
        1
176
     0
 90
        1
176
     0
 40
1.0
176
     0
 90
        9
176
     2
 62
     7
176
     0
 40
1.0
176
     0
 90
        1
176
     0
 90
        6
176
     0
 90
        2
176
     0
 62
     7
176
     0
 90
        5
176
     0
 90
        0
176
     0
 90
        0
176
     0
290
     0
176
     0
 90
        1
176
     0
 40
0.0
176
     0
 90
        0
176
     0
290
     0
176
     0
290
     1
176
     0
290
     1
176
     0
290
     0
176
     0
290
     0
176
     0
290
     0
176
     0
290
     0
176
     0
290
     0
176
     0
290
     0
176
     0
 90
       50
176
     0
 40
0.0
176
     0
 40
1.0
176
     0
 90
        0
176
     0
 62
    18
420
        0
176
     0
 90
       50
176
     0
 90
        3
176
     0
 62
     5
420
      255
176
     0
290
     0
176
     0
 90
       50
176
     0
 90
       50
176
     0
 90
       50
176
     0
290
     0
176
     0
 90
       50
176
     0
 62
   256
176
     0
 40
1.0
176
     0
 90
        2
176
     0
  1
strokes_ogs.tif
176
     0
290
     0
176
     0
 40
1.0
176
     0
 40
1.0
176
     0
  0
VISUALSTYLE
  5
1330
102
{ACAD_REACTORS
330
1326
102
}
330
1326
100
AcDbVisualStyle
  2
Realistic
 70
     8
177
     3
291
     0
 70
    58
 90
        2
176
     1
 90
        2
176
     1
 90
        0
176
     1
 90
        0
176
     1
 40
-0.6
176
     1
 40
-30.0
176
     1
 62
     7
420
 16777215
176
     1
 90
        1
176
     1
 90
        0
176
     1
 62
     7
176
     1
 62
   257
176
     1
 90
        1
176
     1
 90
        1
176
     1
 40
1.0
176
     1
 90
        8
176
     1
 62
     8
420
  7895160
176
     1
 40
1.0
176
     1
 90
        1
176
     1
 90
        6
176
     1
 90
        2
176
     1
 62
     7
176
     1
 90
        5
176
     1
 90
        0
176
     1
 90
        0
176
     1
290
     0
176
     1
 90
       13
176
     1
 40
0.0
176
     1
 90
        0
176
     1
290
     0
176
     1
290
     1
176
     1
290
     1
176
     1
290
     0
176
     1
290
     0
176
     1
290
     0
176
     1
290
     0
176
     1
290
     0
176
     1
290
     0
176
     1
 90
       50
176
     1
 40
0.0
176
     1
 40
1.0
176
     1
 90
        0
176
     1
 62
    18
420
        0
176
     1
 90
       50
176
     1
 90
        3
176
     1
 62
     5
420
      255
176
     1
290
     0
176
     1
 90
       50
176
     1
 90
       50
176
     1
 90
       50
176
     1
290
     0
176
     1
 90
       50
176
     1
 62
   256
176
     0
 40
1.0
176
     0
 90
        2
176
     1
  1
strokes_ogs.tif
176
     1
290
     0
176
     1
 40
1.0
176
     1
 40
1.0
176
     1
1001
ACAD
1000
AcRTDxfName
1000
VISUALSTYLE
  0
VISUALSTYLE
  5
1691
102
{ACAD_REACTORS
330
1326
102
}
330
1326
100
AcDbVisualStyle
  2
Shaded
 70
    27
177
     3
291
     0
 70
    58
 90
        2
176
     1
 90
        2
176
     1
 90
        1
176
     1
 90
        2
176
     1
 40
0.6
176
     1
 40
30.0
176
     1
 62
     7
420
 16777215
176
     1
 90
        0
176
     1
 90
        4
176
     1
 62
     7
176
     1
 62
   257
176
     1
 90
        1
176
     1
 90
        1
176
     1
 40
1.0
176
     1
 90
        8
176
     1
 62
   257
176
     1
 40
1.0
176
     1
 90
        1
176
     1
 90
        6
176
     1
 90
        2
176
     1
 62
     8
420
  7895160
176
     1
 90
        3
176
     1
 90
        0
176
     1
 90
        0
176
     1
290
     0
176
     1
 90
        5
176
     1
 40
0.0
176
     1
 90
        0
176
     1
290
     0
176
     1
290
     1
176
     1
290
     1
176
     1
290
     0
176
     1
290
     0
176
     1
290
     0
176
     1
290
     0
176
     1
290
     0
176
     1
290
     0
176
     1
 90
       50
176
     1
 40
0.0
176
     1
 40
1.0
176
     1
 90
        0
176
     1
 62
    18
420
        0
176
     1
 90
       50
176
     1
 90
        3
176
     1
 62
     5
420
      255
176
     1
290
     0
176
     1
 90
       50
176
     1
 90
       50
176
     1
 90
       50
176
     1
290
     0
176
     1
 90
       50
176
     1
 62
   256
176
     0
 40
1.0
176
     0
 90
        2
176
     1
  1
strokes_ogs.tif
176
     1
290
     0
176
     1
 40
1.0
176
     1
 40
1.0
176
     1
  0
VISUALSTYLE
  5
1690
102
{ACAD_REACTORS
330
1326
102
}
330
1326
100
AcDbVisualStyle
  2
Shaded with edges
 70
    26
177
     3
291
     0
 70
    58
 90
        2
176
     1
 90
        2
176
     1
 90
        1
176
     1
 90
        2
176
     1
 40
0.6
176
     1
 40
30.0
176
     1
 62
     7
420
 16777215
176
     1
 90
        1
176
     1
 90
       10
176
     1
 62
     7
176
     1
 62
   257
176
     1
 90
        2
176
     1
 90
        1
176
     1
 40
1.0
176
     1
 90
        8
176
     1
 62
   257
176
     1
 40
1.0
176
     1
 90
        1
176
     1
 90
        6
176
     1
 90
        2
176
     1
 62
     7
176
     1
 90
        3
176
     1
 90
        0
176
     1
 90
        0
176
     1
290
     0
176
     1
 90
        5
176
     1
 40
0.0
176
     1
 90
        0
176
     1
290
     0
176
     1
290
     1
176
     1
290
     1
176
     1
290
     0
176
     1
290
     0
176
     1
290
     0
176
     1
290
     0
176
     1
290
     0
176
     1
290
     0
176
     1
 90
       50
176
     1
 40
0.0
176
     1
 40
1.0
176
     1
 90
        0
176
     1
 62
    18
420
        0
176
     1
 90
       50
176
     1
 90
        3
176
     1
 62
     5
420
      255
176
     1
290
     0
176
     1
 90
       50
176
     1
 90
       50
176
     1
 90
       50
176
     1
290
     0
176
     1
 90
       50
176
     1
 62
   256
176
     0
 40
1.0
176
     0
 90
        2
176
     1
  1
strokes_ogs.tif
176
     1
290
     0
176
     1
 40
1.0
176
     1
 40
1.0
176
     1
  0
VISUALSTYLE
  5
168D
102
{ACAD_REACTORS
330
1326
102
}
330
1326
100
AcDbVisualStyle
  2
Shades of Gray
 70
    23
177
     3
291
     0
 70
    58
 90
        2
176
     1
 90
        2
176
     1
 90
        3
176
     1
 90
        0
176
     1
 40
0.6
176
     1
 40
30.0
176
     1
 62
     7
420
 16777215
176
     1
 90
        2
176
     1
 90
        2
176
     1
 62
     7
176
     1
 62
     7
176
     1
 90
        1
176
     1
 90
        1
176
     1
 40
40.0
176
     1
 90
        8
176
     1
 62
     7
176
     1
 40
1.0
176
     1
 90
        1
176
     1
 90
        6
176
     1
 90
        2
176
     1
 62
     7
176
     1
 90
        3
176
     1
 90
        0
176
     1
 90
        0
176
     1
290
     0
176
     1
 90
        1
176
     1
 40
0.0
176
     1
 90
        0
176
     1
290
     0
176
     1
290
     1
176
     1
290
     1
176
     1
290
     0
176
     1
290
     0
176
     1
290
     0
176
     1
290
     0
176
     1
290
     0
176
     1
290
     0
176
     1
 90
       50
176
     1
 40
0.0
176
     1
 40
1.0
176
     1
 90
        0
176
     1
 62
    18
420
        0
176
     1
 90
       50
176
     1
 90
        3
176
     1
 62
     5
420
      255
176
     1
290
     0
176
     1
 90
       50
176
     1
 90
       50
176
     1
 90
       50
176
     1
290
     0
176
     1
 90
       50
176
     1
 62
   256
176
     0
 40
1.0
176
     0
 90
        2
176
     1
  1
strokes_ogs.tif
176
     1
290
     0
176
     1
 40
1.0
176
     1
 40
1.0
176
     1
  0
VISUALSTYLE
  5
168E
102
{ACAD_REACTORS
330
1326
102
}
330
1326
100
AcDbVisualStyle
  2
Sketchy
 70
    24
177
     3
291
     0
 70
    58
 90
        1
176
     1
 90
        2
176
     1
 90
        2
176
     1
 90
        0
176
     1
 40
0.6
176
     1
 40
30.0
176
     1
 62
     7
420
 16777215
176
     1
 90
        2
176
     1
 90
        2
176
     1
 62
     7
176
     1
 62
     7
176
     1
 90
        1
176
     1
 90
        1
176
     1
 40
40.0
176
     1
 90
       11
176
     1
 62
     7
176
     1
 40
1.0
176
     1
 90
        1
176
     1
 90
        6
176
     1
 90
        2
176
     1
 62
     7
176
     1
 90
        6
176
     1
 90
        0
176
     1
 90
        0
176
     1
290
     0
176
     1
 90
        1
176
     1
 40
0.0
176
     1
 90
        0
176
     1
290
     0
176
     1
290
     1
176
     1
290
     1
176
     1
290
     0
176
     1
290
     0
176
     1
290
     0
176
     1
290
     0
176
     1
290
     0
176
     1
290
     0
176
     1
 90
       50
176
     1
 40
0.0
176
     1
 40
1.0
176
     1
 90
        0
176
     1
 62
    18
420
        0
176
     1
 90
       50
176
     1
 90
        3
176
     1
 62
     5
420
      255
176
     1
290
     0
176
     1
 90
       50
176
     1
 90
       50
176
     1
 90
       50
176
     1
290
     0
176
     1
 90
       50
176
     1
 62
   256
176
     0
 40
1.0
176
     0
 90
        2
176
     1
  1
strokes_ogs.tif
176
     1
290
     0
176
     1
 40
1.0
176
     1
 40
1.0
176
     1
  0
VISUALSTYLE
  5
1333
102
{ACAD_REACTORS
330
1326
102
}
330
1326
100
AcDbVisualStyle
  2
Thicken
 70
    13
177
     3
291
     1
 70
    58
 90
        2
176
     1
 90
        2
176
     1
 90
        0
176
     1
 90
        0
176
     1
 40
-0.6
176
     1
 40
-30.0
176
     1
 62
     7
420
 16777215
176
     1
 90
        1
176
     1
 90
        4
176
     1
 62
     7
176
     1
 62
   257
176
     1
 90
        1
176
     1
 90
        1
176
     1
 40
1.0
176
     1
 90
       12
176
     1
 62
     7
176
     1
 40
1.0
176
     1
 90
        1
176
     1
 90
        6
176
     1
 90
        2
176
     1
 62
     7
176
     1
 90
        5
176
     1
 90
        0
176
     1
 90
        0
176
     1
290
     0
176
     1
 90
        1
176
     1
 40
0.0
176
     1
 90
        0
176
     1
290
     0
176
     1
290
     1
176
     1
290
     1
176
     1
290
     0
176
     1
290
     0
176
     1
290
     0
176
     1
290
     0
176
     1
290
     0
176
     1
290
     0
176
     1
 90
       50
176
     1
 40
0.0
176
     1
 40
1.0
176
     1
 90
        0
176
     1
 62
    18
420
        0
176
     1
 90
       50
176
     1
 90
        3
176
     1
 62
     5
420
      255
176
     1
290
     0
176
     1
 90
       50
176
     1
 90
       50
176
     1
 90
       50
176
     1
290
     0
176
     1
 90
       50
176
     1
 62
   256
176
     0
 40
1.0
176
     0
 90
        2
176
     1
  1
strokes_ogs.tif
176
     1
290
     0
176
     1
 40
1.0
176
     1
 40
1.0
176
     1
1001
ACAD
1000
AcRTDxfName
1000
VISUALSTYLE
  0
VISUALSTYLE
  5
1688
102
{ACAD_REACTORS
330
1326
102
}
330
1326
100
AcDbVisualStyle
  2
Wireframe
 70
     5
177
     3
291
     0
 70
    58
 90
        0
176
     1
 90
        2
176
     1
 90
        0
176
     1
 90
        0
176
     1
 40
0.6
176
     1
 40
30.0
176
     1
 62
     7
420
 16777215
176
     1
 90
        1
176
     1
 90
        4
176
     1
 62
     7
176
     1
 62
   257
176
     1
 90
        1
176
     1
 90
        1
176
     1
 40
1.0
176
     1
 90
        0
176
     1
 62
   257
176
     1
 40
1.0
176
     1
 90
        1
176
     1
 90
        6
176
     1
 90
        2
176
     1
 62
     7
176
     1
 90
        3
176
     1
 90
        0
176
     1
 90
        0
176
     1
290
     0
176
     1
 90
        1
176
     1
 40
0.0
176
     1
 90
        0
176
     1
290
     0
176
     1
290
     1
176
     1
290
     1
176
     1
290
     0
176
     1
290
     0
176
     1
290
     0
176
     1
290
     0
176
     1
290
     0
176
     1
290
     0
176
     1
 90
       50
176
     1
 40
0.0
176
     1
 40
1.0
176
     1
 90
        0
176
     1
 62
    18
420
        0
176
     1
 90
       50
176
     1
 90
        3
176
     1
 62
     5
420
      255
176
     1
290
     0
176
     1
 90
       50
176
     1
 90
       50
176
     1
 90
       50
176
     1
290
     0
176
     1
 90
       50
176
     1
 62
   256
176
     0
 40
1.0
176
     0
 90
        2
176
     1
  1
strokes_ogs.tif
176
     1
290
     0
176
     1
 40
1.0
176
     1
 40
1.0
176
     1
  0
VISUALSTYLE
  5
168F
102
{ACAD_REACTORS
330
1326
102
}
330
1326
100
AcDbVisualStyle
  2
X-Ray
 70
    25
177
     3
291
     0
 70
    58
 90
        2
176
     1
 90
        2
176
     1
 90
        1
176
     1
 90
        1
176
     1
 40
0.5
176
     1
 40
30.0
176
     1
 62
     7
420
 16777215
176
     1
 90
        1
176
     1
 90
        0
176
     1
 62
     7
176
     1
 62
   257
176
     1
 90
        1
176
     1
 90
        1
176
     1
 40
1.0
176
     1
 90
        8
176
     1
 62
     7
176
     1
 40
1.0
176
     1
 90
        1
176
     1
 90
        6
176
     1
 90
        2
176
     1
 62
     7
176
     1
 90
        3
176
     1
 90
        0
176
     1
 90
        0
176
     1
290
     0
176
     1
 90
       13
176
     1
 40
0.0
176
     1
 90
        0
176
     1
290
     0
176
     1
290
     1
176
     1
290
     1
176
     1
290
     0
176
     1
290
     0
176
     1
290
     0
176
     1
290
     0
176
     1
290
     0
176
     1
290
     0
176
     1
 90
       50
176
     1
 40
0.0
176
     1
 40
1.0
176
     1
 90
        0
176
     1
 62
    18
420
        0
176
     1
 90
       50
176
     1
 90
        3
176
     1
 62
     5
420
      255
176
     1
290
     0
176
     1
 90
       50
176
     1
 90
       50
176
     1
 90
       50
176
     1
290
     0
176
     1
 90
       50
176
     1
 62
   256
176
     0
 40
1.0
176
     0
 90
        2
176
     1
  1
strokes_ogs.tif
176
     1
290
     0
176
     1
 40
1.0
176
     1
 40
1.0
176
     1
  0
DICTIONARYVAR
  5
15BA
102
{ACAD_REACTORS
330
15B6
102
}
330
15B6
100
DictionaryVariables
280
     0
  1
1:1
  0
DICTIONARYVAR
  5
15B8
102
{ACAD_REACTORS
330
15B6
102
}
330
15B6
100
DictionaryVariables
280
     0
  1
Standard
  0
DICTIONARYVAR
  5
15B7
102
{ACAD_REACTORS
330
15B6
102
}
330
15B6
100
DictionaryVariables
280
     0
  1
Standard
  0
DICTIONARYVAR
  5
1676
102
{ACAD_REACTORS
330
15B6
102
}
330
15B6
100
DictionaryVariables
280
     0
  1
1
  0
DICTIONARYVAR
  5
15BB
102
{ACAD_REACTORS
330
15B6
102
}
330
15B6
100
DictionaryVariables
280
     0
  1
0
  0
DICTIONARYVAR
  5
15B9
102
{ACAD_REACTORS
330
15B6
102
}
330
15B6
100
DictionaryVariables
280
     0
  1
0
  0
DICTIONARYVAR
  5
1677
102
{ACAD_REACTORS
330
15B6
102
}
330
15B6
100
DictionaryVariables
280
     0
  1

  0
DICTIONARYVAR
  5
18D9
102
{ACAD_REACTORS
330
15B6
102
}
330
15B6
100
DictionaryVariables
280
     0
  1
0
  0
DICTIONARY
  5
1A1C
330
1339
100
AcDbDictionary
280
     1
281
     1
  3
ACAD_ROUNDTRIP_2008_TABLESTYLE_CELLSTYLEMAP
360
1A1D
  0
CELLSTYLEMAP
  5
1A1D
102
{ACAD_REACTORS
330
1A1C
102
}
330
1A1C
100
AcDbCellStyleMap
 90
        3
300
CELLSTYLE
  1
TABLEFORMAT_BEGIN
 90
        5
170
     1
 91
        0
 92
    32768
 62
   257
 93
        1
300
CONTENTFORMAT
  1
CONTENTFORMAT_BEGIN
 90
        0
 91
        0
 92
      512
 93
        0
300

 40
0.0
140
1.0
 94
        5
 62
     0
340
11
144
0.25
309
CONTENTFORMAT_END
171
     0
 94
        0
309
TABLEFORMAT_END
  1
CELLSTYLE_BEGIN
 90
        1
 91
        1
300
_TITLE
309
CELLSTYLE_END
300
CELLSTYLE
  1
TABLEFORMAT_BEGIN
 90
        5
170
     1
 91
        0
 92
        0
 62
   257
 93
        1
300
CONTENTFORMAT
  1
CONTENTFORMAT_BEGIN
 90
        0
 91
        0
 92
      512
 93
        0
300

 40
0.0
140
1.0
 94
        5
 62
     0
340
11
144
0.18
309
CONTENTFORMAT_END
171
     0
 94
        0
309
TABLEFORMAT_END
  1
CELLSTYLE_BEGIN
 90
        2
 91
        1
300
_HEADER
309
CELLSTYLE_END
300
CELLSTYLE
  1
TABLEFORMAT_BEGIN
 90
        5
170
     1
 91
        0
 92
        0
 62
   257
 93
        1
300
CONTENTFORMAT
  1
CONTENTFORMAT_BEGIN
 90
        0
 91
        0
 92
      512
 93
        0
300

 40
0.0
140
1.0
 94
        2
 62
     0
340
11
144
0.18
309
CONTENTFORMAT_END
171
     0
 94
        0
309
TABLEFORMAT_END
  1
CELLSTYLE_BEGIN
 90
        3
 91
        2
300
_DATA
309
CELLSTYLE_END
  0
ENDSEC
  0
EOF
