  0
SECTION
  2
HEADER
  9
$ACADVER
  1
AC1015
  9
$ACADMAINTVER
 70
    20
  9
$DWGCODEPAGE
  3
ANSI_932
  9
$INSBASE
 10
0.0
 20
0.0
 30
0.0
  9
$EXTMIN
 10
-203.875
 20
242.0
 30
0.0
  9
$EXTMAX
 10
1056.125
 20
1133.0
 30
0.0
  9
$LIMMIN
 10
-210.0
 20
-148.5
  9
$LIMMAX
 10
210.0
 20
148.5
  9
$ORTHOMODE
 70
     0
  9
$REGENMODE
 70
     1
  9
$FILLMODE
 70
     1
  9
$QTEXTMODE
 70
     0
  9
$MIRRTEXT
 70
     1
  9
$LTSCALE
 40
1.0
  9
$ATTMODE
 70
     1
  9
$TEXTSIZE
 40
1.0
  9
$TRACEWID
 40
0.05
  9
$TEXTSTYLE
  7
STANDARD
  9
$CLAYER
  8
寸法
  9
$CELTYPE
  6
ByLayer
  9
$CECOLOR
 62
   256
  9
$CELTSCALE
 40
1.0
  9
$DISPSILH
 70
     0
  9
$DIMSCALE
 40
1.0
  9
$DIMASZ
 40
15.0
  9
$DIMEXO
 40
0.0625
  9
$DIMDLI
 40
0.38
  9
$DIMRND
 40
0.0
  9
$DIMDLE
 40
0.0
  9
$DIMEXE
 40
0.5
  9
$DIMTP
 40
0.0
  9
$DIMTM
 40
0.0
  9
$DIMTXT
 40
30.0
  9
$DIMCEN
 40
0.09
  9
$DIMTSZ
 40
0.0
  9
$DIMTOL
 70
     0
  9
$DIMLIM
 70
     0
  9
$DIMTIH
 70
     0
  9
$DIMTOH
 70
     0
  9
$DIMSE1
 70
     0
  9
$DIMSE2
 70
     0
  9
$DIMTAD
 70
     1
  9
$DIMZIN
 70
     0
  9
$DIMBLK
  1
Open30
  9
$DIMASO
 70
     1
  9
$DIMSHO
 70
     1
  9
$DIMPOST
  1

  9
$DIMAPOST
  1

  9
$DIMALT
 70
     0
  9
$DIMALTD
 70
     2
  9
$DIMALTF
 40
25.4
  9
$DIMLFAC
 40
1.0
  9
$DIMTOFL
 70
     0
  9
$DIMTVP
 40
0.0
  9
$DIMTIX
 70
     0
  9
$DIMSOXD
 70
     0
  9
$DIMSAH
 70
     0
  9
$DIMBLK1
  1

  9
$DIMBLK2
  1

  9
$DIMSTYLE
  2
Standard
  9
$DIMCLRD
 70
     1
  9
$DIMCLRE
 70
     1
  9
$DIMCLRT
 70
     1
  9
$DIMTFAC
 40
1.0
  9
$DIMGAP
 40
0.5
  9
$DIMJUST
 70
     0
  9
$DIMSD1
 70
     0
  9
$DIMSD2
 70
     0
  9
$DIMTOLJ
 70
     1
  9
$DIMTZIN
 70
     0
  9
$DIMALTZ
 70
     0
  9
$DIMALTTZ
 70
     0
  9
$DIMUPT
 70
     0
  9
$DIMDEC
 70
     0
  9
$DIMTDEC
 70
     0
  9
$DIMALTU
 70
     2
  9
$DIMALTTD
 70
     2
  9
$DIMTXSTY
  7
TextStyle01
  9
$DIMAUNIT
 70
     0
  9
$DIMADEC
 70
     0
  9
$DIMALTRND
 40
0.0
  9
$DIMAZIN
 70
     0
  9
$DIMDSEP
 70
    46
  9
$DIMATFIT
 70
     3
  9
$DIMFRAC
 70
     0
  9
$DIMLDRBLK
  1
Open30
  9
$DIMLUNIT
 70
     2
  9
$DIMLWD
 70
    -2
  9
$DIMLWE
 70
    -2
  9
$DIMTMOVE
 70
     2
  9
$LUNITS
 70
     2
  9
$LUPREC
 70
     4
  9
$SKETCHINC
 40
0.1
  9
$FILLETRAD
 40
0.0
  9
$AUNITS
 70
     0
  9
$AUPREC
 70
     0
  9
$MENU
  1
acad
  9
$ELEVATION
 40
0.0
  9
$PELEVATION
 40
0.0
  9
$THICKNESS
 40
0.0
  9
$LIMCHECK
 70
     0
  9
$CHAMFERA
 40
0.0
  9
$CHAMFERB
 40
0.0
  9
$CHAMFERC
 40
0.0
  9
$CHAMFERD
 40
0.0
  9
$SKPOLY
 70
     0
  9
$TDCREATE
 40
2449944.925517361
  9
$TDUCREATE
 40
2449944.550517361
  9
$TDUPDATE
 40
2455342.840762257
  9
$TDUUPDATE
 40
2455342.465762257
  9
$TDINDWG
 40
0.5299048611
  9
$TDUSRTIMER
 40
0.5299048611
  9
$USRTIMER
 70
     1
  9
$ANGBASE
 50
0.0
  9
$ANGDIR
 70
     0
  9
$PDMODE
 70
     0
  9
$PDSIZE
 40
1.5
  9
$PLINEWID
 40
0.0
  9
$SPLFRAME
 70
     0
  9
$SPLINETYPE
 70
     6
  9
$SPLINESEGS
 70
     8
  9
$HANDSEED
  5
1D99
  9
$SURFTAB1
 70
     6
  9
$SURFTAB2
 70
     6
  9
$SURFTYPE
 70
     6
  9
$SURFU
 70
     6
  9
$SURFV
 70
     6
  9
$UCSBASE
  2

  9
$UCSNAME
  2

  9
$UCSORG
 10
0.0
 20
0.0
 30
0.0
  9
$UCSXDIR
 10
1.0
 20
0.0
 30
0.0
  9
$UCSYDIR
 10
0.0
 20
1.0
 30
0.0
  9
$UCSORTHOREF
  2

  9
$UCSORTHOVIEW
 70
     0
  9
$UCSORGTOP
 10
0.0
 20
0.0
 30
0.0
  9
$UCSORGBOTTOM
 10
0.0
 20
0.0
 30
0.0
  9
$UCSORGLEFT
 10
0.0
 20
0.0
 30
0.0
  9
$UCSORGRIGHT
 10
0.0
 20
0.0
 30
0.0
  9
$UCSORGFRONT
 10
0.0
 20
0.0
 30
0.0
  9
$UCSORGBACK
 10
0.0
 20
0.0
 30
0.0
  9
$PUCSBASE
  2

  9
$PUCSNAME
  2

  9
$PUCSORG
 10
0.0
 20
0.0
 30
0.0
  9
$PUCSXDIR
 10
1.0
 20
0.0
 30
0.0
  9
$PUCSYDIR
 10
0.0
 20
1.0
 30
0.0
  9
$PUCSORTHOREF
  2

  9
$PUCSORTHOVIEW
 70
     0
  9
$PUCSORGTOP
 10
0.0
 20
0.0
 30
0.0
  9
$PUCSORGBOTTOM
 10
0.0
 20
0.0
 30
0.0
  9
$PUCSORGLEFT
 10
0.0
 20
0.0
 30
0.0
  9
$PUCSORGRIGHT
 10
0.0
 20
0.0
 30
0.0
  9
$PUCSORGFRONT
 10
0.0
 20
0.0
 30
0.0
  9
$PUCSORGBACK
 10
0.0
 20
0.0
 30
0.0
  9
$USERI1
 70
     0
  9
$USERI2
 70
     0
  9
$USERI3
 70
     0
  9
$USERI4
 70
     0
  9
$USERI5
 70
     0
  9
$USERR1
 40
0.0
  9
$USERR2
 40
0.0
  9
$USERR3
 40
0.0
  9
$USERR4
 40
0.0
  9
$USERR5
 40
0.0
  9
$WORLDVIEW
 70
     1
  9
$SHADEDGE
 70
     3
  9
$SHADEDIF
 70
    70
  9
$TILEMODE
 70
     1
  9
$MAXACTVP
 70
    16
  9
$PINSBASE
 10
0.0
 20
0.0
 30
0.0
  9
$PLIMCHECK
 70
     0
  9
$PEXTMIN
 10
0.0
 20
0.0
 30
0.0
  9
$PEXTMAX
 10
0.0
 20
0.0
 30
0.0
  9
$PLIMMIN
 10
0.0
 20
0.0
  9
$PLIMMAX
 10
0.0
 20
0.0
  9
$UNITMODE
 70
     0
  9
$VISRETAIN
 70
     0
  9
$PLINEGEN
 70
     0
  9
$PSLTSCALE
 70
     1
  9
$TREEDEPTH
 70
  3020
  9
$CMLSTYLE
  2
Standard
  9
$CMLJUST
 70
     0
  9
$CMLSCALE
 40
1.0
  9
$PROXYGRAPHICS
 70
     1
  9
$MEASUREMENT
 70
     0
  9
$CELWEIGHT
370
    -1
  9
$ENDCAPS
280
     0
  9
$JOINSTYLE
280
     0
  9
$LWDISPLAY
290
     0
  9
$INSUNITS
 70
     0
  9
$HYPERLINKBASE
  1

  9
$STYLESHEET
  1

  9
$XEDIT
290
     1
  9
$CEPSNTYPE
380
     0
  9
$PSTYLEMODE
290
     1
  9
$FINGERPRINTGUID
  2
{3F05092E-EABE-41D4-925D-E3C07104686B}
  9
$VERSIONGUID
  2
{FA38719E-77FE-4230-B1F7-5CC4E1569623}
  9
$EXTNAMES
290
     1
  9
$PSVPSCALE
 40
0.0
  9
$OLESTARTUP
290
     0
  0
ENDSEC
  0
SECTION
  2
CLASSES
  0
CLASS
  1
ACDBDICTIONARYWDFLT
  2
AcDbDictionaryWithDefault
  3
ObjectDBX Classes
 90
        0
280
     0
281
     0
  0
CLASS
  1
ACDBPLACEHOLDER
  2
AcDbPlaceHolder
  3
ObjectDBX Classes
 90
        0
280
     0
281
     0
  0
CLASS
  1
LAYOUT
  2
AcDbLayout
  3
ObjectDBX Classes
 90
        0
280
     0
281
     0
  0
CLASS
  1
MATERIAL
  2
AcDbMaterial
  3
ObjectDBX Classes
 90
        0
280
     0
281
     0
  0
CLASS
  1
VISUALSTYLE
  2
AcDbVisualStyle
  3
ObjectDBX Classes
 90
     4095
280
     0
281
     0
  0
CLASS
  1
TABLESTYLE
  2
AcDbTableStyle
  3
ObjectDBX Classes
 90
     4095
280
     0
281
     0
  0
CLASS
  1
SCALE
  2
AcDbScale
  3
ObjectDBX Classes
 90
     1153
280
     0
281
     0
  0
CLASS
  1
MLEADERSTYLE
  2
AcDbMLeaderStyle
  3
ACDB_MLEADERSTYLE_CLASS
 90
     4095
280
     0
281
     0
  0
CLASS
  1
CELLSTYLEMAP
  2
AcDbCellStyleMap
  3
ObjectDBX Classes
 90
     1152
280
     0
281
     0
  0
CLASS
  1
DICTIONARYVAR
  2
AcDbDictionaryVar
  3
ObjectDBX Classes
 90
        0
280
     0
281
     0
  0
ENDSEC
  0
SECTION
  2
TABLES
  0
TABLE
  2
VPORT
  5
8
102
{ACAD_XDICTIONARY
360
1C58
102
}
330
0
100
AcDbSymbolTable
 70
     2
  0
VPORT
  5
1D90
330
8
100
AcDbSymbolTableRecord
100
AcDbViewportTableRecord
  2
*Active
 70
     0
 10
0.0
 20
0.0
 11
1.0
 21
1.0
 12
538.5606024836124
 22
755.4190995435226
 13
0.0
 23
0.0
 14
1.0
 24
1.0
 15
0.0
 25
0.0
 16
0.0
 26
0.0
 36
1.0
 17
0.0
 27
0.0
 37
0.0
 40
1283.643008812144
 41
2.138297872340425
 42
50.0
 43
0.0
 44
0.0
 50
0.0
 51
0.0
 71
     0
 72
   100
 73
     1
 74
     0
 75
     1
 76
     0
 77
     0
 78
     0
281
     0
 65
     1
110
0.0
120
0.0
130
0.0
111
1.0
121
0.0
131
0.0
112
0.0
122
1.0
132
0.0
 79
     0
146
0.0
  0
ENDTAB
  0
TABLE
  2
LTYPE
  5
5
330
0
100
AcDbSymbolTable
 70
    15
  0
LTYPE
  5
13
330
5
100
AcDbSymbolTableRecord
100
AcDbLinetypeTableRecord
  2
ByBlock
 70
     0
  3

 72
    65
 73
     0
 40
0.0
  0
LTYPE
  5
14
330
5
100
AcDbSymbolTableRecord
100
AcDbLinetypeTableRecord
  2
ByLayer
 70
     0
  3

 72
    65
 73
     0
 40
0.0
  0
LTYPE
  5
15
330
5
100
AcDbSymbolTableRecord
100
AcDbLinetypeTableRecord
  2
CONTINUOUS
 70
     0
  3
実線
 72
    65
 73
     0
 40
0.0
  0
LTYPE
  5
2D
330
5
100
AcDbSymbolTableRecord
100
AcDbLinetypeTableRecord
  2
DASHED
 70
     0
  3
破線A
 72
    65
 73
     2
 40
7.5
 49
5.0
 74
     0
 49
-2.5
 74
     0
  0
LTYPE
  5
2E
330
5
100
AcDbSymbolTableRecord
100
AcDbLinetypeTableRecord
  2
DASHEDX2
 70
     0
  3
破線B
 72
    65
 73
     2
 40
15.0
 49
10.0
 74
     0
 49
-5.0
 74
     0
  0
LTYPE
  5
2F
330
5
100
AcDbSymbolTableRecord
100
AcDbLinetypeTableRecord
  2
DASHDOT
 70
     0
  3
１点鎖線A
 72
    65
 73
     4
 40
10.0
 49
5.0
 74
     0
 49
-2.5
 74
     0
 49
0.0
 74
     0
 49
-2.5
 74
     0
  0
LTYPE
  5
30
330
5
100
AcDbSymbolTableRecord
100
AcDbLinetypeTableRecord
  2
DASHDOTX2
 70
     0
  3
１点鎖線B
 72
    65
 73
     4
 40
20.0
 49
10.0
 74
     0
 49
-5.0
 74
     0
 49
0.0
 74
     0
 49
-5.0
 74
     0
  0
LTYPE
  5
31
330
5
100
AcDbSymbolTableRecord
100
AcDbLinetypeTableRecord
  2
DIVIDE2
 70
     0
  3
２点鎖線A
 72
    65
 73
     6
 40
6.25
 49
2.5
 74
     0
 49
-1.25
 74
     0
 49
0.0
 74
     0
 49
-1.25
 74
     0
 49
0.0
 74
     0
 49
-1.25
 74
     0
  0
LTYPE
  5
32
330
5
100
AcDbSymbolTableRecord
100
AcDbLinetypeTableRecord
  2
DIVIDE
 70
     0
  3
２点鎖線B
 72
    65
 73
     6
 40
12.5
 49
5.0
 74
     0
 49
-2.5
 74
     0
 49
0.0
 74
     0
 49
-2.5
 74
     0
 49
0.0
 74
     0
 49
-2.5
 74
     0
  0
LTYPE
  5
33
330
5
100
AcDbSymbolTableRecord
100
AcDbLinetypeTableRecord
  2
DOT
 70
     0
  3
点線A
 72
    65
 73
     2
 40
2.5
 49
0.0
 74
     0
 49
-2.5
 74
     0
  0
LTYPE
  5
34
330
5
100
AcDbSymbolTableRecord
100
AcDbLinetypeTableRecord
  2
DOTX2
 70
     0
  3
点線B
 72
    65
 73
     2
 40
5.0
 49
0.0
 74
     0
 49
-5.0
 74
     0
  0
LTYPE
  5
35
330
5
100
AcDbSymbolTableRecord
100
AcDbLinetypeTableRecord
  2
CONTINUOUS
 70
     0
  3
実線
 72
    65
 73
     0
 40
0.0
  0
LTYPE
  5
36
330
5
100
AcDbSymbolTableRecord
100
AcDbLinetypeTableRecord
  2
CONTINUOUS
 70
     0
  3
実線
 72
    65
 73
     0
 40
0.0
  0
LTYPE
  5
37
330
5
100
AcDbSymbolTableRecord
100
AcDbLinetypeTableRecord
  2
CONTINUOUS
 70
     0
  3
実線
 72
    65
 73
     0
 40
0.0
  0
LTYPE
  5
38
330
5
100
AcDbSymbolTableRecord
100
AcDbLinetypeTableRecord
  2
CONTINUOUS
 70
     0
  3
実線
 72
    65
 73
     0
 40
0.0
  0
LTYPE
  5
39
330
5
100
AcDbSymbolTableRecord
100
AcDbLinetypeTableRecord
  2
CONTINUOUS
 70
     0
  3
実線
 72
    65
 73
     0
 40
0.0
  0
LTYPE
  5
3A
330
5
100
AcDbSymbolTableRecord
100
AcDbLinetypeTableRecord
  2
CONTINUOUS
 70
     0
  3
実線
 72
    65
 73
     0
 40
0.0
  0
ENDTAB
  0
TABLE
  2
LAYER
  5
2
330
0
100
AcDbSymbolTable
 70
     9
  0
LAYER
  5
10
102
{ACAD_XDICTIONARY
360
1C47
102
}
330
2
100
AcDbSymbolTableRecord
100
AcDbLayerTableRecord
  2
ﾚｲﾔ1
 70
     0
 62
     7
  6
CONTINUOUS
370
    -3
390
F
  0
LAYER
  5
4C
102
{ACAD_XDICTIONARY
360
1C5B
102
}
330
2
100
AcDbSymbolTableRecord
100
AcDbLayerTableRecord
  2
0
 70
     0
 62
     7
  6
CONTINUOUS
370
    -3
390
F
  0
LAYER
  5
16B
102
{ACAD_XDICTIONARY
360
1C49
102
}
330
2
100
AcDbSymbolTableRecord
100
AcDbLayerTableRecord
  2
図面
 70
     0
 62
     7
  6
CONTINUOUS
370
    -3
390
F
  0
LAYER
  5
16C
102
{ACAD_XDICTIONARY
360
1C4B
102
}
330
2
100
AcDbSymbolTableRecord
100
AcDbLayerTableRecord
  2
図面枠
 70
     0
 62
     5
  6
CONTINUOUS
370
    -3
390
F
  0
LAYER
  5
1AB
102
{ACAD_XDICTIONARY
360
1C4D
102
}
330
2
100
AcDbSymbolTableRecord
100
AcDbLayerTableRecord
  2
下図
 70
     4
 62
     8
  6
CONTINUOUS
290
     0
370
    -3
390
F
  0
LAYER
  5
1CD
102
{ACAD_XDICTIONARY
360
1C4F
102
}
330
2
100
AcDbSymbolTableRecord
100
AcDbLayerTableRecord
  2
文字
 70
     0
 62
     7
  6
CONTINUOUS
370
    -3
390
F
  0
LAYER
  5
772
102
{ACAD_XDICTIONARY
360
1C51
102
}
330
2
100
AcDbSymbolTableRecord
100
AcDbLayerTableRecord
  2
寸法
 70
     0
 62
     1
  6
CONTINUOUS
370
    -3
390
F
  0
LAYER
  5
1196
102
{ACAD_XDICTIONARY
360
1C53
102
}
330
2
100
AcDbSymbolTableRecord
100
AcDbLayerTableRecord
  2
補助線
 70
     0
 62
    -1
  6
DASHED
290
     0
370
    -3
390
F
  0
LAYER
  5
11F4
102
{ACAD_XDICTIONARY
360
1C67
102
}
330
2
100
AcDbSymbolTableRecord
100
AcDbLayerTableRecord
  2
Defpoints
 70
     0
 62
     7
  6
CONTINUOUS
290
     0
370
    -3
390
F
  0
ENDTAB
  0
TABLE
  2
STYLE
  5
3
330
0
100
AcDbSymbolTable
 70
    14
  0
STYLE
  5
11
330
3
100
AcDbSymbolTableRecord
100
AcDbTextStyleTableRecord
  2
STANDARD
 70
     0
 40
1.0
 41
1.0
 50
0.0
 71
     0
 42
1.0
  3
TXT
  4
BIGFONT
  0
STYLE
  5
22
330
3
100
AcDbSymbolTableRecord
100
AcDbTextStyleTableRecord
  2
TATE
 70
     4
 40
1.0
 41
1.0
 50
0.0
 71
     0
 42
1.0
  3
TXT
  4
BIGFONT
  0
STYLE
  5
23
330
3
100
AcDbSymbolTableRecord
100
AcDbTextStyleTableRecord
  2
TextStyle01
 70
     0
 40
0.0
 41
1.0
 50
0.0
 71
     0
 42
0.0
  3
TXT
  4
BIGFONT
  0
STYLE
  5
24
330
3
100
AcDbSymbolTableRecord
100
AcDbTextStyleTableRecord
  2
TextStyle02
 70
     0
 40
0.0
 41
1.0
 50
0.0
 71
     0
 42
0.0
  3
TXT
  4
BIGFONT
  0
STYLE
  5
25
330
3
100
AcDbSymbolTableRecord
100
AcDbTextStyleTableRecord
  2
TextStyle03
 70
     0
 40
0.0
 41
1.0
 50
0.0
 71
     0
 42
0.0
  3
TXT
  4
BIGFONT
  0
STYLE
  5
26
330
3
100
AcDbSymbolTableRecord
100
AcDbTextStyleTableRecord
  2
TextStyle04
 70
     0
 40
0.0
 41
1.0
 50
0.0
 71
     0
 42
0.0
  3
TXT
  4
BIGFONT
  0
STYLE
  5
27
330
3
100
AcDbSymbolTableRecord
100
AcDbTextStyleTableRecord
  2
TextStyle05
 70
     0
 40
0.0
 41
1.0
 50
0.0
 71
     0
 42
0.0
  3
TXT
  4
BIGFONT
  0
STYLE
  5
28
330
3
100
AcDbSymbolTableRecord
100
AcDbTextStyleTableRecord
  2
TextStyle06
 70
     0
 40
0.0
 41
1.0
 50
0.0
 71
     0
 42
0.0
  3

  4

  0
STYLE
  5
29
330
3
100
AcDbSymbolTableRecord
100
AcDbTextStyleTableRecord
  2
TextStyle07
 70
     0
 40
0.0
 41
1.0
 50
0.0
 71
     0
 42
0.0
  3

  4

  0
STYLE
  5
2A
330
3
100
AcDbSymbolTableRecord
100
AcDbTextStyleTableRecord
  2
TextStyle08
 70
     0
 40
0.0
 41
1.0
 50
0.0
 71
     0
 42
0.0
  3

  4

  0
STYLE
  5
2B
330
3
100
AcDbSymbolTableRecord
100
AcDbTextStyleTableRecord
  2
TextStyle09
 70
     0
 40
0.0
 41
1.0
 50
0.0
 71
     0
 42
0.0
  3

  4

  0
STYLE
  5
2C
330
3
100
AcDbSymbolTableRecord
100
AcDbTextStyleTableRecord
  2
TextStyle10
 70
     0
 40
0.0
 41
1.0
 50
0.0
 71
     0
 42
0.0
  3

  4

  0
STYLE
  5
5B9
330
3
100
AcDbSymbolTableRecord
100
AcDbTextStyleTableRecord
  2
WMF-ＭＳ Ｐ明朝0
 70
     0
 40
0.0
 41
1.0
 50
0.0
 71
     0
 42
1.0
  3
MS PMincho.ttf
  4

1001
ACAD
1000
MS PMincho
1071
    32768
  0
STYLE
  5
5BA
330
3
100
AcDbSymbolTableRecord
100
AcDbTextStyleTableRecord
  2
WMF-System0
 70
     0
 40
0.0
 41
1.0
 50
0.0
 71
     0
 42
1.0
  3

  4

  0
ENDTAB
  0
TABLE
  2
VIEW
  5
6
330
0
100
AcDbSymbolTable
 70
     0
  0
ENDTAB
  0
TABLE
  2
UCS
  5
7
330
0
100
AcDbSymbolTable
 70
     0
  0
ENDTAB
  0
TABLE
  2
APPID
  5
9
330
0
100
AcDbSymbolTable
 70
     2
  0
APPID
  5
12
330
9
100
AcDbSymbolTableRecord
100
AcDbRegAppTableRecord
  2
ACAD
 70
     0
  0
APPID
  5
1C3E
330
9
100
AcDbSymbolTableRecord
100
AcDbRegAppTableRecord
  2
ACAD_MLEADERVER
 70
     0
  0
ENDTAB
  0
TABLE
  2
DIMSTYLE
  5
A
330
0
100
AcDbSymbolTable
 70
     1
100
AcDbDimStyleTable
 71
     1
340
142
  0
DIMSTYLE
105
142
102
{ACAD_REACTORS
330
1551
330
155E
330
1585
330
1592
330
15A9
330
15C5
330
15E8
330
1631
330
165B
330
1675
330
1682
330
16A7
330
16B4
330
16E1
330
16C1
102
}
330
A
100
AcDbSymbolTableRecord
100
AcDbDimStyleTableRecord
  2
Standard
 70
     0
340
11
  0
ENDTAB
  0
TABLE
  2
BLOCK_RECORD
  5
1
330
0
100
AcDbSymbolTable
 70
    28
  0
BLOCK_RECORD
  5
1E
330
1
100
AcDbSymbolTableRecord
100
AcDbBlockTableRecord
  2
*Model_Space
340
21
  0
BLOCK_RECORD
  5
1A
330
1
100
AcDbSymbolTableRecord
100
AcDbBlockTableRecord
  2
*Paper_Space
340
1D
  0
BLOCK_RECORD
  5
1C1
330
1
100
AcDbSymbolTableRecord
100
AcDbBlockTableRecord
  2
_Open30
340
0
102
{BLKREFS
331
1D80
102
}
  0
BLOCK_RECORD
  5
5B5
330
1
100
AcDbSymbolTableRecord
100
AcDbBlockTableRecord
  2
WMF0
340
0
  0
BLOCK_RECORD
  5
5F4
330
1
100
AcDbSymbolTableRecord
100
AcDbBlockTableRecord
  2
WMF1
340
0
  0
BLOCK_RECORD
  5
147D
330
1
100
AcDbSymbolTableRecord
100
AcDbBlockTableRecord
  2
_None
340
0
  0
BLOCK_RECORD
  5
14A3
330
1
100
AcDbSymbolTableRecord
100
AcDbBlockTableRecord
  2
_Open
340
0
102
{BLKREFS
331
1D00
331
1D01
331
1D09
331
1D0A
331
1D12
331
1D13
331
1D1D
331
1D1E
331
1D25
331
1D26
331
1D2E
331
1D2F
331
1D37
331
1D38
331
1D40
331
1D41
331
1D49
331
1D4A
331
1D54
331
1D55
331
1D5C
331
1D5D
331
1D67
331
1D68
331
1D6F
331
1D70
331
1D78
331
1D79
331
1D81
102
}
  0
BLOCK_RECORD
  5
1552
330
1
100
AcDbSymbolTableRecord
100
AcDbBlockTableRecord
  2
*D5
340
0
  0
BLOCK_RECORD
  5
155F
330
1
100
AcDbSymbolTableRecord
100
AcDbBlockTableRecord
  2
*D6
340
0
  0
BLOCK_RECORD
  5
1586
330
1
100
AcDbSymbolTableRecord
100
AcDbBlockTableRecord
  2
*D7
340
0
  0
BLOCK_RECORD
  5
1593
330
1
100
AcDbSymbolTableRecord
100
AcDbBlockTableRecord
  2
*D8
340
0
  0
BLOCK_RECORD
  5
15AA
330
1
100
AcDbSymbolTableRecord
100
AcDbBlockTableRecord
  2
*D9
340
0
  0
BLOCK_RECORD
  5
15C6
330
1
100
AcDbSymbolTableRecord
100
AcDbBlockTableRecord
  2
*D10
340
0
  0
BLOCK_RECORD
  5
15E9
330
1
100
AcDbSymbolTableRecord
100
AcDbBlockTableRecord
  2
*D11
340
0
  0
BLOCK_RECORD
  5
1632
330
1
100
AcDbSymbolTableRecord
100
AcDbBlockTableRecord
  2
*D12
340
0
  0
BLOCK_RECORD
  5
165C
330
1
100
AcDbSymbolTableRecord
100
AcDbBlockTableRecord
  2
*D13
340
0
  0
BLOCK_RECORD
  5
1676
330
1
100
AcDbSymbolTableRecord
100
AcDbBlockTableRecord
  2
*D14
340
0
  0
BLOCK_RECORD
  5
1683
330
1
100
AcDbSymbolTableRecord
100
AcDbBlockTableRecord
  2
*D15
340
0
  0
BLOCK_RECORD
  5
16A8
330
1
100
AcDbSymbolTableRecord
100
AcDbBlockTableRecord
  2
*D16
340
0
  0
BLOCK_RECORD
  5
16B5
330
1
100
AcDbSymbolTableRecord
100
AcDbBlockTableRecord
  2
*D17
340
0
  0
BLOCK_RECORD
  5
16C2
330
1
100
AcDbSymbolTableRecord
100
AcDbBlockTableRecord
  2
*D18
340
0
  0
BLOCK_RECORD
  5
16E2
330
1
100
AcDbSymbolTableRecord
100
AcDbBlockTableRecord
  2
*D19
340
0
  0
BLOCK_RECORD
  5
174B
330
1
100
AcDbSymbolTableRecord
100
AcDbBlockTableRecord
  2
_Open90
340
0
  0
BLOCK_RECORD
  5
18B1
330
1
100
AcDbSymbolTableRecord
100
AcDbBlockTableRecord
  2
_Origin2
340
0
  0
BLOCK_RECORD
  5
18EE
330
1
100
AcDbSymbolTableRecord
100
AcDbBlockTableRecord
  2
_Origin
340
0
  0
BLOCK_RECORD
  5
1961
330
1
100
AcDbSymbolTableRecord
100
AcDbBlockTableRecord
  2
_Oblique
340
0
  0
BLOCK_RECORD
  5
199B
330
1
100
AcDbSymbolTableRecord
100
AcDbBlockTableRecord
  2
_ArchTick
340
0
  0
BLOCK_RECORD
  5
19D5
330
1
100
AcDbSymbolTableRecord
100
AcDbBlockTableRecord
  2
_Dot
340
0
  0
BLOCK_RECORD
  5
1A11
330
1
100
AcDbSymbolTableRecord
100
AcDbBlockTableRecord
  2
_Closed
340
0
  0
BLOCK_RECORD
  5
1A4F
330
1
100
AcDbSymbolTableRecord
100
AcDbBlockTableRecord
  2
_ClosedBlank
340
0
  0
ENDTAB
  0
ENDSEC
  0
SECTION
  2
BLOCKS
  0
BLOCK
  5
4F
330
1E
100
AcDbEntity
  8
0
100
AcDbBlockBegin
  2
*Model_Space
 70
     0
 10
0.0
 20
0.0
 30
0.0
  3
*Model_Space
  1

  0
ENDBLK
  5
50
330
1E
100
AcDbEntity
  8
0
100
AcDbBlockEnd
  0
BLOCK
  5
4D
330
1A
100
AcDbEntity
 67
     1
  8
0
100
AcDbBlockBegin
  2
*Paper_Space
 70
     0
 10
0.0
 20
0.0
 30
0.0
  3
*Paper_Space
  1

  0
ENDBLK
  5
4E
330
1A
100
AcDbEntity
 67
     1
  8
0
100
AcDbBlockEnd
  0
BLOCK
  5
1C5
330
1C1
100
AcDbEntity
  8
0
100
AcDbBlockBegin
  2
_Open30
 70
     0
 10
0.0
 20
0.0
 30
0.0
  3
_Open30
  1

  0
LINE
  5
1C2
330
1C1
100
AcDbEntity
  8
下図
 62
     0
370
    -2
100
AcDbLine
 10
-1.0
 20
0.26794919
 30
0.0
 11
0.0
 21
0.0
 31
0.0
  0
LINE
  5
1C3
330
1C1
100
AcDbEntity
  8
下図
 62
     0
370
    -2
100
AcDbLine
 10
0.0
 20
0.0
 30
0.0
 11
-1.0
 21
-0.26794919
 31
0.0
  0
LINE
  5
1C4
330
1C1
100
AcDbEntity
  8
下図
 62
     0
370
    -2
100
AcDbLine
 10
0.0
 20
0.0
 30
0.0
 11
-1.0
 21
0.0
 31
0.0
  0
ENDBLK
  5
1C6
330
1C1
100
AcDbEntity
  8
0
100
AcDbBlockEnd
  0
BLOCK
  5
5B8
330
5B5
100
AcDbEntity
  8
ﾚｲﾔ1
 62
     0
370
     0
100
AcDbBlockBegin
  2
WMF0
 70
     0
 10
0.0
 20
0.0
 30
0.0
  3
WMF0
  1

  0
TEXT
  5
5BB
330
5B5
100
AcDbEntity
  8
ﾚｲﾔ1
 62
     7
370
     0
100
AcDbText
 10
0.3008669911924759
 20
-1.323814761246894
 30
0.0
 40
0.9507396921682239
  1
能
  7
WMF-ＭＳ Ｐ明朝0
100
AcDbText
  0
TEXT
  5
5BD
330
5B5
100
AcDbEntity
  8
ﾚｲﾔ1
 62
     7
370
     0
100
AcDbText
 10
6.93498414698657
 20
-1.323814761246894
 30
0.0
 40
0.9507396921682239
  1
力
  7
WMF-ＭＳ Ｐ明朝0
100
AcDbText
  0
TEXT
  5
5BE
330
5B5
100
AcDbEntity
  8
ﾚｲﾔ1
 62
     7
370
     0
100
AcDbText
 10
0.3008669911924759
 20
-2.858236416328521
 30
0.0
 40
0.9507396921682239
  1
ス
  7
WMF-ＭＳ Ｐ明朝0
100
AcDbText
  0
TEXT
  5
5BF
330
5B5
100
AcDbEntity
  8
ﾚｲﾔ1
 62
     7
370
     0
100
AcDbText
 10
2.075982239228083
 20
-2.858236416328521
 30
0.0
 40
0.9507396921682239
  1
ト
  7
WMF-ＭＳ Ｐ明朝0
100
AcDbText
  0
TEXT
  5
5C0
330
5B5
100
AcDbEntity
  8
ﾚｲﾔ1
 62
     7
370
     0
100
AcDbText
 10
3.535187146511592
 20
-2.858236416328521
 30
0.0
 40
0.9507396921682239
  1
ロ
  7
WMF-ＭＳ Ｐ明朝0
100
AcDbText
  0
TEXT
  5
5C1
330
5B5
100
AcDbEntity
  8
ﾚｲﾔ1
 62
     7
370
     0
100
AcDbText
 10
5.265172345868328
 20
-2.858236416328521
 30
0.0
 40
0.9507396921682239
  1
ー
  7
WMF-ＭＳ Ｐ明朝0
100
AcDbText
  0
TEXT
  5
5C2
330
5B5
100
AcDbEntity
  8
ﾚｲﾔ1
 62
     7
370
     0
100
AcDbText
 10
7.280981186857917
 20
-2.858236416328521
 30
0.0
 40
0.9507396921682239
  1
ク
  7
WMF-ＭＳ Ｐ明朝0
100
AcDbText
  0
TEXT
  5
5C3
330
5B5
100
AcDbEntity
  8
ﾚｲﾔ1
 62
     7
370
     0
100
AcDbText
 10
0.3008669911924759
 20
-4.392658071410147
 30
0.0
 40
0.9507396921682239
  1
外
  7
WMF-ＭＳ Ｐ明朝0
100
AcDbText
  0
TEXT
  5
5C4
330
5B5
100
AcDbEntity
  8
ﾚｲﾔ1
 62
     7
370
     0
100
AcDbText
 10
6.93498414698657
 20
-4.392658071410147
 30
0.0
 40
0.9507396921682239
  1
径
  7
WMF-ＭＳ Ｐ明朝0
100
AcDbText
  0
TEXT
  5
5C5
330
5B5
100
AcDbEntity
  8
ﾚｲﾔ1
 62
     7
370
     0
100
AcDbText
 10
0.3008669911924759
 20
-5.927079726491776
 30
0.0
 40
0.9507396921682239
  1
内
  7
WMF-ＭＳ Ｐ明朝0
100
AcDbText
  0
TEXT
  5
5C6
330
5B5
100
AcDbEntity
  8
ﾚｲﾔ1
 62
     7
370
     0
100
AcDbText
 10
6.93498414698657
 20
-5.927079726491776
 30
0.0
 40
0.9507396921682239
  1
径
  7
WMF-ＭＳ Ｐ明朝0
100
AcDbText
  0
TEXT
  5
5C7
330
5B5
100
AcDbEntity
  8
ﾚｲﾔ1
 62
     7
370
     0
100
AcDbText
 10
0.3008669911924759
 20
-7.461501381573402
 30
0.0
 40
0.9507396921682239
  1
受
  7
WMF-ＭＳ Ｐ明朝0
100
AcDbText
  0
TEXT
  5
5C8
330
5B5
100
AcDbEntity
  8
ﾚｲﾔ1
 62
     7
370
     0
100
AcDbText
 10
2.512239376457173
 20
-7.461501381573402
 30
0.0
 40
0.9507396921682239
  1
圧
  7
WMF-ＭＳ Ｐ明朝0
100
AcDbText
  0
TEXT
  5
5C9
330
5B5
100
AcDbEntity
  8
ﾚｲﾔ1
 62
     7
370
     0
100
AcDbText
 10
4.723611761721872
 20
-7.461501381573402
 30
0.0
 40
0.9507396921682239
  1
面
  7
WMF-ＭＳ Ｐ明朝0
100
AcDbText
  0
TEXT
  5
5CA
330
5B5
100
AcDbEntity
  8
ﾚｲﾔ1
 62
     7
370
     0
100
AcDbText
 10
6.93498414698657
 20
-7.461501381573402
 30
0.0
 40
0.9507396921682239
  1
積
  7
WMF-ＭＳ Ｐ明朝0
100
AcDbText
  0
TEXT
  5
5CB
330
5B5
100
AcDbEntity
  8
ﾚｲﾔ1
 62
     7
370
     0
100
AcDbText
 10
0.3008669911924759
 20
-8.99592303665503
 30
0.0
 40
0.9507396921682239
  1
ロ
  7
WMF-ＭＳ Ｐ明朝0
100
AcDbText
  0
TEXT
  5
5CC
330
5B5
100
AcDbEntity
  8
ﾚｲﾔ1
 62
     7
370
     0
100
AcDbText
 10
2.61754282337454
 20
-8.99592303665503
 30
0.0
 40
0.9507396921682239
  1
ッ
  7
WMF-ＭＳ Ｐ明朝0
100
AcDbText
  0
TEXT
  5
5CD
330
5B5
100
AcDbEntity
  8
ﾚｲﾔ1
 62
     7
370
     0
100
AcDbText
 10
4.889088606877733
 20
-8.99592303665503
 30
0.0
 40
0.9507396921682239
  1
ト
  7
WMF-ＭＳ Ｐ明朝0
100
AcDbText
  0
TEXT
  5
5CE
330
5B5
100
AcDbEntity
  8
ﾚｲﾔ1
 62
     7
370
     0
100
AcDbText
 10
6.93498414698657
 20
-8.99592303665503
 30
0.0
 40
0.9507396921682239
  1
径
  7
WMF-ＭＳ Ｐ明朝0
100
AcDbText
  0
TEXT
  5
5CF
330
5B5
100
AcDbEntity
  8
ﾚｲﾔ1
 62
     7
370
     0
100
AcDbText
 10
0.3008669911924759
 20
-10.53034469173666
 30
0.0
 40
0.9507396921682239
  1
最
  7
WMF-ＭＳ Ｐ明朝0
100
AcDbText
  0
TEXT
  5
5D0
330
5B5
100
AcDbEntity
  8
ﾚｲﾔ1
 62
     7
370
     0
100
AcDbText
 10
1.955635442751093
 20
-10.53034469173666
 30
0.0
 40
0.9507396921682239
  1
高
  7
WMF-ＭＳ Ｐ明朝0
100
AcDbText
  0
TEXT
  5
5D1
330
5B5
100
AcDbEntity
  8
ﾚｲﾔ1
 62
     7
370
     0
100
AcDbText
 10
3.61040389430971
 20
-10.53034469173666
 30
0.0
 40
0.9507396921682239
  1
使
  7
WMF-ＭＳ Ｐ明朝0
100
AcDbText
  0
TEXT
  5
5D2
330
5B5
100
AcDbEntity
  8
ﾚｲﾔ1
 62
     7
370
     0
100
AcDbText
 10
5.280215695427952
 20
-10.53034469173666
 30
0.0
 40
0.9507396921682239
  1
用
  7
WMF-ＭＳ Ｐ明朝0
100
AcDbText
  0
TEXT
  5
5D3
330
5B5
100
AcDbEntity
  8
ﾚｲﾔ1
 62
     7
370
     0
100
AcDbText
 10
6.93498414698657
 20
-10.53034469173666
 30
0.0
 40
0.9507396921682239
  1
圧
  7
WMF-ＭＳ Ｐ明朝0
100
AcDbText
  0
TEXT
  5
5D4
330
5B5
100
AcDbEntity
  8
ﾚｲﾔ1
 62
     7
370
     0
100
AcDbText
 10
0.3008669911924759
 20
-12.06476634681828
 30
0.0
 40
0.9507396921682239
  1
重
  7
WMF-ＭＳ Ｐ明朝0
100
AcDbText
  0
TEXT
  5
5D5
330
5B5
100
AcDbEntity
  8
ﾚｲﾔ1
 62
     7
370
     0
100
AcDbText
 10
6.93498414698657
 20
-12.06476634681828
 30
0.0
 40
0.9507396921682239
  1
量
  7
WMF-ＭＳ Ｐ明朝0
100
AcDbText
  0
ENDBLK
  5
5D6
330
5B5
100
AcDbEntity
  8
ﾚｲﾔ1
 62
     7
370
     0
100
AcDbBlockEnd
  0
BLOCK
  5
5F7
330
5F4
100
AcDbEntity
  8
ﾚｲﾔ1
 62
     0
370
     0
100
AcDbBlockBegin
  2
WMF1
 70
     0
 10
0.0
 20
0.0
 30
0.0
  3
WMF1
  1

  0
TEXT
  5
5F8
330
5F4
100
AcDbEntity
  8
ﾚｲﾔ1
 62
     7
370
     0
100
AcDbText
 10
0.4010676984272923
 20
-1.764697873080086
 30
0.0
 40
1.267373927030243
  1
TON
  7
WMF-ＭＳ Ｐ明朝0
100
AcDbText
  0
TEXT
  5
5F9
330
5F4
100
AcDbEntity
  8
ﾚｲﾔ1
 62
     7
370
     0
100
AcDbText
 10
0.4010676984272923
 20
-3.810143135059277
 30
0.0
 40
1.267373927030243
  1
㎜
  7
WMF-ＭＳ Ｐ明朝0
100
AcDbText
  0
TEXT
  5
5FA
330
5F4
100
AcDbEntity
  8
ﾚｲﾔ1
 62
     7
370
     0
100
AcDbText
 10
0.4010676984272923
 20
-5.855588397038469
 30
0.0
 40
1.267373927030243
  1
㎜
  7
WMF-ＭＳ Ｐ明朝0
100
AcDbText
  0
TEXT
  5
5FB
330
5F4
100
AcDbEntity
  8
ﾚｲﾔ1
 62
     7
370
     0
100
AcDbText
 10
0.4010676984272923
 20
-7.90103365901766
 30
0.0
 40
1.267373927030243
  1
㎜
  7
WMF-ＭＳ Ｐ明朝0
100
AcDbText
  0
TEXT
  5
5FC
330
5F4
100
AcDbEntity
  8
ﾚｲﾔ1
 62
     7
370
     0
100
AcDbText
 10
0.4010676984272923
 20
-9.946478920996851
 30
0.0
 40
1.267373927030243
  1
㎜
  7
WMF-ＭＳ Ｐ明朝0
100
AcDbText
  0
TEXT
  5
5FD
330
5F4
100
AcDbEntity
  8
ﾚｲﾔ1
 62
     7
370
     0
100
AcDbText
 10
0.4010676984272923
 20
-11.99192418297604
 30
0.0
 40
1.267373927030243
  1
c㎡
  7
WMF-ＭＳ Ｐ明朝0
100
AcDbText
  0
TEXT
  5
5FE
330
5F4
100
AcDbEntity
  8
ﾚｲﾔ1
 62
     7
370
     0
100
AcDbText
 10
0.4010676984272923
 20
-14.03736944495523
 30
0.0
 40
1.267373927030243
  1
㎜
  7
WMF-ＭＳ Ｐ明朝0
100
AcDbText
  0
TEXT
  5
5FF
330
5F4
100
AcDbEntity
  8
ﾚｲﾔ1
 62
     7
370
     0
100
AcDbText
 10
0.4010676984272923
 20
-16.08281470693442
 30
0.0
 40
1.267373927030243
  1
ｋｇｆ/c㎡
  7
WMF-ＭＳ Ｐ明朝0
100
AcDbText
  0
TEXT
  5
600
330
5F4
100
AcDbEntity
  8
ﾚｲﾔ1
 62
     7
370
     0
100
AcDbText
 10
0.4010676984272923
 20
-18.12825996891361
 30
0.0
 40
1.267373927030243
  1
㎏
  7
WMF-ＭＳ Ｐ明朝0
100
AcDbText
  0
ENDBLK
  5
601
330
5F4
100
AcDbEntity
  8
ﾚｲﾔ1
 62
     7
370
     0
100
AcDbBlockEnd
  0
BLOCK
  5
147E
330
147D
100
AcDbEntity
  8
0
100
AcDbBlockBegin
  2
_None
 70
     0
 10
0.0
 20
0.0
 30
0.0
  3
_None
  1

  0
ENDBLK
  5
147F
330
147D
100
AcDbEntity
  8
0
100
AcDbBlockEnd
  0
BLOCK
  5
14A7
330
14A3
100
AcDbEntity
  8
0
100
AcDbBlockBegin
  2
_Open
 70
     0
 10
0.0
 20
0.0
 30
0.0
  3
_Open
  1

  0
LINE
  5
14A4
330
14A3
100
AcDbEntity
  8
寸法
 62
     0
370
    -2
100
AcDbLine
 10
-1.0
 20
0.1666666666666666
 30
0.0
 11
0.0
 21
0.0
 31
0.0
  0
LINE
  5
14A5
330
14A3
100
AcDbEntity
  8
寸法
 62
     0
370
    -2
100
AcDbLine
 10
-1.0
 20
-0.1666666666666666
 30
0.0
 11
0.0
 21
0.0
 31
0.0
  0
LINE
  5
14A6
330
14A3
100
AcDbEntity
  8
寸法
 62
     0
370
    -2
100
AcDbLine
 10
0.0
 20
0.0
 30
0.0
 11
-1.0
 21
0.0
 31
0.0
  0
ENDBLK
  5
14A8
330
14A3
100
AcDbEntity
  8
0
100
AcDbBlockEnd
  0
BLOCK
  5
155C
330
1552
100
AcDbEntity
  8
0
100
AcDbBlockBegin
  2
*D5
 70
     1
 10
0.0
 20
0.0
 30
0.0
  3
*D5
  1

  0
LINE
  5
1D06
330
1552
100
AcDbEntity
  8
寸法
 62
     1
370
    -2
100
AcDbLine
 10
0.0
 20
557.9374999999999
 30
0.0
 11
-0.0000000000000062
 21
456.5
 31
0.0
  0
LINE
  5
1D07
330
1552
100
AcDbEntity
  8
寸法
 62
     1
370
    -2
100
AcDbLine
 10
324.0
 20
557.9374999999999
 30
0.0
 11
324.0
 21
456.5
 31
0.0
  0
LINE
  5
1D08
330
1552
100
AcDbEntity
  8
寸法
 62
     1
370
    -2
100
AcDbLine
 10
14.99999999999999
 20
457.0
 30
0.0
 11
309.0
 21
457.0
 31
0.0
  0
INSERT
  5
1D09
330
1552
100
AcDbEntity
  8
寸法
 62
     1
370
    -2
100
AcDbBlockReference
  2
_Open
 10
-0.0000000000000062
 20
457.0
 30
0.0
 41
15.0
 42
15.0
 43
15.0
 50
180.0
  0
INSERT
  5
1D0A
330
1552
100
AcDbEntity
  8
寸法
 62
     1
370
    -2
100
AcDbBlockReference
  2
_Open
 10
324.0
 20
457.0
 30
0.0
 41
15.0
 42
15.0
 43
15.0
  0
MTEXT
  5
1D0B
330
1552
100
AcDbEntity
  8
寸法
 62
     1
100
AcDbMText
 10
162.0
 20
472.5
 30
0.0
 40
30.0
 41
0.0
 71
     5
 72
     1
  1
\A1;324
  7
TextStyle01
 73
     1
 44
1.0
1001
ACAD
1000
MTEXTBEGIN
1070
    73
1070
     1
1070
    44
1040
1.0
1070
    74
1070
     0
1000
MTEXTEND
  0
POINT
  5
1D0C
330
1552
100
AcDbEntity
  8
Defpoints
 62
     0
100
AcDbPoint
 10
0.0
 20
558.0
 30
0.0
  0
POINT
  5
1D0D
330
1552
100
AcDbEntity
  8
Defpoints
 62
     0
100
AcDbPoint
 10
324.0
 20
558.0
 30
0.0
  0
POINT
  5
1D0E
330
1552
100
AcDbEntity
  8
Defpoints
 62
     0
100
AcDbPoint
 10
324.0
 20
457.0
 30
0.0
  0
ENDBLK
  5
155D
330
1552
100
AcDbEntity
  8
0
100
AcDbBlockEnd
  0
BLOCK
  5
1569
330
155F
100
AcDbEntity
  8
0
100
AcDbBlockBegin
  2
*D6
 70
     1
 10
0.0
 20
0.0
 30
0.0
  3
*D6
  1

  0
LINE
  5
1D2B
330
155F
100
AcDbEntity
  8
寸法
 62
     1
370
    -2
100
AcDbLine
 10
324.0625
 20
908.0
 30
0.0
 11
487.5
 21
908.0
 31
0.0
  0
LINE
  5
1D2C
330
155F
100
AcDbEntity
  8
寸法
 62
     1
370
    -2
100
AcDbLine
 10
324.0625
 20
558.0
 30
0.0
 11
487.5
 21
558.0
 31
0.0
  0
LINE
  5
1D2D
330
155F
100
AcDbEntity
  8
寸法
 62
     1
370
    -2
100
AcDbLine
 10
487.0
 20
893.0
 30
0.0
 11
487.0
 21
573.0
 31
0.0
  0
INSERT
  5
1D2E
330
155F
100
AcDbEntity
  8
寸法
 62
     1
370
    -2
100
AcDbBlockReference
  2
_Open
 10
487.0
 20
908.0
 30
0.0
 41
15.0
 42
15.0
 43
15.0
 50
90.0
  0
INSERT
  5
1D2F
330
155F
100
AcDbEntity
  8
寸法
 62
     1
370
    -2
100
AcDbBlockReference
  2
_Open
 10
487.0
 20
558.0
 30
0.0
 41
15.0
 42
15.0
 43
15.0
 50
270.0
  0
MTEXT
  5
1D30
330
155F
100
AcDbEntity
  8
寸法
 62
     1
100
AcDbMText
 10
471.4999999999999
 20
733.0
 30
0.0
 40
30.0
 41
0.0
 71
     5
 72
     1
  1
\A1;350
  7
TextStyle01
 11
0.0000000000000001
 21
1.0
 31
0.0
 73
     1
 44
1.0
1001
ACAD
1000
MTEXTBEGIN
1070
    73
1070
     1
1070
    44
1040
1.0
1070
    74
1070
     0
1000
MTEXTEND
  0
POINT
  5
1D31
330
155F
100
AcDbEntity
  8
Defpoints
 62
     0
100
AcDbPoint
 10
324.0
 20
908.0
 30
0.0
  0
POINT
  5
1D32
330
155F
100
AcDbEntity
  8
Defpoints
 62
     0
100
AcDbPoint
 10
324.0
 20
558.0
 30
0.0
  0
POINT
  5
1D33
330
155F
100
AcDbEntity
  8
Defpoints
 62
     0
100
AcDbPoint
 10
487.0
 20
558.0
 30
0.0
  0
ENDBLK
  5
156A
330
155F
100
AcDbEntity
  8
0
100
AcDbBlockEnd
  0
BLOCK
  5
1590
330
1586
100
AcDbEntity
  8
0
100
AcDbBlockBegin
  2
*D7
 70
     1
 10
0.0
 20
0.0
 30
0.0
  3
*D7
  1

  0
LINE
  5
1D0F
330
1586
100
AcDbEntity
  8
寸法
 62
     1
370
    -2
100
AcDbLine
 10
121.0
 20
572.9375
 30
0.0
 11
121.0
 21
501.4999999999999
 31
0.0
  0
LINE
  5
1D10
330
1586
100
AcDbEntity
  8
寸法
 62
     1
370
    -2
100
AcDbLine
 10
203.0
 20
572.9375
 30
0.0
 11
203.0
 21
501.4999999999999
 31
0.0
  0
LINE
  5
1D11
330
1586
100
AcDbEntity
  8
寸法
 62
     1
370
    -2
100
AcDbLine
 10
136.0
 20
502.0
 30
0.0
 11
188.0
 21
502.0
 31
0.0
  0
INSERT
  5
1D12
330
1586
100
AcDbEntity
  8
寸法
 62
     1
370
    -2
100
AcDbBlockReference
  2
_Open
 10
121.0
 20
502.0
 30
0.0
 41
15.0
 42
15.0
 43
15.0
 50
180.0
  0
INSERT
  5
1D13
330
1586
100
AcDbEntity
  8
寸法
 62
     1
370
    -2
100
AcDbBlockReference
  2
_Open
 10
203.0
 20
502.0
 30
0.0
 41
15.0
 42
15.0
 43
15.0
  0
MTEXT
  5
1D14
330
1586
100
AcDbEntity
  8
寸法
 62
     1
100
AcDbMText
 10
162.0
 20
517.4999999999999
 30
0.0
 40
30.0
 41
0.0
 71
     5
 72
     1
  1
\A1;82
  7
TextStyle01
 73
     1
 44
1.0
1001
ACAD
1000
MTEXTBEGIN
1070
    73
1070
     1
1070
    44
1040
1.0
1070
    74
1070
     0
1000
MTEXTEND
  0
POINT
  5
1D15
330
1586
100
AcDbEntity
  8
Defpoints
 62
     0
100
AcDbPoint
 10
121.0
 20
573.0
 30
0.0
  0
POINT
  5
1D16
330
1586
100
AcDbEntity
  8
Defpoints
 62
     0
100
AcDbPoint
 10
203.0
 20
573.0
 30
0.0
  0
POINT
  5
1D17
330
1586
100
AcDbEntity
  8
Defpoints
 62
     0
100
AcDbPoint
 10
203.0
 20
502.0
 30
0.0
  0
ENDBLK
  5
1591
330
1586
100
AcDbEntity
  8
0
100
AcDbBlockEnd
  0
BLOCK
  5
159D
330
1593
100
AcDbEntity
  8
0
100
AcDbBlockBegin
  2
*D8
 70
     1
 10
0.0
 20
0.0
 30
0.0
  3
*D8
  1

  0
LINE
  5
1D18
330
1593
100
AcDbEntity
  8
寸法
 62
     1
370
    -2
100
AcDbLine
 10
203.0
 20
572.8749999999999
 30
0.0
 11
203.0
 21
501.4999999999999
 31
0.0
  0
LINE
  5
1D19
330
1593
100
AcDbEntity
  8
寸法
 62
     1
370
    -2
100
AcDbLine
 10
243.0
 20
572.9375
 30
0.0
 11
243.0
 21
501.4999999999999
 31
0.0
  0
LINE
  5
1D1A
330
1593
100
AcDbEntity
  8
寸法
 62
     1
370
    -2
100
AcDbLine
 10
188.0
 20
502.0
 30
0.0
 11
173.0
 21
502.0
 31
0.0
  0
LINE
  5
1D1B
330
1593
100
AcDbEntity
  8
寸法
 62
     1
370
    -2
100
AcDbLine
 10
258.0
 20
502.0
 30
0.0
 11
273.0
 21
502.0
 31
0.0
  0
MTEXT
  5
1D1C
330
1593
100
AcDbEntity
  8
寸法
 62
     1
100
AcDbMText
 10
235.0
 20
517.0
 30
0.0
 40
30.0
 41
0.0
 71
     5
 72
     1
  1
\A1;40
  7
TextStyle01
 73
     1
 44
1.0
1001
ACAD
1000
MTEXTBEGIN
1070
    73
1070
     1
1070
    44
1040
1.0
1070
    74
1070
     0
1000
MTEXTEND
  0
INSERT
  5
1D1D
330
1593
100
AcDbEntity
  8
寸法
 62
     1
370
    -2
100
AcDbBlockReference
  2
_Open
 10
203.0
 20
502.0
 30
0.0
 41
15.0
 42
15.0
 43
15.0
  0
INSERT
  5
1D1E
330
1593
100
AcDbEntity
  8
寸法
 62
     1
370
    -2
100
AcDbBlockReference
  2
_Open
 10
243.0
 20
502.0
 30
0.0
 41
15.0
 42
15.0
 43
15.0
 50
180.0
  0
POINT
  5
1D1F
330
1593
100
AcDbEntity
  8
Defpoints
 62
     0
100
AcDbPoint
 10
203.0
 20
572.9375
 30
0.0
  0
POINT
  5
1D20
330
1593
100
AcDbEntity
  8
Defpoints
 62
     0
100
AcDbPoint
 10
243.0
 20
573.0
 30
0.0
  0
POINT
  5
1D21
330
1593
100
AcDbEntity
  8
Defpoints
 62
     0
100
AcDbPoint
 10
243.0
 20
502.0
 30
0.0
  0
ENDBLK
  5
159E
330
1593
100
AcDbEntity
  8
0
100
AcDbBlockEnd
  0
BLOCK
  5
15B4
330
15AA
100
AcDbEntity
  8
0
100
AcDbBlockBegin
  2
*D9
 70
     1
 10
0.0
 20
0.0
 30
0.0
  3
*D9
  1

  0
LINE
  5
1D3D
330
15AA
100
AcDbEntity
  8
寸法
 62
     1
370
    -2
100
AcDbLine
 10
262.0625
 20
883.0
 30
0.0
 11
374.5
 21
883.0
 31
0.0
  0
LINE
  5
1D3E
330
15AA
100
AcDbEntity
  8
寸法
 62
     1
370
    -2
100
AcDbLine
 10
262.0625
 20
783.0
 30
0.0
 11
374.5
 21
783.0
 31
0.0
  0
LINE
  5
1D3F
330
15AA
100
AcDbEntity
  8
寸法
 62
     1
370
    -2
100
AcDbLine
 10
374.0
 20
868.0
 30
0.0
 11
374.0
 21
798.0
 31
0.0
  0
INSERT
  5
1D40
330
15AA
100
AcDbEntity
  8
寸法
 62
     1
370
    -2
100
AcDbBlockReference
  2
_Open
 10
374.0
 20
883.0
 30
0.0
 41
15.0
 42
15.0
 43
15.0
 50
90.0
  0
INSERT
  5
1D41
330
15AA
100
AcDbEntity
  8
寸法
 62
     1
370
    -2
100
AcDbBlockReference
  2
_Open
 10
374.0
 20
783.0
 30
0.0
 41
15.0
 42
15.0
 43
15.0
 50
270.0
  0
MTEXT
  5
1D42
330
15AA
100
AcDbEntity
  8
寸法
 62
     1
100
AcDbMText
 10
358.4999999999999
 20
833.0000000000001
 30
0.0
 40
30.0
 41
0.0
 71
     5
 72
     1
  1
\A1;100
  7
TextStyle01
 11
0.0000000000000001
 21
1.0
 31
0.0
 73
     1
 44
1.0
1001
ACAD
1000
MTEXTBEGIN
1070
    73
1070
     1
1070
    44
1040
1.0
1070
    74
1070
     0
1000
MTEXTEND
  0
POINT
  5
1D43
330
15AA
100
AcDbEntity
  8
Defpoints
 62
     0
100
AcDbPoint
 10
262.0
 20
883.0
 30
0.0
  0
POINT
  5
1D44
330
15AA
100
AcDbEntity
  8
Defpoints
 62
     0
100
AcDbPoint
 10
262.0
 20
783.0
 30
0.0
  0
POINT
  5
1D45
330
15AA
100
AcDbEntity
  8
Defpoints
 62
     0
100
AcDbPoint
 10
374.0
 20
783.0
 30
0.0
  0
ENDBLK
  5
15B5
330
15AA
100
AcDbEntity
  8
0
100
AcDbBlockEnd
  0
BLOCK
  5
15D0
330
15C6
100
AcDbEntity
  8
0
100
AcDbBlockBegin
  2
*D10
 70
     1
 10
0.0
 20
0.0
 30
0.0
  3
*D10
  1

  0
LINE
  5
1D22
330
15C6
100
AcDbEntity
  8
寸法
 62
     1
370
    -2
100
AcDbLine
 10
262.0
 20
683.0
 30
0.0
 11
374.9375
 21
683.0
 31
0.0
  0
LINE
  5
1D23
330
15C6
100
AcDbEntity
  8
寸法
 62
     1
370
    -2
100
AcDbLine
 10
262.0
 20
583.0
 30
0.0
 11
374.9375
 21
583.0
 31
0.0
  0
LINE
  5
1D24
330
15C6
100
AcDbEntity
  8
寸法
 62
     1
370
    -2
100
AcDbLine
 10
374.4375
 20
668.0
 30
0.0
 11
374.4374999999999
 21
598.0
 31
0.0
  0
INSERT
  5
1D25
330
15C6
100
AcDbEntity
  8
寸法
 62
     1
370
    -2
100
AcDbBlockReference
  2
_Open
 10
374.4375
 20
683.0
 30
0.0
 41
15.0
 42
15.0
 43
15.0
 50
90.0
  0
INSERT
  5
1D26
330
15C6
100
AcDbEntity
  8
寸法
 62
     1
370
    -2
100
AcDbBlockReference
  2
_Open
 10
374.4374999999999
 20
583.0
 30
0.0
 41
15.0
 42
15.0
 43
15.0
 50
270.0
  0
MTEXT
  5
1D27
330
15C6
100
AcDbEntity
  8
寸法
 62
     1
100
AcDbMText
 10
358.9374999999999
 20
633.0
 30
0.0
 40
30.0
 41
0.0
 71
     5
 72
     1
  1
\A1;100
  7
TextStyle01
 11
0.0000000000000001
 21
1.0
 31
0.0
 73
     1
 44
1.0
1001
ACAD
1000
MTEXTBEGIN
1070
    73
1070
     1
1070
    44
1040
1.0
1070
    74
1070
     0
1000
MTEXTEND
  0
POINT
  5
1D28
330
15C6
100
AcDbEntity
  8
Defpoints
 62
     0
100
AcDbPoint
 10
261.9375
 20
683.0
 30
0.0
  0
POINT
  5
1D29
330
15C6
100
AcDbEntity
  8
Defpoints
 62
     0
100
AcDbPoint
 10
261.9375
 20
583.0
 30
0.0
  0
POINT
  5
1D2A
330
15C6
100
AcDbEntity
  8
Defpoints
 62
     0
100
AcDbPoint
 10
374.4374999999999
 20
583.0
 30
0.0
  0
ENDBLK
  5
15D1
330
15C6
100
AcDbEntity
  8
0
100
AcDbBlockEnd
  0
BLOCK
  5
15F3
330
15E9
100
AcDbEntity
  8
0
100
AcDbBlockBegin
  2
*D11
 70
     1
 10
0.0
 20
0.0
 30
0.0
  3
*D11
  1

  0
LINE
  5
1D34
330
15E9
100
AcDbEntity
  8
寸法
 62
     1
370
    -2
100
AcDbLine
 10
262.0625
 20
783.0
 30
0.0
 11
374.5
 21
783.0
 31
0.0
  0
LINE
  5
1D35
330
15E9
100
AcDbEntity
  8
寸法
 62
     1
370
    -2
100
AcDbLine
 10
262.0625
 20
683.0
 30
0.0
 11
374.5
 21
683.0
 31
0.0
  0
LINE
  5
1D36
330
15E9
100
AcDbEntity
  8
寸法
 62
     1
370
    -2
100
AcDbLine
 10
374.0
 20
768.0
 30
0.0
 11
374.0
 21
698.0
 31
0.0
  0
INSERT
  5
1D37
330
15E9
100
AcDbEntity
  8
寸法
 62
     1
370
    -2
100
AcDbBlockReference
  2
_Open
 10
374.0
 20
783.0
 30
0.0
 41
15.0
 42
15.0
 43
15.0
 50
90.0
  0
INSERT
  5
1D38
330
15E9
100
AcDbEntity
  8
寸法
 62
     1
370
    -2
100
AcDbBlockReference
  2
_Open
 10
374.0
 20
683.0
 30
0.0
 41
15.0
 42
15.0
 43
15.0
 50
270.0
  0
MTEXT
  5
1D39
330
15E9
100
AcDbEntity
  8
寸法
 62
     1
100
AcDbMText
 10
358.4999999999999
 20
733.0
 30
0.0
 40
30.0
 41
0.0
 71
     5
 72
     1
  1
\A1;100
  7
TextStyle01
 11
0.0000000000000001
 21
1.0
 31
0.0
 73
     1
 44
1.0
1001
ACAD
1000
MTEXTBEGIN
1070
    73
1070
     1
1070
    44
1040
1.0
1070
    74
1070
     0
1000
MTEXTEND
  0
POINT
  5
1D3A
330
15E9
100
AcDbEntity
  8
Defpoints
 62
     0
100
AcDbPoint
 10
262.0
 20
783.0
 30
0.0
  0
POINT
  5
1D3B
330
15E9
100
AcDbEntity
  8
Defpoints
 62
     0
100
AcDbPoint
 10
262.0
 20
683.0
 30
0.0
  0
POINT
  5
1D3C
330
15E9
100
AcDbEntity
  8
Defpoints
 62
     0
100
AcDbPoint
 10
374.0
 20
683.0
 30
0.0
  0
ENDBLK
  5
15F4
330
15E9
100
AcDbEntity
  8
0
100
AcDbBlockEnd
  0
BLOCK
  5
1639
330
1632
100
AcDbEntity
  8
0
100
AcDbBlockBegin
  2
*D12
 70
     1
 10
0.0
 20
0.0
 30
0.0
  3
*D12
  1

  0
LINE
  5
1D7E
330
1632
100
AcDbEntity
  8
寸法
 62
     1
370
    -2
100
AcDbLine
 10
693.0871668378463
 20
772.6428637997623
 30
0.0
 11
714.7878331621534
 21
793.3571362002374
 31
0.0
  0
MTEXT
  5
1D7F
330
1632
100
AcDbEntity
  8
寸法
 62
     1
100
AcDbMText
 10
739.9375000000004
 20
852.0
 30
0.0
 40
30.0
 41
0.0
 71
     5
 72
     1
  1
\A1;\U+220560
  7
TextStyle01
 11
0.7233555441435696
 21
0.6904757466825032
 31
0.0
 73
     1
 44
1.0
1001
ACAD
1000
MTEXTBEGIN
1070
    73
1070
     1
1070
    44
1040
1.0
1070
    74
1070
     0
1000
MTEXTEND
  0
INSERT
  5
1D80
330
1632
100
AcDbEntity
  8
寸法
 62
     1
370
    -2
100
AcDbBlockReference
  2
_Open30
 10
682.2368336756928
 20
762.2857275995248
 30
0.0
 41
15.0
 42
15.0
 43
15.0
 50
223.6677801461306
  0
INSERT
  5
1D81
330
1632
100
AcDbEntity
  8
寸法
 62
     1
370
    -2
100
AcDbBlockReference
  2
_Open
 10
725.638166324307
 20
803.714272400475
 30
0.0
 41
15.0
 42
15.0
 43
15.0
 50
43.66778014613056
  0
POINT
  5
1D82
330
1632
100
AcDbEntity
  8
Defpoints
 62
     0
100
AcDbPoint
 10
725.638166324307
 20
803.714272400475
 30
0.0
  0
POINT
  5
1D83
330
1632
100
AcDbEntity
  8
Defpoints
 62
     0
100
AcDbPoint
 10
682.2368336756928
 20
762.2857275995248
 30
0.0
  0
ENDBLK
  5
163A
330
1632
100
AcDbEntity
  8
0
100
AcDbBlockEnd
  0
BLOCK
  5
1666
330
165C
100
AcDbEntity
  8
0
100
AcDbBlockBegin
  2
*D13
 70
     1
 10
0.0
 20
0.0
 30
0.0
  3
*D13
  1

  0
LINE
  5
1D46
330
165C
100
AcDbEntity
  8
寸法
 62
     1
370
    -2
100
AcDbLine
 10
203.0625
 20
843.0
 30
0.0
 11
431.5
 21
842.9999999999999
 31
0.0
  0
LINE
  5
1D47
330
165C
100
AcDbEntity
  8
寸法
 62
     1
370
    -2
100
AcDbLine
 10
203.0625
 20
908.0
 30
0.0
 11
431.5
 21
907.9999999999998
 31
0.0
  0
LINE
  5
1D48
330
165C
100
AcDbEntity
  8
寸法
 62
     1
370
    -2
100
AcDbLine
 10
431.0
 20
857.9999999999998
 30
0.0
 11
431.0
 21
892.9999999999999
 31
0.0
  0
INSERT
  5
1D49
330
165C
100
AcDbEntity
  8
寸法
 62
     1
370
    -2
100
AcDbBlockReference
  2
_Open
 10
431.0
 20
842.9999999999999
 30
0.0
 41
15.0
 42
15.0
 43
15.0
 50
270.0
  0
INSERT
  5
1D4A
330
165C
100
AcDbEntity
  8
寸法
 62
     1
370
    -2
100
AcDbBlockReference
  2
_Open
 10
431.0
 20
907.9999999999998
 30
0.0
 41
15.0
 42
15.0
 43
15.0
 50
90.0
  0
MTEXT
  5
1D4B
330
165C
100
AcDbEntity
  8
寸法
 62
     1
100
AcDbMText
 10
415.4999999999999
 20
875.5
 30
0.0
 40
30.0
 41
0.0
 71
     5
 72
     1
  1
\A1;65
  7
TextStyle01
 11
0.0000000000000001
 21
1.0
 31
0.0
 73
     1
 44
1.0
1001
ACAD
1000
MTEXTBEGIN
1070
    73
1070
     1
1070
    44
1040
1.0
1070
    74
1070
     0
1000
MTEXTEND
  0
POINT
  5
1D4C
330
165C
100
AcDbEntity
  8
Defpoints
 62
     0
100
AcDbPoint
 10
203.0
 20
843.0
 30
0.0
  0
POINT
  5
1D4D
330
165C
100
AcDbEntity
  8
Defpoints
 62
     0
100
AcDbPoint
 10
203.0
 20
908.0
 30
0.0
  0
POINT
  5
1D4E
330
165C
100
AcDbEntity
  8
Defpoints
 62
     0
100
AcDbPoint
 10
431.0
 20
907.9999999999998
 30
0.0
  0
ENDBLK
  5
1667
330
165C
100
AcDbEntity
  8
0
100
AcDbBlockEnd
  0
BLOCK
  5
1680
330
1676
100
AcDbEntity
  8
0
100
AcDbBlockBegin
  2
*D14
 70
     1
 10
0.0
 20
0.0
 30
0.0
  3
*D14
  1

  0
LINE
  5
1CFD
330
1676
100
AcDbEntity
  8
寸法
 62
     1
370
    -2
100
AcDbLine
 10
161.9375
 20
783.0
 30
0.0
 11
-18.50000000000002
 21
783.0
 31
0.0
  0
LINE
  5
1CFE
330
1676
100
AcDbEntity
  8
寸法
 62
     1
370
    -2
100
AcDbLine
 10
161.9375
 20
908.0
 30
0.0
 11
-18.49999999999999
 21
908.0
 31
0.0
  0
LINE
  5
1CFF
330
1676
100
AcDbEntity
  8
寸法
 62
     1
370
    -2
100
AcDbLine
 10
-18.00000000000001
 20
798.0
 30
0.0
 11
-17.99999999999999
 21
893.0
 31
0.0
  0
INSERT
  5
1D00
330
1676
100
AcDbEntity
  8
寸法
 62
     1
370
    -2
100
AcDbBlockReference
  2
_Open
 10
-18.00000000000002
 20
783.0
 30
0.0
 41
15.0
 42
15.0
 43
15.0
 50
270.0
  0
INSERT
  5
1D01
330
1676
100
AcDbEntity
  8
寸法
 62
     1
370
    -2
100
AcDbBlockReference
  2
_Open
 10
-17.99999999999999
 20
908.0
 30
0.0
 41
15.0
 42
15.0
 43
15.0
 50
90.0
  0
MTEXT
  5
1D02
330
1676
100
AcDbEntity
  8
寸法
 62
     1
100
AcDbMText
 10
-33.50000000000015
 20
845.5
 30
0.0
 40
30.0
 41
0.0
 71
     5
 72
     1
  1
\A1;125
  7
TextStyle01
 11
0.0000000000000001
 21
1.0
 31
0.0
 73
     1
 44
1.0
1001
ACAD
1000
MTEXTBEGIN
1070
    73
1070
     1
1070
    44
1040
1.0
1070
    74
1070
     0
1000
MTEXTEND
  0
POINT
  5
1D03
330
1676
100
AcDbEntity
  8
Defpoints
 62
     0
100
AcDbPoint
 10
162.0
 20
783.0
 30
0.0
  0
POINT
  5
1D04
330
1676
100
AcDbEntity
  8
Defpoints
 62
     0
100
AcDbPoint
 10
162.0
 20
908.0
 30
0.0
  0
POINT
  5
1D05
330
1676
100
AcDbEntity
  8
Defpoints
 62
     0
100
AcDbPoint
 10
-17.99999999999999
 20
908.0
 30
0.0
  0
ENDBLK
  5
1681
330
1676
100
AcDbEntity
  8
0
100
AcDbBlockEnd
  0
BLOCK
  5
168E
330
1683
100
AcDbEntity
  8
0
100
AcDbBlockBegin
  2
*D15
 70
     1
 10
0.0
 20
0.0
 30
0.0
  3
*D15
  1

  0
LINE
  5
1D4F
330
1683
100
AcDbEntity
  8
寸法
 62
     1
370
    -2
100
AcDbLine
 10
373.9375
 20
883.0
 30
0.0
 11
373.4999999999999
 21
883.0
 31
0.0
  0
LINE
  5
1D50
330
1683
100
AcDbEntity
  8
寸法
 62
     1
370
    -2
100
AcDbLine
 10
405.71875
 20
908.0
 30
0.0
 11
373.5
 21
908.0
 31
0.0
  0
LINE
  5
1D51
330
1683
100
AcDbEntity
  8
寸法
 62
     1
370
    -2
100
AcDbLine
 10
373.9999999999999
 20
868.0
 30
0.0
 11
373.9999999999999
 21
853.0
 31
0.0
  0
LINE
  5
1D52
330
1683
100
AcDbEntity
  8
寸法
 62
     1
370
    -2
100
AcDbLine
 10
374.0
 20
923.0
 30
0.0
 11
374.0
 21
938.0
 31
0.0
  0
MTEXT
  5
1D53
330
1683
100
AcDbEntity
  8
寸法
 62
     1
100
AcDbMText
 10
358.0
 20
924.0
 30
0.0
 40
30.0
 41
0.0
 71
     5
 72
     1
  1
\A1;25
  7
TextStyle01
 11
0.0000000000000001
 21
1.0
 31
0.0
 73
     1
 44
1.0
1001
ACAD
1000
MTEXTBEGIN
1070
    73
1070
     1
1070
    44
1040
1.0
1070
    74
1070
     0
1000
MTEXTEND
  0
INSERT
  5
1D54
330
1683
100
AcDbEntity
  8
寸法
 62
     1
370
    -2
100
AcDbBlockReference
  2
_Open
 10
373.9999999999999
 20
883.0
 30
0.0
 41
15.0
 42
15.0
 43
15.0
 50
90.0
  0
INSERT
  5
1D55
330
1683
100
AcDbEntity
  8
寸法
 62
     1
370
    -2
100
AcDbBlockReference
  2
_Open
 10
374.0
 20
908.0
 30
0.0
 41
15.0
 42
15.0
 43
15.0
 50
270.0
  0
POINT
  5
1D56
330
1683
100
AcDbEntity
  8
Defpoints
 62
     0
100
AcDbPoint
 10
374.0
 20
883.0
 30
0.0
  0
POINT
  5
1D57
330
1683
100
AcDbEntity
  8
Defpoints
 62
     0
100
AcDbPoint
 10
405.78125
 20
908.0
 30
0.0
  0
POINT
  5
1D58
330
1683
100
AcDbEntity
  8
Defpoints
 62
     0
100
AcDbPoint
 10
374.0
 20
908.0
 30
0.0
  0
ENDBLK
  5
168F
330
1683
100
AcDbEntity
  8
0
100
AcDbBlockEnd
  0
BLOCK
  5
16B2
330
16A8
100
AcDbEntity
  8
0
100
AcDbBlockBegin
  2
*D16
 70
     1
 10
0.0
 20
0.0
 30
0.0
  3
*D16
  1

  0
LINE
  5
1D6C
330
16A8
100
AcDbEntity
  8
寸法
 62
     1
370
    -2
100
AcDbLine
 10
704.0
 20
782.9099999999999
 30
0.0
 11
867.4375000000001
 21
782.9099999999998
 31
0.0
  0
LINE
  5
1D6D
330
16A8
100
AcDbEntity
  8
寸法
 62
     1
370
    -2
100
AcDbLine
 10
804.0
 20
908.0
 30
0.0
 11
867.4375000000001
 21
908.0
 31
0.0
  0
LINE
  5
1D6E
330
16A8
100
AcDbEntity
  8
寸法
 62
     1
370
    -2
100
AcDbLine
 10
866.9375
 20
797.9099999999998
 30
0.0
 11
866.9375
 21
893.0
 31
0.0
  0
INSERT
  5
1D6F
330
16A8
100
AcDbEntity
  8
寸法
 62
     1
370
    -2
100
AcDbBlockReference
  2
_Open
 10
866.9375
 20
782.9099999999998
 30
0.0
 41
15.0
 42
15.0
 43
15.0
 50
270.0
  0
INSERT
  5
1D70
330
16A8
100
AcDbEntity
  8
寸法
 62
     1
370
    -2
100
AcDbBlockReference
  2
_Open
 10
866.9375
 20
908.0
 30
0.0
 41
15.0
 42
15.0
 43
15.0
 50
90.0
  0
MTEXT
  5
1D71
330
16A8
100
AcDbEntity
  8
寸法
 62
     1
100
AcDbMText
 10
851.4374999999999
 20
845.4550000000001
 30
0.0
 40
30.0
 41
0.0
 71
     5
 72
     1
  1
\A1;125
  7
TextStyle01
 11
0.0000000000000001
 21
1.0
 31
0.0
 73
     1
 44
1.0
1001
ACAD
1000
MTEXTBEGIN
1070
    73
1070
     1
1070
    44
1040
1.0
1070
    74
1070
     0
1000
MTEXTEND
  0
POINT
  5
1D72
330
16A8
100
AcDbEntity
  8
Defpoints
 62
     0
100
AcDbPoint
 10
703.9375000000001
 20
782.9099999999999
 30
0.0
  0
POINT
  5
1D73
330
16A8
100
AcDbEntity
  8
Defpoints
 62
     0
100
AcDbPoint
 10
803.9375000000001
 20
908.0
 30
0.0
  0
POINT
  5
1D74
330
16A8
100
AcDbEntity
  8
Defpoints
 62
     0
100
AcDbPoint
 10
866.9375
 20
908.0
 30
0.0
  0
ENDBLK
  5
16B3
330
16A8
100
AcDbEntity
  8
0
100
AcDbBlockEnd
  0
BLOCK
  5
16BF
330
16B5
100
AcDbEntity
  8
0
100
AcDbBlockBegin
  2
*D17
 70
     1
 10
0.0
 20
0.0
 30
0.0
  3
*D17
  1

  0
LINE
  5
1D75
330
16B5
100
AcDbEntity
  8
寸法
 62
     1
370
    -2
100
AcDbLine
 10
829.0
 20
908.0
 30
0.0
 11
906.4375000000001
 21
908.0
 31
0.0
  0
LINE
  5
1D76
330
16B5
100
AcDbEntity
  8
寸法
 62
     1
370
    -2
100
AcDbLine
 10
829.0
 20
558.0
 30
0.0
 11
906.4375000000001
 21
558.0
 31
0.0
  0
LINE
  5
1D77
330
16B5
100
AcDbEntity
  8
寸法
 62
     1
370
    -2
100
AcDbLine
 10
905.9375000000002
 20
893.0
 30
0.0
 11
905.9375000000001
 21
573.0
 31
0.0
  0
INSERT
  5
1D78
330
16B5
100
AcDbEntity
  8
寸法
 62
     1
370
    -2
100
AcDbBlockReference
  2
_Open
 10
905.9375000000002
 20
908.0
 30
0.0
 41
15.0
 42
15.0
 43
15.0
 50
90.0
  0
INSERT
  5
1D79
330
16B5
100
AcDbEntity
  8
寸法
 62
     1
370
    -2
100
AcDbBlockReference
  2
_Open
 10
905.9375000000001
 20
558.0
 30
0.0
 41
15.0
 42
15.0
 43
15.0
 50
270.0
  0
MTEXT
  5
1D7A
330
16B5
100
AcDbEntity
  8
寸法
 62
     1
100
AcDbMText
 10
890.4374999999999
 20
733.0000000000002
 30
0.0
 40
30.0
 41
0.0
 71
     5
 72
     1
  1
\A1;350
  7
TextStyle01
 11
0.0000000000000001
 21
1.0
 31
0.0
 73
     1
 44
1.0
1001
ACAD
1000
MTEXTBEGIN
1070
    73
1070
     1
1070
    44
1040
1.0
1070
    74
1070
     0
1000
MTEXTEND
  0
POINT
  5
1D7B
330
16B5
100
AcDbEntity
  8
Defpoints
 62
     0
100
AcDbPoint
 10
828.9374999999999
 20
908.0
 30
0.0
  0
POINT
  5
1D7C
330
16B5
100
AcDbEntity
  8
Defpoints
 62
     0
100
AcDbPoint
 10
828.9374999999999
 20
558.0
 30
0.0
  0
POINT
  5
1D7D
330
16B5
100
AcDbEntity
  8
Defpoints
 62
     0
100
AcDbPoint
 10
905.9375000000001
 20
558.0
 30
0.0
  0
ENDBLK
  5
16C0
330
16B5
100
AcDbEntity
  8
0
100
AcDbBlockEnd
  0
BLOCK
  5
16CD
330
16C2
100
AcDbEntity
  8
0
100
AcDbBlockBegin
  2
*D18
 70
     1
 10
0.0
 20
0.0
 30
0.0
  3
*D18
  1

  0
LINE
  5
1D62
330
16C2
100
AcDbEntity
  8
寸法
 62
     1
370
    -2
100
AcDbLine
 10
829.0
 20
908.0624999999999
 30
0.0
 11
829.0
 21
941.5
 31
0.0
  0
LINE
  5
1D63
330
16C2
100
AcDbEntity
  8
寸法
 62
     1
370
    -2
100
AcDbLine
 10
804.0
 20
908.0624999999999
 30
0.0
 11
804.0
 21
941.5
 31
0.0
  0
LINE
  5
1D64
330
16C2
100
AcDbEntity
  8
寸法
 62
     1
370
    -2
100
AcDbLine
 10
844.0
 20
941.0
 30
0.0
 11
859.0
 21
941.0
 31
0.0
  0
LINE
  5
1D65
330
16C2
100
AcDbEntity
  8
寸法
 62
     1
370
    -2
100
AcDbLine
 10
789.0000000000001
 20
941.0
 30
0.0
 11
774.0000000000001
 21
941.0
 31
0.0
  0
MTEXT
  5
1D66
330
16C2
100
AcDbEntity
  8
寸法
 62
     1
100
AcDbMText
 10
845.9375000000001
 20
957.0
 30
0.0
 40
30.0
 41
0.0
 71
     5
 72
     1
  1
\A1;25
  7
TextStyle01
 73
     1
 44
1.0
1001
ACAD
1000
MTEXTBEGIN
1070
    73
1070
     1
1070
    44
1040
1.0
1070
    74
1070
     0
1000
MTEXTEND
  0
INSERT
  5
1D67
330
16C2
100
AcDbEntity
  8
寸法
 62
     1
370
    -2
100
AcDbBlockReference
  2
_Open
 10
829.0
 20
941.0
 30
0.0
 41
15.0
 42
15.0
 43
15.0
 50
180.0
  0
INSERT
  5
1D68
330
16C2
100
AcDbEntity
  8
寸法
 62
     1
370
    -2
100
AcDbBlockReference
  2
_Open
 10
804.0
 20
941.0
 30
0.0
 41
15.0
 42
15.0
 43
15.0
  0
POINT
  5
1D69
330
16C2
100
AcDbEntity
  8
Defpoints
 62
     0
100
AcDbPoint
 10
829.0
 20
908.0
 30
0.0
  0
POINT
  5
1D6A
330
16C2
100
AcDbEntity
  8
Defpoints
 62
     0
100
AcDbPoint
 10
804.0
 20
908.0
 30
0.0
  0
POINT
  5
1D6B
330
16C2
100
AcDbEntity
  8
Defpoints
 62
     0
100
AcDbPoint
 10
804.0
 20
941.0
 30
0.0
  0
ENDBLK
  5
16CE
330
16C2
100
AcDbEntity
  8
0
100
AcDbBlockEnd
  0
BLOCK
  5
16EC
330
16E2
100
AcDbEntity
  8
0
100
AcDbBlockBegin
  2
*D19
 70
     1
 10
0.0
 20
0.0
 30
0.0
  3
*D19
  1

  0
LINE
  5
1D59
330
16E2
100
AcDbEntity
  8
寸法
 62
     1
370
    -2
100
AcDbLine
 10
803.9375000000001
 20
782.9724999999999
 30
0.0
 11
803.9375000000001
 21
941.5
 31
0.0
  0
LINE
  5
1D5A
330
16E2
100
AcDbEntity
  8
寸法
 62
     1
370
    -2
100
AcDbLine
 10
704.0
 20
782.9724999999999
 30
0.0
 11
704.0
 21
941.5
 31
0.0
  0
LINE
  5
1D5B
330
16E2
100
AcDbEntity
  8
寸法
 62
     1
370
    -2
100
AcDbLine
 10
788.9375000000001
 20
941.0
 30
0.0
 11
719.0000000000001
 21
941.0
 31
0.0
  0
INSERT
  5
1D5C
330
16E2
100
AcDbEntity
  8
寸法
 62
     1
370
    -2
100
AcDbBlockReference
  2
_Open
 10
803.9375000000001
 20
941.0
 30
0.0
 41
15.0
 42
15.0
 43
15.0
  0
INSERT
  5
1D5D
330
16E2
100
AcDbEntity
  8
寸法
 62
     1
370
    -2
100
AcDbBlockReference
  2
_Open
 10
704.0
 20
941.0
 30
0.0
 41
15.0
 42
15.0
 43
15.0
 50
180.0
  0
MTEXT
  5
1D5E
330
16E2
100
AcDbEntity
  8
寸法
 62
     1
100
AcDbMText
 10
753.9687500000001
 20
956.4999999999999
 30
0.0
 40
30.0
 41
0.0
 71
     5
 72
     1
  1
\A1;100
  7
TextStyle01
 73
     1
 44
1.0
1001
ACAD
1000
MTEXTBEGIN
1070
    73
1070
     1
1070
    44
1040
1.0
1070
    74
1070
     0
1000
MTEXTEND
  0
POINT
  5
1D5F
330
16E2
100
AcDbEntity
  8
Defpoints
 62
     0
100
AcDbPoint
 10
803.9375000000001
 20
782.9099999999999
 30
0.0
  0
POINT
  5
1D60
330
16E2
100
AcDbEntity
  8
Defpoints
 62
     0
100
AcDbPoint
 10
704.0
 20
782.9099999999999
 30
0.0
  0
POINT
  5
1D61
330
16E2
100
AcDbEntity
  8
Defpoints
 62
     0
100
AcDbPoint
 10
704.0
 20
941.0
 30
0.0
  0
ENDBLK
  5
16ED
330
16E2
100
AcDbEntity
  8
0
100
AcDbBlockEnd
  0
BLOCK
  5
174F
330
174B
100
AcDbEntity
  8
0
100
AcDbBlockBegin
  2
_Open90
 70
     0
 10
0.0
 20
0.0
 30
0.0
  3
_Open90
  1

  0
LINE
  5
174C
330
174B
100
AcDbEntity
  8
0
  6
ByBlock
 62
     0
370
    -2
100
AcDbLine
 10
-0.5
 20
0.5
 30
0.0
 11
0.0
 21
0.0
 31
0.0
  0
LINE
  5
174D
330
174B
100
AcDbEntity
  8
0
  6
ByBlock
 62
     0
370
    -2
100
AcDbLine
 10
0.0
 20
0.0
 30
0.0
 11
-0.5
 21
-0.5
 31
0.0
  0
LINE
  5
174E
330
174B
100
AcDbEntity
  8
0
  6
ByBlock
 62
     0
370
    -2
100
AcDbLine
 10
0.0
 20
0.0
 30
0.0
 11
-1.0
 21
0.0
 31
0.0
  0
ENDBLK
  5
1750
330
174B
100
AcDbEntity
  8
0
100
AcDbBlockEnd
  0
BLOCK
  5
18B5
330
18B1
100
AcDbEntity
  8
0
100
AcDbBlockBegin
  2
_Origin2
 70
     0
 10
0.0
 20
0.0
 30
0.0
  3
_Origin2
  1

  0
CIRCLE
  5
18B2
330
18B1
100
AcDbEntity
  8
0
  6
ByBlock
 62
     0
370
    -2
100
AcDbCircle
 10
0.0
 20
0.0
 30
0.0
 40
0.5
  0
CIRCLE
  5
18B3
330
18B1
100
AcDbEntity
  8
0
  6
ByBlock
 62
     0
370
    -2
100
AcDbCircle
 10
0.0
 20
0.0
 30
0.0
 40
0.25
  0
LINE
  5
18B4
330
18B1
100
AcDbEntity
  8
0
  6
ByBlock
 62
     0
370
    -2
100
AcDbLine
 10
-0.5
 20
0.0
 30
0.0
 11
-1.0
 21
0.0
 31
0.0
  0
ENDBLK
  5
18B6
330
18B1
100
AcDbEntity
  8
0
100
AcDbBlockEnd
  0
BLOCK
  5
18F1
330
18EE
100
AcDbEntity
  8
0
100
AcDbBlockBegin
  2
_Origin
 70
     0
 10
0.0
 20
0.0
 30
0.0
  3
_Origin
  1

  0
CIRCLE
  5
18EF
330
18EE
100
AcDbEntity
  8
0
  6
ByBlock
 62
     0
370
    -2
100
AcDbCircle
 10
0.0
 20
0.0
 30
0.0
 40
0.5
  0
LINE
  5
18F0
330
18EE
100
AcDbEntity
  8
0
  6
ByBlock
 62
     0
370
    -2
100
AcDbLine
 10
0.0
 20
0.0
 30
0.0
 11
-1.0
 21
0.0
 31
0.0
  0
ENDBLK
  5
18F2
330
18EE
100
AcDbEntity
  8
0
100
AcDbBlockEnd
  0
BLOCK
  5
1963
330
1961
100
AcDbEntity
  8
0
100
AcDbBlockBegin
  2
_Oblique
 70
     0
 10
0.0
 20
0.0
 30
0.0
  3
_Oblique
  1

  0
LINE
  5
1962
330
1961
100
AcDbEntity
  8
0
  6
ByBlock
 62
     0
370
    -2
100
AcDbLine
 10
-0.5
 20
-0.5
 30
0.0
 11
0.5
 21
0.5
 31
0.0
  0
ENDBLK
  5
1964
330
1961
100
AcDbEntity
  8
0
100
AcDbBlockEnd
  0
BLOCK
  5
199D
330
199B
100
AcDbEntity
  8
0
100
AcDbBlockBegin
  2
_ArchTick
 70
     0
 10
0.0
 20
0.0
 30
0.0
  3
_ArchTick
  1

  0
LWPOLYLINE
  5
199C
330
199B
100
AcDbEntity
  8
0
  6
ByBlock
 62
     0
100
AcDbPolyline
 90
        2
 70
     0
 43
0.15
 10
-0.5
 20
-0.5
 10
0.5
 20
0.5
  0
ENDBLK
  5
199E
330
199B
100
AcDbEntity
  8
0
100
AcDbBlockEnd
  0
BLOCK
  5
19D8
330
19D5
100
AcDbEntity
  8
0
100
AcDbBlockBegin
  2
_Dot
 70
     0
 10
0.0
 20
0.0
 30
0.0
  3
_Dot
  1

  0
LWPOLYLINE
  5
19D6
330
19D5
100
AcDbEntity
  8
0
  6
ByBlock
 62
     0
100
AcDbPolyline
 90
        2
 70
     1
 43
0.5
 10
-0.25
 20
0.0
 42
1.0
 10
0.25
 20
0.0
 42
1.0
  0
LINE
  5
19D7
330
19D5
100
AcDbEntity
  8
0
  6
ByBlock
 62
     0
370
    -2
100
AcDbLine
 10
-0.5
 20
0.0
 30
0.0
 11
-1.0
 21
0.0
 31
0.0
  0
ENDBLK
  5
19D9
330
19D5
100
AcDbEntity
  8
0
100
AcDbBlockEnd
  0
BLOCK
  5
1A16
330
1A11
100
AcDbEntity
  8
0
100
AcDbBlockBegin
  2
_Closed
 70
     0
 10
0.0
 20
0.0
 30
0.0
  3
_Closed
  1

  0
LINE
  5
1A12
330
1A11
100
AcDbEntity
  8
0
  6
ByBlock
 62
     0
370
    -2
100
AcDbLine
 10
-1.0
 20
0.1666666666666666
 30
0.0
 11
0.0
 21
0.0
 31
0.0
  0
LINE
  5
1A13
330
1A11
100
AcDbEntity
  8
0
  6
ByBlock
 62
     0
370
    -2
100
AcDbLine
 10
0.0
 20
0.0
 30
0.0
 11
-1.0
 21
-0.1666666666666666
 31
0.0
  0
LINE
  5
1A14
330
1A11
100
AcDbEntity
  8
0
  6
ByBlock
 62
     0
370
    -2
100
AcDbLine
 10
-1.0
 20
0.1666666666666666
 30
0.0
 11
-1.0
 21
-0.1666666666666666
 31
0.0
  0
LINE
  5
1A15
330
1A11
100
AcDbEntity
  8
0
  6
ByBlock
 62
     0
370
    -2
100
AcDbLine
 10
0.0
 20
0.0
 30
0.0
 11
-1.0
 21
0.0
 31
0.0
  0
ENDBLK
  5
1A17
330
1A11
100
AcDbEntity
  8
0
100
AcDbBlockEnd
  0
BLOCK
  5
1A53
330
1A4F
100
AcDbEntity
  8
0
100
AcDbBlockBegin
  2
_ClosedBlank
 70
     0
 10
0.0
 20
0.0
 30
0.0
  3
_ClosedBlank
  1

  0
LINE
  5
1A50
330
1A4F
100
AcDbEntity
  8
0
  6
ByBlock
 62
     0
370
    -2
100
AcDbLine
 10
-1.0
 20
0.1666666666666666
 30
0.0
 11
0.0
 21
0.0
 31
0.0
  0
LINE
  5
1A51
330
1A4F
100
AcDbEntity
  8
0
  6
ByBlock
 62
     0
370
    -2
100
AcDbLine
 10
0.0
 20
0.0
 30
0.0
 11
-1.0
 21
-0.1666666666666666
 31
0.0
  0
LINE
  5
1A52
330
1A4F
100
AcDbEntity
  8
0
  6
ByBlock
 62
     0
370
    -2
100
AcDbLine
 10
-1.0
 20
0.1666666666666666
 30
0.0
 11
-1.0
 21
-0.1666666666666666
 31
0.0
  0
ENDBLK
  5
1A54
330
1A4F
100
AcDbEntity
  8
0
100
AcDbBlockEnd
  0
ENDSEC
  0
SECTION
  2
ENTITIES
  0
LWPOLYLINE
  5
51
330
1E
100
AcDbEntity
  8
図面枠
  6
Continuous
 62
   254
100
AcDbPolyline
 90
        4
 70
     1
 43
0.0
 10
-203.875
 20
242.0
 10
1056.125
 20
242.0
 10
1056.125
 20
1133.0
 10
-203.875
 20
1133.0
  0
LINE
  5
57
330
1E
100
AcDbEntity
  8
図面枠
  6
Continuous
100
AcDbLine
 10
1011.124999999999
 20
1103.0
 30
0.0
 11
-143.875
 21
1103.0
 31
0.0
  0
LINE
  5
58
330
1E
100
AcDbEntity
  8
図面枠
  6
Continuous
100
AcDbLine
 10
-143.875
 20
1103.0
 30
0.0
 11
-143.875
 21
287.0
 31
0.0
  0
LINE
  5
59
330
1E
100
AcDbEntity
  8
図面枠
  6
Continuous
100
AcDbLine
 10
1011.124999999999
 20
287.0
 30
0.0
 11
-143.875
 21
287.0
 31
0.0
  0
LINE
  5
5A
330
1E
100
AcDbEntity
  8
図面枠
  6
Continuous
100
AcDbLine
 10
1011.124999999999
 20
1103.0
 30
0.0
 11
1011.124999999999
 21
287.0
 31
0.0
  0
LINE
  5
5E
330
1E
100
AcDbEntity
  8
図面枠
  6
Continuous
100
AcDbLine
 10
657.1249999999996
 20
296.0
 30
0.0
 11
687.1249999999996
 21
296.0
 31
0.0
  0
LINE
  5
62
330
1E
100
AcDbEntity
  8
図面枠
  6
Continuous
100
AcDbLine
 10
687.1249999999996
 20
296.0
 30
0.0
 11
717.1249999999997
 21
296.0
 31
0.0
  0
LINE
  5
66
330
1E
100
AcDbEntity
  8
図面枠
  6
Continuous
100
AcDbLine
 10
717.1249999999997
 20
296.0
 30
0.0
 11
747.1249999999996
 21
296.0
 31
0.0
  0
LINE
  5
6A
330
1E
100
AcDbEntity
  8
図面枠
  6
Continuous
100
AcDbLine
 10
747.1249999999996
 20
296.0
 30
0.0
 11
789.1249999999996
 21
296.0
 31
0.0
  0
LINE
  5
6B
330
1E
100
AcDbEntity
  8
図面枠
  6
Continuous
100
AcDbLine
 10
789.1249999999996
 20
296.0
 30
0.0
 11
789.1249999999996
 21
326.0
 31
0.0
  0
LINE
  5
6D
330
1E
100
AcDbEntity
  8
図面枠
  6
Continuous
100
AcDbLine
 10
789.1249999999996
 20
326.0
 30
0.0
 11
789.1249999999996
 21
296.0
 31
0.0
  0
LINE
  5
6E
330
1E
100
AcDbEntity
  8
図面枠
  6
Continuous
100
AcDbLine
 10
789.1249999999996
 20
296.0
 30
0.0
 11
831.1249999999995
 21
296.0
 31
0.0
  0
LINE
  5
6F
330
1E
100
AcDbEntity
  8
図面枠
  6
Continuous
100
AcDbLine
 10
831.1249999999995
 20
296.0
 30
0.0
 11
831.1249999999995
 21
326.0
 31
0.0
  0
LINE
  5
70
330
1E
100
AcDbEntity
  8
図面枠
  6
Continuous
100
AcDbLine
 10
831.1249999999995
 20
326.0
 30
0.0
 11
789.1249999999996
 21
326.0
 31
0.0
  0
LINE
  5
71
330
1E
100
AcDbEntity
  8
図面枠
  6
Continuous
100
AcDbLine
 10
831.1249999999995
 20
326.0
 30
0.0
 11
831.1249999999995
 21
296.0
 31
0.0
  0
LINE
  5
72
330
1E
100
AcDbEntity
  8
図面枠
  6
Continuous
100
AcDbLine
 10
831.1249999999995
 20
296.0
 30
0.0
 11
864.1249999999995
 21
296.0
 31
0.0
  0
LINE
  5
73
330
1E
100
AcDbEntity
  8
図面枠
  6
Continuous
100
AcDbLine
 10
864.1249999999995
 20
296.0
 30
0.0
 11
864.1249999999995
 21
326.0
 31
0.0
  0
LINE
  5
74
330
1E
100
AcDbEntity
  8
図面枠
  6
Continuous
100
AcDbLine
 10
864.1249999999995
 20
326.0
 30
0.0
 11
831.1249999999995
 21
326.0
 31
0.0
  0
LINE
  5
75
330
1E
100
AcDbEntity
  8
図面枠
  6
Continuous
100
AcDbLine
 10
864.1249999999995
 20
326.0
 30
0.0
 11
864.1249999999995
 21
296.0
 31
0.0
  0
LINE
  5
76
330
1E
100
AcDbEntity
  8
図面枠
  6
Continuous
100
AcDbLine
 10
864.1249999999995
 20
296.0
 30
0.0
 11
876.1249999999995
 21
296.0
 31
0.0
  0
LINE
  5
77
330
1E
100
AcDbEntity
  8
図面枠
  6
Continuous
100
AcDbLine
 10
876.1249999999995
 20
296.0
 30
0.0
 11
876.1249999999995
 21
326.0
 31
0.0
  0
LINE
  5
78
330
1E
100
AcDbEntity
  8
図面枠
  6
Continuous
100
AcDbLine
 10
876.1249999999995
 20
326.0
 30
0.0
 11
864.1249999999995
 21
326.0
 31
0.0
  0
LINE
  5
79
330
1E
100
AcDbEntity
  8
図面枠
  6
Continuous
100
AcDbLine
 10
876.1249999999995
 20
326.0
 30
0.0
 11
876.1249999999995
 21
296.0
 31
0.0
  0
LINE
  5
7A
330
1E
100
AcDbEntity
  8
図面枠
  6
Continuous
100
AcDbLine
 10
876.1249999999995
 20
296.0
 30
0.0
 11
1002.124999999999
 21
296.0
 31
0.0
  0
LINE
  5
7B
330
1E
100
AcDbEntity
  8
図面枠
  6
Continuous
100
AcDbLine
 10
1002.124999999999
 20
296.0
 30
0.0
 11
1002.124999999999
 21
326.0
 31
0.0
  0
LINE
  5
7C
330
1E
100
AcDbEntity
  8
図面枠
  6
Continuous
100
AcDbLine
 10
1002.124999999999
 20
326.0
 30
0.0
 11
876.1249999999995
 21
326.0
 31
0.0
  0
LINE
  5
7F
330
1E
100
AcDbEntity
  8
図面枠
  6
Continuous
100
AcDbLine
 10
789.1249999999996
 20
341.0
 30
0.0
 11
789.1249999999996
 21
326.0
 31
0.0
  0
LINE
  5
83
330
1E
100
AcDbEntity
  8
図面枠
  6
Continuous
100
AcDbLine
 10
789.1249999999996
 20
356.0
 30
0.0
 11
789.1249999999996
 21
341.0
 31
0.0
  0
LINE
  5
87
330
1E
100
AcDbEntity
  8
図面枠
  6
Continuous
100
AcDbLine
 10
789.1249999999996
 20
371.0
 30
0.0
 11
789.1249999999996
 21
356.0
 31
0.0
  0
LINE
  5
89
330
1E
100
AcDbEntity
  8
図面枠
  6
Continuous
100
AcDbLine
 10
789.1249999999996
 20
371.0
 30
0.0
 11
789.1249999999996
 21
326.0
 31
0.0
  0
LINE
  5
8A
330
1E
100
AcDbEntity
  8
図面枠
  6
Continuous
100
AcDbLine
 10
789.1249999999996
 20
326.0
 30
0.0
 11
804.1249999999996
 21
326.0
 31
0.0
  0
LINE
  5
8B
330
1E
100
AcDbEntity
  8
図面枠
  6
Continuous
100
AcDbLine
 10
804.1249999999996
 20
326.0
 30
0.0
 11
804.1249999999996
 21
371.0
 31
0.0
  0
LINE
  5
8C
330
1E
100
AcDbEntity
  8
図面枠
  6
Continuous
100
AcDbLine
 10
804.1249999999996
 20
371.0
 30
0.0
 11
789.1249999999996
 21
371.0
 31
0.0
  0
LINE
  5
8D
330
1E
100
AcDbEntity
  8
図面枠
  6
Continuous
100
AcDbLine
 10
804.1249999999996
 20
326.0
 30
0.0
 11
804.1249999999996
 21
371.0
 31
0.0
  0
LINE
  5
8E
330
1E
100
AcDbEntity
  8
図面枠
  6
Continuous
100
AcDbLine
 10
804.1249999999996
 20
371.0
 30
0.0
 11
1002.124999999999
 21
371.0
 31
0.0
  0
LINE
  5
8F
330
1E
100
AcDbEntity
  8
図面枠
  6
Continuous
100
AcDbLine
 10
1002.124999999999
 20
371.0
 30
0.0
 11
1002.124999999999
 21
326.0
 31
0.0
  0
LINE
  5
90
330
1E
100
AcDbEntity
  8
図面枠
  6
Continuous
100
AcDbLine
 10
1002.124999999999
 20
326.0
 30
0.0
 11
804.1249999999996
 21
326.0
 31
0.0
  0
LINE
  5
93
330
1E
100
AcDbEntity
  8
図面枠
  6
Continuous
100
AcDbLine
 10
1002.124999999999
 20
431.0
 30
0.0
 11
1002.124999999999
 21
371.0
 31
0.0
  0
LINE
  5
A4
330
1E
100
AcDbEntity
  8
図面枠
  6
Continuous
100
AcDbLine
 10
789.1249999999996
 20
311.0
 30
0.0
 11
864.1249999999995
 21
311.0
 31
0.0
  0
LINE
  5
A5
330
1E
100
AcDbEntity
  8
図面枠
  6
Continuous
100
AcDbLine
 10
813.1249999999996
 20
346.6999999999999
 30
0.0
 11
992.5249999999998
 21
346.6999999999999
 31
0.0
  0
LINE
  5
A6
330
1E
100
AcDbEntity
  8
図面枠
  6
Continuous
100
AcDbLine
 10
-134.875
 20
1094.0
 30
0.0
 11
1002.124999999999
 21
1094.0
 31
0.0
  0
LINE
  5
A7
330
1E
100
AcDbEntity
  8
図面枠
  6
Continuous
100
AcDbLine
 10
-134.875
 20
296.0
 30
0.0
 11
-134.875
 21
1094.0
 31
0.0
  0
LINE
  5
A8
330
1E
100
AcDbEntity
  8
図面枠
  6
Continuous
100
AcDbLine
 10
1002.124999999999
 20
1094.0
 30
0.0
 11
1002.124999999999
 21
296.0
 31
0.0
  0
LINE
  5
AA
330
1E
100
AcDbEntity
  8
図面枠
  6
Continuous
100
AcDbLine
 10
627.1249999999996
 20
296.0
 30
0.0
 11
657.1249999999996
 21
296.0
 31
0.0
  0
LINE
  5
AB
330
1E
100
AcDbEntity
  8
図面枠
  6
Continuous
100
AcDbLine
 10
1002.124999999999
 20
296.0
 30
0.0
 11
-134.875
 21
296.0
 31
0.0
  0
TEXT
  5
130
330
1E
100
AcDbEntity
  8
図面枠
100
AcDbText
 10
794.4329987151792
 20
312.3787137776722
 30
0.0
 40
12.0
  1
尺度
 41
1.125
100
AcDbText
  0
TEXT
  5
131
330
1E
100
AcDbEntity
  8
図面枠
100
AcDbText
 10
790.11366581012
 20
365.1867543235385
 30
0.0
 40
12.0
  1
名 称
 50
270.0
100
AcDbText
  0
TEXT
  5
136
330
1E
100
AcDbEntity
  8
図面枠
100
AcDbText
 10
866.0749999999998
 20
299.9
 30
0.0
 40
9.0
  1
番
100
AcDbText
  0
TEXT
  5
150
330
1E
100
AcDbEntity
  8
図面枠
100
AcDbText
 10
796.5080653748284
 20
297.6162172298747
 30
0.0
 40
9.0
  1
１：3
100
AcDbText
  0
TEXT
  5
152
330
1E
100
AcDbEntity
  8
図面枠
100
AcDbText
 10
866.0749999999998
 20
314.070230404338
 30
0.0
 40
9.0
  1
図
100
AcDbText
  0
MTEXT
  5
191
330
1E
100
AcDbEntity
  8
図面枠
370
    30
100
AcDbMText
 10
806.0843306802517
 20
284.5951931999341
 30
0.0
 40
13.2
 41
217.8578313425112
 71
     1
 72
     5
  1
株式会社　関東油機サービス
 73
     1
 44
1.0
1001
ACAD
1000
MTEXTBEGIN
1070
    73
1070
     1
1070
    44
1040
1.0
1070
    74
1070
     0
1000
MTEXTEND
  0
LWPOLYLINE
  5
14FB
330
1E
100
AcDbEntity
  8
図面
100
AcDbPolyline
 90
        4
 70
     1
 43
0.0
 10
0.0
 20
908.0
 10
324.0
 20
908.0
 10
324.0
 20
558.0
 10
0.0
 20
558.0
  0
LWPOLYLINE
  5
1505
330
1E
100
AcDbEntity
  8
図面
100
AcDbPolyline
 90
        4
 70
     1
 43
0.0
 10
203.0
 20
843.0
 10
243.0
 20
843.0
 10
243.0
 20
573.0
 10
203.0
 20
573.0
  0
LWPOLYLINE
  5
1506
330
1E
100
AcDbEntity
  8
図面
100
AcDbPolyline
 90
        4
 70
     1
 43
0.0
 10
121.0
 20
843.0
 10
81.00000000000001
 20
843.0
 10
81.00000000000001
 20
573.0
 10
121.0
 20
573.0
  0
LINE
  5
1510
330
1E
100
AcDbEntity
  8
図面
  6
DASHED
100
AcDbLine
 10
81.00000000000001
 20
813.0
 30
0.0
 11
121.0
 21
813.0
 31
0.0
  0
LINE
  5
1511
330
1E
100
AcDbEntity
  8
図面
  6
DASHED
100
AcDbLine
 10
121.0
 20
753.0
 30
0.0
 11
81.00000000000001
 21
753.0
 31
0.0
  0
LINE
  5
1512
330
1E
100
AcDbEntity
  8
図面
  6
DASHED
100
AcDbLine
 10
203.0
 20
813.0
 30
0.0
 11
243.0
 21
813.0
 31
0.0
  0
LINE
  5
1513
330
1E
100
AcDbEntity
  8
図面
  6
DASHED
100
AcDbLine
 10
243.0
 20
753.0
 30
0.0
 11
203.0
 21
753.0
 31
0.0
  0
XLINE
  5
1515
330
1E
100
AcDbEntity
  8
補助線
100
AcDbXline
 10
162.0
 20
813.0
 30
0.0
 11
0.0
 21
-1.0
 31
0.0
  0
CIRCLE
  5
151D
330
1E
100
AcDbEntity
  8
図面
100
AcDbCircle
 10
262.0
 20
883.0
 30
0.0
 40
11.0
  0
CIRCLE
  5
151E
330
1E
100
AcDbEntity
  8
図面
100
AcDbCircle
 10
262.0
 20
783.0
 30
0.0
 40
11.0
  0
CIRCLE
  5
151F
330
1E
100
AcDbEntity
  8
図面
100
AcDbCircle
 10
262.0
 20
682.0
 30
0.0
 40
11.0
  0
CIRCLE
  5
1520
330
1E
100
AcDbEntity
  8
図面
100
AcDbCircle
 10
262.0
 20
583.0
 30
0.0
 40
11.0
  0
CIRCLE
  5
1521
330
1E
100
AcDbEntity
  8
図面
100
AcDbCircle
 10
62.0
 20
883.0
 30
0.0
 40
11.0
  0
CIRCLE
  5
1522
330
1E
100
AcDbEntity
  8
図面
100
AcDbCircle
 10
62.0
 20
783.0
 30
0.0
 40
11.0
  0
CIRCLE
  5
1523
330
1E
100
AcDbEntity
  8
図面
100
AcDbCircle
 10
62.0
 20
682.0
 30
0.0
 40
11.0
  0
CIRCLE
  5
1524
330
1E
100
AcDbEntity
  8
図面
100
AcDbCircle
 10
62.0
 20
583.0
 30
0.0
 40
11.0
  0
LINE
  5
1538
330
1E
100
AcDbEntity
  8
図面
  6
DASHDOT
100
AcDbLine
 10
32.0
 20
883.0
 30
0.0
 11
92.0
 21
883.0
 31
0.0
  0
LINE
  5
1539
330
1E
100
AcDbEntity
  8
図面
  6
DASHDOT
100
AcDbLine
 10
62.0
 20
913.0
 30
0.0
 11
62.0
 21
853.0
 31
0.0
  0
LINE
  5
153A
330
1E
100
AcDbEntity
  8
図面
  6
DASHED
100
AcDbLine
 10
32.0
 20
783.0
 30
0.0
 11
92.0
 21
783.0
 31
0.0
  0
LINE
  5
153B
330
1E
100
AcDbEntity
  8
図面
  6
DASHDOT
100
AcDbLine
 10
62.0
 20
813.0
 30
0.0
 11
62.0
 21
753.0
 31
0.0
  0
LINE
  5
153C
330
1E
100
AcDbEntity
  8
図面
  6
DASHDOT
100
AcDbLine
 10
32.0
 20
683.0
 30
0.0
 11
92.0
 21
683.0
 31
0.0
  0
LINE
  5
153D
330
1E
100
AcDbEntity
  8
図面
  6
DASHDOT
100
AcDbLine
 10
62.0
 20
715.0
 30
0.0
 11
62.0
 21
652.0
 31
0.0
  0
LINE
  5
153E
330
1E
100
AcDbEntity
  8
図面
100
AcDbLine
 10
32.0
 20
583.0
 30
0.0
 11
92.0
 21
583.0
 31
0.0
  0
LINE
  5
1541
330
1E
100
AcDbEntity
  8
図面
  6
DASHDOT
100
AcDbLine
 10
32.0
 20
583.0
 30
0.0
 11
92.0
 21
583.0
 31
0.0
  0
LINE
  5
1542
330
1E
100
AcDbEntity
  8
図面
  6
DASHDOT
100
AcDbLine
 10
62.0
 20
613.0
 30
0.0
 11
62.0
 21
551.0
 31
0.0
  0
LINE
  5
1543
330
1E
100
AcDbEntity
  8
図面
  6
DASHDOT
100
AcDbLine
 10
232.0
 20
883.0
 30
0.0
 11
292.0
 21
883.0
 31
0.0
  0
LINE
  5
1544
330
1E
100
AcDbEntity
  8
図面
  6
DASHDOT
100
AcDbLine
 10
262.0
 20
913.0
 30
0.0
 11
262.0
 21
853.0
 31
0.0
  0
LINE
  5
1545
330
1E
100
AcDbEntity
  8
図面
  6
DASHED
100
AcDbLine
 10
232.0
 20
783.0
 30
0.0
 11
292.0
 21
783.0
 31
0.0
  0
LINE
  5
1546
330
1E
100
AcDbEntity
  8
図面
  6
DASHDOT
100
AcDbLine
 10
262.0
 20
813.0
 30
0.0
 11
262.0
 21
753.0
 31
0.0
  0
LINE
  5
1547
330
1E
100
AcDbEntity
  8
図面
  6
DASHDOT
100
AcDbLine
 10
232.0
 20
683.0
 30
0.0
 11
292.0
 21
683.0
 31
0.0
  0
LINE
  5
1548
330
1E
100
AcDbEntity
  8
図面
  6
DASHDOT
100
AcDbLine
 10
262.0
 20
715.0
 30
0.0
 11
262.0
 21
652.0
 31
0.0
  0
LINE
  5
1549
330
1E
100
AcDbEntity
  8
図面
  6
DASHDOT
100
AcDbLine
 10
232.0
 20
583.0
 30
0.0
 11
292.0
 21
583.0
 31
0.0
  0
LINE
  5
154B
330
1E
100
AcDbEntity
  8
図面
  6
DASHDOT
100
AcDbLine
 10
262.0
 20
613.0
 30
0.0
 11
262.0
 21
551.0
 31
0.0
  0
XLINE
  5
154C
330
1E
100
AcDbEntity
  8
補助線
100
AcDbXline
 10
-9.062499999999886
 20
783.0
 30
0.0
 11
1.0
 21
0.0
 31
0.0
  0
LINE
  5
154D
330
1E
100
AcDbEntity
  8
補助線
100
AcDbLine
 10
-38.0
 20
783.0
 30
0.0
 11
384.0
 21
783.0
 31
0.0
  0
LINE
  5
154E
330
1E
100
AcDbEntity
  8
図面
  6
DASHDOT
100
AcDbLine
 10
-38.0
 20
783.0
 30
0.0
 11
384.0
 21
783.0
 31
0.0
  0
LINE
  5
154F
330
1E
100
AcDbEntity
  8
補助線
100
AcDbLine
 10
162.0
 20
978.0
 30
0.0
 11
162.0
 21
494.0
 31
0.0
  0
LINE
  5
1550
330
1E
100
AcDbEntity
  8
図面
  6
DASHDOT
100
AcDbLine
 10
162.0
 20
978.0
 30
0.0
 11
162.0
 21
494.0
 31
0.0
  0
DIMENSION
  5
1551
330
1E
100
AcDbEntity
  8
寸法
100
AcDbDimension
  2
*D5
 10
324.0
 20
457.0
 30
0.0
 11
162.0
 21
472.5
 31
0.0
 70
    32
 71
     5
 42
324.0
  3
Standard
100
AcDbAlignedDimension
 13
0.0
 23
558.0
 33
0.0
 14
324.0
 24
558.0
 34
0.0
100
AcDbRotatedDimension
1001
ACAD
1000
DSTYLE
1002
{
1070
   344
1005
14A3
1070
   173
1070
     1
1070
   343
1005
14A3
1070
    41
1040
15.0
1070
    44
1040
0.5
1070
    73
1070
     0
1070
    74
1070
     0
1070
    77
1070
     1
1070
   140
1040
30.0
1070
   147
1040
0.5
1070
   176
1070
     1
1070
   177
1070
     1
1070
   178
1070
     1
1070
   271
1070
     0
1070
   272
1070
     0
1070
   279
1070
     2
1070
   340
1005
23
1070
   341
1005
1C1
1070
   342
1005
0
1002
}
  0
DIMENSION
  5
155E
330
1E
100
AcDbEntity
  8
寸法
100
AcDbDimension
  2
*D6
 10
487.0
 20
558.0
 30
0.0
 11
471.4999999999999
 21
733.0
 31
0.0
 70
    32
 71
     5
 42
350.0
  3
Standard
100
AcDbAlignedDimension
 13
324.0
 23
908.0
 33
0.0
 14
324.0
 24
558.0
 34
0.0
 50
90.0
100
AcDbRotatedDimension
1001
ACAD
1000
DSTYLE
1002
{
1070
   344
1005
14A3
1070
   173
1070
     1
1070
   343
1005
14A3
1070
    41
1040
15.0
1070
    44
1040
0.5
1070
    73
1070
     0
1070
    74
1070
     0
1070
    77
1070
     1
1070
   140
1040
30.0
1070
   147
1040
0.5
1070
   176
1070
     1
1070
   177
1070
     1
1070
   178
1070
     1
1070
   271
1070
     0
1070
   272
1070
     0
1070
   279
1070
     2
1070
   340
1005
23
1070
   341
1005
1C1
1070
   342
1005
0
1002
}
  0
DIMENSION
  5
1585
330
1E
100
AcDbEntity
  8
寸法
100
AcDbDimension
  2
*D7
 10
203.0
 20
502.0
 30
0.0
 11
162.0
 21
517.4999999999999
 31
0.0
 70
    32
 71
     5
 42
81.99999999999999
  3
Standard
100
AcDbAlignedDimension
 13
121.0
 23
573.0
 33
0.0
 14
203.0
 24
573.0
 34
0.0
100
AcDbRotatedDimension
1001
ACAD
1000
DSTYLE
1002
{
1070
   344
1005
14A3
1070
   173
1070
     1
1070
   343
1005
14A3
1070
    41
1040
15.0
1070
    44
1040
0.5
1070
    73
1070
     0
1070
    74
1070
     0
1070
    77
1070
     1
1070
   140
1040
30.0
1070
   147
1040
0.5
1070
   176
1070
     1
1070
   177
1070
     1
1070
   178
1070
     1
1070
   271
1070
     0
1070
   272
1070
     0
1070
   279
1070
     2
1070
   340
1005
23
1070
   341
1005
1C1
1070
   342
1005
0
1002
}
  0
DIMENSION
  5
1592
330
1E
100
AcDbEntity
  8
寸法
100
AcDbDimension
  2
*D8
 10
243.0
 20
502.0
 30
0.0
 11
235.0
 21
517.0
 31
0.0
 70
   160
 71
     5
 42
40.0
  3
Standard
100
AcDbAlignedDimension
 13
203.0
 23
572.9375
 33
0.0
 14
243.0
 24
573.0
 34
0.0
100
AcDbRotatedDimension
1001
ACAD
1000
DSTYLE
1002
{
1070
   344
1005
14A3
1070
   173
1070
     1
1070
   343
1005
14A3
1070
    41
1040
15.0
1070
    44
1040
0.5
1070
    73
1070
     0
1070
    74
1070
     0
1070
    77
1070
     1
1070
   140
1040
30.0
1070
   147
1040
0.5
1070
   176
1070
     1
1070
   177
1070
     1
1070
   178
1070
     1
1070
   271
1070
     0
1070
   272
1070
     0
1070
   279
1070
     2
1070
   340
1005
23
1070
   341
1005
1C1
1070
   342
1005
0
1002
}
  0
DIMENSION
  5
15A9
330
1E
100
AcDbEntity
  8
寸法
100
AcDbDimension
  2
*D9
 10
374.0
 20
783.0
 30
0.0
 11
358.4999999999999
 21
833.0000000000001
 31
0.0
 70
    32
 71
     5
 42
100.0
  3
Standard
100
AcDbAlignedDimension
 13
262.0
 23
883.0
 33
0.0
 14
262.0
 24
783.0
 34
0.0
 50
90.0
100
AcDbRotatedDimension
1001
ACAD
1000
DSTYLE
1002
{
1070
   344
1005
14A3
1070
   173
1070
     1
1070
   343
1005
14A3
1070
    41
1040
15.0
1070
    44
1040
0.5
1070
    73
1070
     0
1070
    74
1070
     0
1070
    77
1070
     1
1070
   140
1040
30.0
1070
   147
1040
0.5
1070
   176
1070
     1
1070
   177
1070
     1
1070
   178
1070
     1
1070
   271
1070
     0
1070
   272
1070
     0
1070
   279
1070
     2
1070
   340
1005
23
1070
   341
1005
1C1
1070
   342
1005
0
1002
}
  0
DIMENSION
  5
15C5
330
1E
100
AcDbEntity
  8
寸法
100
AcDbDimension
  2
*D10
 10
374.4374999999999
 20
583.0
 30
0.0
 11
358.9374999999999
 21
633.0
 31
0.0
 70
    32
 71
     5
 42
100.0
  3
Standard
100
AcDbAlignedDimension
 13
261.9375
 23
683.0
 33
0.0
 14
261.9375
 24
583.0
 34
0.0
 50
90.0
100
AcDbRotatedDimension
1001
ACAD
1000
DSTYLE
1002
{
1070
   344
1005
14A3
1070
   173
1070
     1
1070
   343
1005
14A3
1070
    41
1040
15.0
1070
    44
1040
0.5
1070
    73
1070
     0
1070
    74
1070
     0
1070
    77
1070
     1
1070
   140
1040
30.0
1070
   147
1040
0.5
1070
   176
1070
     1
1070
   177
1070
     1
1070
   178
1070
     1
1070
   271
1070
     0
1070
   272
1070
     0
1070
   279
1070
     2
1070
   340
1005
23
1070
   341
1005
1C1
1070
   342
1005
0
1002
}
  0
DIMENSION
  5
15E8
330
1E
100
AcDbEntity
  8
寸法
100
AcDbDimension
  2
*D11
 10
374.0
 20
683.0
 30
0.0
 11
358.4999999999999
 21
733.0
 31
0.0
 70
    32
 71
     5
 42
100.0
  3
Standard
100
AcDbAlignedDimension
 13
262.0
 23
783.0
 33
0.0
 14
262.0
 24
683.0
 34
0.0
 50
90.0
100
AcDbRotatedDimension
1001
ACAD
1000
DSTYLE
1002
{
1070
   344
1005
14A3
1070
   173
1070
     1
1070
   343
1005
14A3
1070
    41
1040
15.0
1070
    44
1040
0.5
1070
    73
1070
     0
1070
    74
1070
     0
1070
    77
1070
     1
1070
   140
1040
30.0
1070
   147
1040
0.5
1070
   176
1070
     1
1070
   177
1070
     1
1070
   178
1070
     1
1070
   271
1070
     0
1070
   272
1070
     0
1070
   279
1070
     2
1070
   340
1005
23
1070
   341
1005
1C1
1070
   342
1005
0
1002
}
  0
XLINE
  5
15F6
330
1E
100
AcDbEntity
  8
補助線
100
AcDbXline
 10
828.9375000000001
 20
832.0
 30
0.0
 11
0.0
 21
-1.0
 31
0.0
  0
XLINE
  5
15F7
330
1E
100
AcDbEntity
  8
補助線
100
AcDbXline
 10
803.9375000000001
 20
807.0
 30
0.0
 11
0.0
 21
-1.0
 31
0.0
  0
LWPOLYLINE
  5
15FA
330
1E
100
AcDbEntity
  8
図面
100
AcDbPolyline
 90
        4
 70
     1
 43
0.0
 10
803.9375000000001
 20
908.0
 10
828.9374999999999
 20
908.0
 10
828.9374999999999
 20
558.0
 10
803.9375000000001
 20
558.0
  0
XLINE
  5
1606
330
1E
100
AcDbEntity
  8
補助線
100
AcDbXline
 10
803.9375000000001
 20
908.0
 30
0.0
 11
0.0
 21
-1.0
 31
0.0
  0
XLINE
  5
1607
330
1E
100
AcDbEntity
  8
補助線
100
AcDbXline
 10
643.9375
 20
908.0
 30
0.0
 11
0.0
 21
-1.0
 31
0.0
  0
XLINE
  5
160F
330
1E
100
AcDbEntity
  8
補助線
100
AcDbXline
 10
703.9375000000001
 20
733.0
 30
0.0
 11
0.0
 21
1.0
 31
0.0
  0
CIRCLE
  5
1611
330
1E
100
AcDbEntity
  8
図面
100
AcDbCircle
 10
703.9375000000001
 20
783.0
 30
0.0
 40
30.0
  0
LINE
  5
1614
330
1E
100
AcDbEntity
  8
図面
100
AcDbLine
 10
803.9375000000001
 20
843.0
 30
0.0
 11
703.9375000000001
 21
843.0
 31
0.0
  0
LINE
  5
1619
330
1E
100
AcDbEntity
  8
図面
100
AcDbLine
 10
803.9375000000001
 20
573.0
 30
0.0
 11
703.9375000000001
 21
608.0
 31
0.0
  0
ARC
  5
161A
330
1E
100
AcDbEntity
  8
図面
100
AcDbCircle
 10
703.9375000000001
 20
783.0
 30
0.0
 40
60.0
100
AcDbArc
 50
90.0
 51
200.0510425665059
  0
LINE
  5
161C
330
1E
100
AcDbEntity
  8
図面
100
AcDbLine
 10
703.9375000000001
 20
608.0
 30
0.0
 11
647.5742466647763
 21
762.4285714285714
 31
0.0
  0
DIMENSION
  5
1631
330
1E
100
AcDbEntity
  8
寸法
100
AcDbDimension
  2
*D12
 10
682.2368336756928
 20
762.2857275995248
 30
0.0
 11
739.9375000000004
 21
852.0
 31
0.0
 70
   163
 71
     5
 42
59.99999999999989
  3
Standard
100
AcDbDiametricDimension
 15
725.638166324307
 25
803.714272400475
 35
0.0
 40
0.0
1001
ACAD
1000
DSTYLE
1002
{
1070
   344
1005
14A3
1070
   173
1070
     1
1070
   343
1005
1C1
1070
    41
1040
15.0
1070
    44
1040
0.5
1070
    73
1070
     0
1070
    74
1070
     0
1070
    77
1070
     1
1070
   140
1040
30.0
1070
   147
1040
0.5
1070
   176
1070
     1
1070
   177
1070
     1
1070
   178
1070
     1
1070
   271
1070
     0
1070
   272
1070
     0
1070
   279
1070
     2
1070
   288
1070
     1
1070
   340
1005
23
1070
   341
1005
1C1
1070
   342
1005
0
1002
}
  0
LINE
  5
1649
330
1E
100
AcDbEntity
  8
寸法
 62
     1
100
AcDbLine
 10
703.8475
 20
783.0
 30
0.0
 11
704.0275000000001
 21
783.0
 31
0.0
  0
LINE
  5
164A
330
1E
100
AcDbEntity
  8
寸法
 62
     1
100
AcDbLine
 10
703.9375000000001
 20
782.9099999999999
 30
0.0
 11
703.9375000000001
 21
783.09
 31
0.0
  0
XLINE
  5
164D
330
1E
100
AcDbEntity
  8
補助線
100
AcDbXline
 10
203.0
 20
753.0
 30
0.0
 11
0.0
 21
1.0
 31
0.0
  0
DIMENSION
  5
165B
330
1E
100
AcDbEntity
  8
寸法
100
AcDbDimension
  2
*D13
 10
431.0
 20
907.9999999999998
 30
0.0
 11
415.4999999999999
 21
875.5
 31
0.0
 70
    32
 71
     5
 42
65.0
  3
Standard
100
AcDbAlignedDimension
 13
203.0
 23
843.0
 33
0.0
 14
203.0
 24
908.0
 34
0.0
 50
90.0
100
AcDbRotatedDimension
1001
ACAD
1000
DSTYLE
1002
{
1070
   344
1005
14A3
1070
   173
1070
     1
1070
   343
1005
14A3
1070
    41
1040
15.0
1070
    44
1040
0.5
1070
    73
1070
     0
1070
    74
1070
     0
1070
    77
1070
     1
1070
   140
1040
30.0
1070
   147
1040
0.5
1070
   176
1070
     1
1070
   177
1070
     1
1070
   178
1070
     1
1070
   271
1070
     0
1070
   272
1070
     0
1070
   279
1070
     2
1070
   340
1005
23
1070
   341
1005
1C1
1070
   342
1005
0
1002
}
  0
DIMENSION
  5
1675
330
1E
100
AcDbEntity
  8
寸法
100
AcDbDimension
  2
*D14
 10
-17.99999999999999
 20
908.0
 30
0.0
 11
-33.50000000000015
 21
845.5
 31
0.0
 70
    32
 71
     5
 42
125.0
  3
Standard
100
AcDbAlignedDimension
 13
162.0
 23
783.0
 33
0.0
 14
162.0
 24
908.0
 34
0.0
 50
90.0
100
AcDbRotatedDimension
1001
ACAD
1000
DSTYLE
1002
{
1070
   344
1005
14A3
1070
   173
1070
     1
1070
   343
1005
14A3
1070
    41
1040
15.0
1070
    44
1040
0.5
1070
    73
1070
     0
1070
    74
1070
     0
1070
    77
1070
     1
1070
   140
1040
30.0
1070
   147
1040
0.5
1070
   176
1070
     1
1070
   177
1070
     1
1070
   178
1070
     1
1070
   271
1070
     0
1070
   272
1070
     0
1070
   279
1070
     2
1070
   340
1005
23
1070
   341
1005
1C1
1070
   342
1005
0
1002
}
  0
DIMENSION
  5
1682
330
1E
100
AcDbEntity
  8
寸法
100
AcDbDimension
  2
*D15
 10
374.0
 20
908.0
 30
0.0
 11
358.0
 21
924.0
 31
0.0
 70
   160
 71
     5
 42
25.0
  3
Standard
100
AcDbAlignedDimension
 13
374.0
 23
883.0
 33
0.0
 14
405.78125
 24
908.0
 34
0.0
 50
90.0
100
AcDbRotatedDimension
1001
ACAD
1000
DSTYLE
1002
{
1070
   344
1005
14A3
1070
   173
1070
     1
1070
   343
1005
14A3
1070
    41
1040
15.0
1070
    44
1040
0.5
1070
    73
1070
     0
1070
    74
1070
     0
1070
    77
1070
     1
1070
   140
1040
30.0
1070
   147
1040
0.5
1070
   176
1070
     1
1070
   177
1070
     1
1070
   178
1070
     1
1070
   271
1070
     0
1070
   272
1070
     0
1070
   279
1070
     2
1070
   340
1005
23
1070
   341
1005
1C1
1070
   342
1005
0
1002
}
  0
LEADER
  5
16A5
330
1E
100
AcDbEntity
  8
寸法
100
AcDbLeader
  3
Standard
 73
     0
 40
20.0
 41
53.33333333333333
 76
     3
 10
62.0
 20
894.0
 30
0.0
 10
109.0
 20
997.0
 30
0.0
 10
127.0
 20
997.0
 30
0.0
340
16A6
213
0.0
223
-10.0
233
0.0
1001
ACAD
1000
DSTYLE
1002
{
1070
    41
1040
15.0
1070
    44
1040
0.5
1070
    73
1070
     0
1070
    74
1070
     0
1070
    77
1070
     0
1070
   140
1040
30.0
1070
   147
1040
0.5
1070
   176
1070
     1
1070
   177
1070
     1
1070
   178
1070
     1
1070
   271
1070
     0
1070
   272
1070
     0
1070
   279
1070
     2
1070
   340
1005
23
1070
   341
1005
14A3
1070
   342
1005
1C1
1002
}
  0
MTEXT
  5
16A6
102
{ACAD_REACTORS
330
16A5
102
}
330
1E
100
AcDbEntity
  8
寸法
 62
     1
100
AcDbMText
 10
127.5
 20
1007.0
 30
0.0
 40
20.0
 41
15.0
 71
     1
 72
     1
  1
M22
  7
TextStyle01
 73
     1
 44
1.0
1001
ACAD
1000
MTEXTBEGIN
1070
    73
1070
     1
1070
    44
1040
1.0
1070
    74
1070
     0
1000
MTEXTEND
  0
DIMENSION
  5
16A7
330
1E
100
AcDbEntity
  8
寸法
100
AcDbDimension
  2
*D16
 10
866.9375
 20
908.0
 30
0.0
 11
851.4374999999999
 21
845.4550000000001
 31
0.0
 70
    32
 71
     5
 42
125.0900000000001
  3
Standard
100
AcDbAlignedDimension
 13
703.9375000000001
 23
782.9099999999999
 33
0.0
 14
803.9375000000001
 24
908.0
 34
0.0
 50
90.0
100
AcDbRotatedDimension
1001
ACAD
1000
DSTYLE
1002
{
1070
   344
1005
14A3
1070
   173
1070
     1
1070
   343
1005
14A3
1070
    41
1040
15.0
1070
    44
1040
0.5
1070
    73
1070
     0
1070
    74
1070
     0
1070
    77
1070
     1
1070
   140
1040
30.0
1070
   147
1040
0.5
1070
   176
1070
     1
1070
   177
1070
     1
1070
   178
1070
     1
1070
   271
1070
     0
1070
   272
1070
     0
1070
   279
1070
     2
1070
   340
1005
23
1070
   341
1005
1C1
1070
   342
1005
0
1002
}
  0
DIMENSION
  5
16B4
330
1E
100
AcDbEntity
  8
寸法
100
AcDbDimension
  2
*D17
 10
905.9375000000001
 20
558.0
 30
0.0
 11
890.4374999999999
 21
733.0000000000002
 31
0.0
 70
    32
 71
     5
 42
350.0
  3
Standard
100
AcDbAlignedDimension
 13
828.9374999999999
 23
908.0
 33
0.0
 14
828.9374999999999
 24
558.0
 34
0.0
 50
90.0
100
AcDbRotatedDimension
1001
ACAD
1000
DSTYLE
1002
{
1070
   344
1005
14A3
1070
   173
1070
     1
1070
   343
1005
14A3
1070
    41
1040
15.0
1070
    44
1040
0.5
1070
    73
1070
     0
1070
    74
1070
     0
1070
    77
1070
     1
1070
   140
1040
30.0
1070
   147
1040
0.5
1070
   176
1070
     1
1070
   177
1070
     1
1070
   178
1070
     1
1070
   271
1070
     0
1070
   272
1070
     0
1070
   279
1070
     2
1070
   340
1005
23
1070
   341
1005
1C1
1070
   342
1005
0
1002
}
  0
DIMENSION
  5
16C1
330
1E
100
AcDbEntity
  8
寸法
100
AcDbDimension
  2
*D18
 10
804.0
 20
941.0
 30
0.0
 11
845.9375000000001
 21
957.0
 31
0.0
 70
   160
 71
     5
 42
24.99999999999989
  3
Standard
100
AcDbAlignedDimension
 13
829.0
 23
908.0
 33
0.0
 14
804.0
 24
908.0
 34
0.0
100
AcDbRotatedDimension
1001
ACAD
1000
DSTYLE
1002
{
1070
   344
1005
14A3
1070
   173
1070
     1
1070
   343
1005
14A3
1070
    41
1040
15.0
1070
    44
1040
0.5
1070
    73
1070
     0
1070
    74
1070
     0
1070
    77
1070
     1
1070
   140
1040
30.0
1070
   147
1040
0.5
1070
   176
1070
     1
1070
   177
1070
     1
1070
   178
1070
     1
1070
   271
1070
     0
1070
   272
1070
     0
1070
   279
1070
     2
1070
   340
1005
23
1070
   341
1005
1C1
1070
   342
1005
0
1002
}
  0
LINE
  5
16D2
330
1E
100
AcDbEntity
  8
図面
  6
DASHDOT
100
AcDbLine
 10
606.9375
 20
783.0
 30
0.0
 11
785.7187500000001
 21
782.9099999999999
 31
0.0
  0
LINE
  5
16D3
330
1E
100
AcDbEntity
  8
図面
  6
DASHDOT
100
AcDbLine
 10
703.9375000000001
 20
699.0
 30
0.0
 11
703.9375000000001
 21
883.0
 31
0.0
  0
DIMENSION
  5
16E1
330
1E
100
AcDbEntity
  8
寸法
100
AcDbDimension
  2
*D19
 10
704.0
 20
941.0
 30
0.0
 11
753.9687500000001
 21
956.4999999999999
 31
0.0
 70
    32
 71
     5
 42
99.9375
  3
Standard
100
AcDbAlignedDimension
 13
803.9375000000001
 23
782.9099999999999
 33
0.0
 14
704.0
 24
782.9099999999999
 34
0.0
100
AcDbRotatedDimension
1001
ACAD
1000
DSTYLE
1002
{
1070
   344
1005
14A3
1070
   173
1070
     1
1070
   343
1005
14A3
1070
    41
1040
15.0
1070
    44
1040
0.5
1070
    73
1070
     0
1070
    74
1070
     0
1070
    77
1070
     1
1070
   140
1040
30.0
1070
   147
1040
0.5
1070
   176
1070
     1
1070
   177
1070
     1
1070
   178
1070
     1
1070
   271
1070
     0
1070
   272
1070
     0
1070
   279
1070
     2
1070
   340
1005
23
1070
   341
1005
1C1
1070
   342
1005
0
1002
}
  0
MTEXT
  5
16F9
330
1E
100
AcDbEntity
  8
文字
100
AcDbMText
 10
813.1249999999996
 20
368.0
 30
0.0
 40
20.0
 41
189.0
 71
     1
 72
     5
  1
２山クレビス
 73
     1
 44
1.0
1001
ACAD
1000
MTEXTBEGIN
1070
    73
1070
     1
1070
    44
1040
1.0
1070
    74
1070
     0
1000
MTEXTEND
  0
XLINE
  5
1725
330
1E
100
AcDbEntity
  8
補助線
100
AcDbXline
 10
262.0625
 20
883.0
 30
0.0
 11
1.0
 21
0.0
 31
0.0
  0
XLINE
  5
1726
330
1E
100
AcDbEntity
  8
補助線
100
AcDbXline
 10
262.0625
 20
683.0
 30
0.0
 11
1.0
 21
0.0
 31
0.0
  0
XLINE
  5
1727
330
1E
100
AcDbEntity
  8
補助線
100
AcDbXline
 10
262.0625
 20
583.0
 30
0.0
 11
1.0
 21
0.0
 31
0.0
  0
XLINE
  5
1728
330
1E
100
AcDbEntity
  8
補助線
100
AcDbXline
 10
262.0
 20
894.0
 30
0.0
 11
1.0
 21
0.0
 31
0.0
  0
XLINE
  5
1729
330
1E
100
AcDbEntity
  8
補助線
100
AcDbXline
 10
262.0
 20
872.0
 30
0.0
 11
1.0
 21
0.0
 31
0.0
  0
XLINE
  5
172A
330
1E
100
AcDbEntity
  8
補助線
100
AcDbXline
 10
262.0
 20
794.0
 30
0.0
 11
1.0
 21
0.0
 31
0.0
  0
XLINE
  5
172B
330
1E
100
AcDbEntity
  8
補助線
100
AcDbXline
 10
262.0
 20
772.0
 30
0.0
 11
1.0
 21
0.0
 31
0.0
  0
XLINE
  5
172F
330
1E
100
AcDbEntity
  8
補助線
100
AcDbXline
 10
262.0
 20
693.0
 30
0.0
 11
1.0
 21
0.0
 31
0.0
  0
XLINE
  5
1730
330
1E
100
AcDbEntity
  8
補助線
100
AcDbXline
 10
262.0
 20
671.0
 30
0.0
 11
1.0
 21
0.0
 31
0.0
  0
XLINE
  5
1731
330
1E
100
AcDbEntity
  8
補助線
100
AcDbXline
 10
262.0
 20
594.0
 30
0.0
 11
1.0
 21
0.0
 31
0.0
  0
XLINE
  5
1732
330
1E
100
AcDbEntity
  8
補助線
100
AcDbXline
 10
262.0
 20
572.0
 30
0.0
 11
1.0
 21
0.0
 31
0.0
  0
XLINE
  5
1733
330
1E
100
AcDbEntity
  8
補助線
100
AcDbXline
 10
781.0
 20
630.0
 30
0.0
 11
0.0
 21
1.0
 31
0.0
  0
XLINE
  5
1734
330
1E
100
AcDbEntity
  8
補助線
100
AcDbXline
 10
852.0
 20
621.0
 30
0.0
 11
0.0
 21
1.0
 31
0.0
  0
LINE
  5
1735
330
1E
100
AcDbEntity
  8
補助線
100
AcDbLine
 10
775.0
 20
883.0
 30
0.0
 11
572.0
 21
883.0
 31
0.0
  0
LINE
  5
1736
330
1E
100
AcDbEntity
  8
図面
  6
DASHDOT
100
AcDbLine
 10
781.0
 20
883.0
 30
0.0
 11
852.0
 21
883.0
 31
0.0
  0
LINE
  5
1737
330
1E
100
AcDbEntity
  8
図面
  6
DASHDOT
100
AcDbLine
 10
781.0
 20
783.0
 30
0.0
 11
852.0
 21
782.9099999999998
 31
0.0
  0
LINE
  5
1738
330
1E
100
AcDbEntity
  8
図面
  6
DASHDOT
100
AcDbLine
 10
781.0
 20
683.0
 30
0.0
 11
852.0
 21
683.0
 31
0.0
  0
LINE
  5
1739
330
1E
100
AcDbEntity
  8
図面
  6
DASHDOT
100
AcDbLine
 10
781.0
 20
583.0
 30
0.0
 11
852.0
 21
583.0
 31
0.0
  0
LINE
  5
173A
330
1E
100
AcDbEntity
  8
図面
  6
DASHED
100
AcDbLine
 10
803.9375000000001
 20
894.0
 30
0.0
 11
828.9374999999999
 21
894.0
 31
0.0
  0
LINE
  5
173B
330
1E
100
AcDbEntity
  8
図面
  6
DASHED
100
AcDbLine
 10
828.9374999999999
 20
872.0
 30
0.0
 11
803.9375000000001
 21
872.0
 31
0.0
  0
LINE
  5
173C
330
1E
100
AcDbEntity
  8
図面
  6
DASHED
100
AcDbLine
 10
803.9375000000001
 20
794.0
 30
0.0
 11
828.9374999999999
 21
794.0
 31
0.0
  0
LINE
  5
173D
330
1E
100
AcDbEntity
  8
図面
  6
DASHED
100
AcDbLine
 10
828.9375000000001
 20
772.0
 30
0.0
 11
803.9375000000001
 21
772.0
 31
0.0
  0
LINE
  5
173E
330
1E
100
AcDbEntity
  8
図面
  6
DASHED
100
AcDbLine
 10
803.9375000000001
 20
693.0
 30
0.0
 11
828.9374999999999
 21
693.0
 31
0.0
  0
LINE
  5
173F
330
1E
100
AcDbEntity
  8
図面
  6
DASHED
100
AcDbLine
 10
828.9375000000001
 20
671.0
 30
0.0
 11
803.9375000000001
 21
671.0
 31
0.0
  0
LINE
  5
1740
330
1E
100
AcDbEntity
  8
図面
  6
DASHED
100
AcDbLine
 10
803.9375000000001
 20
594.0
 30
0.0
 11
828.9375000000001
 21
594.0
 31
0.0
  0
LINE
  5
1741
330
1E
100
AcDbEntity
  8
図面
  6
DASHED
100
AcDbLine
 10
828.9374999999999
 20
572.0
 30
0.0
 11
803.9375000000001
 21
572.0
 31
0.0
  0
VIEWPORT
  5
119D
102
{ACAD_XDICTIONARY
360
1C63
102
}
330
1A
100
AcDbEntity
 67
     1
  8
ﾚｲﾔ1
100
AcDbViewport
 10
0.0
 20
0.0
 30
0.0
 40
0.0
 41
0.0
 68
     1
 69
     1
 12
0.0
 22
0.0
 13
0.0
 23
0.0
 14
10.0
 24
10.0
 15
10.0
 25
10.0
 16
0.0
 26
0.0
 36
1.0
 17
0.0
 27
0.0
 37
0.0
 42
50.0
 43
0.0
 44
0.0
 45
0.0
 50
0.0
 51
0.0
 72
   100
 90
    32800
  1

281
     0
 71
     1
 74
     0
110
0.0
120
0.0
130
0.0
111
1.0
121
0.0
131
0.0
112
0.0
122
1.0
132
0.0
 79
     0
146
0.0
  0
VIEWPORT
  5
119F
102
{ACAD_XDICTIONARY
360
1C65
102
}
330
1A
100
AcDbEntity
 67
     1
  8
補助線
100
AcDbViewport
 10
0.0
 20
0.0
 30
0.0
 40
0.0
 41
0.0
 68
     2
 69
     2
 12
1324.751616270553
 22
1732.879273063856
 13
0.0
 23
0.0
 14
1.0
 24
1.0
 15
0.0
 25
0.0
 16
0.0
 26
0.0
 36
1.0
 17
0.0
 27
0.0
 37
0.0
 42
50.0
 43
0.0
 44
0.0
 45
2306.342057908273
 50
0.0
 51
0.0
 72
   100
 90
    33536
  1

281
     0
 71
     1
 74
     0
110
0.0
120
0.0
130
0.0
111
1.0
121
0.0
131
0.0
112
0.0
122
1.0
132
0.0
 79
     0
146
0.0
  0
ENDSEC
  0
SECTION
  2
OBJECTS
  0
DICTIONARY
  5
C
330
0
100
AcDbDictionary
281
     1
  3
ACAD_COLOR
350
1746
  3
ACAD_GROUP
350
D
  3
ACAD_LAYOUT
350
19
  3
ACAD_MATERIAL
350
1745
  3
ACAD_MLEADERSTYLE
350
1C3C
  3
ACAD_MLINESTYLE
350
16
  3
ACAD_PLOTSETTINGS
350
18
  3
ACAD_PLOTSTYLENAME
350
E
  3
ACAD_SCALELIST
350
1C1A
  3
ACAD_TABLESTYLE
350
1C18
  3
ACAD_VISUALSTYLE
350
1C07
  3
AcadDim
350
16A4
  3
ACDB_RECOMPOSE_DATA
350
1C57
  3
ACDBHEADERROUNDTRIPXREC
350
1D92
  3
AcDbVariableDictionary
350
1C6F
  3
DWGPROPS
350
1D91
  0
DICTIONARY
  5
1C58
330
8
100
AcDbDictionary
280
     1
281
     1
  3
ACAD_XREC_ROUNDTRIP
360
1C59
  0
DICTIONARY
  5
1C47
330
10
100
AcDbDictionary
280
     1
281
     1
  3
ACAD_XREC_ROUNDTRIP
360
1C5A
  3
ADSK_XREC_LAYER_RECONCILED
360
1C48
  0
DICTIONARY
  5
1C5B
330
4C
100
AcDbDictionary
280
     1
281
     1
  3
ACAD_XREC_ROUNDTRIP
360
1C5C
  0
DICTIONARY
  5
1C49
330
16B
100
AcDbDictionary
280
     1
281
     1
  3
ACAD_XREC_ROUNDTRIP
360
1C5D
  3
ADSK_XREC_LAYER_RECONCILED
360
1C4A
  0
DICTIONARY
  5
1C4B
330
16C
100
AcDbDictionary
280
     1
281
     1
  3
ACAD_XREC_ROUNDTRIP
360
1C5E
  3
ADSK_XREC_LAYER_RECONCILED
360
1C4C
  0
DICTIONARY
  5
1C4D
330
1AB
100
AcDbDictionary
280
     1
281
     1
  3
ACAD_XREC_ROUNDTRIP
360
1C5F
  3
ADSK_XREC_LAYER_RECONCILED
360
1C4E
  0
DICTIONARY
  5
1C4F
330
1CD
100
AcDbDictionary
280
     1
281
     1
  3
ACAD_XREC_ROUNDTRIP
360
1C60
  3
ADSK_XREC_LAYER_RECONCILED
360
1C50
  0
DICTIONARY
  5
1C51
330
772
100
AcDbDictionary
280
     1
281
     1
  3
ACAD_XREC_ROUNDTRIP
360
1C61
  3
ADSK_XREC_LAYER_RECONCILED
360
1C52
  0
DICTIONARY
  5
1C53
330
1196
100
AcDbDictionary
280
     1
281
     1
  3
ACAD_XREC_ROUNDTRIP
360
1C62
  3
ADSK_XREC_LAYER_RECONCILED
360
1C54
  0
DICTIONARY
  5
1C67
330
11F4
100
AcDbDictionary
280
     1
281
     1
  3
ACAD_XREC_ROUNDTRIP
360
1C68
  0
DICTIONARY
  5
1C63
330
119D
100
AcDbDictionary
280
     1
281
     1
  3
ACAD_XREC_ROUNDTRIP
360
1C64
  0
DICTIONARY
  5
1C65
330
119F
100
AcDbDictionary
280
     1
281
     1
  3
ACAD_XREC_ROUNDTRIP
360
1C66
  0
DICTIONARY
  5
1746
102
{ACAD_REACTORS
330
C
102
}
330
C
100
AcDbDictionary
281
     1
  0
DICTIONARY
  5
D
102
{ACAD_REACTORS
330
C
102
}
330
C
100
AcDbDictionary
281
     1
  0
DICTIONARY
  5
19
102
{ACAD_REACTORS
330
C
102
}
330
C
100
AcDbDictionary
281
     1
  3
Model
350
21
  3
ﾚｲｱｳﾄ1
350
1D
  0
DICTIONARY
  5
1745
102
{ACAD_REACTORS
330
C
102
}
330
C
100
AcDbDictionary
281
     1
  3
ByBlock
350
1BF7
  3
ByLayer
350
1BEF
  3
Global
350
1BFF
  0
DICTIONARY
  5
1C3C
102
{ACAD_REACTORS
330
C
102
}
330
C
100
AcDbDictionary
281
     1
  3
Standard
350
1C3D
  0
DICTIONARY
  5
16
102
{ACAD_REACTORS
330
C
102
}
330
C
100
AcDbDictionary
281
     1
  3
Standard
350
17
  0
DICTIONARY
  5
18
102
{ACAD_REACTORS
330
C
102
}
330
C
100
AcDbDictionary
281
     1
  0
ACDBDICTIONARYWDFLT
  5
E
102
{ACAD_REACTORS
330
C
102
}
330
C
100
AcDbDictionary
281
     1
  3
Normal
350
F
100
AcDbDictionaryWithDefault
340
F
  0
DICTIONARY
  5
1C1A
102
{ACAD_REACTORS
330
C
102
}
330
C
100
AcDbDictionary
281
     1
  3
A0
350
1C1B
  3
A1
350
1C1C
  3
A2
350
1C1D
  3
A3
350
1C1E
  3
A4
350
1C1F
  3
A5
350
1C20
  3
A6
350
1C21
  3
A7
350
1C22
  3
A8
350
1C23
  3
A9
350
1C24
  3
B0
350
1C25
  3
B1
350
1C26
  3
B2
350
1C27
  3
B3
350
1C28
  3
B4
350
1C29
  3
B5
350
1C2A
  3
B6
350
1C2B
  3
B7
350
1C2C
  3
B8
350
1C2D
  3
B9
350
1C2E
  3
C0
350
1C2F
  3
C1
350
1C30
  3
C2
350
1C31
  3
C3
350
1C32
  3
C4
350
1C33
  3
C5
350
1C34
  3
C6
350
1C35
  3
C7
350
1C36
  3
C8
350
1C37
  3
C9
350
1C38
  3
D0
350
1C39
  3
D1
350
1C3A
  3
D2
350
1C3B
  0
DICTIONARY
  5
1C18
102
{ACAD_REACTORS
330
C
102
}
330
C
100
AcDbDictionary
281
     1
  3
Standard
350
1C19
  0
DICTIONARY
  5
1C07
102
{ACAD_REACTORS
330
C
102
}
330
C
100
AcDbDictionary
281
     1
  3
2dWireframe
350
1C0D
  3
3D Hidden
350
1C0F
  3
3dWireframe
350
1C0E
  3
Basic
350
1C0C
  3
Brighten
350
1C13
  3
ColorChange
350
1C17
  3
Conceptual
350
1C10
  3
Dim
350
1C12
  3
Facepattern
350
1C16
  3
Flat
350
1C08
  3
FlatWithEdges
350
1C09
  3
Gouraud
350
1C0A
  3
GouraudWithEdges
350
1C0B
  3
Linepattern
350
1C15
  3
Realistic
350
1C11
  3
Thicken
350
1C14
  0
XRECORD
  5
16A4
102
{ACAD_REACTORS
330
C
102
}
330
C
100
AcDbXrecord
280
     1
 90
   990106
  3

 60
     0
 61
     0
 62
     1
 63
     3
 64
     0
 65
     0
 66
     0
 67
     3
 68
     1
 69
     0
 70
     0
 71
     0
 72
     0
 40
15.0
170
     0
340
16A6
  0
XRECORD
  5
1C57
102
{ACAD_REACTORS
330
C
102
}
330
C
100
AcDbXrecord
280
     1
 90
        1
330
1C19
  0
DICTIONARY
  5
1D92
102
{ACAD_REACTORS
330
C
102
}
330
C
100
AcDbDictionary
281
     1
  3
COLORDICT
350
1D94
  3
MATERIALDICT
350
1D93
  0
DICTIONARY
  5
1C6F
102
{ACAD_REACTORS
330
C
102
}
330
C
100
AcDbDictionary
281
     1
  3
CANNOSCALE
350
1C72
  3
CMLEADERSTYLE
350
1C71
  3
CTABLESTYLE
350
1C70
  3
DIMASSOC
350
1D8E
  3
PROJECTNAME
350
1D8F
  0
XRECORD
  5
1D91
102
{ACAD_REACTORS
330
C
102
}
330
C
100
AcDbXrecord
280
     1
  1
DWGPROPS COOKIE
  2

  3

  4

  6

  7

  8
KYS004
  9

300
=
301
=
302
=
303
=
304
=
305
=
306
=
307
=
308
=
309
=
 40
0.529904675925926
 41
2449944.925517361
 42
2455342.840762257
  1

 90
        0
  0
XRECORD
  5
1C59
102
{ACAD_REACTORS
330
1C58
102
}
330
1C58
100
AcDbXrecord
280
     1
102
VTR_0.000_0.000_1.000_1.000_VISUALSTYLE
340
1C0D
102
VTR_0.000_0.000_1.000_1.000_GRIDDISPLAY
 70
     3
102
VTR_0.000_0.000_1.000_1.000_GRIDMAJOR
 70
     5
102
VTR_0.000_0.000_1.000_1.000_DEFAULTLIGHTING
280
     1
102
VTR_0.000_0.000_1.000_1.000_DEFAULTLIGHTINGTYPE
 70
     1
102
VTR_0.000_0.000_1.000_1.000_BRIGHTNESS
141
0.0
102
VTR_0.000_0.000_1.000_1.000_CONTRAST
142
0.0
  0
XRECORD
  5
1C5A
102
{ACAD_REACTORS
330
1C47
102
}
330
1C47
100
AcDbXrecord
280
     1
102
MATERIAL
340
1BFF
  0
XRECORD
  5
1C48
102
{ACAD_REACTORS
330
1C47
102
}
330
1C47
100
AcDbXrecord
280
     1
290
     1
  0
XRECORD
  5
1C5C
102
{ACAD_REACTORS
330
1C5B
102
}
330
1C5B
100
AcDbXrecord
280
     1
102
MATERIAL
340
1BFF
  0
XRECORD
  5
1C5D
102
{ACAD_REACTORS
330
1C49
102
}
330
1C49
100
AcDbXrecord
280
     1
102
MATERIAL
340
1BFF
  0
XRECORD
  5
1C4A
102
{ACAD_REACTORS
330
1C49
102
}
330
1C49
100
AcDbXrecord
280
     1
290
     1
  0
XRECORD
  5
1C5E
102
{ACAD_REACTORS
330
1C4B
102
}
330
1C4B
100
AcDbXrecord
280
     1
102
MATERIAL
340
1BFF
  0
XRECORD
  5
1C4C
102
{ACAD_REACTORS
330
1C4B
102
}
330
1C4B
100
AcDbXrecord
280
     1
290
     1
  0
XRECORD
  5
1C5F
102
{ACAD_REACTORS
330
1C4D
102
}
330
1C4D
100
AcDbXrecord
280
     1
102
MATERIAL
340
1BFF
  0
XRECORD
  5
1C4E
102
{ACAD_REACTORS
330
1C4D
102
}
330
1C4D
100
AcDbXrecord
280
     1
290
     1
  0
XRECORD
  5
1C60
102
{ACAD_REACTORS
330
1C4F
102
}
330
1C4F
100
AcDbXrecord
280
     1
102
MATERIAL
340
1BFF
  0
XRECORD
  5
1C50
102
{ACAD_REACTORS
330
1C4F
102
}
330
1C4F
100
AcDbXrecord
280
     1
290
     1
  0
XRECORD
  5
1C61
102
{ACAD_REACTORS
330
1C51
102
}
330
1C51
100
AcDbXrecord
280
     1
102
MATERIAL
340
1BFF
  0
XRECORD
  5
1C52
102
{ACAD_REACTORS
330
1C51
102
}
330
1C51
100
AcDbXrecord
280
     1
290
     1
  0
XRECORD
  5
1C62
102
{ACAD_REACTORS
330
1C53
102
}
330
1C53
100
AcDbXrecord
280
     1
102
MATERIAL
340
1BFF
  0
XRECORD
  5
1C54
102
{ACAD_REACTORS
330
1C53
102
}
330
1C53
100
AcDbXrecord
280
     1
290
     1
  0
XRECORD
  5
1C68
102
{ACAD_REACTORS
330
1C67
102
}
330
1C67
100
AcDbXrecord
280
     1
102
MATERIAL
340
1BFF
  0
XRECORD
  5
1C64
102
{ACAD_REACTORS
330
1C63
102
}
330
1C63
100
AcDbXrecord
280
     1
102
VISUALSTYLE
340
1C0D
102
GRIDDISPLAY
 70
     0
102
GRIDMAJOR
 70
     5
102
DEFAULTLIGHTING
280
     1
102
DEFAULTLIGHTINGTYPE
 70
     1
102
BRIGHTNESS
141
0.0
102
CONTRAST
142
0.0
102
SHADEPLOT
 70
     0
  0
XRECORD
  5
1C66
102
{ACAD_REACTORS
330
1C65
102
}
330
1C65
100
AcDbXrecord
280
     1
102
VISUALSTYLE
340
1C0D
102
GRIDDISPLAY
 70
     0
102
GRIDMAJOR
 70
     5
102
DEFAULTLIGHTING
280
     1
102
DEFAULTLIGHTINGTYPE
 70
     1
102
BRIGHTNESS
141
0.0
102
CONTRAST
142
0.0
102
SHADEPLOT
 70
     0
  0
LAYOUT
  5
21
102
{ACAD_XDICTIONARY
360
1D97
102
}
102
{ACAD_REACTORS
330
19
102
}
330
19
100
AcDbPlotSettings
  1

  2
倉庫プリンタ.pc3
  4
A3
  6

 40
5.873749732971191
 41
5.873747825622558
 42
5.873748779296875
 43
5.873748779296875
 44
296.9259948730469
 45
419.9466552734374
 46
0.0
 47
2.459999999999999
 48
-210.0
 49
-148.5
140
210.0
141
148.5
142
1.0
143
1.041452997999771
 70
 11956
 72
     1
 73
     1
 74
     4
  7

 75
     0
147
0.9601969574436996
148
210.0
149
148.5
100
AcDbLayout
  1
Model
 70
     1
 71
     0
 10
0.0
 20
0.0
 11
12.0
 21
9.0
 12
0.0
 22
0.0
 32
0.0
 14
0.0
 24
0.0
 34
0.0
 15
0.0
 25
0.0
 35
0.0
146
0.0
 13
0.0
 23
0.0
 33
0.0
 16
1.0
 26
0.0
 36
0.0
 17
0.0
 27
1.0
 37
0.0
 76
     0
330
1E
  0
LAYOUT
  5
1D
102
{ACAD_XDICTIONARY
360
1D95
102
}
102
{ACAD_REACTORS
330
19
102
}
330
19
100
AcDbPlotSettings
  1

  2
なし
  4

  6

 40
0.0
 41
0.0
 42
0.0
 43
0.0
 44
0.0
 45
0.0
 46
0.0
 47
0.0
 48
0.0
 49
0.0
140
0.0
141
0.0
142
1.0
143
1.0
 70
   688
 72
     0
 73
     1
 74
     5
  7

 75
    16
147
1.0
148
0.0
149
0.0
100
AcDbLayout
  1
ﾚｲｱｳﾄ1
 70
     1
 71
     1
 10
0.0
 20
0.0
 11
0.0
 21
0.0
 12
0.0
 22
0.0
 32
0.0
 14
0.0
 24
0.0
 34
0.0
 15
0.0
 25
0.0
 35
0.0
146
0.0
 13
0.0
 23
0.0
 33
0.0
 16
1.0
 26
0.0
 36
0.0
 17
0.0
 27
1.0
 37
0.0
 76
     0
330
1A
331
119D
  0
MATERIAL
  5
1BF7
102
{ACAD_XDICTIONARY
360
1BF8
102
}
102
{ACAD_REACTORS
330
1745
102
}
330
1745
100
AcDbMaterial
  1
ByBlock
 72
     0
 73
     2
 43
0.0208333333333333
 43
0.0
 43
0.0
 43
0.0
 43
0.0
 43
0.0208333333333333
 43
0.0
 43
0.0
 43
0.0
 43
0.0
 43
1.0
 43
0.0
 43
0.0
 43
0.0
 43
0.0
 43
1.0
 77
     0
 78
     2
 47
0.0208333333333333
 47
0.0
 47
0.0
 47
0.0
 47
0.0
 47
0.0208333333333333
 47
0.0
 47
0.0
 47
0.0
 47
0.0
 47
1.0
 47
0.0
 47
0.0
 47
0.0
 47
0.0
 47
1.0
171
     0
172
     2
 49
0.0208333333333333
 49
0.0
 49
0.0
 49
0.0
 49
0.0
 49
0.0208333333333333
 49
0.0
 49
0.0
 49
0.0
 49
0.0
 49
1.0
 49
0.0
 49
0.0
 49
0.0
 49
0.0
 49
1.0
175
     0
176
     2
142
0.0208333333333333
142
0.0
142
0.0
142
0.0
142
0.0
142
0.0208333333333333
142
0.0
142
0.0
142
0.0
142
0.0
142
1.0
142
0.0
142
0.0
142
0.0
142
0.0
142
1.0
179
     0
270
     2
144
0.0208333333333333
144
0.0
144
0.0
144
0.0
144
0.0
144
0.0208333333333333
144
0.0
144
0.0
144
0.0
144
0.0
144
1.0
144
0.0
144
0.0
144
0.0
144
0.0
144
1.0
274
     2
147
0.0208333333333333
147
0.0
147
0.0
147
0.0
147
0.0
147
0.0208333333333333
147
0.0
147
0.0
147
0.0
147
0.0
147
1.0
147
0.0
147
0.0
147
0.0
147
0.0
147
1.0
  0
MATERIAL
  5
1BEF
102
{ACAD_XDICTIONARY
360
1BF0
102
}
102
{ACAD_REACTORS
330
1745
102
}
330
1745
100
AcDbMaterial
  1
ByLayer
 72
     0
 73
     2
 43
0.0208333333333333
 43
0.0
 43
0.0
 43
0.0
 43
0.0
 43
0.0208333333333333
 43
0.0
 43
0.0
 43
0.0
 43
0.0
 43
1.0
 43
0.0
 43
0.0
 43
0.0
 43
0.0
 43
1.0
 77
     0
 78
     2
 47
0.0208333333333333
 47
0.0
 47
0.0
 47
0.0
 47
0.0
 47
0.0208333333333333
 47
0.0
 47
0.0
 47
0.0
 47
0.0
 47
1.0
 47
0.0
 47
0.0
 47
0.0
 47
0.0
 47
1.0
171
     0
172
     2
 49
0.0208333333333333
 49
0.0
 49
0.0
 49
0.0
 49
0.0
 49
0.0208333333333333
 49
0.0
 49
0.0
 49
0.0
 49
0.0
 49
1.0
 49
0.0
 49
0.0
 49
0.0
 49
0.0
 49
1.0
175
     0
176
     2
142
0.0208333333333333
142
0.0
142
0.0
142
0.0
142
0.0
142
0.0208333333333333
142
0.0
142
0.0
142
0.0
142
0.0
142
1.0
142
0.0
142
0.0
142
0.0
142
0.0
142
1.0
179
     0
270
     2
144
0.0208333333333333
144
0.0
144
0.0
144
0.0
144
0.0
144
0.0208333333333333
144
0.0
144
0.0
144
0.0
144
0.0
144
1.0
144
0.0
144
0.0
144
0.0
144
0.0
144
1.0
274
     2
147
0.0208333333333333
147
0.0
147
0.0
147
0.0
147
0.0
147
0.0208333333333333
147
0.0
147
0.0
147
0.0
147
0.0
147
1.0
147
0.0
147
0.0
147
0.0
147
0.0
147
1.0
  0
MATERIAL
  5
1BFF
102
{ACAD_XDICTIONARY
360
1C00
102
}
102
{ACAD_REACTORS
330
1745
102
}
330
1745
100
AcDbMaterial
  1
Global
 72
     0
 73
     2
 43
0.0208333333333333
 43
0.0
 43
0.0
 43
0.0
 43
0.0
 43
0.0208333333333333
 43
0.0
 43
0.0
 43
0.0
 43
0.0
 43
1.0
 43
0.0
 43
0.0
 43
0.0
 43
0.0
 43
1.0
 77
     0
 78
     2
 47
0.0208333333333333
 47
0.0
 47
0.0
 47
0.0
 47
0.0
 47
0.0208333333333333
 47
0.0
 47
0.0
 47
0.0
 47
0.0
 47
1.0
 47
0.0
 47
0.0
 47
0.0
 47
0.0
 47
1.0
171
     0
172
     2
 49
0.0208333333333333
 49
0.0
 49
0.0
 49
0.0
 49
0.0
 49
0.0208333333333333
 49
0.0
 49
0.0
 49
0.0
 49
0.0
 49
1.0
 49
0.0
 49
0.0
 49
0.0
 49
0.0
 49
1.0
175
     0
176
     2
142
0.0208333333333333
142
0.0
142
0.0
142
0.0
142
0.0
142
0.0208333333333333
142
0.0
142
0.0
142
0.0
142
0.0
142
1.0
142
0.0
142
0.0
142
0.0
142
0.0
142
1.0
179
     0
270
     2
144
0.0208333333333333
144
0.0
144
0.0
144
0.0
144
0.0
144
0.0208333333333333
144
0.0
144
0.0
144
0.0
144
0.0
144
1.0
144
0.0
144
0.0
144
0.0
144
0.0
144
1.0
274
     2
147
0.0208333333333333
147
0.0
147
0.0
147
0.0
147
0.0
147
0.0208333333333333
147
0.0
147
0.0
147
0.0
147
0.0
147
1.0
147
0.0
147
0.0
147
0.0
147
0.0
147
1.0
  0
ACAD_PROXY_OBJECT
  5
1C3D
102
{ACAD_REACTORS
330
1C3C
102
}
330
1C3C
100
AcDbProxyObject
 90
      499
 91
      507
 95
       25
 70
     0
 93
      744
310
40901902A40600000030400FEFFFFFF815AF46E07A156E7F02B5E8DC0F42B5CFD095374616E646172640002B5E8DC0F42B1CFE405064068000000C10002B5E8DC0F42B1CFC02B5E8DC0F42B1CFE000000304015D90000000000000C03F00
340
13
340
0
340
11
340
0
 94
        0
1001
ACAD_MLEADERVER
1070
     2
1001
ACAD
1000
AcRTDxfName
1000
MLEADERSTYLE
  0
MLINESTYLE
  5
17
102
{ACAD_REACTORS
330
16
102
}
330
16
100
AcDbMlineStyle
  2
STANDARD
 70
     0
  3

 62
   256
 51
90.0
 52
90.0
 71
     2
 49
0.5
 62
   256
  6
BYLAYER
 49
-0.5
 62
   256
  6
BYLAYER
  0
ACDBPLACEHOLDER
  5
F
102
{ACAD_REACTORS
330
E
102
}
330
E
  0
ACAD_PROXY_OBJECT
  5
1C1B
102
{ACAD_REACTORS
330
1C1A
102
}
330
1C1A
100
AcDbProxyObject
 90
      499
 91
      506
 95
       25
 70
     0
 93
       49
310
904313A3100588
 94
        0
1001
ACAD
1000
AcRTDxfName
1000
SCALE
  0
ACAD_PROXY_OBJECT
  5
1C1C
102
{ACAD_REACTORS
330
1C1A
102
}
330
1C1A
100
AcDbProxyObject
 90
      499
 91
      506
 95
       25
 70
     0
 93
      113
310
904313A3200400000000000000406B
 94
        0
1001
ACAD
1000
AcRTDxfName
1000
SCALE
  0
ACAD_PROXY_OBJECT
  5
1C1D
102
{ACAD_REACTORS
330
1C1A
102
}
330
1C1A
100
AcDbProxyObject
 90
      499
 91
      506
 95
       25
 70
     0
 93
      113
310
904313A3400400000000000010406B
 94
        0
1001
ACAD
1000
AcRTDxfName
1000
SCALE
  0
ACAD_PROXY_OBJECT
  5
1C1E
102
{ACAD_REACTORS
330
1C1A
102
}
330
1C1A
100
AcDbProxyObject
 90
      499
 91
      506
 95
       25
 70
     0
 93
      113
310
904313A35004000000000000144000
 94
        0
1001
ACAD
1000
AcRTDxfName
1000
SCALE
  0
ACAD_PROXY_OBJECT
  5
1C1F
102
{ACAD_REACTORS
330
1C1A
102
}
330
1C1A
100
AcDbProxyObject
 90
      499
 91
      506
 95
       25
 70
     0
 93
      113
310
904313A3800400000000000020406B
 94
        0
1001
ACAD
1000
AcRTDxfName
1000
SCALE
  0
ACAD_PROXY_OBJECT
  5
1C20
102
{ACAD_REACTORS
330
1C1A
102
}
330
1C1A
100
AcDbProxyObject
 90
      499
 91
      506
 95
       25
 70
     0
 93
      121
310
905313A3130004000000000000244000
 94
        0
1001
ACAD
1000
AcRTDxfName
1000
SCALE
  0
ACAD_PROXY_OBJECT
  5
1C21
102
{ACAD_REACTORS
330
1C1A
102
}
330
1C1A
100
AcDbProxyObject
 90
      499
 91
      506
 95
       25
 70
     0
 93
      121
310
905313A3136004000000000000304051
 94
        0
1001
ACAD
1000
AcRTDxfName
1000
SCALE
  0
ACAD_PROXY_OBJECT
  5
1C22
102
{ACAD_REACTORS
330
1C1A
102
}
330
1C1A
100
AcDbProxyObject
 90
      499
 91
      506
 95
       25
 70
     0
 93
      121
310
905313A3230004000000000000344000
 94
        0
1001
ACAD
1000
AcRTDxfName
1000
SCALE
  0
ACAD_PROXY_OBJECT
  5
1C23
102
{ACAD_REACTORS
330
1C1A
102
}
330
1C1A
100
AcDbProxyObject
 90
      499
 91
      506
 95
       25
 70
     0
 93
      121
310
905313A33300040000000000003E4051
 94
        0
1001
ACAD
1000
AcRTDxfName
1000
SCALE
  0
ACAD_PROXY_OBJECT
  5
1C24
102
{ACAD_REACTORS
330
1C1A
102
}
330
1C1A
100
AcDbProxyObject
 90
      499
 91
      506
 95
       25
 70
     0
 93
      121
310
905313A3430004000000000000444000
 94
        0
1001
ACAD
1000
AcRTDxfName
1000
SCALE
  0
ACAD_PROXY_OBJECT
  5
1C25
102
{ACAD_REACTORS
330
1C1A
102
}
330
1C1A
100
AcDbProxyObject
 90
      499
 91
      506
 95
       25
 70
     0
 93
      121
310
905313A3530004000000000000494051
 94
        0
1001
ACAD
1000
AcRTDxfName
1000
SCALE
  0
ACAD_PROXY_OBJECT
  5
1C26
102
{ACAD_REACTORS
330
1C1A
102
}
330
1C1A
100
AcDbProxyObject
 90
      499
 91
      506
 95
       25
 70
     0
 93
      129
310
906313A313030004000000000000594000
 94
        0
1001
ACAD
1000
AcRTDxfName
1000
SCALE
  0
ACAD_PROXY_OBJECT
  5
1C27
102
{ACAD_REACTORS
330
1C1A
102
}
330
1C1A
100
AcDbProxyObject
 90
      499
 91
      506
 95
       25
 70
     0
 93
      113
310
904323A31000000000000000010140
 94
        0
1001
ACAD
1000
AcRTDxfName
1000
SCALE
  0
ACAD_PROXY_OBJECT
  5
1C28
102
{ACAD_REACTORS
330
1C1A
102
}
330
1C1A
100
AcDbProxyObject
 90
      499
 91
      506
 95
       25
 70
     0
 93
      113
310
904343A31000000000000000410159
 94
        0
1001
ACAD
1000
AcRTDxfName
1000
SCALE
  0
ACAD_PROXY_OBJECT
  5
1C29
102
{ACAD_REACTORS
330
1C1A
102
}
330
1C1A
100
AcDbProxyObject
 90
      499
 91
      506
 95
       25
 70
     0
 93
      113
310
904383A31000000000000000810140
 94
        0
1001
ACAD
1000
AcRTDxfName
1000
SCALE
  0
ACAD_PROXY_OBJECT
  5
1C2A
102
{ACAD_REACTORS
330
1C1A
102
}
330
1C1A
100
AcDbProxyObject
 90
      499
 91
      506
 95
       25
 70
     0
 93
      121
310
90531303A31000000000000000910140
 94
        0
1001
ACAD
1000
AcRTDxfName
1000
SCALE
  0
ACAD_PROXY_OBJECT
  5
1C2B
102
{ACAD_REACTORS
330
1C1A
102
}
330
1C1A
100
AcDbProxyObject
 90
      499
 91
      506
 95
       25
 70
     0
 93
      129
310
9063130303A31000000000000001650138
 94
        0
1001
ACAD
1000
AcRTDxfName
1000
SCALE
  0
ACAD_PROXY_OBJECT
  5
1C2C
102
{ACAD_REACTORS
330
1C1A
102
}
330
1C1A
100
AcDbProxyObject
 90
      499
 91
      506
 95
       25
 70
     0
 93
      265
310
90F312F31323822203D2031272D302200000000000000200FC000000000000284000
 94
        0
1001
ACAD
1000
AcRTDxfName
1000
SCALE
  0
ACAD_PROXY_OBJECT
  5
1C2D
102
{ACAD_REACTORS
330
1C1A
102
}
330
1C1A
100
AcDbProxyObject
 90
      499
 91
      506
 95
       25
 70
     0
 93
      257
310
90E312F363422203D2031272D302200000000000000240FC000000000000284074
 94
        0
1001
ACAD
1000
AcRTDxfName
1000
SCALE
  0
ACAD_PROXY_OBJECT
  5
1C2E
102
{ACAD_REACTORS
330
1C1A
102
}
330
1C1A
100
AcDbProxyObject
 90
      499
 91
      506
 95
       25
 70
     0
 93
      257
310
90E312F333222203D2031272D302200000000000000280FC000000000000284040
 94
        0
1001
ACAD
1000
AcRTDxfName
1000
SCALE
  0
ACAD_PROXY_OBJECT
  5
1C2F
102
{ACAD_REACTORS
330
1C1A
102
}
330
1C1A
100
AcDbProxyObject
 90
      499
 91
      506
 95
       25
 70
     0
 93
      257
310
90E312F313622203D2031272D3022000000000000002C0FC000000000000284074
 94
        0
1001
ACAD
1000
AcRTDxfName
1000
SCALE
  0
ACAD_PROXY_OBJECT
  5
1C30
102
{ACAD_REACTORS
330
1C1A
102
}
330
1C1A
100
AcDbProxyObject
 90
      499
 91
      506
 95
       25
 70
     0
 93
      257
310
90E332F333222203D2031272D3022000000000000002E0FC000000000000284040
 94
        0
1001
ACAD
1000
AcRTDxfName
1000
SCALE
  0
ACAD_PROXY_OBJECT
  5
1C31
102
{ACAD_REACTORS
330
1C1A
102
}
330
1C1A
100
AcDbProxyObject
 90
      499
 91
      506
 95
       25
 70
     0
 93
      249
310
90D312F3822203D2031272D302200000000000000300FC000000000000284040
 94
        0
1001
ACAD
1000
AcRTDxfName
1000
SCALE
  0
ACAD_PROXY_OBJECT
  5
1C32
102
{ACAD_REACTORS
330
1C1A
102
}
330
1C1A
100
AcDbProxyObject
 90
      499
 91
      506
 95
       25
 70
     0
 93
      257
310
90E332F313622203D2031272D302200000000000000320FC000000000000284040
 94
        0
1001
ACAD
1000
AcRTDxfName
1000
SCALE
  0
ACAD_PROXY_OBJECT
  5
1C33
102
{ACAD_REACTORS
330
1C1A
102
}
330
1C1A
100
AcDbProxyObject
 90
      499
 91
      506
 95
       25
 70
     0
 93
      249
310
90D312F3422203D2031272D302200000000000000340FC000000000000284040
 94
        0
1001
ACAD
1000
AcRTDxfName
1000
SCALE
  0
ACAD_PROXY_OBJECT
  5
1C34
102
{ACAD_REACTORS
330
1C1A
102
}
330
1C1A
100
AcDbProxyObject
 90
      499
 91
      506
 95
       25
 70
     0
 93
      249
310
90D332F3822203D2031272D302200000000000000360FC000000000000284040
 94
        0
1001
ACAD
1000
AcRTDxfName
1000
SCALE
  0
ACAD_PROXY_OBJECT
  5
1C35
102
{ACAD_REACTORS
330
1C1A
102
}
330
1C1A
100
AcDbProxyObject
 90
      499
 91
      506
 95
       25
 70
     0
 93
      249
310
90D312F3222203D2031272D302200000000000000380FC000000000000284040
 94
        0
1001
ACAD
1000
AcRTDxfName
1000
SCALE
  0
ACAD_PROXY_OBJECT
  5
1C36
102
{ACAD_REACTORS
330
1C1A
102
}
330
1C1A
100
AcDbProxyObject
 90
      499
 91
      506
 95
       25
 70
     0
 93
      249
310
90D332F3422203D2031272D3022000000000000003A0FC000000000000284040
 94
        0
1001
ACAD
1000
AcRTDxfName
1000
SCALE
  0
ACAD_PROXY_OBJECT
  5
1C37
102
{ACAD_REACTORS
330
1C1A
102
}
330
1C1A
100
AcDbProxyObject
 90
      499
 91
      506
 95
       25
 70
     0
 93
      169
310
90B3122203D2031272D3022004000000000000284000
 94
        0
1001
ACAD
1000
AcRTDxfName
1000
SCALE
  0
ACAD_PROXY_OBJECT
  5
1C38
102
{ACAD_REACTORS
330
1C1A
102
}
330
1C1A
100
AcDbProxyObject
 90
      499
 91
      506
 95
       25
 70
     0
 93
      265
310
90F312D312F3222203D2031272D3022000000000000003E0FC000000000000284000
 94
        0
1001
ACAD
1000
AcRTDxfName
1000
SCALE
  0
ACAD_PROXY_OBJECT
  5
1C39
102
{ACAD_REACTORS
330
1C1A
102
}
330
1C1A
100
AcDbProxyObject
 90
      499
 91
      506
 95
       25
 70
     0
 93
      233
310
90B3322203D2031272D30220000000000000002100000000000000284028
 94
        0
1001
ACAD
1000
AcRTDxfName
1000
SCALE
  0
ACAD_PROXY_OBJECT
  5
1C3A
102
{ACAD_REACTORS
330
1C1A
102
}
330
1C1A
100
AcDbProxyObject
 90
      499
 91
      506
 95
       25
 70
     0
 93
      233
310
90B3622203D2031272D30220000000000000006100000000000000284000
 94
        0
1001
ACAD
1000
AcRTDxfName
1000
SCALE
  0
ACAD_PROXY_OBJECT
  5
1C3B
102
{ACAD_REACTORS
330
1C1A
102
}
330
1C1A
100
AcDbProxyObject
 90
      499
 91
      506
 95
       25
 70
     0
 93
      257
310
90E31272D3022203D2031272D3022000000000000000A100000000000000284074
 94
        0
1001
ACAD
1000
AcRTDxfName
1000
SCALE
  0
ACAD_PROXY_OBJECT
  5
1C19
102
{ACAD_XDICTIONARY
360
1C55
102
}
102
{ACAD_REACTORS
330
1C18
102
}
330
1C18
100
AcDbProxyObject
 90
      499
 91
      505
 95
       25
 70
     0
 93
     1849
310
4254DD185B99185C990028B81E85EB51B8AE3F2E07A17AD46E2B8FC02B5E8DC0F42B1CFD028000000C1008070000C3001FDFF8000000C1003FBFF000000182007F7FE00000030400FEFFC00000060801FDFF8000000C1003FBFF00000018200000000000000681FA0B0000001820100E000186003FBFF000000182007F7FE0
310
0000030400FEFFC00000060801FDFF8000000C1003FBFF000000182007F7FE000000304000AD7A3703D0AC73F4160000003040201C00030C007F7FE00000030400FEFFC00000060801FDFF8000000C1003FBFF000000182007F7FE00000030400FEFFC000000608000
340
11
340
11
340
11
 94
        0
1001
ACAD
1000
AcRTDxfName
1000
TABLESTYLE
  0
ACAD_PROXY_OBJECT
  5
1C0D
102
{ACAD_REACTORS
330
1C07
102
}
330
1C07
100
AcDbProxyObject
 90
      499
 91
      504
 95
       25
 70
     0
 93
      598
310
430C9915DA5C99599C985B59401049028333333333333E3BF0000000000000FB023FFFFFF0802405048070000C3008000000C800405A000000320014050640A01C00030C010500920280D3
 94
        0
1001
ACAD
1000
AcDbSavedByObjectVersion
1070
     0
1000
AcRTDxfName
1000
VISUALSTYLE
  0
ACAD_PROXY_OBJECT
  5
1C0F
102
{ACAD_REACTORS
330
1C07
102
}
330
1C07
100
AcDbProxyObject
 90
      499
 91
      504
 95
       25
 70
     0
 93
      662
310
428CD108121A5919195B8010640502408333333333333E3BF0000000000000FB023FFFFFF0802409028070000C3008000000C8004080000000000004440A000000320014050640A01C00030C010300920280D0
 94
        0
1001
ACAD
1000
AcDbSavedByObjectVersion
1070
     0
1000
AcRTDxfName
1000
VISUALSTYLE
  0
ACAD_PROXY_OBJECT
  5
1C0E
102
{ACAD_REACTORS
330
1C07
102
}
330
1C07
100
AcDbProxyObject
 90
      499
 91
      504
 95
       25
 70
     0
 93
      598
310
430CD915DA5C99599C985B59401059028333333333333E3BF0000000000000FB023FFFFFF0802405048070000C3008000000C800405A000000320014050640A01C00030C010500920280D0
 94
        0
1001
ACAD
1000
AcDbSavedByObjectVersion
1070
     0
1000
AcRTDxfName
1000
VISUALSTYLE
  0
ACAD_PROXY_OBJECT
  5
1C0C
102
{ACAD_REACTORS
330
1C07
102
}
330
1C07
100
AcDbProxyObject
 90
      499
 91
      504
 95
       25
 70
     0
 93
      558
310
4190985CDA58C0107406404333333333333E3BF0000000000000FB023FFFFFF08029048070000C3008000000C80040542201C00030C014050640A01C00030C010500920280D6
 94
        0
1001
ACAD
1000
AcDbSavedByObjectVersion
1070
     0
1000
AcRTDxfName
1000
VISUALSTYLE
  0
ACAD_PROXY_OBJECT
  5
1C13
102
{ACAD_REACTORS
330
1C07
102
}
330
1C07
100
AcDbProxyObject
 90
      499
 91
      504
 95
       25
 70
     0
 93
      598
310
42509C9A59DA1D195B8010C409028333333333333E3BF0000000000000FB023FFFFFF0802405048070000C3008000000C80040542201C00030C014050640A01C00030C010500920280A657
 94
        0
1001
ACAD
1000
AcDbSavedByObjectVersion
1070
     0
1000
AcRTDxfName
1000
VISUALSTYLE
  0
ACAD_PROXY_OBJECT
  5
1C17
102
{ACAD_REACTORS
330
1C07
102
}
330
1C07
100
AcDbProxyObject
 90
      499
 91
      504
 95
       25
 70
     0
 93
      622
310
4310DBDB1BDC90DA185B99D9401104090240C333333333333E3BF0000000000000FB0220202030802405048070000C3008000000C800405422202020308014050640A01C00030C010500920280D5
 94
        0
1001
ACAD
1000
AcDbSavedByObjectVersion
1070
     0
1000
AcRTDxfName
1000
VISUALSTYLE
  0
ACAD_PROXY_OBJECT
  5
1C10
102
{ACAD_REACTORS
330
1C07
102
}
330
1C07
100
AcDbProxyObject
 90
      499
 91
      504
 95
       25
 70
     0
 93
      670
310
42D0DBDB98D95C1D1D585B0010940D028333333333333E3BF0000000000000FB023FFFFFF0802409028070000C3008000000C800404000000000000444042201C00030C014050640A01C00030C010300920280D0
 94
        0
1001
ACAD
1000
AcDbSavedByObjectVersion
1070
     0
1000
AcRTDxfName
1000
VISUALSTYLE
  0
ACAD_PROXY_OBJECT
  5
1C12
102
{ACAD_REACTORS
330
1C07
102
}
330
1C07
100
AcDbProxyObject
 90
      499
 91
      504
 95
       25
 70
     0
 93
      582
310
41111A5B4010B409028333333333333E3BF0000000000000FB023FFFFFF0802405048070000C3008000000C80040542201C00030C014050640A01C00030C01050092028099DFFFFFF4
 94
        0
1001
ACAD
1000
AcDbSavedByObjectVersion
1070
     0
1000
AcRTDxfName
1000
VISUALSTYLE
  0
ACAD_PROXY_OBJECT
  5
1C16
102
{ACAD_REACTORS
330
1C07
102
}
330
1C07
100
AcDbProxyObject
 90
      499
 91
      504
 95
       25
 70
     0
 93
      614
310
43119858D95C185D1D195C9B8010F409028333333333333E3BF0000000000000FB023FFFFFF0802405048070000C3008000000C80040542201C00030C014050640A01C00030C010500920280D4
 94
        0
1001
ACAD
1000
AcDbSavedByObjectVersion
1070
     0
1000
AcRTDxfName
1000
VISUALSTYLE
  0
ACAD_PROXY_OBJECT
  5
1C08
102
{ACAD_REACTORS
330
1C07
102
}
330
1C07
100
AcDbProxyObject
 90
      499
 91
      504
 95
       25
 70
     0
 93
      558
310
41519B185D00240901404333333333333E3BF0000000000000F9023FFFFFF0801029048070000C3008000000C80040542201C00030C014050640A01C00030C010500920286D4
 94
        0
1001
ACAD
1000
AcDbSavedByObjectVersion
1070
     0
1000
AcRTDxfName
1000
VISUALSTYLE
  0
ACAD_PROXY_OBJECT
  5
1C09
102
{ACAD_REACTORS
330
1C07
102
}
330
1C07
100
AcDbProxyObject
 90
      499
 91
      504
 95
       25
 70
     0
 93
      638
310
43919B185D15DA5D1A115919D95CC010140901404333333333333E3BF0000000000000F9023FFFFFF080102405048070000C3008000000C800405A000000320014050640A01C00030C010500920286D4
 94
        0
1001
ACAD
1000
AcDbSavedByObjectVersion
1070
     0
1000
AcRTDxfName
1000
VISUALSTYLE
  0
ACAD_PROXY_OBJECT
  5
1C0A
102
{ACAD_REACTORS
330
1C07
102
}
330
1C07
100
AcDbProxyObject
 90
      499
 91
      504
 95
       25
 70
     0
 93
      582
310
4211DBDD5C985D590010240902404333333333333E3BF0000000000000F9023FFFFFF0801029048070000C3008000000C800405A01C00030C014050640A01C00030C010500920286D4
 94
        0
1001
ACAD
1000
AcDbSavedByObjectVersion
1070
     0
1000
AcRTDxfName
1000
VISUALSTYLE
  0
ACAD_PROXY_OBJECT
  5
1C0B
102
{ACAD_REACTORS
330
1C07
102
}
330
1C07
100
AcDbProxyObject
 90
      499
 91
      504
 95
       25
 70
     0
 93
      662
310
4451DBDD5C985D5915DA5D1A115919D95CC010340902404333333333333E3BF0000000000000F9023FFFFFF080102405048070000C3008000000C800405A000000320014050640A01C00030C010500920286D4
 94
        0
1001
ACAD
1000
AcDbSavedByObjectVersion
1070
     0
1000
AcRTDxfName
1000
VISUALSTYLE
  0
ACAD_PROXY_OBJECT
  5
1C15
102
{ACAD_REACTORS
330
1C07
102
}
330
1C07
100
AcDbProxyObject
 90
      499
 91
      504
 95
       25
 70
     0
 93
      614
310
43131A5B995C185D1D195C9B8010E409028333333333333E3BF0000000000000FB023FFFFFF0802405048070000C3008000000C80041D42201C00030C014050640A01C00030C010500920E80D4
 94
        0
1001
ACAD
1000
AcDbSavedByObjectVersion
1070
     0
1000
AcRTDxfName
1000
VISUALSTYLE
  0
ACAD_PROXY_OBJECT
  5
1C11
102
{ACAD_REACTORS
330
1C07
102
}
330
1C07
100
AcDbProxyObject
 90
      499
 91
      504
 95
       25
 70
     0
 93
      590
310
429499585B1A5CDD1A58C0108409028333333333333E3BF0000000000000FB023FFFFFF08024068070000C3008000000C8004054221E1E1E308014050640A01C00030C010500920286D0
 94
        0
1001
ACAD
1000
AcDbSavedByObjectVersion
1070
     0
1000
AcRTDxfName
1000
VISUALSTYLE
  0
ACAD_PROXY_OBJECT
  5
1C14
102
{ACAD_REACTORS
330
1C07
102
}
330
1C07
100
AcDbProxyObject
 90
      499
 91
      504
 95
       25
 70
     0
 93
      582
310
42151A1A58DAD95B8010D409028333333333333E3BF0000000000000FB023FFFFFF0802405048070000C3008000000C80040543201C00030C014050640A01C00030C010500920280D4
 94
        0
1001
ACAD
1000
AcDbSavedByObjectVersion
1070
     0
1000
AcRTDxfName
1000
VISUALSTYLE
  0
XRECORD
  5
1D94
102
{ACAD_REACTORS
330
1D92
102
}
330
1D92
100
AcDbXrecord
280
     1
340
1746
  0
XRECORD
  5
1D93
102
{ACAD_REACTORS
330
1D92
102
}
330
1D92
100
AcDbXrecord
280
     1
340
1745
  0
DICTIONARYVAR
  5
1C72
102
{ACAD_REACTORS
330
1C6F
102
}
330
1C6F
100
DictionaryVariables
280
     0
  1
1:1
  0
DICTIONARYVAR
  5
1C71
102
{ACAD_REACTORS
330
1C6F
102
}
330
1C6F
100
DictionaryVariables
280
     0
  1
STANDARD
  0
DICTIONARYVAR
  5
1C70
102
{ACAD_REACTORS
330
1C6F
102
}
330
1C6F
100
DictionaryVariables
280
     0
  1
STANDARD
  0
DICTIONARYVAR
  5
1D8E
102
{ACAD_REACTORS
330
1C6F
102
}
330
1C6F
100
DictionaryVariables
280
     0
  1
1
  0
DICTIONARYVAR
  5
1D8F
102
{ACAD_REACTORS
330
1C6F
102
}
330
1C6F
100
DictionaryVariables
280
     0
  1

  0
DICTIONARY
  5
1D97
330
21
100
AcDbDictionary
280
     1
281
     1
  3
ACAD_XREC_ROUNDTRIP
360
1D98
  0
DICTIONARY
  5
1D95
330
1D
100
AcDbDictionary
280
     1
281
     1
  3
ACAD_XREC_ROUNDTRIP
360
1D96
  0
DICTIONARY
  5
1BF8
330
1BF7
100
AcDbDictionary
280
     1
281
     1
  3
ACAD_XREC_ROUNDTRIP
360
1C6C
  3
BUMPTILE
360
1BFA
  3
DIFFUSETILE
360
1BF9
  3
OPACITYTILE
360
1BFD
  3
REFLECTIONTILE
360
1BFC
  3
REFRACTIONTILE
360
1BFE
  3
SPECULARTILE
360
1BFB
  0
DICTIONARY
  5
1BF0
330
1BEF
100
AcDbDictionary
280
     1
281
     1
  3
ACAD_XREC_ROUNDTRIP
360
1C6B
  3
BUMPTILE
360
1BF2
  3
DIFFUSETILE
360
1BF1
  3
OPACITYTILE
360
1BF5
  3
REFLECTIONTILE
360
1BF4
  3
REFRACTIONTILE
360
1BF6
  3
SPECULARTILE
360
1BF3
  0
DICTIONARY
  5
1C00
330
1BFF
100
AcDbDictionary
280
     1
281
     1
  3
ACAD_XREC_ROUNDTRIP
360
1C6D
  3
BUMPTILE
360
1C02
  3
DIFFUSETILE
360
1C01
  3
OPACITYTILE
360
1C05
  3
REFLECTIONTILE
360
1C04
  3
REFRACTIONTILE
360
1C06
  3
SPECULARTILE
360
1C03
  0
DICTIONARY
  5
1C55
330
1C19
100
AcDbDictionary
280
     1
281
     1
  3
ACAD_ROUNDTRIP_2008_TABLESTYLE_CELLSTYLEMAP
360
1C56
  3
ACAD_XREC_ROUNDTRIP
360
1C6E
  0
XRECORD
  5
1D98
102
{ACAD_REACTORS
330
1D97
102
}
330
1D97
100
AcDbXrecord
280
     1
102
SHADEPLOT
 70
     0
102
SHADEPLOTRESLEVEL
 70
     2
102
SHADEPLOTCUSTOMDPI
 70
   300
  0
XRECORD
  5
1D96
102
{ACAD_REACTORS
330
1D95
102
}
330
1D95
100
AcDbXrecord
280
     1
102
SHADEPLOT
 70
     0
102
SHADEPLOTRESLEVEL
 70
     2
102
SHADEPLOTCUSTOMDPI
 70
   300
  0
XRECORD
  5
1C6C
102
{ACAD_REACTORS
330
1BF8
102
}
330
1BF8
100
AcDbXrecord
280
     1
102
MATERIAL
148
0.0
149
0.0
149
0.0
 93
        0
 94
      127
282
     0
 72
     0
 77
     0
171
     0
175
     0
179
     0
273
     0
  0
XRECORD
  5
1BFA
102
{ACAD_REACTORS
330
1BF8
102
}
330
1BF8
100
AcDbXrecord
280
     1
270
     1
271
     1
  0
XRECORD
  5
1BF9
102
{ACAD_REACTORS
330
1BF8
102
}
330
1BF8
100
AcDbXrecord
280
     1
270
     1
271
     1
  0
XRECORD
  5
1BFD
102
{ACAD_REACTORS
330
1BF8
102
}
330
1BF8
100
AcDbXrecord
280
     1
270
     1
271
     1
  0
XRECORD
  5
1BFC
102
{ACAD_REACTORS
330
1BF8
102
}
330
1BF8
100
AcDbXrecord
280
     1
270
     1
271
     1
  0
XRECORD
  5
1BFE
102
{ACAD_REACTORS
330
1BF8
102
}
330
1BF8
100
AcDbXrecord
280
     1
270
     1
271
     1
  0
XRECORD
  5
1BFB
102
{ACAD_REACTORS
330
1BF8
102
}
330
1BF8
100
AcDbXrecord
280
     1
270
     1
271
     1
  0
XRECORD
  5
1C6B
102
{ACAD_REACTORS
330
1BF0
102
}
330
1BF0
100
AcDbXrecord
280
     1
102
MATERIAL
148
0.0
149
0.0
149
0.0
 93
        0
 94
      127
282
     0
 72
     0
 77
     0
171
     0
175
     0
179
     0
273
     0
  0
XRECORD
  5
1BF2
102
{ACAD_REACTORS
330
1BF0
102
}
330
1BF0
100
AcDbXrecord
280
     1
270
     1
271
     1
  0
XRECORD
  5
1BF1
102
{ACAD_REACTORS
330
1BF0
102
}
330
1BF0
100
AcDbXrecord
280
     1
270
     1
271
     1
  0
XRECORD
  5
1BF5
102
{ACAD_REACTORS
330
1BF0
102
}
330
1BF0
100
AcDbXrecord
280
     1
270
     1
271
     1
  0
XRECORD
  5
1BF4
102
{ACAD_REACTORS
330
1BF0
102
}
330
1BF0
100
AcDbXrecord
280
     1
270
     1
271
     1
  0
XRECORD
  5
1BF6
102
{ACAD_REACTORS
330
1BF0
102
}
330
1BF0
100
AcDbXrecord
280
     1
270
     1
271
     1
  0
XRECORD
  5
1BF3
102
{ACAD_REACTORS
330
1BF0
102
}
330
1BF0
100
AcDbXrecord
280
     1
270
     1
271
     1
  0
XRECORD
  5
1C6D
102
{ACAD_REACTORS
330
1C00
102
}
330
1C00
100
AcDbXrecord
280
     1
102
MATERIAL
148
0.0
149
0.0
149
0.0
 93
        0
 94
      127
282
     0
 72
     0
 77
     0
171
     0
175
     0
179
     0
273
     0
  0
XRECORD
  5
1C02
102
{ACAD_REACTORS
330
1C00
102
}
330
1C00
100
AcDbXrecord
280
     1
270
     1
271
     1
  0
XRECORD
  5
1C01
102
{ACAD_REACTORS
330
1C00
102
}
330
1C00
100
AcDbXrecord
280
     1
270
     1
271
     1
  0
XRECORD
  5
1C05
102
{ACAD_REACTORS
330
1C00
102
}
330
1C00
100
AcDbXrecord
280
     1
270
     1
271
     1
  0
XRECORD
  5
1C04
102
{ACAD_REACTORS
330
1C00
102
}
330
1C00
100
AcDbXrecord
280
     1
270
     1
271
     1
  0
XRECORD
  5
1C06
102
{ACAD_REACTORS
330
1C00
102
}
330
1C00
100
AcDbXrecord
280
     1
270
     1
271
     1
  0
XRECORD
  5
1C03
102
{ACAD_REACTORS
330
1C00
102
}
330
1C00
100
AcDbXrecord
280
     1
270
     1
271
     1
  0
ACAD_PROXY_OBJECT
  5
1C56
102
{ACAD_REACTORS
330
1C55
102
}
330
1C55
100
AcDbProxyObject
 90
      499
 91
      508
 95
       25
 70
     0
 93
     1044
310
40D054060020000020000003200101A000080002A5058000000C100000000000000340FE901405075F5449544C450041501A8000000C800406800020000A9416000000304000AD7A3703D0AC73FA409014217D2115051115480105406A0000003200101A000080002A5028000000C10002B5E8DC0F42B1CFE903409065F444
310
15441004
340
11
340
11
340
11
 94
        0
1001
ACAD
1000
AcRTDxfName
1000
CELLSTYLEMAP
  0
XRECORD
  5
1C6E
102
{ACAD_REACTORS
330
1C55
102
}
330
1C55
100
AcDbXrecord
280
     1
102
ACAD_ROUNDTRIP_PRE2007_TABLESTYLE
 90
      512
 91
        0
  1

 92
      512
 93
        0
  2

 94
      512
 95
        0
  3

  0
ENDSEC
  0
EOF
