  0
SECTION
  2
HEADER
  9
$ACADVER
  1
AC1015
  9
$ACADMAINTVER
 70
    20
  9
$DWGCODEPAGE
  3
ANSI_932
  9
$INSBASE
 10
0.0
 20
0.0
 30
0.0
  9
$EXTMIN
 10
2719.604795323469
 20
1215.631791381625
 30
0.0
  9
$EXTMAX
 10
3313.554563595339
 20
1635.213168925088
 30
0.0
  9
$LIMMIN
 10
-210.0
 20
-148.5
  9
$LIMMAX
 10
210.0
 20
148.5
  9
$ORTHOMODE
 70
     0
  9
$REGENMODE
 70
     1
  9
$FILLMODE
 70
     1
  9
$QTEXTMODE
 70
     0
  9
$MIRRTEXT
 70
     1
  9
$LTSCALE
 40
1.0
  9
$ATTMODE
 70
     1
  9
$TEXTSIZE
 40
1.0
  9
$TRACEWID
 40
0.05
  9
$TEXTSTYLE
  7
STANDARD
  9
$CLAYER
  8
ﾚｲﾔ1
  9
$CELTYPE
  6
ByLayer
  9
$CECOLOR
 62
   256
  9
$CELTSCALE
 40
1.0
  9
$DISPSILH
 70
     0
  9
$DIMSCALE
 40
1.0
  9
$DIMASZ
 40
3.0
  9
$DIMEXO
 40
0.0625
  9
$DIMDLI
 40
0.38
  9
$DIMRND
 40
0.0
  9
$DIMDLE
 40
0.0
  9
$DIMEXE
 40
0.5
  9
$DIMTP
 40
0.0
  9
$DIMTM
 40
0.0
  9
$DIMTXT
 40
50.0
  9
$DIMCEN
 40
0.09
  9
$DIMTSZ
 40
0.0
  9
$DIMTOL
 70
     0
  9
$DIMLIM
 70
     0
  9
$DIMTIH
 70
     0
  9
$DIMTOH
 70
     0
  9
$DIMSE1
 70
     0
  9
$DIMSE2
 70
     0
  9
$DIMTAD
 70
     1
  9
$DIMZIN
 70
     0
  9
$DIMBLK
  1
Open30
  9
$DIMASO
 70
     1
  9
$DIMSHO
 70
     1
  9
$DIMPOST
  1

  9
$DIMAPOST
  1

  9
$DIMALT
 70
     0
  9
$DIMALTD
 70
     2
  9
$DIMALTF
 40
25.4
  9
$DIMLFAC
 40
1.0
  9
$DIMTOFL
 70
     0
  9
$DIMTVP
 40
0.0
  9
$DIMTIX
 70
     0
  9
$DIMSOXD
 70
     0
  9
$DIMSAH
 70
     0
  9
$DIMBLK1
  1

  9
$DIMBLK2
  1

  9
$DIMSTYLE
  2
Standard
  9
$DIMCLRD
 70
     1
  9
$DIMCLRE
 70
     1
  9
$DIMCLRT
 70
     1
  9
$DIMTFAC
 40
1.0
  9
$DIMGAP
 40
0.5
  9
$DIMJUST
 70
     0
  9
$DIMSD1
 70
     0
  9
$DIMSD2
 70
     0
  9
$DIMTOLJ
 70
     1
  9
$DIMTZIN
 70
     0
  9
$DIMALTZ
 70
     0
  9
$DIMALTTZ
 70
     0
  9
$DIMUPT
 70
     0
  9
$DIMDEC
 70
     0
  9
$DIMTDEC
 70
     0
  9
$DIMALTU
 70
     2
  9
$DIMALTTD
 70
     2
  9
$DIMTXSTY
  7
TextStyle01
  9
$DIMAUNIT
 70
     0
  9
$DIMADEC
 70
     0
  9
$DIMALTRND
 40
0.0
  9
$DIMAZIN
 70
     0
  9
$DIMDSEP
 70
    46
  9
$DIMATFIT
 70
     3
  9
$DIMFRAC
 70
     0
  9
$DIMLDRBLK
  1
Open30
  9
$DIMLUNIT
 70
     2
  9
$DIMLWD
 70
    -2
  9
$DIMLWE
 70
    -2
  9
$DIMTMOVE
 70
     2
  9
$LUNITS
 70
     2
  9
$LUPREC
 70
     4
  9
$SKETCHINC
 40
0.1
  9
$FILLETRAD
 40
0.0
  9
$AUNITS
 70
     0
  9
$AUPREC
 70
     0
  9
$MENU
  1
acad
  9
$ELEVATION
 40
0.0
  9
$PELEVATION
 40
0.0
  9
$THICKNESS
 40
0.0
  9
$LIMCHECK
 70
     0
  9
$CHAMFERA
 40
0.0
  9
$CHAMFERB
 40
0.0
  9
$CHAMFERC
 40
0.0
  9
$CHAMFERD
 40
0.0
  9
$SKPOLY
 70
     0
  9
$TDCREATE
 40
2449944.925517361
  9
$TDUCREATE
 40
2449944.550517361
  9
$TDUPDATE
 40
2455342.526494502
  9
$TDUUPDATE
 40
2455342.151494502
  9
$TDINDWG
 40
0.6759217130
  9
$TDUSRTIMER
 40
0.6759217130
  9
$USRTIMER
 70
     1
  9
$ANGBASE
 50
0.0
  9
$ANGDIR
 70
     0
  9
$PDMODE
 70
     0
  9
$PDSIZE
 40
1.5
  9
$PLINEWID
 40
0.0
  9
$SPLFRAME
 70
     0
  9
$SPLINETYPE
 70
     6
  9
$SPLINESEGS
 70
     8
  9
$HANDSEED
  5
43E3
  9
$SURFTAB1
 70
     6
  9
$SURFTAB2
 70
     6
  9
$SURFTYPE
 70
     6
  9
$SURFU
 70
     6
  9
$SURFV
 70
     6
  9
$UCSBASE
  2

  9
$UCSNAME
  2

  9
$UCSORG
 10
0.0
 20
0.0
 30
0.0
  9
$UCSXDIR
 10
1.0
 20
0.0
 30
0.0
  9
$UCSYDIR
 10
0.0
 20
1.0
 30
0.0
  9
$UCSORTHOREF
  2

  9
$UCSORTHOVIEW
 70
     0
  9
$UCSORGTOP
 10
0.0
 20
0.0
 30
0.0
  9
$UCSORGBOTTOM
 10
0.0
 20
0.0
 30
0.0
  9
$UCSORGLEFT
 10
0.0
 20
0.0
 30
0.0
  9
$UCSORGRIGHT
 10
0.0
 20
0.0
 30
0.0
  9
$UCSORGFRONT
 10
0.0
 20
0.0
 30
0.0
  9
$UCSORGBACK
 10
0.0
 20
0.0
 30
0.0
  9
$PUCSBASE
  2

  9
$PUCSNAME
  2

  9
$PUCSORG
 10
0.0
 20
0.0
 30
0.0
  9
$PUCSXDIR
 10
1.0
 20
0.0
 30
0.0
  9
$PUCSYDIR
 10
0.0
 20
1.0
 30
0.0
  9
$PUCSORTHOREF
  2

  9
$PUCSORTHOVIEW
 70
     0
  9
$PUCSORGTOP
 10
0.0
 20
0.0
 30
0.0
  9
$PUCSORGBOTTOM
 10
0.0
 20
0.0
 30
0.0
  9
$PUCSORGLEFT
 10
0.0
 20
0.0
 30
0.0
  9
$PUCSORGRIGHT
 10
0.0
 20
0.0
 30
0.0
  9
$PUCSORGFRONT
 10
0.0
 20
0.0
 30
0.0
  9
$PUCSORGBACK
 10
0.0
 20
0.0
 30
0.0
  9
$USERI1
 70
     0
  9
$USERI2
 70
     0
  9
$USERI3
 70
     0
  9
$USERI4
 70
     0
  9
$USERI5
 70
     0
  9
$USERR1
 40
0.0
  9
$USERR2
 40
0.0
  9
$USERR3
 40
0.0
  9
$USERR4
 40
0.0
  9
$USERR5
 40
0.0
  9
$WORLDVIEW
 70
     1
  9
$SHADEDGE
 70
     3
  9
$SHADEDIF
 70
    70
  9
$TILEMODE
 70
     1
  9
$MAXACTVP
 70
    16
  9
$PINSBASE
 10
0.0
 20
0.0
 30
0.0
  9
$PLIMCHECK
 70
     0
  9
$PEXTMIN
 10
1.000000000000000E+20
 20
1.000000000000000E+20
 30
1.000000000000000E+20
  9
$PEXTMAX
 10
-1.000000000000000E+20
 20
-1.000000000000000E+20
 30
-1.000000000000000E+20
  9
$PLIMMIN
 10
0.0
 20
0.0
  9
$PLIMMAX
 10
12.0
 20
9.0
  9
$UNITMODE
 70
     0
  9
$VISRETAIN
 70
     0
  9
$PLINEGEN
 70
     0
  9
$PSLTSCALE
 70
     1
  9
$TREEDEPTH
 70
  3020
  9
$CMLSTYLE
  2
Standard
  9
$CMLJUST
 70
     0
  9
$CMLSCALE
 40
1.0
  9
$PROXYGRAPHICS
 70
     1
  9
$MEASUREMENT
 70
     0
  9
$CELWEIGHT
370
    -1
  9
$ENDCAPS
280
     0
  9
$JOINSTYLE
280
     0
  9
$LWDISPLAY
290
     0
  9
$INSUNITS
 70
     0
  9
$HYPERLINKBASE
  1

  9
$STYLESHEET
  1

  9
$XEDIT
290
     1
  9
$CEPSNTYPE
380
     0
  9
$PSTYLEMODE
290
     1
  9
$FINGERPRINTGUID
  2
{3F05092E-EABE-41D4-925D-E3C07104686B}
  9
$VERSIONGUID
  2
{3B0B1697-07A9-433B-BE05-1FD53F9F2218}
  9
$EXTNAMES
290
     1
  9
$PSVPSCALE
 40
0.0
  9
$OLESTARTUP
290
     0
  0
ENDSEC
  0
SECTION
  2
CLASSES
  0
CLASS
  1
ACDBDICTIONARYWDFLT
  2
AcDbDictionaryWithDefault
  3
ObjectDBX Classes
 90
        0
280
     0
281
     0
  0
CLASS
  1
ACDBPLACEHOLDER
  2
AcDbPlaceHolder
  3
ObjectDBX Classes
 90
        0
280
     0
281
     0
  0
CLASS
  1
LAYOUT
  2
AcDbLayout
  3
ObjectDBX Classes
 90
        0
280
     0
281
     0
  0
CLASS
  1
DICTIONARYVAR
  2
AcDbDictionaryVar
  3
ObjectDBX Classes
 90
        0
280
     0
281
     0
  0
ENDSEC
  0
SECTION
  2
TABLES
  0
TABLE
  2
VPORT
  5
8
330
0
100
AcDbSymbolTable
 70
     2
  0
VPORT
  5
43DB
330
8
100
AcDbSymbolTableRecord
100
AcDbViewportTableRecord
  2
*Active
 70
     0
 10
0.0
 20
0.0
 11
1.0
 21
1.0
 12
2984.197446192772
 22
1391.087455120057
 13
0.0
 23
0.0
 14
1.0
 24
1.0
 15
0.0
 25
0.0
 16
0.0
 26
0.0
 36
1.0
 17
0.0
 27
0.0
 37
0.0
 40
715.0670668465383
 41
1.530456852791878
 42
50.0
 43
0.0
 44
0.0
 50
0.0
 51
0.0
 71
     0
 72
   100
 73
     1
 74
     0
 75
     0
 76
     0
 77
     0
 78
     0
281
     0
 65
     1
110
0.0
120
0.0
130
0.0
111
1.0
121
0.0
131
0.0
112
0.0
122
1.0
132
0.0
 79
     0
146
0.0
  0
ENDTAB
  0
TABLE
  2
LTYPE
  5
5
330
0
100
AcDbSymbolTable
 70
    19
  0
LTYPE
  5
13
330
5
100
AcDbSymbolTableRecord
100
AcDbLinetypeTableRecord
  2
ByBlock
 70
     0
  3

 72
    65
 73
     0
 40
0.0
  0
LTYPE
  5
14
330
5
100
AcDbSymbolTableRecord
100
AcDbLinetypeTableRecord
  2
ByLayer
 70
     0
  3

 72
    65
 73
     0
 40
0.0
  0
LTYPE
  5
15
330
5
100
AcDbSymbolTableRecord
100
AcDbLinetypeTableRecord
  2
CONTINUOUS
 70
     0
  3
実線
 72
    65
 73
     0
 40
0.0
  0
LTYPE
  5
2D
330
5
100
AcDbSymbolTableRecord
100
AcDbLinetypeTableRecord
  2
DASHED
 70
     0
  3
破線A
 72
    65
 73
     2
 40
7.5
 49
5.0
 74
     0
 49
-2.5
 74
     0
  0
LTYPE
  5
2E
330
5
100
AcDbSymbolTableRecord
100
AcDbLinetypeTableRecord
  2
DASHEDX2
 70
     0
  3
破線B
 72
    65
 73
     2
 40
15.0
 49
10.0
 74
     0
 49
-5.0
 74
     0
  0
LTYPE
  5
2F
330
5
100
AcDbSymbolTableRecord
100
AcDbLinetypeTableRecord
  2
DASHDOT
 70
     0
  3
１点鎖線A
 72
    65
 73
     4
 40
10.0
 49
5.0
 74
     0
 49
-2.5
 74
     0
 49
0.0
 74
     0
 49
-2.5
 74
     0
  0
LTYPE
  5
30
330
5
100
AcDbSymbolTableRecord
100
AcDbLinetypeTableRecord
  2
DASHDOTX2
 70
     0
  3
１点鎖線B
 72
    65
 73
     4
 40
20.0
 49
10.0
 74
     0
 49
-5.0
 74
     0
 49
0.0
 74
     0
 49
-5.0
 74
     0
  0
LTYPE
  5
31
330
5
100
AcDbSymbolTableRecord
100
AcDbLinetypeTableRecord
  2
DIVIDE2
 70
     0
  3
２点鎖線A
 72
    65
 73
     6
 40
6.25
 49
2.5
 74
     0
 49
-1.25
 74
     0
 49
0.0
 74
     0
 49
-1.25
 74
     0
 49
0.0
 74
     0
 49
-1.25
 74
     0
  0
LTYPE
  5
32
330
5
100
AcDbSymbolTableRecord
100
AcDbLinetypeTableRecord
  2
DIVIDE
 70
     0
  3
２点鎖線B
 72
    65
 73
     6
 40
12.5
 49
5.0
 74
     0
 49
-2.5
 74
     0
 49
0.0
 74
     0
 49
-2.5
 74
     0
 49
0.0
 74
     0
 49
-2.5
 74
     0
  0
LTYPE
  5
33
330
5
100
AcDbSymbolTableRecord
100
AcDbLinetypeTableRecord
  2
DOT
 70
     0
  3
点線A
 72
    65
 73
     2
 40
2.5
 49
0.0
 74
     0
 49
-2.5
 74
     0
  0
LTYPE
  5
34
330
5
100
AcDbSymbolTableRecord
100
AcDbLinetypeTableRecord
  2
DOTX2
 70
     0
  3
点線B
 72
    65
 73
     2
 40
5.0
 49
0.0
 74
     0
 49
-5.0
 74
     0
  0
LTYPE
  5
35
330
5
100
AcDbSymbolTableRecord
100
AcDbLinetypeTableRecord
  2
CONTINUOUS
 70
     0
  3
実線
 72
    65
 73
     0
 40
0.0
  0
LTYPE
  5
36
330
5
100
AcDbSymbolTableRecord
100
AcDbLinetypeTableRecord
  2
CONTINUOUS
 70
     0
  3
実線
 72
    65
 73
     0
 40
0.0
  0
LTYPE
  5
37
330
5
100
AcDbSymbolTableRecord
100
AcDbLinetypeTableRecord
  2
CONTINUOUS
 70
     0
  3
実線
 72
    65
 73
     0
 40
0.0
  0
LTYPE
  5
38
330
5
100
AcDbSymbolTableRecord
100
AcDbLinetypeTableRecord
  2
CONTINUOUS
 70
     0
  3
実線
 72
    65
 73
     0
 40
0.0
  0
LTYPE
  5
39
330
5
100
AcDbSymbolTableRecord
100
AcDbLinetypeTableRecord
  2
CONTINUOUS
 70
     0
  3
実線
 72
    65
 73
     0
 40
0.0
  0
LTYPE
  5
3A
330
5
100
AcDbSymbolTableRecord
100
AcDbLinetypeTableRecord
  2
CONTINUOUS
 70
     0
  3
実線
 72
    65
 73
     0
 40
0.0
  0
LTYPE
  5
36C
330
5
100
AcDbSymbolTableRecord
100
AcDbLinetypeTableRecord
  2
DASHED1
 70
     0
  3
--  --  --  --  --  --  --  --  
 72
    65
 73
     2
 40
2.5
 49
1.25
 74
     0
 49
-1.25
 74
     0
  0
LTYPE
  5
36D
330
5
100
AcDbSymbolTableRecord
100
AcDbLinetypeTableRecord
  2
DASHED3
 70
     0
  3
------  ------  ------  ------  
 72
    65
 73
     2
 40
5.0
 49
3.75
 74
     0
 49
-1.25
 74
     0
  0
LTYPE
  5
36E
330
5
100
AcDbSymbolTableRecord
100
AcDbLinetypeTableRecord
  2
CENTER1
 70
     0
  3
----- - ----- - ----- - ----- - 
 72
    65
 73
     4
 40
10.0
 49
6.25
 74
     0
 49
-1.25
 74
     0
 49
1.25
 74
     0
 49
-1.25
 74
     0
  0
LTYPE
  5
36F
330
5
100
AcDbSymbolTableRecord
100
AcDbLinetypeTableRecord
  2
CENTER2
 70
     0
  3
----------  --  ----------  --  
 72
    65
 73
     4
 40
20.0
 49
12.5
 74
     0
 49
-2.5
 74
     0
 49
2.5
 74
     0
 49
-2.5
 74
     0
  0
ENDTAB
  0
TABLE
  2
LAYER
  5
2
330
0
100
AcDbSymbolTable
 70
    13
  0
LAYER
  5
10
330
2
100
AcDbSymbolTableRecord
100
AcDbLayerTableRecord
  2
ﾚｲﾔ1
 70
     0
 62
     7
  6
CONTINUOUS
370
    -3
390
F
  0
LAYER
  5
4C
330
2
100
AcDbSymbolTableRecord
100
AcDbLayerTableRecord
  2
0
 70
     0
 62
     7
  6
CONTINUOUS
370
    -3
390
F
  0
LAYER
  5
16B
330
2
100
AcDbSymbolTableRecord
100
AcDbLayerTableRecord
  2
図面
 70
     0
 62
     7
  6
CONTINUOUS
370
    40
390
F
  0
LAYER
  5
16C
330
2
100
AcDbSymbolTableRecord
100
AcDbLayerTableRecord
  2
図面枠
 70
     0
 62
     5
  6
CONTINUOUS
370
    -3
390
F
  0
LAYER
  5
1AB
330
2
100
AcDbSymbolTableRecord
100
AcDbLayerTableRecord
  2
下図
 70
     0
 62
     8
  6
DASHDOT
290
     0
370
    -3
390
F
  0
LAYER
  5
1EA
330
2
100
AcDbSymbolTableRecord
100
AcDbLayerTableRecord
  2
隠れ線
 70
     0
 62
     1
  6
DASHED
370
    -3
390
F
  0
LAYER
  5
1EB
330
2
100
AcDbSymbolTableRecord
100
AcDbLayerTableRecord
  2
文字
 70
     0
 62
     7
  6
CONTINUOUS
370
    -3
390
F
  0
LAYER
  5
370
330
2
100
AcDbSymbolTableRecord
100
AcDbLayerTableRecord
  2
_1-0_
 70
     0
 62
     7
  6
CONTINUOUS
370
    -3
390
F
  0
LAYER
  5
371
330
2
100
AcDbSymbolTableRecord
100
AcDbLayerTableRecord
  2
_2-0_
 70
     0
 62
     7
  6
CONTINUOUS
370
    -3
390
F
  0
LAYER
  5
372
330
2
100
AcDbSymbolTableRecord
100
AcDbLayerTableRecord
  2
_3-0_
 70
     0
 62
     7
  6
CONTINUOUS
370
    -3
390
F
  0
LAYER
  5
373
330
2
100
AcDbSymbolTableRecord
100
AcDbLayerTableRecord
  2
_4-0_
 70
     0
 62
     7
  6
CONTINUOUS
370
    -3
390
F
  0
LAYER
  5
374
330
2
100
AcDbSymbolTableRecord
100
AcDbLayerTableRecord
  2
寸法
 70
     0
 62
     1
  6
CONTINUOUS
370
    -3
390
F
  0
LAYER
  5
28AB
330
2
100
AcDbSymbolTableRecord
100
AcDbLayerTableRecord
  2
Defpoints
 70
     0
 62
     7
  6
CONTINUOUS
290
     0
370
    -3
390
F
  0
ENDTAB
  0
TABLE
  2
STYLE
  5
3
330
0
100
AcDbSymbolTable
 70
    13
  0
STYLE
  5
11
330
3
100
AcDbSymbolTableRecord
100
AcDbTextStyleTableRecord
  2
STANDARD
 70
     0
 40
1.0
 41
1.0
 50
0.0
 71
     0
 42
1.0
  3
TXT
  4
BIGFONT
  0
STYLE
  5
22
330
3
100
AcDbSymbolTableRecord
100
AcDbTextStyleTableRecord
  2
TATE
 70
     4
 40
1.0
 41
1.0
 50
0.0
 71
     0
 42
1.0
  3
TXT
  4
BIGFONT
  0
STYLE
  5
23
330
3
100
AcDbSymbolTableRecord
100
AcDbTextStyleTableRecord
  2
TextStyle01
 70
     0
 40
0.0
 41
1.0
 50
0.0
 71
     0
 42
0.0
  3
TXT
  4
BIGFONT
  0
STYLE
  5
24
330
3
100
AcDbSymbolTableRecord
100
AcDbTextStyleTableRecord
  2
TextStyle02
 70
     0
 40
0.0
 41
1.0
 50
0.0
 71
     0
 42
0.0
  3
TXT
  4
BIGFONT
  0
STYLE
  5
25
330
3
100
AcDbSymbolTableRecord
100
AcDbTextStyleTableRecord
  2
TextStyle03
 70
     0
 40
0.0
 41
1.0
 50
0.0
 71
     0
 42
0.0
  3
TXT
  4
BIGFONT
  0
STYLE
  5
26
330
3
100
AcDbSymbolTableRecord
100
AcDbTextStyleTableRecord
  2
TextStyle04
 70
     0
 40
0.0
 41
1.0
 50
0.0
 71
     0
 42
0.0
  3
TXT
  4
BIGFONT
  0
STYLE
  5
27
330
3
100
AcDbSymbolTableRecord
100
AcDbTextStyleTableRecord
  2
TextStyle05
 70
     0
 40
0.0
 41
1.0
 50
0.0
 71
     0
 42
0.0
  3
TXT
  4
BIGFONT
  0
STYLE
  5
28
330
3
100
AcDbSymbolTableRecord
100
AcDbTextStyleTableRecord
  2
TextStyle06
 70
     0
 40
0.0
 41
1.0
 50
0.0
 71
     0
 42
0.0
  3

  4

  0
STYLE
  5
29
330
3
100
AcDbSymbolTableRecord
100
AcDbTextStyleTableRecord
  2
TextStyle07
 70
     0
 40
0.0
 41
1.0
 50
0.0
 71
     0
 42
0.0
  3

  4

  0
STYLE
  5
2A
330
3
100
AcDbSymbolTableRecord
100
AcDbTextStyleTableRecord
  2
TextStyle08
 70
     0
 40
0.0
 41
1.0
 50
0.0
 71
     0
 42
0.0
  3

  4

  0
STYLE
  5
2B
330
3
100
AcDbSymbolTableRecord
100
AcDbTextStyleTableRecord
  2
TextStyle09
 70
     0
 40
0.0
 41
1.0
 50
0.0
 71
     0
 42
0.0
  3

  4

  0
STYLE
  5
2C
330
3
100
AcDbSymbolTableRecord
100
AcDbTextStyleTableRecord
  2
TextStyle10
 70
     0
 40
0.0
 41
1.0
 50
0.0
 71
     0
 42
0.0
  3

  4

  0
STYLE
  5
205
330
3
100
AcDbSymbolTableRecord
100
AcDbTextStyleTableRecord
  2
WMF-ＭＳ Ｐ明朝0
 70
     0
 40
0.0
 41
1.0
 50
0.0
 71
     0
 42
1.0
  3
MS PMincho.ttf
  4

1001
ACAD
1000
MS PMincho
1071
    32768
  0
ENDTAB
  0
TABLE
  2
VIEW
  5
6
330
0
100
AcDbSymbolTable
 70
     0
  0
ENDTAB
  0
TABLE
  2
UCS
  5
7
330
0
100
AcDbSymbolTable
 70
     0
  0
ENDTAB
  0
TABLE
  2
APPID
  5
9
330
0
100
AcDbSymbolTable
 70
     1
  0
APPID
  5
12
330
9
100
AcDbSymbolTableRecord
100
AcDbRegAppTableRecord
  2
ACAD
 70
     0
  0
ENDTAB
  0
TABLE
  2
DIMSTYLE
  5
A
330
0
100
AcDbSymbolTable
 70
     1
100
AcDbDimStyleTable
 71
     1
340
142
  0
DIMSTYLE
105
142
102
{ACAD_REACTORS
330
3F9C
330
3F9D
330
3FA5
330
3FAE
330
3FAF
330
3FB0
330
3FB1
330
3FB2
330
3FB6
102
}
330
A
100
AcDbSymbolTableRecord
100
AcDbDimStyleTableRecord
  2
Standard
 70
     0
340
11
  0
ENDTAB
  0
TABLE
  2
BLOCK_RECORD
  5
1
330
0
100
AcDbSymbolTable
 70
    11
  0
BLOCK_RECORD
  5
1E
330
1
100
AcDbSymbolTableRecord
100
AcDbBlockTableRecord
  2
*Model_Space
340
21
  0
BLOCK_RECORD
  5
1A
330
1
100
AcDbSymbolTableRecord
100
AcDbBlockTableRecord
  2
*Paper_Space
340
1D
  0
BLOCK_RECORD
  5
1C1
330
1
100
AcDbSymbolTableRecord
100
AcDbBlockTableRecord
  2
_Open30
340
0
102
{BLKREFS
331
43C1
331
43CC
102
}
  0
BLOCK_RECORD
  5
3FC6
330
1
100
AcDbSymbolTableRecord
100
AcDbBlockTableRecord
  2
*D1
340
0
  0
BLOCK_RECORD
  5
3FD2
330
1
100
AcDbSymbolTableRecord
100
AcDbBlockTableRecord
  2
*D2
340
0
  0
BLOCK_RECORD
  5
3FDC
330
1
100
AcDbSymbolTableRecord
100
AcDbBlockTableRecord
  2
*D3
340
0
  0
BLOCK_RECORD
  5
3FE8
330
1
100
AcDbSymbolTableRecord
100
AcDbBlockTableRecord
  2
*D4
340
0
  0
BLOCK_RECORD
  5
3FF4
330
1
100
AcDbSymbolTableRecord
100
AcDbBlockTableRecord
  2
*D5
340
0
  0
BLOCK_RECORD
  5
4000
330
1
100
AcDbSymbolTableRecord
100
AcDbBlockTableRecord
  2
*D6
340
0
  0
BLOCK_RECORD
  5
400C
330
1
100
AcDbSymbolTableRecord
100
AcDbBlockTableRecord
  2
*D7
340
0
  0
BLOCK_RECORD
  5
4018
330
1
100
AcDbSymbolTableRecord
100
AcDbBlockTableRecord
  2
*D8
340
0
  0
BLOCK_RECORD
  5
4024
330
1
100
AcDbSymbolTableRecord
100
AcDbBlockTableRecord
  2
*D9
340
0
  0
BLOCK_RECORD
  5
433C
330
1
100
AcDbSymbolTableRecord
100
AcDbBlockTableRecord
  2
_Open
340
0
102
{BLKREFS
331
4384
331
4385
331
438D
331
438E
331
4396
331
4397
331
439F
331
43A0
331
43A9
331
43AA
331
43B1
331
43B2
331
43BB
331
43BC
331
43C2
331
43CD
102
}
  0
ENDTAB
  0
ENDSEC
  0
SECTION
  2
BLOCKS
  0
BLOCK
  5
4F
330
1E
100
AcDbEntity
  8
0
100
AcDbBlockBegin
  2
*Model_Space
 70
     0
 10
0.0
 20
0.0
 30
0.0
  3
*Model_Space
  1

  0
ENDBLK
  5
50
330
1E
100
AcDbEntity
  8
0
100
AcDbBlockEnd
  0
BLOCK
  5
4D
330
1A
100
AcDbEntity
 67
     1
  8
0
100
AcDbBlockBegin
  2
*Paper_Space
 70
     0
 10
0.0
 20
0.0
 30
0.0
  3
*Paper_Space
  1

  0
ENDBLK
  5
4E
330
1A
100
AcDbEntity
 67
     1
  8
0
100
AcDbBlockEnd
  0
BLOCK
  5
1C5
330
1C1
100
AcDbEntity
  8
0
100
AcDbBlockBegin
  2
_Open30
 70
     0
 10
0.0
 20
0.0
 30
0.0
  3
_Open30
  1

  0
LINE
  5
1C2
330
1C1
100
AcDbEntity
  8
下図
 62
     0
370
    -2
100
AcDbLine
 10
-1.0
 20
0.26794919
 30
0.0
 11
0.0
 21
0.0
 31
0.0
  0
LINE
  5
1C3
330
1C1
100
AcDbEntity
  8
下図
 62
     0
370
    -2
100
AcDbLine
 10
0.0
 20
0.0
 30
0.0
 11
-1.0
 21
-0.26794919
 31
0.0
  0
LINE
  5
1C4
330
1C1
100
AcDbEntity
  8
下図
 62
     0
370
    -2
100
AcDbLine
 10
0.0
 20
0.0
 30
0.0
 11
-1.0
 21
0.0
 31
0.0
  0
ENDBLK
  5
1C6
330
1C1
100
AcDbEntity
  8
0
100
AcDbBlockEnd
  0
BLOCK
  5
3FD0
330
3FC6
100
AcDbEntity
  8
0
100
AcDbBlockBegin
  2
*D1
 70
     1
 10
0.0
 20
0.0
 30
0.0
  3
*D1
  1

  0
LINE
  5
4381
330
3FC6
100
AcDbEntity
  8
ﾚｲﾔ1
 62
     1
370
    -2
100
AcDbLine
 10
3125.935442093847
 20
1437.043225949528
 30
0.0
 11
3125.935442093847
 21
1494.758891497622
 31
0.0
  0
LINE
  5
4382
330
3FC6
100
AcDbEntity
  8
ﾚｲﾔ1
 62
     1
370
    -2
100
AcDbLine
 10
3183.762508347252
 20
1436.38426020434
 30
0.0
 11
3183.762508347252
 21
1494.758891497622
 31
0.0
  0
LINE
  5
4383
330
3FC6
100
AcDbEntity
  8
ﾚｲﾔ1
 62
     1
370
    -2
100
AcDbLine
 10
3128.935442093847
 20
1494.258891497622
 30
0.0
 11
3180.762508347252
 21
1494.258891497622
 31
0.0
  0
INSERT
  5
4384
330
3FC6
100
AcDbEntity
  8
ﾚｲﾔ1
 62
     1
370
    -2
100
AcDbBlockReference
  2
_Open
 10
3125.935442093847
 20
1494.258891497622
 30
0.0
 41
3.0
 42
3.0
 43
3.0
 50
180.0
  0
INSERT
  5
4385
330
3FC6
100
AcDbEntity
  8
ﾚｲﾔ1
 62
     1
370
    -2
100
AcDbBlockReference
  2
_Open
 10
3183.762508347252
 20
1494.258891497622
 30
0.0
 41
3.0
 42
3.0
 43
3.0
  0
MTEXT
  5
4386
330
3FC6
100
AcDbEntity
  8
ﾚｲﾔ1
 62
     1
100
AcDbMText
 10
3154.84897522055
 20
1502.258891497622
 30
0.0
 40
15.0
 41
0.0
 71
     5
 72
     1
  1
\A1;58
  7
TextStyle01
 73
     1
 44
1.0
1001
ACAD
1000
MTEXTBEGIN
1070
    73
1070
     1
1070
    44
1040
1.0
1070
    74
1070
     0
1000
MTEXTEND
  0
POINT
  5
4387
330
3FC6
100
AcDbEntity
  8
Defpoints
 62
     0
100
AcDbPoint
 10
3125.935442093847
 20
1436.980725949528
 30
0.0
  0
POINT
  5
4388
330
3FC6
100
AcDbEntity
  8
Defpoints
 62
     0
100
AcDbPoint
 10
3183.762508347252
 20
1436.32176020434
 30
0.0
  0
POINT
  5
4389
330
3FC6
100
AcDbEntity
  8
Defpoints
 62
     0
100
AcDbPoint
 10
3183.762508347252
 20
1494.258891497622
 30
0.0
  0
ENDBLK
  5
3FD1
330
3FC6
100
AcDbEntity
  8
0
100
AcDbBlockEnd
  0
BLOCK
  5
3FDA
330
3FD2
100
AcDbEntity
  8
0
100
AcDbBlockBegin
  2
*D2
 70
     1
 10
0.0
 20
0.0
 30
0.0
  3
*D2
  1

  0
LINE
  5
43C9
330
3FD2
100
AcDbEntity
  8
ﾚｲﾔ1
 62
     1
370
    -2
100
AcDbLine
 10
3146.993631949147
 20
1435.955752234437
 30
0.0
 11
3147.91696528248
 21
1435.955752234437
 31
0.0
  0
LINE
  5
43CA
330
3FD2
100
AcDbEntity
  8
ﾚｲﾔ1
 62
     1
370
    -2
100
AcDbLine
 10
3162.993631949146
 20
1435.955752234437
 30
0.0
 11
3162.250298615813
 21
1435.955752234437
 31
0.0
  0
MTEXT
  5
43CB
330
3FD2
100
AcDbEntity
  8
ﾚｲﾔ1
 62
     1
100
AcDbMText
 10
3155.083631949147
 20
1435.955752234437
 30
0.0
 40
5.0
 41
0.0
 71
     5
 72
     1
  1
\A1;\U+220522
  7
TextStyle01
 73
     1
 44
1.0
1001
ACAD
1000
MTEXTBEGIN
1070
    73
1070
     1
1070
    44
1040
1.0
1070
    74
1070
     0
1000
MTEXTEND
  0
INSERT
  5
43CC
330
3FD2
100
AcDbEntity
  8
ﾚｲﾔ1
 62
     1
370
    -2
100
AcDbBlockReference
  2
_Open30
 10
3143.993631949147
 20
1435.955752234437
 30
0.0
 41
3.0
 42
3.0
 43
3.0
 50
180.0
  0
INSERT
  5
43CD
330
3FD2
100
AcDbEntity
  8
ﾚｲﾔ1
 62
     1
370
    -2
100
AcDbBlockReference
  2
_Open
 10
3165.993631949146
 20
1435.955752234437
 30
0.0
 41
3.0
 42
3.0
 43
3.0
  0
POINT
  5
43CE
330
3FD2
100
AcDbEntity
  8
Defpoints
 62
     0
100
AcDbPoint
 10
3165.993631949146
 20
1435.955752234437
 30
0.0
  0
POINT
  5
43CF
330
3FD2
100
AcDbEntity
  8
Defpoints
 62
     0
100
AcDbPoint
 10
3143.993631949147
 20
1435.955752234437
 30
0.0
  0
ENDBLK
  5
3FDB
330
3FD2
100
AcDbEntity
  8
0
100
AcDbBlockEnd
  0
BLOCK
  5
3FE6
330
3FDC
100
AcDbEntity
  8
0
100
AcDbBlockBegin
  2
*D3
 70
     1
 10
0.0
 20
0.0
 30
0.0
  3
*D3
  1

  0
ARC
  5
43C0
330
3FDC
100
AcDbEntity
  8
ﾚｲﾔ1
 62
     1
370
    -2
100
AcDbCircle
 10
3155.046915726387
 20
1436.074316863778
 30
0.0
 40
15.29135225786825
100
AcDbArc
 50
100.9024154117152
 51
168.5829638142058
  0
INSERT
  5
43C1
330
3FDC
100
AcDbEntity
  8
ﾚｲﾔ1
 62
     1
370
    -2
100
AcDbBlockReference
  2
_Open30
 10
3155.142062272061
 20
1451.365373106205
 30
0.0
 41
3.0
 42
3.0
 43
3.0
 50
5.272952356428627
  0
INSERT
  5
43C2
330
3FDC
100
AcDbEntity
  8
ﾚｲﾔ1
 62
     1
370
    -2
100
AcDbBlockReference
  2
_Open
 10
3139.755621690831
 20
1436.116513929736
 30
0.0
 41
3.0
 42
3.0
 43
3.0
 50
264.2124268694924
  0
MTEXT
  5
43C3
330
3FDC
100
AcDbEntity
  8
ﾚｲﾔ1
 62
     1
100
AcDbMText
 10
3142.17119194176
 20
1449.066210661198
 30
0.0
 40
5.0
 41
0.0
 71
     5
 72
     1
  1
\A1;90°
  7
TextStyle01
 11
0.7102751953087827
 21
0.7039241059440079
 31
0.0
 73
     1
 44
1.0
1001
ACAD
1000
MTEXTBEGIN
1070
    73
1070
     1
1070
    44
1040
1.0
1070
    74
1070
     0
1000
MTEXTEND
  0
POINT
  5
43C4
330
3FDC
100
AcDbEntity
  8
Defpoints
 62
     0
100
AcDbPoint
 10
3147.468451996932
 20
1449.355594715534
 30
0.0
  0
POINT
  5
43C5
330
3FDC
100
AcDbEntity
  8
Defpoints
 62
     0
100
AcDbPoint
 10
3155.335459186798
 20
1482.446302838591
 30
0.0
  0
POINT
  5
43C6
330
3FDC
100
AcDbEntity
  8
Defpoints
 62
     0
100
AcDbPoint
 10
3216.959965094905
 20
1435.903464807584
 30
0.0
  0
POINT
  5
43C7
330
3FDC
100
AcDbEntity
  8
Defpoints
 62
     0
100
AcDbPoint
 10
3095.976869335937
 20
1436.237323515659
 30
0.0
  0
POINT
  5
43C8
330
3FDC
100
AcDbEntity
  8
Defpoints
 62
     0
100
AcDbPoint
 10
3154.774893303017
 20
1392.357436282237
 30
0.0
  0
ENDBLK
  5
3FE7
330
3FDC
100
AcDbEntity
  8
0
100
AcDbBlockEnd
  0
BLOCK
  5
3FF2
330
3FE8
100
AcDbEntity
  8
0
100
AcDbBlockBegin
  2
*D4
 70
     1
 10
0.0
 20
0.0
 30
0.0
  3
*D4
  1

  0
LINE
  5
43AE
330
3FE8
100
AcDbEntity
  8
ﾚｲﾔ1
 62
     1
370
    -2
100
AcDbLine
 10
2843.270701776426
 20
1473.841441405912
 30
0.0
 11
2843.270701776426
 21
1537.444054859583
 31
0.0
  0
LINE
  5
43AF
330
3FE8
100
AcDbEntity
  8
ﾚｲﾔ1
 62
     1
370
    -2
100
AcDbLine
 10
3042.801558969149
 20
1473.423147924973
 30
0.0
 11
3042.801558969149
 21
1537.444054859583
 31
0.0
  0
LINE
  5
43B0
330
3FE8
100
AcDbEntity
  8
ﾚｲﾔ1
 62
     1
370
    -2
100
AcDbLine
 10
2848.270701776426
 20
1536.944054859583
 30
0.0
 11
3037.80155896915
 21
1536.944054859583
 31
0.0
  0
INSERT
  5
43B1
330
3FE8
100
AcDbEntity
  8
ﾚｲﾔ1
 62
     1
370
    -2
100
AcDbBlockReference
  2
_Open
 10
2843.270701776426
 20
1536.944054859583
 30
0.0
 41
5.0
 42
5.0
 43
5.0
 50
180.0
  0
INSERT
  5
43B2
330
3FE8
100
AcDbEntity
  8
ﾚｲﾔ1
 62
     1
370
    -2
100
AcDbBlockReference
  2
_Open
 10
3042.801558969149
 20
1536.944054859583
 30
0.0
 41
5.0
 42
5.0
 43
5.0
  0
MTEXT
  5
43B3
330
3FE8
100
AcDbEntity
  8
ﾚｲﾔ1
 62
     1
100
AcDbMText
 10
2943.036130372788
 20
1544.944054859583
 30
0.0
 40
15.0
 41
0.0
 71
     5
 72
     1
  1
\A1;200
  7
TextStyle01
 73
     1
 44
1.0
1001
ACAD
1000
MTEXTBEGIN
1070
    73
1070
     1
1070
    44
1040
1.0
1070
    74
1070
     0
1000
MTEXTEND
  0
POINT
  5
43B4
330
3FE8
100
AcDbEntity
  8
Defpoints
 62
     0
100
AcDbPoint
 10
2843.270701776426
 20
1473.778941405911
 30
0.0
  0
POINT
  5
43B5
330
3FE8
100
AcDbEntity
  8
Defpoints
 62
     0
100
AcDbPoint
 10
3042.801558969149
 20
1473.360647924973
 30
0.0
  0
POINT
  5
43B6
330
3FE8
100
AcDbEntity
  8
Defpoints
 62
     0
100
AcDbPoint
 10
3042.801558969149
 20
1536.944054859583
 30
0.0
  0
ENDBLK
  5
3FF3
330
3FE8
100
AcDbEntity
  8
0
100
AcDbBlockEnd
  0
BLOCK
  5
3FFE
330
3FF4
100
AcDbEntity
  8
0
100
AcDbBlockBegin
  2
*D5
 70
     1
 10
0.0
 20
0.0
 30
0.0
  3
*D5
  1

  0
LINE
  5
43B7
330
3FF4
100
AcDbEntity
  8
ﾚｲﾔ1
 62
     1
370
    -2
100
AcDbLine
 10
3022.849864377401
 20
1473.841441405912
 30
0.0
 11
3022.849864377401
 21
1509.478557239761
 31
0.0
  0
LINE
  5
43B8
330
3FF4
100
AcDbEntity
  8
ﾚｲﾔ1
 62
     1
370
    -2
100
AcDbLine
 10
3042.801558969149
 20
1473.360647924973
 30
0.0
 11
3042.801558969149
 21
1509.478557239761
 31
0.0
  0
LINE
  5
43B9
330
3FF4
100
AcDbEntity
  8
ﾚｲﾔ1
 62
     1
370
    -2
100
AcDbLine
 10
3027.849864377401
 20
1508.978557239761
 30
0.0
 11
3037.80155896915
 21
1508.978557239761
 31
0.0
  0
MTEXT
  5
43BA
330
3FF4
100
AcDbEntity
  8
ﾚｲﾔ1
 62
     1
100
AcDbMText
 10
3032.825711673276
 20
1517.728557239761
 30
0.0
 40
15.0
 41
0.0
 71
     5
 72
     1
  1
\A1;20
  7
TextStyle01
 73
     1
 44
1.0
1001
ACAD
1000
MTEXTBEGIN
1070
    73
1070
     1
1070
    44
1040
1.0
1070
    74
1070
     0
1000
MTEXTEND
  0
INSERT
  5
43BB
330
3FF4
100
AcDbEntity
  8
ﾚｲﾔ1
 62
     1
370
    -2
100
AcDbBlockReference
  2
_Open
 10
3022.849864377401
 20
1508.978557239761
 30
0.0
 41
5.0
 42
5.0
 43
5.0
 50
180.0
  0
INSERT
  5
43BC
330
3FF4
100
AcDbEntity
  8
ﾚｲﾔ1
 62
     1
370
    -2
100
AcDbBlockReference
  2
_Open
 10
3042.801558969149
 20
1508.978557239761
 30
0.0
 41
5.0
 42
5.0
 43
5.0
  0
POINT
  5
43BD
330
3FF4
100
AcDbEntity
  8
Defpoints
 62
     0
100
AcDbPoint
 10
3022.849864377401
 20
1473.778941405911
 30
0.0
  0
POINT
  5
43BE
330
3FF4
100
AcDbEntity
  8
Defpoints
 62
     0
100
AcDbPoint
 10
3042.801558969149
 20
1473.298147924973
 30
0.0
  0
POINT
  5
43BF
330
3FF4
100
AcDbEntity
  8
Defpoints
 62
     0
100
AcDbPoint
 10
3042.801558969149
 20
1508.978557239761
 30
0.0
  0
ENDBLK
  5
3FFF
330
3FF4
100
AcDbEntity
  8
0
100
AcDbBlockEnd
  0
BLOCK
  5
400A
330
4000
100
AcDbEntity
  8
0
100
AcDbBlockBegin
  2
*D6
 70
     1
 10
0.0
 20
0.0
 30
0.0
  3
*D6
  1

  0
LINE
  5
43A5
330
4000
100
AcDbEntity
  8
ﾚｲﾔ1
 62
     1
370
    -2
100
AcDbLine
 10
2843.270701776426
 20
1473.841441405912
 30
0.0
 11
2843.270701776426
 21
1509.478557239761
 31
0.0
  0
LINE
  5
43A6
330
4000
100
AcDbEntity
  8
ﾚｲﾔ1
 62
     1
370
    -2
100
AcDbLine
 10
2863.394648914909
 20
1473.841441405912
 30
0.0
 11
2863.394648914909
 21
1509.478557239761
 31
0.0
  0
LINE
  5
43A7
330
4000
100
AcDbEntity
  8
ﾚｲﾔ1
 62
     1
370
    -2
100
AcDbLine
 10
2848.270701776426
 20
1508.978557239761
 30
0.0
 11
2858.394648914909
 21
1508.978557239761
 31
0.0
  0
MTEXT
  5
43A8
330
4000
100
AcDbEntity
  8
ﾚｲﾔ1
 62
     1
100
AcDbMText
 10
2853.332675345667
 20
1517.728557239761
 30
0.0
 40
15.0
 41
0.0
 71
     5
 72
     1
  1
\A1;20
  7
TextStyle01
 73
     1
 44
1.0
1001
ACAD
1000
MTEXTBEGIN
1070
    73
1070
     1
1070
    44
1040
1.0
1070
    74
1070
     0
1000
MTEXTEND
  0
INSERT
  5
43A9
330
4000
100
AcDbEntity
  8
ﾚｲﾔ1
 62
     1
370
    -2
100
AcDbBlockReference
  2
_Open
 10
2843.270701776426
 20
1508.978557239761
 30
0.0
 41
5.0
 42
5.0
 43
5.0
 50
180.0
  0
INSERT
  5
43AA
330
4000
100
AcDbEntity
  8
ﾚｲﾔ1
 62
     1
370
    -2
100
AcDbBlockReference
  2
_Open
 10
2863.394648914909
 20
1508.978557239761
 30
0.0
 41
5.0
 42
5.0
 43
5.0
  0
POINT
  5
43AB
330
4000
100
AcDbEntity
  8
Defpoints
 62
     0
100
AcDbPoint
 10
2843.270701776426
 20
1473.778941405911
 30
0.0
  0
POINT
  5
43AC
330
4000
100
AcDbEntity
  8
Defpoints
 62
     0
100
AcDbPoint
 10
2863.394648914909
 20
1473.778941405911
 30
0.0
  0
POINT
  5
43AD
330
4000
100
AcDbEntity
  8
Defpoints
 62
     0
100
AcDbPoint
 10
2863.394648914909
 20
1508.978557239761
 30
0.0
  0
ENDBLK
  5
400B
330
4000
100
AcDbEntity
  8
0
100
AcDbBlockEnd
  0
BLOCK
  5
4016
330
400C
100
AcDbEntity
  8
0
100
AcDbBlockBegin
  2
*D7
 70
     1
 10
0.0
 20
0.0
 30
0.0
  3
*D7
  1

  0
LINE
  5
4393
330
400C
100
AcDbEntity
  8
ﾚｲﾔ1
 62
     1
370
    -2
100
AcDbLine
 10
2843.208201776426
 20
1463.573646277575
 30
0.0
 11
2803.743517596602
 21
1463.573646277575
 31
0.0
  0
LINE
  5
4394
330
400C
100
AcDbEntity
  8
ﾚｲﾔ1
 62
     1
370
    -2
100
AcDbLine
 10
2804.181017596602
 20
1407.962356219428
 30
0.0
 11
2803.743517596602
 21
1407.962356219428
 31
0.0
  0
LINE
  5
4395
330
400C
100
AcDbEntity
  8
ﾚｲﾔ1
 62
     1
370
    -2
100
AcDbLine
 10
2804.243517596602
 20
1458.573646277575
 30
0.0
 11
2804.243517596602
 21
1412.962356219428
 31
0.0
  0
INSERT
  5
4396
330
400C
100
AcDbEntity
  8
ﾚｲﾔ1
 62
     1
370
    -2
100
AcDbBlockReference
  2
_Open
 10
2804.243517596602
 20
1463.573646277575
 30
0.0
 41
5.0
 42
5.0
 43
5.0
 50
90.0
  0
INSERT
  5
4397
330
400C
100
AcDbEntity
  8
ﾚｲﾔ1
 62
     1
370
    -2
100
AcDbBlockReference
  2
_Open
 10
2804.243517596602
 20
1407.962356219428
 30
0.0
 41
5.0
 42
5.0
 43
5.0
 50
270.0
  0
MTEXT
  5
4398
330
400C
100
AcDbEntity
  8
ﾚｲﾔ1
 62
     1
100
AcDbMText
 10
2796.243517596602
 20
1435.768001248502
 30
0.0
 40
15.0
 41
0.0
 71
     5
 72
     1
  1
\A1;56
  7
TextStyle01
 11
0.0000000000000001
 21
1.0
 31
0.0
 73
     1
 44
1.0
1001
ACAD
1000
MTEXTBEGIN
1070
    73
1070
     1
1070
    44
1040
1.0
1070
    74
1070
     0
1000
MTEXTEND
  0
POINT
  5
4399
330
400C
100
AcDbEntity
  8
Defpoints
 62
     0
100
AcDbPoint
 10
2843.270701776426
 20
1463.573646277575
 30
0.0
  0
POINT
  5
439A
330
400C
100
AcDbEntity
  8
Defpoints
 62
     0
100
AcDbPoint
 10
2804.243517596602
 20
1407.962356219428
 30
0.0
  0
POINT
  5
439B
330
400C
100
AcDbEntity
  8
Defpoints
 62
     0
100
AcDbPoint
 10
2804.243517596602
 20
1407.962356219428
 30
0.0
  0
ENDBLK
  5
4017
330
400C
100
AcDbEntity
  8
0
100
AcDbBlockEnd
  0
BLOCK
  5
4022
330
4018
100
AcDbEntity
  8
0
100
AcDbBlockBegin
  2
*D8
 70
     1
 10
0.0
 20
0.0
 30
0.0
  3
*D8
  1

  0
LINE
  5
439C
330
4018
100
AcDbEntity
  8
ﾚｲﾔ1
 62
     1
370
    -2
100
AcDbLine
 10
2867.313259005016
 20
1458.425815464798
 30
0.0
 11
2829.928900795028
 21
1458.425815464798
 31
0.0
  0
LINE
  5
439D
330
4018
100
AcDbEntity
  8
ﾚｲﾔ1
 62
     1
370
    -2
100
AcDbLine
 10
2867.310846348424
 20
1407.962356219428
 30
0.0
 11
2829.928900795028
 21
1407.962356219428
 31
0.0
  0
LINE
  5
439E
330
4018
100
AcDbEntity
  8
ﾚｲﾔ1
 62
     1
370
    -2
100
AcDbLine
 10
2830.428900795029
 20
1453.425815464798
 30
0.0
 11
2830.428900795029
 21
1412.962356219428
 31
0.0
  0
INSERT
  5
439F
330
4018
100
AcDbEntity
  8
ﾚｲﾔ1
 62
     1
370
    -2
100
AcDbBlockReference
  2
_Open
 10
2830.428900795029
 20
1458.425815464798
 30
0.0
 41
5.0
 42
5.0
 43
5.0
 50
90.0
  0
INSERT
  5
43A0
330
4018
100
AcDbEntity
  8
ﾚｲﾔ1
 62
     1
370
    -2
100
AcDbBlockReference
  2
_Open
 10
2830.428900795029
 20
1407.962356219428
 30
0.0
 41
5.0
 42
5.0
 43
5.0
 50
270.0
  0
MTEXT
  5
43A1
330
4018
100
AcDbEntity
  8
ﾚｲﾔ1
 62
     1
100
AcDbMText
 10
2822.428900795028
 20
1433.194085842113
 30
0.0
 40
15.0
 41
0.0
 71
     5
 72
     1
  1
\A1;50
  7
TextStyle01
 11
0.0000000000000001
 21
1.0
 31
0.0
 73
     1
 44
1.0
1001
ACAD
1000
MTEXTBEGIN
1070
    73
1070
     1
1070
    44
1040
1.0
1070
    74
1070
     0
1000
MTEXTEND
  0
POINT
  5
43A2
330
4018
100
AcDbEntity
  8
Defpoints
 62
     0
100
AcDbPoint
 10
2867.375759005016
 20
1458.425815464798
 30
0.0
  0
POINT
  5
43A3
330
4018
100
AcDbEntity
  8
Defpoints
 62
     0
100
AcDbPoint
 10
2867.373346348424
 20
1407.962356219428
 30
0.0
  0
POINT
  5
43A4
330
4018
100
AcDbEntity
  8
Defpoints
 62
     0
100
AcDbPoint
 10
2830.428900795029
 20
1407.962356219428
 30
0.0
  0
ENDBLK
  5
4023
330
4018
100
AcDbEntity
  8
0
100
AcDbBlockEnd
  0
BLOCK
  5
402E
330
4024
100
AcDbEntity
  8
0
100
AcDbBlockBegin
  2
*D9
 70
     1
 10
0.0
 20
0.0
 30
0.0
  3
*D9
  1

  0
LINE
  5
438A
330
4024
100
AcDbEntity
  8
ﾚｲﾔ1
 62
     1
370
    -2
100
AcDbLine
 10
2843.208201776426
 20
1473.778941405911
 30
0.0
 11
2773.265915675169
 21
1473.778941405911
 31
0.0
  0
LINE
  5
438B
330
4024
100
AcDbEntity
  8
ﾚｲﾔ1
 62
     1
370
    -2
100
AcDbLine
 10
2843.208201776426
 20
1398.822439512267
 30
0.0
 11
2773.265915675169
 21
1398.822439512267
 31
0.0
  0
LINE
  5
438C
330
4024
100
AcDbEntity
  8
ﾚｲﾔ1
 62
     1
370
    -2
100
AcDbLine
 10
2773.765915675169
 20
1468.778941405911
 30
0.0
 11
2773.765915675169
 21
1403.822439512267
 31
0.0
  0
INSERT
  5
438D
330
4024
100
AcDbEntity
  8
ﾚｲﾔ1
 62
     1
370
    -2
100
AcDbBlockReference
  2
_Open
 10
2773.765915675169
 20
1473.778941405911
 30
0.0
 41
5.0
 42
5.0
 43
5.0
 50
90.0
  0
INSERT
  5
438E
330
4024
100
AcDbEntity
  8
ﾚｲﾔ1
 62
     1
370
    -2
100
AcDbBlockReference
  2
_Open
 10
2773.765915675169
 20
1398.822439512267
 30
0.0
 41
5.0
 42
5.0
 43
5.0
 50
270.0
  0
MTEXT
  5
438F
330
4024
100
AcDbEntity
  8
ﾚｲﾔ1
 62
     1
100
AcDbMText
 10
2765.765915675169
 20
1436.30069045909
 30
0.0
 40
15.0
 41
0.0
 71
     5
 72
     1
  1
\A1;75
  7
TextStyle01
 11
0.0000000000000001
 21
1.0
 31
0.0
 73
     1
 44
1.0
1001
ACAD
1000
MTEXTBEGIN
1070
    73
1070
     1
1070
    44
1040
1.0
1070
    74
1070
     0
1000
MTEXTEND
  0
POINT
  5
4390
330
4024
100
AcDbEntity
  8
Defpoints
 62
     0
100
AcDbPoint
 10
2843.270701776426
 20
1473.778941405911
 30
0.0
  0
POINT
  5
4391
330
4024
100
AcDbEntity
  8
Defpoints
 62
     0
100
AcDbPoint
 10
2843.270701776426
 20
1398.822439512267
 30
0.0
  0
POINT
  5
4392
330
4024
100
AcDbEntity
  8
Defpoints
 62
     0
100
AcDbPoint
 10
2773.765915675169
 20
1398.822439512267
 30
0.0
  0
ENDBLK
  5
402F
330
4024
100
AcDbEntity
  8
0
100
AcDbBlockEnd
  0
BLOCK
  5
4340
330
433C
100
AcDbEntity
  8
0
100
AcDbBlockBegin
  2
_Open
 70
     0
 10
0.0
 20
0.0
 30
0.0
  3
_Open
  1

  0
LINE
  5
433D
330
433C
100
AcDbEntity
  8
0
  6
ByBlock
 62
     0
370
    -2
100
AcDbLine
 10
-1.0
 20
0.1666666666666666
 30
0.0
 11
0.0
 21
0.0
 31
0.0
  0
LINE
  5
433E
330
433C
100
AcDbEntity
  8
0
  6
ByBlock
 62
     0
370
    -2
100
AcDbLine
 10
-1.0
 20
-0.1666666666666666
 30
0.0
 11
0.0
 21
0.0
 31
0.0
  0
LINE
  5
433F
330
433C
100
AcDbEntity
  8
0
  6
ByBlock
 62
     0
370
    -2
100
AcDbLine
 10
0.0
 20
0.0
 30
0.0
 11
-1.0
 21
0.0
 31
0.0
  0
ENDBLK
  5
4341
330
433C
100
AcDbEntity
  8
0
100
AcDbBlockEnd
  0
ENDSEC
  0
SECTION
  2
ENTITIES
  0
LINE
  5
3F9A
330
1E
100
AcDbEntity
  8
ﾚｲﾔ1
100
AcDbLine
 10
3201.620581691415
 20
1403.956959797357
 30
0.0
 11
3272.60786826173
 21
1403.956959797357
 31
0.0
  0
MTEXT
  5
3F9B
330
1E
100
AcDbEntity
  8
ﾚｲﾔ1
100
AcDbMText
 10
3202.00019010446
 20
1415.343043822726
 30
0.0
 40
10.0
 41
78.95911457734474
 71
     1
 72
     5
  1
Ａ-Ａ´矢視
 73
     1
 44
1.0
1001
ACAD
1000
MTEXTBEGIN
1070
    73
1070
     1
1070
    44
1040
1.0
1070
    74
1070
     0
1000
MTEXTEND
  0
DIMENSION
  5
3F9C
330
1E
100
AcDbEntity
  8
ﾚｲﾔ1
100
AcDbDimension
  2
*D1
 10
3183.762508347252
 20
1494.258891497622
 30
0.0
 11
3154.84897522055
 21
1502.258891497622
 31
0.0
 70
    32
 71
     5
 42
57.82706625340506
  3
Standard
100
AcDbAlignedDimension
 13
3125.935442093847
 23
1436.980725949528
 33
0.0
 14
3183.762508347252
 24
1436.32176020434
 34
0.0
100
AcDbRotatedDimension
1001
ACAD
1000
DSTYLE
1002
{
1070
   343
1005
433C
1070
   173
1070
     1
1070
   344
1005
433C
1070
    41
1040
3.0
1070
    44
1040
0.5
1070
    73
1070
     0
1070
    74
1070
     0
1070
    77
1070
     1
1070
   140
1040
15.0
1070
   147
1040
0.5
1070
   176
1070
     1
1070
   177
1070
     1
1070
   178
1070
     1
1070
   271
1070
     0
1070
   272
1070
     0
1070
   279
1070
     2
1070
   340
1005
23
1070
   341
1005
1C1
1070
   342
1005
0
1002
}
  0
DIMENSION
  5
3F9D
330
1E
100
AcDbEntity
  8
ﾚｲﾔ1
100
AcDbDimension
  2
*D2
 10
3143.993631949147
 20
1435.955752234437
 30
0.0
 11
3155.083631949147
 21
1435.955752234437
 31
0.0
 70
   163
 71
     5
 42
21.99999999999818
  3
Standard
100
AcDbDiametricDimension
 15
3165.993631949146
 25
1435.955752234437
 35
0.0
 40
0.0
1001
ACAD
1000
DSTYLE
1002
{
1070
   344
1005
433C
1070
   173
1070
     1
1070
   343
1005
1C1
1070
    41
1040
3.0
1070
    44
1040
0.5
1070
    73
1070
     0
1070
    74
1070
     0
1070
    77
1070
     1
1070
   140
1040
5.0
1070
   147
1040
0.5
1070
   176
1070
     1
1070
   177
1070
     1
1070
   178
1070
     1
1070
   271
1070
     0
1070
   272
1070
     0
1070
   279
1070
     2
1070
   288
1070
     1
1070
   340
1005
23
1070
   341
1005
1C1
1070
   342
1005
0
1002
}
  0
CIRCLE
  5
3F9E
330
1E
100
AcDbEntity
  8
ﾚｲﾔ1
100
AcDbCircle
 10
3154.993631949146
 20
1435.955752234437
 30
0.0
 40
11.0
  0
MTEXT
  5
3F9F
330
1E
100
AcDbEntity
  8
ﾚｲﾔ1
100
AcDbMText
 10
3202.196128618663
 20
1460.344234694825
 30
0.0
 40
5.0
 41
41.82971579714648
 71
     1
 72
     5
  1
2-10キリ
 73
     1
 44
1.0
1001
ACAD
1000
MTEXTBEGIN
1070
    73
1070
     1
1070
    44
1040
1.0
1070
    74
1070
     0
1000
MTEXTEND
  0
LEADER
  5
3FA0
330
1E
100
AcDbEntity
  8
ﾚｲﾔ1
100
AcDbLeader
  3
Standard
 76
     3
 10
3182.760584964387
 20
1435.997839652232
 30
0.0
 10
3200.565994100128
 20
1453.539590141707
 30
0.0
 10
3235.240643142431
 20
1453.539590141707
 30
0.0
1001
ACAD
1000
DSTYLE
1002
{
1070
    41
1040
3.0
1070
    44
1040
0.5
1070
    73
1070
     0
1070
    74
1070
     0
1070
    77
1070
     0
1070
   140
1040
50.0
1070
   147
1040
0.5
1070
   176
1070
   256
1070
   177
1070
     1
1070
   178
1070
     1
1070
   271
1070
     0
1070
   272
1070
     0
1070
   279
1070
     2
1070
   340
1005
23
1070
   341
1005
0
1070
   342
1005
1C1
1002
}
  0
CIRCLE
  5
3FA1
330
1E
100
AcDbEntity
  8
ﾚｲﾔ1
100
AcDbCircle
 10
3126.489685776825
 20
1436.801570031825
 30
0.0
 40
6.5
  0
CIRCLE
  5
3FA2
330
1E
100
AcDbEntity
  8
ﾚｲﾔ1
100
AcDbCircle
 10
3126.678129655695
 20
1436.989967619225
 30
0.0
 40
4.0
  0
CIRCLE
  5
3FA3
330
1E
100
AcDbEntity
  8
ﾚｲﾔ1
100
AcDbCircle
 10
3183.347223416691
 20
1436.164777985607
 30
0.0
 40
6.5
  0
CIRCLE
  5
3FA4
330
1E
100
AcDbEntity
  8
ﾚｲﾔ1
100
AcDbCircle
 10
3183.535667295561
 20
1436.353175573007
 30
0.0
 40
4.0
  0
DIMENSION
  5
3FA5
330
1E
100
AcDbEntity
  8
ﾚｲﾔ1
100
AcDbDimension
  2
*D3
 10
3154.774893303017
 20
1392.357436282237
 30
0.0
 11
3142.171191941761
 21
1449.066210661198
 31
0.0
 70
    34
 71
     5
 42
1.574259070915369
  3
Standard
100
AcDb2LineAngularDimension
 13
3216.959965094905
 23
1435.903464807584
 33
0.0
 14
3095.976869335937
 24
1436.237323515659
 34
0.0
 15
3155.335459186798
 25
1482.446302838591
 35
0.0
 16
3147.468451996932
 26
1449.355594715534
 36
0.0
1001
ACAD
1000
DSTYLE
1002
{
1070
   344
1005
433C
1070
   173
1070
     1
1070
   343
1005
1C1
1070
    41
1040
3.0
1070
    44
1040
0.5
1070
    73
1070
     0
1070
    74
1070
     0
1070
    77
1070
     1
1070
   140
1040
5.0
1070
   147
1040
0.5
1070
   176
1070
     1
1070
   177
1070
     1
1070
   178
1070
     1
1070
   271
1070
     0
1070
   272
1070
     0
1070
   279
1070
     2
1070
   340
1005
23
1070
   341
1005
1C1
1070
   342
1005
0
1002
}
  0
CIRCLE
  5
3FA6
330
1E
100
AcDbEntity
  8
ﾚｲﾔ1
100
AcDbCircle
 10
3155.26087216528
 20
1436.123521658075
 30
0.0
 40
27.5
  0
LINE
  5
3FA7
330
1E
100
AcDbEntity
  8
ﾚｲﾔ1
  6
CENTER2
 48
2.0
100
AcDbLine
 10
3155.335459186798
 20
1482.446302838591
 30
0.0
 11
3154.774893303017
 21
1392.357436282237
 31
0.0
  0
LINE
  5
3FA8
330
1E
100
AcDbEntity
  8
ﾚｲﾔ1
  6
CENTER2
 48
2.0
100
AcDbLine
 10
3216.959965094905
 20
1435.903464807584
 30
0.0
 11
3095.976869335937
 21
1436.237323515659
 31
0.0
  0
CIRCLE
  5
3FA9
330
1E
100
AcDbEntity
  8
ﾚｲﾔ1
100
AcDbCircle
 10
3155.046915726387
 20
1436.074316863778
 30
0.0
 40
37.5
  0
MTEXT
  5
3FAA
330
1E
100
AcDbEntity
  8
ﾚｲﾔ1
100
AcDbMText
 10
2946.125896455997
 20
1387.90935234286
 30
0.0
 40
10.0
 41
32.71295390985324
 71
     1
 72
     5
  1
Ａ´
 73
     1
 44
1.0
1001
ACAD
1000
MTEXTBEGIN
1070
    73
1070
     1
1070
    44
1040
1.0
1070
    74
1070
     0
1000
MTEXTEND
  0
MTEXT
  5
3FAB
330
1E
100
AcDbEntity
  8
ﾚｲﾔ1
100
AcDbMText
 10
2944.076421690508
 20
1495.194760376878
 30
0.0
 40
10.0
 41
12.95334784840816
 71
     1
 72
     5
  1
Ａ
 73
     1
 44
1.0
1001
ACAD
1000
MTEXTBEGIN
1070
    73
1070
     1
1070
    44
1040
1.0
1070
    74
1070
     0
1000
MTEXTEND
  0
LEADER
  5
3FAC
330
1E
100
AcDbEntity
  8
ﾚｲﾔ1
100
AcDbLeader
  3
Standard
 76
     3
 10
2942.535761261359
 20
1492.431702117552
 30
0.0
 10
2923.608572589874
 20
1492.429640186488
 30
0.0
 10
2923.608572589874
 20
1484.58150703735
 30
0.0
1001
ACAD
1000
DSTYLE
1002
{
1070
    41
1040
5.0
1070
    44
1040
0.5
1070
    73
1070
     0
1070
    74
1070
     0
1070
    77
1070
     0
1070
   140
1040
50.0
1070
   147
1040
0.5
1070
   176
1070
     0
1070
   177
1070
     1
1070
   178
1070
     1
1070
   271
1070
     0
1070
   272
1070
     0
1070
   279
1070
     2
1070
   340
1005
23
1070
   341
1005
0
1070
   342
1005
1C1
1002
}
  0
LEADER
  5
3FAD
330
1E
100
AcDbEntity
  8
ﾚｲﾔ1
100
AcDbLeader
  3
Standard
 76
     3
 10
2942.78672841542
 20
1383.12973740742
 30
0.0
 10
2923.608572589874
 20
1383.030350031244
 30
0.0
 10
2923.608572589874
 20
1390.821266836243
 30
0.0
1001
ACAD
1000
DSTYLE
1002
{
1070
    41
1040
5.0
1070
    44
1040
0.5
1070
    73
1070
     0
1070
    74
1070
     0
1070
    77
1070
     0
1070
   140
1040
50.0
1070
   147
1040
0.5
1070
   176
1070
     0
1070
   177
1070
     1
1070
   178
1070
     1
1070
   271
1070
     0
1070
   272
1070
     0
1070
   279
1070
     2
1070
   340
1005
23
1070
   341
1005
0
1070
   342
1005
1C1
1002
}
  0
DIMENSION
  5
3FAE
330
1E
100
AcDbEntity
  8
ﾚｲﾔ1
100
AcDbDimension
  2
*D4
 10
3042.801558969149
 20
1536.944054859583
 30
0.0
 11
2943.036130372788
 21
1544.944054859583
 31
0.0
 70
    32
 71
     5
 42
199.5308571927235
  3
Standard
100
AcDbAlignedDimension
 13
2843.270701776426
 23
1473.778941405911
 33
0.0
 14
3042.801558969149
 24
1473.360647924973
 34
0.0
100
AcDbRotatedDimension
1001
ACAD
1000
DSTYLE
1002
{
1070
   343
1005
433C
1070
   173
1070
     1
1070
   344
1005
433C
1070
    41
1040
5.0
1070
    44
1040
0.5
1070
    73
1070
     0
1070
    74
1070
     0
1070
    77
1070
     1
1070
   140
1040
15.0
1070
   147
1040
0.5
1070
   176
1070
     1
1070
   177
1070
     1
1070
   178
1070
     1
1070
   271
1070
     0
1070
   272
1070
     0
1070
   279
1070
     2
1070
   340
1005
23
1070
   341
1005
1C1
1070
   342
1005
0
1002
}
  0
DIMENSION
  5
3FAF
330
1E
100
AcDbEntity
  8
ﾚｲﾔ1
100
AcDbDimension
  2
*D5
 10
3042.801558969149
 20
1508.978557239761
 30
0.0
 11
3032.825711673276
 21
1517.728557239761
 31
0.0
 70
    32
 71
     5
 42
19.95169459174849
  3
Standard
100
AcDbAlignedDimension
 13
3022.849864377401
 23
1473.778941405911
 33
0.0
 14
3042.801558969149
 24
1473.298147924973
 34
0.0
100
AcDbRotatedDimension
1001
ACAD
1000
DSTYLE
1002
{
1070
   343
1005
433C
1070
   173
1070
     1
1070
   344
1005
433C
1070
    41
1040
5.0
1070
    44
1040
0.5
1070
    73
1070
     0
1070
    74
1070
     0
1070
    77
1070
     1
1070
   140
1040
15.0
1070
   147
1040
0.5
1070
   176
1070
     1
1070
   177
1070
     1
1070
   178
1070
     1
1070
   271
1070
     0
1070
   272
1070
     0
1070
   279
1070
     2
1070
   340
1005
23
1070
   341
1005
1C1
1070
   342
1005
0
1002
}
  0
DIMENSION
  5
3FB0
330
1E
100
AcDbEntity
  8
ﾚｲﾔ1
100
AcDbDimension
  2
*D6
 10
2863.394648914909
 20
1508.978557239761
 30
0.0
 11
2853.332675345667
 21
1517.728557239761
 31
0.0
 70
    32
 71
     5
 42
20.12394713848244
  3
Standard
100
AcDbAlignedDimension
 13
2843.270701776426
 23
1473.778941405911
 33
0.0
 14
2863.394648914909
 24
1473.778941405911
 34
0.0
100
AcDbRotatedDimension
1001
ACAD
1000
DSTYLE
1002
{
1070
   343
1005
433C
1070
   173
1070
     1
1070
   344
1005
433C
1070
    41
1040
5.0
1070
    44
1040
0.5
1070
    73
1070
     0
1070
    74
1070
     0
1070
    77
1070
     1
1070
   140
1040
15.0
1070
   147
1040
0.5
1070
   176
1070
     1
1070
   177
1070
     1
1070
   178
1070
     1
1070
   271
1070
     0
1070
   272
1070
     0
1070
   279
1070
     2
1070
   340
1005
23
1070
   341
1005
1C1
1070
   342
1005
0
1002
}
  0
DIMENSION
  5
3FB1
330
1E
100
AcDbEntity
  8
ﾚｲﾔ1
100
AcDbDimension
  2
*D7
 10
2804.243517596602
 20
1407.962356219428
 30
0.0
 11
2796.243517596602
 21
1435.768001248502
 31
0.0
 70
    32
 71
     5
 42
55.61129005814655
  3
Standard
100
AcDbAlignedDimension
 13
2843.270701776426
 23
1463.573646277575
 33
0.0
 14
2804.243517596602
 24
1407.962356219428
 34
0.0
 50
90.0
100
AcDbRotatedDimension
1001
ACAD
1000
DSTYLE
1002
{
1070
   343
1005
433C
1070
   173
1070
     1
1070
   344
1005
433C
1070
    41
1040
5.0
1070
    44
1040
0.5
1070
    73
1070
     0
1070
    74
1070
     0
1070
    77
1070
     1
1070
   140
1040
15.0
1070
   147
1040
0.5
1070
   176
1070
     1
1070
   177
1070
     1
1070
   178
1070
     1
1070
   271
1070
     0
1070
   272
1070
     0
1070
   279
1070
     2
1070
   340
1005
23
1070
   341
1005
1C1
1070
   342
1005
0
1002
}
  0
DIMENSION
  5
3FB2
330
1E
100
AcDbEntity
  8
ﾚｲﾔ1
100
AcDbDimension
  2
*D8
 10
2830.428900795029
 20
1407.962356219428
 30
0.0
 11
2822.428900795028
 21
1433.194085842113
 31
0.0
 70
    32
 71
     5
 42
50.46345924536945
  3
Standard
100
AcDbAlignedDimension
 13
2867.375759005016
 23
1458.425815464798
 33
0.0
 14
2867.373346348424
 24
1407.962356219428
 34
0.0
 50
90.0
100
AcDbRotatedDimension
1001
ACAD
1000
DSTYLE
1002
{
1070
   343
1005
433C
1070
   173
1070
     1
1070
   344
1005
433C
1070
    41
1040
5.0
1070
    44
1040
0.5
1070
    73
1070
     0
1070
    74
1070
     0
1070
    77
1070
     1
1070
   140
1040
15.0
1070
   147
1040
0.5
1070
   176
1070
     1
1070
   177
1070
     1
1070
   178
1070
     1
1070
   271
1070
     0
1070
   272
1070
     0
1070
   279
1070
     2
1070
   340
1005
23
1070
   341
1005
1C1
1070
   342
1005
0
1002
}
  0
SPLINE
  5
3FB3
330
1E
100
AcDbEntity
  8
ﾚｲﾔ1
100
AcDbSpline
210
0.0
220
0.0
230
1.0
 70
     8
 71
     3
 72
     9
 73
     5
 74
     3
 42
0.0000000001
 43
0.0000000001
 44
0.0000000001
 40
0.0
 40
0.0
 40
0.0
 40
0.0
 40
3.377214359947696
 40
6.234349142597578
 40
6.234349142597578
 40
6.234349142597578
 40
6.234349142597578
 10
3018.77936240755
 20
1413.389703241244
 30
0.0
 10
3019.965755496317
 20
1413.713308664279
 30
0.0
 10
3022.15584115492
 20
1414.310685370823
 30
0.0
 10
3022.632502600978
 20
1416.495724971032
 30
0.0
 10
3022.850951386237
 20
1417.497104986881
 30
0.0
 11
3018.77936240755
 21
1413.389703241244
 31
0.0
 11
3021.83573629702
 21
1414.826420151702
 31
0.0
 11
3022.850951386237
 21
1417.497104986881
 31
0.0
  0
SPLINE
  5
3FB4
330
1E
100
AcDbEntity
  8
ﾚｲﾔ1
100
AcDbSpline
210
0.0
220
0.0
230
1.0
 70
     8
 71
     3
 72
     9
 73
     5
 74
     3
 42
0.0000000001
 43
0.0000000001
 44
0.0000000001
 40
0.0
 40
0.0
 40
0.0
 40
0.0
 40
3.331012426605451
 40
6.480723697942709
 40
6.480723697942709
 40
6.480723697942709
 40
6.480723697942709
 10
2863.367615175861
 20
1417.246249518991
 30
0.0
 10
2863.536668809897
 20
1416.000309561578
 30
0.0
 10
2863.86557478562
 20
1413.57624397007
 30
0.0
 10
2866.283381789134
 20
1413.346240376706
 30
0.0
 10
2867.458465672637
 20
1413.234455806921
 30
0.0
 11
2863.367615175861
 21
1417.246249518991
 31
0.0
 11
2864.426629013928
 21
1414.088064363402
 31
0.0
 11
2867.458465672637
 21
1413.234455806921
 31
0.0
  0
LWPOLYLINE
  5
3FB5
330
1E
100
AcDbEntity
  8
ﾚｲﾔ1
100
AcDbPolyline
 90
        2
 70
     0
 43
0.0
 10
3018.77936240755
 20
1413.389703241244
 10
2867.303388320936
 20
1413.389703241244
  0
DIMENSION
  5
3FB6
330
1E
100
AcDbEntity
  8
ﾚｲﾔ1
100
AcDbDimension
  2
*D9
 10
2773.765915675169
 20
1398.822439512267
 30
0.0
 11
2765.765915675169
 21
1436.30069045909
 31
0.0
 70
    32
 71
     5
 42
74.9565018936446
  3
Standard
100
AcDbAlignedDimension
 13
2843.270701776426
 23
1473.778941405911
 33
0.0
 14
2843.270701776426
 24
1398.822439512267
 34
0.0
 50
90.0
100
AcDbRotatedDimension
1001
ACAD
1000
DSTYLE
1002
{
1070
   343
1005
433C
1070
   173
1070
     1
1070
   344
1005
433C
1070
    41
1040
5.0
1070
    44
1040
0.5
1070
    73
1070
     0
1070
    74
1070
     0
1070
    77
1070
     1
1070
   140
1040
15.0
1070
   147
1040
0.5
1070
   176
1070
     1
1070
   177
1070
     1
1070
   178
1070
     1
1070
   271
1070
     0
1070
   272
1070
     0
1070
   279
1070
     2
1070
   340
1005
23
1070
   341
1005
1C1
1070
   342
1005
0
1002
}
  0
SPLINE
  5
3FB7
330
1E
100
AcDbEntity
  8
ﾚｲﾔ1
100
AcDbSpline
210
0.0
220
0.0
230
1.0
 70
     8
 71
     3
 72
     9
 73
     5
 74
     3
 42
0.0000000001
 43
0.0000000001
 44
0.0000000001
 40
0.0
 40
0.0
 40
0.0
 40
0.0
 40
2.961828146006148
 40
6.121040309709956
 40
6.121040309709956
 40
6.121040309709956
 40
6.121040309709956
 10
2867.375759005016
 20
1458.425815464798
 30
0.0
 10
2866.342933555447
 20
1458.168399810886
 30
0.0
 10
2864.208452451864
 20
1457.636413646844
 30
0.0
 10
2863.647747048499
 20
1455.496544481017
 30
0.0
 10
2863.358353866795
 20
1454.392107921974
 30
0.0
 11
2867.375759005016
 21
1458.425815464798
 31
0.0
 11
2864.645761084459
 21
1457.277104308661
 31
0.0
 11
2863.358353866795
 21
1454.392107921974
 31
0.0
  0
LWPOLYLINE
  5
3FB8
330
1E
100
AcDbEntity
  8
ﾚｲﾔ1
100
AcDbPolyline
 90
        2
 70
     0
 43
0.0
 10
2863.278990181105
 20
1444.980069009544
 10
2863.279008600358
 20
1445.050788802511
  0
LWPOLYLINE
  5
3FB9
330
1E
100
AcDbEntity
  8
ﾚｲﾔ1
100
AcDbPolyline
 90
        2
 70
     0
 43
0.0
 10
2867.375759005016
 20
1458.425815464798
 10
3018.513858504113
 20
1458.425815464798
  0
SPLINE
  5
3FBA
330
1E
100
AcDbEntity
  8
ﾚｲﾔ1
100
AcDbSpline
210
0.0
220
0.0
230
1.0
 70
     8
 71
     3
 72
     9
 73
     5
 74
     3
 42
0.0000000001
 43
0.0000000001
 44
0.0000000001
 40
0.0
 40
0.0
 40
0.0
 40
0.0
 40
3.331012426605235
 40
6.480723697942493
 40
6.480723697942493
 40
6.480723697942493
 40
6.480723697942493
 10
2863.279005199581
 20
1411.975695466702
 30
0.0
 10
2863.448058833617
 20
1410.729755509289
 30
0.0
 10
2863.77696480934
 20
1408.305689917782
 30
0.0
 10
2866.194771812855
 20
1408.075686324417
 30
0.0
 10
2867.369855696357
 20
1407.963901754632
 30
0.0
 11
2863.279005199581
 21
1411.975695466702
 31
0.0
 11
2864.338019037648
 21
1408.817510311113
 31
0.0
 11
2867.369855696357
 21
1407.963901754632
 31
0.0
  0
LWPOLYLINE
  5
3FBB
330
1E
100
AcDbEntity
  8
ﾚｲﾔ1
100
AcDbPolyline
 90
        2
 70
     0
 43
0.0
 10
2863.278974478373
 20
1411.991971667803
 10
2863.358353866795
 20
1454.392107921974
  0
LWPOLYLINE
  5
3FBC
330
1E
100
AcDbEntity
  8
ﾚｲﾔ1
100
AcDbPolyline
 90
        2
 70
     0
 43
0.0
 10
2863.279005199581
 20
1411.975695466702
 10
2863.278974478373
 20
1411.991971667803
  0
SPLINE
  5
3FBD
330
1E
100
AcDbEntity
  8
ﾚｲﾔ1
100
AcDbSpline
210
0.0
220
0.0
230
1.0
 70
     8
 71
     3
 72
     9
 73
     5
 74
     3
 42
0.0000000001
 43
0.0000000001
 44
0.0000000001
 40
0.0
 40
0.0
 40
0.0
 40
0.0
 40
3.272187958062589
 40
6.129322740712471
 40
6.129322740712471
 40
6.129322740712471
 40
6.129322740712471
 10
3018.849320435038
 20
1407.962356219428
 30
0.0
 10
3020.007078309402
 20
1408.254949075599
 30
0.0
 10
3022.175740916356
 20
1408.803021518286
 30
0.0
 10
3022.636305300996
 20
1410.963307479605
 30
0.0
 10
3022.850993706008
 20
1411.970307505817
 30
0.0
 11
3018.849320435038
 21
1407.962356219428
 31
0.0
 11
3021.835778616791
 21
1409.299622670638
 31
0.0
 11
3022.850993706008
 21
1411.970307505817
 31
0.0
  0
LWPOLYLINE
  5
3FBE
330
1E
100
AcDbEntity
  8
ﾚｲﾔ1
100
AcDbPolyline
 90
        2
 70
     0
 43
0.0
 10
3018.849320435038
 20
1407.962356219428
 10
2867.373346348424
 20
1407.962356219428
  0
SPLINE
  5
3FBF
330
1E
100
AcDbEntity
  8
ﾚｲﾔ1
100
AcDbSpline
210
0.0
220
0.0
230
1.0
 70
     8
 71
     3
 72
     9
 73
     5
 74
     3
 42
0.0000000001
 43
0.0000000001
 44
0.0000000001
 40
0.0
 40
0.0
 40
0.0
 40
0.0
 40
3.463480095341136
 40
6.601639506148603
 40
6.601639506148603
 40
6.601639506148603
 40
6.601639506148603
 10
3018.513858504113
 20
1458.425815464798
 30
0.0
 10
3019.806467569235
 20
1458.279933509335
 30
0.0
 10
3022.270272423143
 20
1458.001872121973
 30
0.0
 10
3022.663120075881
 20
1455.583683012427
 30
0.0
 10
3022.849864377401
 20
1454.434171151901
 30
0.0
 11
3018.513858504113
 21
1458.425815464798
 31
0.0
 11
3021.821662009141
 21
1457.399106965295
 31
0.0
 11
3022.849864377401
 21
1454.434171151901
 31
0.0
  0
LWPOLYLINE
  5
3FC0
330
1E
100
AcDbEntity
  8
ﾚｲﾔ1
100
AcDbPolyline
 90
        2
 70
     0
 43
0.0
 10
3022.849864377401
 20
1454.434171151901
 10
3022.849864377401
 20
1411.96955050898
  0
LINE
  5
3FC1
330
1E
100
AcDbEntity
  8
ﾚｲﾔ1
100
AcDbLine
 10
2843.270701776426
 20
1463.573646277575
 30
0.0
 11
3042.801558969149
 21
1463.366071437009
 31
0.0
  0
LINE
  5
3FC2
330
1E
100
AcDbEntity
  8
ﾚｲﾔ1
100
AcDbLine
 10
2863.279016798144
 20
1398.875052336742
 30
0.0
 11
2863.279016798144
 21
1398.875052336742
 31
0.0
  0
LINE
  5
3FC3
330
1E
100
AcDbEntity
  8
ﾚｲﾔ1
100
AcDbLine
 10
2863.279016798144
 20
1398.875052336742
 30
0.0
 11
2863.279016798144
 21
1398.875052336742
 31
0.0
  0
LINE
  5
3FC4
330
1E
100
AcDbEntity
  8
ﾚｲﾔ1
  6
CENTER2
 48
2.0
100
AcDbLine
 10
2797.357256429543
 20
1436.312034600077
 30
0.0
 11
3090.871679249319
 21
1436.239514035145
 31
0.0
  0
LWPOLYLINE
  5
3FC5
330
1E
100
AcDbEntity
  8
ﾚｲﾔ1
100
AcDbPolyline
 90
        4
 70
     1
 43
0.0
 10
2843.270701776426
 20
1473.778941405911
 10
3042.801558969149
 20
1473.778941405911
 10
3042.801558969149
 20
1398.723840674458
 10
2843.270701776426
 20
1398.822439512267
  0
LWPOLYLINE
  5
42B9
330
1E
100
AcDbEntity
  8
下図
  6
ByBlock
100
AcDbPolyline
 90
        4
 70
     1
 43
0.0
 10
2719.604795323469
 20
1635.213168925088
 10
3313.554563595339
 20
1635.213168925088
 10
3313.554563595339
 20
1215.631791381625
 10
2719.604795323469
 20
1215.631791381625
  0
LINE
  5
42BC
330
1E
100
AcDbEntity
  8
図面枠
  6
Continuous
100
AcDbLine
 10
3284.418449278618
 20
1617.61650023243
 30
0.0
 11
2746.549503864002
 21
1617.61650023243
 31
0.0
  0
LINE
  5
42BD
330
1E
100
AcDbEntity
  8
図面枠
  6
Continuous
100
AcDbLine
 10
2746.549503864002
 20
1617.61650023243
 30
0.0
 11
2746.549503864002
 21
1237.615582952494
 31
0.0
  0
LINE
  5
42BE
330
1E
100
AcDbEntity
  8
図面枠
  6
Continuous
100
AcDbLine
 10
3284.418449278618
 20
1237.615582952494
 30
0.0
 11
2746.549503864002
 21
1237.615582952494
 31
0.0
  0
LINE
  5
42BF
330
1E
100
AcDbEntity
  8
図面枠
  6
Continuous
100
AcDbLine
 10
3284.418449278618
 20
1617.61650023243
 30
0.0
 11
3284.418449278618
 21
1237.615582952494
 31
0.0
  0
LINE
  5
42C0
330
1E
100
AcDbEntity
  8
図面枠
  6
Continuous
100
AcDbLine
 10
3119.565110164526
 20
1241.806769540141
 30
0.0
 11
3133.535732123349
 21
1241.806769540141
 31
0.0
  0
LINE
  5
42C1
330
1E
100
AcDbEntity
  8
図面枠
  6
Continuous
100
AcDbLine
 10
3133.535732123349
 20
1241.806769540141
 30
0.0
 11
3147.506354082168
 21
1241.806769540141
 31
0.0
  0
LINE
  5
42C2
330
1E
100
AcDbEntity
  8
図面枠
  6
Continuous
100
AcDbLine
 10
3147.506354082168
 20
1241.806769540141
 30
0.0
 11
3161.476976040991
 21
1241.806769540141
 31
0.0
  0
LINE
  5
42C3
330
1E
100
AcDbEntity
  8
図面枠
  6
Continuous
100
AcDbLine
 10
3161.476976040991
 20
1241.806769540141
 30
0.0
 11
3181.035846783342
 21
1241.806769540141
 31
0.0
  0
LINE
  5
42C4
330
1E
100
AcDbEntity
  8
図面枠
  6
Continuous
100
AcDbLine
 10
3181.035846783342
 20
1241.806769540141
 30
0.0
 11
3181.035846783342
 21
1255.777391498962
 31
0.0
  0
LINE
  5
42C5
330
1E
100
AcDbEntity
  8
図面枠
  6
Continuous
100
AcDbLine
 10
3181.035846783342
 20
1255.777391498962
 30
0.0
 11
3181.035846783342
 21
1241.806769540141
 31
0.0
  0
LINE
  5
42C6
330
1E
100
AcDbEntity
  8
図面枠
  6
Continuous
100
AcDbLine
 10
3181.035846783342
 20
1241.806769540141
 30
0.0
 11
3200.594717525691
 21
1241.806769540141
 31
0.0
  0
LINE
  5
42C7
330
1E
100
AcDbEntity
  8
図面枠
  6
Continuous
100
AcDbLine
 10
3200.594717525691
 20
1241.806769540141
 30
0.0
 11
3200.594717525691
 21
1255.777391498962
 31
0.0
  0
LINE
  5
42C8
330
1E
100
AcDbEntity
  8
図面枠
  6
Continuous
100
AcDbLine
 10
3200.594717525691
 20
1255.777391498962
 30
0.0
 11
3181.035846783342
 21
1255.777391498962
 31
0.0
  0
LINE
  5
42C9
330
1E
100
AcDbEntity
  8
図面枠
  6
Continuous
100
AcDbLine
 10
3200.594717525691
 20
1255.777391498962
 30
0.0
 11
3200.594717525691
 21
1241.806769540141
 31
0.0
  0
LINE
  5
42CA
330
1E
100
AcDbEntity
  8
図面枠
  6
Continuous
100
AcDbLine
 10
3200.594717525691
 20
1241.806769540141
 30
0.0
 11
3215.962401680395
 21
1241.806769540141
 31
0.0
  0
LINE
  5
42CB
330
1E
100
AcDbEntity
  8
図面枠
  6
Continuous
100
AcDbLine
 10
3215.962401680395
 20
1241.806769540141
 30
0.0
 11
3215.962401680395
 21
1255.777391498962
 31
0.0
  0
LINE
  5
42CC
330
1E
100
AcDbEntity
  8
図面枠
  6
Continuous
100
AcDbLine
 10
3215.962401680395
 20
1255.777391498962
 30
0.0
 11
3200.594717525691
 21
1255.777391498962
 31
0.0
  0
LINE
  5
42CD
330
1E
100
AcDbEntity
  8
図面枠
  6
Continuous
100
AcDbLine
 10
3215.962401680395
 20
1255.777391498962
 30
0.0
 11
3215.962401680395
 21
1241.806769540141
 31
0.0
  0
LINE
  5
42CE
330
1E
100
AcDbEntity
  8
図面枠
  6
Continuous
100
AcDbLine
 10
3215.962401680395
 20
1241.806769540141
 30
0.0
 11
3221.550650463921
 21
1241.806769540141
 31
0.0
  0
LINE
  5
42CF
330
1E
100
AcDbEntity
  8
図面枠
  6
Continuous
100
AcDbLine
 10
3221.550650463921
 20
1241.806769540141
 30
0.0
 11
3221.550650463921
 21
1255.777391498962
 31
0.0
  0
LINE
  5
42D0
330
1E
100
AcDbEntity
  8
図面枠
  6
Continuous
100
AcDbLine
 10
3221.550650463921
 20
1255.777391498962
 30
0.0
 11
3215.962401680395
 21
1255.777391498962
 31
0.0
  0
LINE
  5
42D1
330
1E
100
AcDbEntity
  8
図面枠
  6
Continuous
100
AcDbLine
 10
3221.550650463921
 20
1255.777391498962
 30
0.0
 11
3221.550650463921
 21
1241.806769540141
 31
0.0
  0
LINE
  5
42D2
330
1E
100
AcDbEntity
  8
図面枠
  6
Continuous
100
AcDbLine
 10
3221.550650463921
 20
1241.806769540141
 30
0.0
 11
3280.227262690971
 21
1241.806769540141
 31
0.0
  0
LINE
  5
42D3
330
1E
100
AcDbEntity
  8
図面枠
  6
Continuous
100
AcDbLine
 10
3280.227262690971
 20
1241.806769540141
 30
0.0
 11
3280.227262690971
 21
1255.777391498962
 31
0.0
  0
LINE
  5
42D4
330
1E
100
AcDbEntity
  8
図面枠
  6
Continuous
100
AcDbLine
 10
3280.227262690971
 20
1255.777391498962
 30
0.0
 11
3221.550650463921
 21
1255.777391498962
 31
0.0
  0
LINE
  5
42D5
330
1E
100
AcDbEntity
  8
図面枠
  6
Continuous
100
AcDbLine
 10
3181.035846783342
 20
1262.762702478372
 30
0.0
 11
3181.035846783342
 21
1255.777391498962
 31
0.0
  0
LINE
  5
42D6
330
1E
100
AcDbEntity
  8
図面枠
  6
Continuous
100
AcDbLine
 10
3181.035846783342
 20
1269.748013457783
 30
0.0
 11
3181.035846783342
 21
1262.762702478372
 31
0.0
  0
LINE
  5
42D7
330
1E
100
AcDbEntity
  8
図面枠
  6
Continuous
100
AcDbLine
 10
3181.035846783342
 20
1276.733324437193
 30
0.0
 11
3181.035846783342
 21
1269.748013457783
 31
0.0
  0
LINE
  5
42D8
330
1E
100
AcDbEntity
  8
図面枠
  6
Continuous
100
AcDbLine
 10
3181.035846783342
 20
1276.733324437193
 30
0.0
 11
3181.035846783342
 21
1255.777391498962
 31
0.0
  0
LINE
  5
42D9
330
1E
100
AcDbEntity
  8
図面枠
  6
Continuous
100
AcDbLine
 10
3181.035846783342
 20
1255.777391498962
 30
0.0
 11
3188.021157762751
 21
1255.777391498962
 31
0.0
  0
LINE
  5
42DA
330
1E
100
AcDbEntity
  8
図面枠
  6
Continuous
100
AcDbLine
 10
3188.021157762751
 20
1255.777391498962
 30
0.0
 11
3188.021157762751
 21
1276.733324437193
 31
0.0
  0
LINE
  5
42DB
330
1E
100
AcDbEntity
  8
図面枠
  6
Continuous
100
AcDbLine
 10
3188.021157762751
 20
1276.733324437193
 30
0.0
 11
3181.035846783342
 21
1276.733324437193
 31
0.0
  0
LINE
  5
42DC
330
1E
100
AcDbEntity
  8
図面枠
  6
Continuous
100
AcDbLine
 10
3188.021157762751
 20
1255.777391498962
 30
0.0
 11
3188.021157762751
 21
1276.733324437193
 31
0.0
  0
LINE
  5
42DD
330
1E
100
AcDbEntity
  8
図面枠
  6
Continuous
100
AcDbLine
 10
3188.021157762751
 20
1276.733324437193
 30
0.0
 11
3280.227262690971
 21
1276.733324437193
 31
0.0
  0
LINE
  5
42DE
330
1E
100
AcDbEntity
  8
図面枠
  6
Continuous
100
AcDbLine
 10
3280.227262690971
 20
1276.733324437193
 30
0.0
 11
3280.227262690971
 21
1255.777391498962
 31
0.0
  0
LINE
  5
42DF
330
1E
100
AcDbEntity
  8
図面枠
  6
Continuous
100
AcDbLine
 10
3280.227262690971
 20
1255.777391498962
 30
0.0
 11
3188.021157762751
 21
1255.777391498962
 31
0.0
  0
LINE
  5
42E0
330
1E
100
AcDbEntity
  8
図面枠
  6
Continuous
100
AcDbLine
 10
3280.227262690971
 20
1304.674568354835
 30
0.0
 11
3280.227262690971
 21
1276.733324437193
 31
0.0
  0
LINE
  5
42E1
330
1E
100
AcDbEntity
  8
図面枠
  6
Continuous
100
AcDbLine
 10
3280.227262690971
 20
1276.733324437193
 30
0.0
 11
3181.035846783342
 21
1276.733324437193
 31
0.0
  0
LINE
  5
42E2
330
1E
100
AcDbEntity
  8
図面枠
  6
Continuous
100
AcDbLine
 10
3181.035846783342
 20
1248.792080519552
 30
0.0
 11
3215.962401680395
 21
1248.792080519552
 31
0.0
  0
LINE
  5
42E3
330
1E
100
AcDbEntity
  8
図面枠
  6
Continuous
100
AcDbLine
 10
3192.2123443504
 20
1265.417120650549
 30
0.0
 11
3275.756663664149
 21
1265.417120650549
 31
0.0
  0
LINE
  5
42E4
330
1E
100
AcDbEntity
  8
図面枠
  6
Continuous
100
AcDbLine
 10
2750.74069045165
 20
1613.425313644784
 30
0.0
 11
3280.227262690971
 21
1613.425313644784
 31
0.0
  0
LINE
  5
42E5
330
1E
100
AcDbEntity
  8
図面枠
  6
Continuous
100
AcDbLine
 10
2750.74069045165
 20
1241.806769540141
 30
0.0
 11
2750.74069045165
 21
1613.425313644784
 31
0.0
  0
LINE
  5
42E6
330
1E
100
AcDbEntity
  8
図面枠
  6
Continuous
100
AcDbLine
 10
3280.227262690971
 20
1613.425313644784
 30
0.0
 11
3280.227262690971
 21
1241.806769540141
 31
0.0
  0
LINE
  5
42E7
330
1E
100
AcDbEntity
  8
図面枠
  6
Continuous
100
AcDbLine
 10
3105.594488205709
 20
1241.806769540141
 30
0.0
 11
3119.565110164526
 21
1241.806769540141
 31
0.0
  0
LINE
  5
42E8
330
1E
100
AcDbEntity
  8
図面枠
  6
Continuous
100
AcDbLine
 10
3280.227262690971
 20
1241.806769540141
 30
0.0
 11
2750.74069045165
 21
1241.806769540141
 31
0.0
  0
TEXT
  5
42E9
330
1E
100
AcDbEntity
  8
図面枠
100
AcDbText
 10
3183.50771489693
 20
1249.434130152127
 30
0.0
 40
5.588248783528466
  1
尺度
 41
1.125
100
AcDbText
  0
TEXT
  5
42EA
330
1E
100
AcDbEntity
  8
図面枠
100
AcDbText
 10
3181.496255992568
 20
1274.026169180541
 30
0.0
 40
5.588248783528466
  1
名 称
 50
270.0
100
AcDbText
  0
TEXT
  5
42EB
330
1E
100
AcDbEntity
  8
図面枠
100
AcDbText
 10
3216.870492107716
 20
1243.622950394787
 30
0.0
 40
4.19118658764635
  1
番
100
AcDbText
  0
TEXT
  5
42EC
330
1E
100
AcDbEntity
  8
図面枠
100
AcDbText
 10
3184.474047291641
 20
1242.559421537538
 30
0.0
 40
4.19118658764635
  1
１：2
100
AcDbText
  0
TEXT
  5
42ED
330
1E
100
AcDbEntity
  8
図面枠
100
AcDbText
 10
3216.870492107716
 20
1250.221848129734
 30
0.0
 40
4.19118658764635
  1
図
100
AcDbText
  0
MTEXT
  5
42EE
330
1E
100
AcDbEntity
  8
図面枠
370
    30
100
AcDbMText
 10
3188.933593370291
 20
1236.49569472957
 30
0.0
 40
6.147073661881313
 41
101.4536467484948
 71
     1
 72
     5
  1
株式会社　関東油機サービス
 73
     1
 44
1.0
1001
ACAD
1000
MTEXTBEGIN
1070
    73
1070
     1
1070
    44
1040
1.0
1070
    74
1070
     0
1000
MTEXTEND
  0
MTEXT
  5
4319
330
1E
100
AcDbEntity
  8
ﾚｲﾔ1
 62
     5
100
AcDbMText
 10
3193.837839283929
 20
1270.627011960399
 30
0.0
 40
4.0
 41
87.73550590139848
 71
     1
 72
     5
  1
12トン75ストローク用ラムチェアー
 73
     1
 44
1.0
1001
ACAD
1000
MTEXTBEGIN
1070
    73
1070
     1
1070
    44
1040
1.0
1070
    74
1070
     0
1000
MTEXTEND
  0
ENDSEC
  0
SECTION
  2
OBJECTS
  0
DICTIONARY
  5
C
330
0
100
AcDbDictionary
281
     1
  3
ACAD_COLOR
350
1F9
  3
ACAD_GROUP
350
D
  3
ACAD_LAYOUT
350
19
  3
ACAD_MATERIAL
350
1F8
  3
ACAD_MLINESTYLE
350
16
  3
ACAD_PLOTSETTINGS
350
18
  3
ACAD_PLOTSTYLENAME
350
E
  3
AcadDim
350
3CDF
  3
ACDBHEADERROUNDTRIPXREC
350
43DC
  3
AcDbVariableDictionary
350
43D8
  0
DICTIONARY
  5
1F9
102
{ACAD_REACTORS
330
C
102
}
330
C
100
AcDbDictionary
281
     1
  0
DICTIONARY
  5
D
102
{ACAD_REACTORS
330
C
102
}
330
C
100
AcDbDictionary
281
     1
  0
DICTIONARY
  5
19
102
{ACAD_REACTORS
330
C
102
}
330
C
100
AcDbDictionary
281
     1
  3
Model
350
21
  3
ﾚｲｱｳﾄ1
350
1D
  0
DICTIONARY
  5
1F8
102
{ACAD_REACTORS
330
C
102
}
330
C
100
AcDbDictionary
281
     1
  0
DICTIONARY
  5
16
102
{ACAD_REACTORS
330
C
102
}
330
C
100
AcDbDictionary
281
     1
  3
Standard
350
17
  0
DICTIONARY
  5
18
102
{ACAD_REACTORS
330
C
102
}
330
C
100
AcDbDictionary
281
     1
  0
ACDBDICTIONARYWDFLT
  5
E
102
{ACAD_REACTORS
330
C
102
}
330
C
100
AcDbDictionary
281
     1
  3
Normal
350
F
100
AcDbDictionaryWithDefault
340
F
  0
XRECORD
  5
3CDF
102
{ACAD_REACTORS
330
C
102
}
330
C
100
AcDbXrecord
280
     1
 90
   990106
  3

 60
     0
 61
     0
 62
     1
 63
     3
 64
     0
 65
     0
 66
     0
 67
     3
 68
     1
 69
     0
 70
     0
 71
     0
 72
     0
 40
0.0
170
     0
  0
DICTIONARY
  5
43DC
102
{ACAD_REACTORS
330
C
102
}
330
C
100
AcDbDictionary
281
     1
  3
COLORDICT
350
43DE
  3
MATERIALDICT
350
43DD
  0
DICTIONARY
  5
43D8
102
{ACAD_REACTORS
330
C
102
}
330
C
100
AcDbDictionary
281
     1
  3
DIMASSOC
350
43D9
  3
PROJECTNAME
350
43DA
  0
LAYOUT
  5
21
102
{ACAD_XDICTIONARY
360
43E1
102
}
102
{ACAD_REACTORS
330
19
102
}
330
19
100
AcDbPlotSettings
  1

  2
倉庫ﾌﾟﾘﾝﾀ.pc3
  4
A3
  6

 40
5.873749732971191
 41
5.873747825622558
 42
5.873748779296875
 43
5.873748779296875
 44
296.9259948730469
 45
419.9466552734374
 46
-5.919999999999999
 47
-5.91
 48
-210.0
 49
-148.5
140
210.0
141
148.5
142
1.0
143
1.0
 70
 11940
 72
     1
 73
     1
 74
     1
  7

 75
     0
147
1.0
148
210.0064041928747
149
148.5045286792472
100
AcDbLayout
  1
Model
 70
     1
 71
     0
 10
0.0
 20
0.0
 11
12.0
 21
9.0
 12
0.0
 22
0.0
 32
0.0
 14
0.0
 24
0.0
 34
0.0
 15
0.0
 25
0.0
 35
0.0
146
0.0
 13
0.0
 23
0.0
 33
0.0
 16
1.0
 26
0.0
 36
0.0
 17
0.0
 27
1.0
 37
0.0
 76
     0
330
1E
  0
LAYOUT
  5
1D
102
{ACAD_XDICTIONARY
360
43DF
102
}
102
{ACAD_REACTORS
330
19
102
}
330
19
100
AcDbPlotSettings
  1

  2
なし
  4

  6

 40
0.0
 41
0.0
 42
0.0
 43
0.0
 44
0.0
 45
0.0
 46
0.0
 47
0.0
 48
0.0
 49
0.0
140
0.0
141
0.0
142
1.0
143
1.0
 70
   688
 72
     0
 73
     0
 74
     5
  7

 75
    16
147
1.0
148
0.0
149
0.0
100
AcDbLayout
  1
ﾚｲｱｳﾄ1
 70
     1
 71
     1
 10
0.0
 20
0.0
 11
12.0
 21
9.0
 12
0.0
 22
0.0
 32
0.0
 14
1.000000000000000E+20
 24
1.000000000000000E+20
 34
1.000000000000000E+20
 15
-1.000000000000000E+20
 25
-1.000000000000000E+20
 35
-1.000000000000000E+20
146
0.0
 13
0.0
 23
0.0
 33
0.0
 16
1.0
 26
0.0
 36
0.0
 17
0.0
 27
1.0
 37
0.0
 76
     0
330
1A
  0
MLINESTYLE
  5
17
102
{ACAD_REACTORS
330
16
102
}
330
16
100
AcDbMlineStyle
  2
STANDARD
 70
     0
  3

 62
   256
 51
90.0
 52
90.0
 71
     2
 49
0.5
 62
   256
  6
BYLAYER
 49
-0.5
 62
   256
  6
BYLAYER
  0
ACDBPLACEHOLDER
  5
F
102
{ACAD_REACTORS
330
E
102
}
330
E
  0
XRECORD
  5
43DE
102
{ACAD_REACTORS
330
43DC
102
}
330
43DC
100
AcDbXrecord
280
     1
340
1F9
  0
XRECORD
  5
43DD
102
{ACAD_REACTORS
330
43DC
102
}
330
43DC
100
AcDbXrecord
280
     1
340
1F8
  0
DICTIONARYVAR
  5
43D9
102
{ACAD_REACTORS
330
43D8
102
}
330
43D8
100
DictionaryVariables
280
     0
  1
1
  0
DICTIONARYVAR
  5
43DA
102
{ACAD_REACTORS
330
43D8
102
}
330
43D8
100
DictionaryVariables
280
     0
  1

  0
DICTIONARY
  5
43E1
330
21
100
AcDbDictionary
280
     1
281
     1
  3
ACAD_XREC_ROUNDTRIP
360
43E2
  0
DICTIONARY
  5
43DF
330
1D
100
AcDbDictionary
280
     1
281
     1
  3
ACAD_XREC_ROUNDTRIP
360
43E0
  0
XRECORD
  5
43E2
102
{ACAD_REACTORS
330
43E1
102
}
330
43E1
100
AcDbXrecord
280
     1
102
SHADEPLOT
 70
     0
102
SHADEPLOTRESLEVEL
 70
     2
102
SHADEPLOTCUSTOMDPI
 70
   300
  0
XRECORD
  5
43E0
102
{ACAD_REACTORS
330
43DF
102
}
330
43DF
100
AcDbXrecord
280
     1
102
SHADEPLOT
 70
     0
102
SHADEPLOTRESLEVEL
 70
     2
102
SHADEPLOTCUSTOMDPI
 70
   300
  0
ENDSEC
  0
EOF
