  0
SECTION
  2
HEADER
  9
$ACADVER
  1
AC1015
  9
$ACADMAINTVER
 70
     6
  9
$DWGCODEPAGE
  3
ANSI_932
  9
$INSBASE
 10
0.0
 20
0.0
 30
0.0
  9
$EXTMIN
 10
-88.77551939125169
 20
394.9282501544121
 30
0.0
  9
$EXTMAX
 10
1591.224480608748
 20
1582.928250154412
 30
0.0
  9
$LIMMIN
 10
-210.0
 20
-148.5
  9
$LIMMAX
 10
210.0
 20
148.5
  9
$ORTHOMODE
 70
     0
  9
$REGENMODE
 70
     1
  9
$FILLMODE
 70
     1
  9
$QTEXTMODE
 70
     0
  9
$MIRRTEXT
 70
     1
  9
$LTSCALE
 40
1.0
  9
$ATTMODE
 70
     1
  9
$TEXTSIZE
 40
1.0
  9
$TRACEWID
 40
0.05
  9
$TEXTSTYLE
  7
STANDARD
  9
$CLAYER
  8
図面枠
  9
$CELTYPE
  6
ByLayer
  9
$CECOLOR
 62
   256
  9
$CELTSCALE
 40
1.0
  9
$DISPSILH
 70
     0
  9
$DIMSCALE
 40
1.0
  9
$DIMASZ
 40
16.0
  9
$DIMEXO
 40
0.0625
  9
$DIMDLI
 40
0.38
  9
$DIMRND
 40
0.0
  9
$DIMDLE
 40
0.0
  9
$DIMEXE
 40
0.5
  9
$DIMTP
 40
0.0
  9
$DIMTM
 40
0.0
  9
$DIMTXT
 40
20.0
  9
$DIMCEN
 40
0.09
  9
$DIMTSZ
 40
0.0
  9
$DIMTOL
 70
     0
  9
$DIMLIM
 70
     0
  9
$DIMTIH
 70
     0
  9
$DIMTOH
 70
     0
  9
$DIMSE1
 70
     0
  9
$DIMSE2
 70
     0
  9
$DIMTAD
 70
     1
  9
$DIMZIN
 70
     0
  9
$DIMBLK
  1

  9
$DIMASO
 70
     1
  9
$DIMSHO
 70
     1
  9
$DIMPOST
  1

  9
$DIMAPOST
  1

  9
$DIMALT
 70
     0
  9
$DIMALTD
 70
     2
  9
$DIMALTF
 40
25.4
  9
$DIMLFAC
 40
1.0
  9
$DIMTOFL
 70
     0
  9
$DIMTVP
 40
0.0
  9
$DIMTIX
 70
     0
  9
$DIMSOXD
 70
     0
  9
$DIMSAH
 70
     0
  9
$DIMBLK1
  1

  9
$DIMBLK2
  1

  9
$DIMSTYLE
  2
Standard
  9
$DIMCLRD
 70
     1
  9
$DIMCLRE
 70
     1
  9
$DIMCLRT
 70
     1
  9
$DIMTFAC
 40
1.0
  9
$DIMGAP
 40
0.5
  9
$DIMJUST
 70
     0
  9
$DIMSD1
 70
     0
  9
$DIMSD2
 70
     0
  9
$DIMTOLJ
 70
     1
  9
$DIMTZIN
 70
     0
  9
$DIMALTZ
 70
     0
  9
$DIMALTTZ
 70
     0
  9
$DIMUPT
 70
     0
  9
$DIMDEC
 70
     0
  9
$DIMTDEC
 70
     0
  9
$DIMALTU
 70
     2
  9
$DIMALTTD
 70
     2
  9
$DIMTXSTY
  7
TextStyle01
  9
$DIMAUNIT
 70
     0
  9
$DIMADEC
 70
     0
  9
$DIMALTRND
 40
0.0
  9
$DIMAZIN
 70
     0
  9
$DIMDSEP
 70
    46
  9
$DIMATFIT
 70
     3
  9
$DIMFRAC
 70
     0
  9
$DIMLDRBLK
  1

  9
$DIMLUNIT
 70
     2
  9
$DIMLWD
 70
    -2
  9
$DIMLWE
 70
    -2
  9
$DIMTMOVE
 70
     2
  9
$LUNITS
 70
     2
  9
$LUPREC
 70
     4
  9
$SKETCHINC
 40
0.1
  9
$FILLETRAD
 40
0.0
  9
$AUNITS
 70
     0
  9
$AUPREC
 70
     0
  9
$MENU
  1
acad
  9
$ELEVATION
 40
0.0
  9
$PELEVATION
 40
0.0
  9
$THICKNESS
 40
0.0
  9
$LIMCHECK
 70
     0
  9
$CHAMFERA
 40
0.0
  9
$CHAMFERB
 40
0.0
  9
$CHAMFERC
 40
0.0
  9
$CHAMFERD
 40
0.0
  9
$SKPOLY
 70
     0
  9
$TDCREATE
 40
2449944.925517361
  9
$TDUCREATE
 40
2449944.550517361
  9
$TDUPDATE
 40
2460004.555821435
  9
$TDUUPDATE
 40
2460004.180821435
  9
$TDINDWG
 40
0.5238039931
  9
$TDUSRTIMER
 40
0.000754456
  9
$USRTIMER
 70
     1
  9
$ANGBASE
 50
0.0
  9
$ANGDIR
 70
     0
  9
$PDMODE
 70
     0
  9
$PDSIZE
 40
1.5
  9
$PLINEWID
 40
0.0
  9
$SPLFRAME
 70
     0
  9
$SPLINETYPE
 70
     6
  9
$SPLINESEGS
 70
     8
  9
$HANDSEED
  5
F3E
  9
$SURFTAB1
 70
     6
  9
$SURFTAB2
 70
     6
  9
$SURFTYPE
 70
     6
  9
$SURFU
 70
     6
  9
$SURFV
 70
     6
  9
$UCSBASE
  2

  9
$UCSNAME
  2

  9
$UCSORG
 10
0.0
 20
0.0
 30
0.0
  9
$UCSXDIR
 10
1.0
 20
0.0
 30
0.0
  9
$UCSYDIR
 10
0.0
 20
1.0
 30
0.0
  9
$UCSORTHOREF
  2

  9
$UCSORTHOVIEW
 70
     0
  9
$UCSORGTOP
 10
0.0
 20
0.0
 30
0.0
  9
$UCSORGBOTTOM
 10
0.0
 20
0.0
 30
0.0
  9
$UCSORGLEFT
 10
0.0
 20
0.0
 30
0.0
  9
$UCSORGRIGHT
 10
0.0
 20
0.0
 30
0.0
  9
$UCSORGFRONT
 10
0.0
 20
0.0
 30
0.0
  9
$UCSORGBACK
 10
0.0
 20
0.0
 30
0.0
  9
$PUCSBASE
  2

  9
$PUCSNAME
  2

  9
$PUCSORG
 10
0.0
 20
0.0
 30
0.0
  9
$PUCSXDIR
 10
1.0
 20
0.0
 30
0.0
  9
$PUCSYDIR
 10
0.0
 20
1.0
 30
0.0
  9
$PUCSORTHOREF
  2

  9
$PUCSORTHOVIEW
 70
     0
  9
$PUCSORGTOP
 10
0.0
 20
0.0
 30
0.0
  9
$PUCSORGBOTTOM
 10
0.0
 20
0.0
 30
0.0
  9
$PUCSORGLEFT
 10
0.0
 20
0.0
 30
0.0
  9
$PUCSORGRIGHT
 10
0.0
 20
0.0
 30
0.0
  9
$PUCSORGFRONT
 10
0.0
 20
0.0
 30
0.0
  9
$PUCSORGBACK
 10
0.0
 20
0.0
 30
0.0
  9
$USERI1
 70
     0
  9
$USERI2
 70
     0
  9
$USERI3
 70
     0
  9
$USERI4
 70
     0
  9
$USERI5
 70
     0
  9
$USERR1
 40
0.0
  9
$USERR2
 40
0.0
  9
$USERR3
 40
0.0
  9
$USERR4
 40
0.0
  9
$USERR5
 40
0.0
  9
$WORLDVIEW
 70
     1
  9
$SHADEDGE
 70
     3
  9
$SHADEDIF
 70
    70
  9
$TILEMODE
 70
     1
  9
$MAXACTVP
 70
    16
  9
$PINSBASE
 10
0.0
 20
0.0
 30
0.0
  9
$PLIMCHECK
 70
     0
  9
$PEXTMIN
 10
1.000000000000000E+20
 20
1.000000000000000E+20
 30
1.000000000000000E+20
  9
$PEXTMAX
 10
-1.000000000000000E+20
 20
-1.000000000000000E+20
 30
-1.000000000000000E+20
  9
$PLIMMIN
 10
0.0
 20
0.0
  9
$PLIMMAX
 10
0.0
 20
0.0
  9
$UNITMODE
 70
     0
  9
$VISRETAIN
 70
     0
  9
$PLINEGEN
 70
     0
  9
$PSLTSCALE
 70
     1
  9
$TREEDEPTH
 70
  3020
  9
$CMLSTYLE
  2
Standard
  9
$CMLJUST
 70
     0
  9
$CMLSCALE
 40
1.0
  9
$PROXYGRAPHICS
 70
     1
  9
$MEASUREMENT
 70
     0
  9
$CELWEIGHT
370
    -1
  9
$ENDCAPS
280
     0
  9
$JOINSTYLE
280
     0
  9
$LWDISPLAY
290
     0
  9
$INSUNITS
 70
     0
  9
$HYPERLINKBASE
  1

  9
$STYLESHEET
  1

  9
$XEDIT
290
     1
  9
$CEPSNTYPE
380
     0
  9
$PSTYLEMODE
290
     1
  9
$FINGERPRINTGUID
  2
{3F05092E-EABE-41D4-925D-E3C07104686B}
  9
$VERSIONGUID
  2
{F7797932-FB85-4920-932C-ACF513F92A0E}
  9
$EXTNAMES
290
     1
  9
$PSVPSCALE
 40
0.0
  9
$OLESTARTUP
290
     0
  0
ENDSEC
  0
SECTION
  2
CLASSES
  0
CLASS
  1
ACDBDICTIONARYWDFLT
  2
AcDbDictionaryWithDefault
  3
ObjectDBX Classes
 90
        0
280
     0
281
     0
  0
CLASS
  1
ACDBPLACEHOLDER
  2
AcDbPlaceHolder
  3
ObjectDBX Classes
 90
        0
280
     0
281
     0
  0
CLASS
  1
LAYOUT
  2
AcDbLayout
  3
ObjectDBX Classes
 90
        0
280
     0
281
     0
  0
CLASS
  1
MATERIAL
  2
AcDbMaterial
  3
ObjectDBX Classes
 90
     1153
280
     0
281
     0
  0
CLASS
  1
VISUALSTYLE
  2
AcDbVisualStyle
  3
ObjectDBX Classes
 90
     4095
280
     0
281
     0
  0
CLASS
  1
TABLESTYLE
  2
AcDbTableStyle
  3
ObjectDBX Classes
 90
     4095
280
     0
281
     0
  0
CLASS
  1
SCALE
  2
AcDbScale
  3
ObjectDBX Classes
 90
     1153
280
     0
281
     0
  0
CLASS
  1
MLEADERSTYLE
  2
AcDbMLeaderStyle
  3
ACDB_MLEADERSTYLE_CLASS
 90
     4095
280
     0
281
     0
  0
CLASS
  1
CELLSTYLEMAP
  2
AcDbCellStyleMap
  3
ObjectDBX Classes
 90
     1152
280
     0
281
     0
  0
CLASS
  1
DICTIONARYVAR
  2
AcDbDictionaryVar
  3
ObjectDBX Classes
 90
        0
280
     0
281
     0
  0
ENDSEC
  0
SECTION
  2
TABLES
  0
TABLE
  2
VPORT
  5
8
330
0
100
AcDbSymbolTable
 70
     1
  0
VPORT
  5
EF4
330
8
100
AcDbSymbolTableRecord
100
AcDbViewportTableRecord
  2
*Active
 70
     0
 10
0.0
 20
0.0
 11
1.0
 21
1.0
 12
1250.574540631554
 22
499.7717080561844
 13
0.0
 23
0.0
 14
1.0
 24
1.0
 15
0.0
 25
0.0
 16
0.0
 26
0.0
 36
1.0
 17
0.0
 27
0.0
 37
0.0
 40
305.5773604706849
 41
1.822754491017964
 42
50.0
 43
0.0
 44
0.0
 50
0.0
 51
0.0
 71
    16
 72
   100
 73
     1
 74
     0
 75
     0
 76
     0
 77
     0
 78
     0
281
     0
 65
     1
110
0.0
120
0.0
130
0.0
111
1.0
121
0.0
131
0.0
112
0.0
122
1.0
132
0.0
 79
     0
146
0.0
  0
ENDTAB
  0
TABLE
  2
LTYPE
  5
5
330
0
100
AcDbSymbolTable
 70
     9
  0
LTYPE
  5
13
330
5
100
AcDbSymbolTableRecord
100
AcDbLinetypeTableRecord
  2
ByBlock
 70
     0
  3

 72
    65
 73
     0
 40
0.0
  0
LTYPE
  5
14
330
5
100
AcDbSymbolTableRecord
100
AcDbLinetypeTableRecord
  2
ByLayer
 70
     0
  3

 72
    65
 73
     0
 40
0.0
  0
LTYPE
  5
15
330
5
100
AcDbSymbolTableRecord
100
AcDbLinetypeTableRecord
  2
CONTINUOUS
 70
     0
  3
実線
 72
    65
 73
     0
 40
0.0
  0
LTYPE
  5
2D
330
5
100
AcDbSymbolTableRecord
100
AcDbLinetypeTableRecord
  2
DASHED
 70
     0
  3
破線A
 72
    65
 73
     2
 40
7.5
 49
5.0
 74
     0
 49
-2.5
 74
     0
  0
LTYPE
  5
2E
330
5
100
AcDbSymbolTableRecord
100
AcDbLinetypeTableRecord
  2
DASHEDX2
 70
     0
  3
破線B
 72
    65
 73
     2
 40
15.0
 49
10.0
 74
     0
 49
-5.0
 74
     0
  0
LTYPE
  5
2F
330
5
100
AcDbSymbolTableRecord
100
AcDbLinetypeTableRecord
  2
DASHDOT
 70
     0
  3
１点鎖線A
 72
    65
 73
     4
 40
10.0
 49
5.0
 74
     0
 49
-2.5
 74
     0
 49
0.0
 74
     0
 49
-2.5
 74
     0
  0
LTYPE
  5
30
330
5
100
AcDbSymbolTableRecord
100
AcDbLinetypeTableRecord
  2
DASHDOTX2
 70
     0
  3
１点鎖線B
 72
    65
 73
     4
 40
20.0
 49
10.0
 74
     0
 49
-5.0
 74
     0
 49
0.0
 74
     0
 49
-5.0
 74
     0
  0
LTYPE
  5
31
330
5
100
AcDbSymbolTableRecord
100
AcDbLinetypeTableRecord
  2
DIVIDE2
 70
     0
  3
２点鎖線A
 72
    65
 73
     6
 40
6.25
 49
2.5
 74
     0
 49
-1.25
 74
     0
 49
0.0
 74
     0
 49
-1.25
 74
     0
 49
0.0
 74
     0
 49
-1.25
 74
     0
  0
LTYPE
  5
32
330
5
100
AcDbSymbolTableRecord
100
AcDbLinetypeTableRecord
  2
DIVIDE
 70
     0
  3
２点鎖線B
 72
    65
 73
     6
 40
12.5
 49
5.0
 74
     0
 49
-2.5
 74
     0
 49
0.0
 74
     0
 49
-2.5
 74
     0
 49
0.0
 74
     0
 49
-2.5
 74
     0
  0
LTYPE
  5
33
330
5
100
AcDbSymbolTableRecord
100
AcDbLinetypeTableRecord
  2
DOT
 70
     0
  3
点線A
 72
    65
 73
     2
 40
2.5
 49
0.0
 74
     0
 49
-2.5
 74
     0
  0
LTYPE
  5
34
330
5
100
AcDbSymbolTableRecord
100
AcDbLinetypeTableRecord
  2
DOTX2
 70
     0
  3
点線B
 72
    65
 73
     2
 40
5.0
 49
0.0
 74
     0
 49
-5.0
 74
     0
  0
ENDTAB
  0
TABLE
  2
LAYER
  5
2
102
{ACAD_XDICTIONARY
360
F09
102
}
330
0
100
AcDbSymbolTable
 70
     8
  0
LAYER
  5
10
102
{ACAD_XDICTIONARY
360
CFE
102
}
330
2
100
AcDbSymbolTableRecord
100
AcDbLayerTableRecord
  2
ﾚｲﾔ1
 70
     0
 62
     7
  6
CONTINUOUS
370
    -3
390
F
  0
LAYER
  5
4C
330
2
100
AcDbSymbolTableRecord
100
AcDbLayerTableRecord
  2
0
 70
     0
 62
     7
  6
CONTINUOUS
370
    -3
390
F
  0
LAYER
  5
16B
102
{ACAD_XDICTIONARY
360
D00
102
}
330
2
100
AcDbSymbolTableRecord
100
AcDbLayerTableRecord
  2
図面
 70
     0
 62
     7
  6
CONTINUOUS
370
    -3
390
F
  0
LAYER
  5
16C
102
{ACAD_XDICTIONARY
360
D02
102
}
330
2
100
AcDbSymbolTableRecord
100
AcDbLayerTableRecord
  2
図面枠
 70
     0
 62
     5
  6
CONTINUOUS
370
    -3
390
F
  0
LAYER
  5
1AB
102
{ACAD_XDICTIONARY
360
D04
102
}
330
2
100
AcDbSymbolTableRecord
100
AcDbLayerTableRecord
  2
下図
 70
     0
 62
     8
  6
CONTINUOUS
290
     0
370
    -3
390
F
  0
LAYER
  5
1CD
102
{ACAD_XDICTIONARY
360
D06
102
}
330
2
100
AcDbSymbolTableRecord
100
AcDbLayerTableRecord
  2
文字
 70
     0
 62
     7
  6
CONTINUOUS
370
    -3
390
F
  0
LAYER
  5
620
102
{ACAD_XDICTIONARY
360
D08
102
}
330
2
100
AcDbSymbolTableRecord
100
AcDbLayerTableRecord
  2
補助線
 70
     0
 62
     1
  6
DASHDOT
370
    -3
390
F
  0
LAYER
  5
6BF
330
2
100
AcDbSymbolTableRecord
100
AcDbLayerTableRecord
  2
Defpoints
 70
     0
 62
     7
  6
CONTINUOUS
290
     0
370
    -3
390
F
  0
ENDTAB
  0
TABLE
  2
STYLE
  5
3
330
0
100
AcDbSymbolTable
 70
    14
  0
STYLE
  5
11
330
3
100
AcDbSymbolTableRecord
100
AcDbTextStyleTableRecord
  2
STANDARD
 70
     0
 40
1.0
 41
1.0
 50
0.0
 71
     0
 42
1.0
  3
TXT
  4
BIGFONT
  0
STYLE
  5
22
330
3
100
AcDbSymbolTableRecord
100
AcDbTextStyleTableRecord
  2
TATE
 70
     4
 40
1.0
 41
1.0
 50
0.0
 71
     0
 42
1.0
  3
TXT
  4
BIGFONT
  0
STYLE
  5
23
330
3
100
AcDbSymbolTableRecord
100
AcDbTextStyleTableRecord
  2
TextStyle01
 70
     0
 40
0.0
 41
1.0
 50
0.0
 71
     0
 42
0.0
  3
TXT
  4
BIGFONT
  0
STYLE
  5
24
330
3
100
AcDbSymbolTableRecord
100
AcDbTextStyleTableRecord
  2
TextStyle02
 70
     0
 40
0.0
 41
1.0
 50
0.0
 71
     0
 42
0.0
  3
TXT
  4
BIGFONT
  0
STYLE
  5
25
330
3
100
AcDbSymbolTableRecord
100
AcDbTextStyleTableRecord
  2
TextStyle03
 70
     0
 40
0.0
 41
1.0
 50
0.0
 71
     0
 42
0.0
  3
TXT
  4
BIGFONT
  0
STYLE
  5
26
330
3
100
AcDbSymbolTableRecord
100
AcDbTextStyleTableRecord
  2
TextStyle04
 70
     0
 40
0.0
 41
1.0
 50
0.0
 71
     0
 42
0.0
  3
TXT
  4
BIGFONT
  0
STYLE
  5
27
330
3
100
AcDbSymbolTableRecord
100
AcDbTextStyleTableRecord
  2
TextStyle05
 70
     0
 40
0.0
 41
1.0
 50
0.0
 71
     0
 42
0.0
  3
TXT
  4
BIGFONT
  0
STYLE
  5
28
330
3
100
AcDbSymbolTableRecord
100
AcDbTextStyleTableRecord
  2
TextStyle06
 70
     0
 40
0.0
 41
1.0
 50
0.0
 71
     0
 42
0.0
  3

  4

  0
STYLE
  5
29
330
3
100
AcDbSymbolTableRecord
100
AcDbTextStyleTableRecord
  2
TextStyle07
 70
     0
 40
0.0
 41
1.0
 50
0.0
 71
     0
 42
0.0
  3

  4

  0
STYLE
  5
2A
330
3
100
AcDbSymbolTableRecord
100
AcDbTextStyleTableRecord
  2
TextStyle08
 70
     0
 40
0.0
 41
1.0
 50
0.0
 71
     0
 42
0.0
  3

  4

  0
STYLE
  5
2B
330
3
100
AcDbSymbolTableRecord
100
AcDbTextStyleTableRecord
  2
TextStyle09
 70
     0
 40
0.0
 41
1.0
 50
0.0
 71
     0
 42
0.0
  3

  4

  0
STYLE
  5
2C
330
3
100
AcDbSymbolTableRecord
100
AcDbTextStyleTableRecord
  2
TextStyle10
 70
     0
 40
0.0
 41
1.0
 50
0.0
 71
     0
 42
0.0
  3

  4

  0
STYLE
  5
5B9
330
3
100
AcDbSymbolTableRecord
100
AcDbTextStyleTableRecord
  2
WMF-ＭＳ Ｐ明朝0
 70
     0
 40
0.0
 41
1.0
 50
0.0
 71
     0
 42
1.0
  3
MS PMincho.ttf
  4

1001
ACAD
1000
MS PMincho
1071
    32768
  0
STYLE
  5
5BA
330
3
100
AcDbSymbolTableRecord
100
AcDbTextStyleTableRecord
  2
WMF-System0
 70
     0
 40
0.0
 41
1.0
 50
0.0
 71
     0
 42
1.0
  3

  4

  0
ENDTAB
  0
TABLE
  2
VIEW
  5
6
330
0
100
AcDbSymbolTable
 70
     0
  0
ENDTAB
  0
TABLE
  2
UCS
  5
7
330
0
100
AcDbSymbolTable
 70
     0
  0
ENDTAB
  0
TABLE
  2
APPID
  5
9
330
0
100
AcDbSymbolTable
 70
     3
  0
APPID
  5
12
330
9
100
AcDbSymbolTableRecord
100
AcDbRegAppTableRecord
  2
ACAD
 70
     0
  0
APPID
  5
CF8
330
9
100
AcDbSymbolTableRecord
100
AcDbRegAppTableRecord
  2
ACAD_MLEADERVER
 70
     0
  0
APPID
  5
F17
330
9
100
AcDbSymbolTableRecord
100
AcDbRegAppTableRecord
  2
PLOTTRANSPARENCY
 70
     0
  0
ENDTAB
  0
TABLE
  2
DIMSTYLE
  5
A
330
0
100
AcDbSymbolTable
 70
     1
100
AcDbDimStyleTable
  0
DIMSTYLE
105
142
102
{ACAD_REACTORS
330
6CC
330
6D9
330
6E6
330
736
330
7EE
330
7FB
330
808
330
A10
330
A1E
330
AAC
330
AC6
330
AE8
330
B1B
330
B41
330
B4F
330
B65
330
B6F
330
BC4
330
BE6
330
C3F
330
C4C
330
C62
330
C70
330
C8A
330
C98
330
A68
330
A6C
102
}
330
A
100
AcDbSymbolTableRecord
100
AcDbDimStyleTableRecord
  2
Standard
 70
     0
178
     0
340
11
  0
ENDTAB
  0
TABLE
  2
BLOCK_RECORD
  5
1
330
0
100
AcDbSymbolTable
 70
    29
  0
BLOCK_RECORD
  5
1E
102
{ACAD_XDICTIONARY
360
F18
102
}
330
1
100
AcDbSymbolTableRecord
100
AcDbBlockTableRecord
  2
*Model_Space
340
21
  0
BLOCK_RECORD
  5
1A
330
1
100
AcDbSymbolTableRecord
100
AcDbBlockTableRecord
  2
*Paper_Space
340
1D
  0
BLOCK_RECORD
  5
1C1
330
1
100
AcDbSymbolTableRecord
100
AcDbBlockTableRecord
  2
_Open30
340
0
  0
BLOCK_RECORD
  5
5B5
330
1
100
AcDbSymbolTableRecord
100
AcDbBlockTableRecord
  2
WMF0
340
0
  0
BLOCK_RECORD
  5
5F4
330
1
100
AcDbSymbolTableRecord
100
AcDbBlockTableRecord
  2
WMF1
340
0
  0
BLOCK_RECORD
  5
6CD
330
1
100
AcDbSymbolTableRecord
100
AcDbBlockTableRecord
  2
*D3
340
0
  0
BLOCK_RECORD
  5
6DA
330
1
100
AcDbSymbolTableRecord
100
AcDbBlockTableRecord
  2
*D4
340
0
  0
BLOCK_RECORD
  5
6E7
330
1
100
AcDbSymbolTableRecord
100
AcDbBlockTableRecord
  2
*D5
340
0
  0
BLOCK_RECORD
  5
737
330
1
100
AcDbSymbolTableRecord
100
AcDbBlockTableRecord
  2
*D6
340
0
  0
BLOCK_RECORD
  5
7EF
330
1
100
AcDbSymbolTableRecord
100
AcDbBlockTableRecord
  2
*D7
340
0
  0
BLOCK_RECORD
  5
7FC
330
1
100
AcDbSymbolTableRecord
100
AcDbBlockTableRecord
  2
*D8
340
0
  0
BLOCK_RECORD
  5
809
330
1
100
AcDbSymbolTableRecord
100
AcDbBlockTableRecord
  2
*D9
340
0
  0
BLOCK_RECORD
  5
A11
330
1
100
AcDbSymbolTableRecord
100
AcDbBlockTableRecord
  2
*D10
340
0
  0
BLOCK_RECORD
  5
A1F
330
1
100
AcDbSymbolTableRecord
100
AcDbBlockTableRecord
  2
*D11
340
0
  0
BLOCK_RECORD
  5
AAD
330
1
100
AcDbSymbolTableRecord
100
AcDbBlockTableRecord
  2
*D12
340
0
  0
BLOCK_RECORD
  5
AC7
330
1
100
AcDbSymbolTableRecord
100
AcDbBlockTableRecord
  2
*D13
340
0
  0
BLOCK_RECORD
  5
AE9
330
1
100
AcDbSymbolTableRecord
100
AcDbBlockTableRecord
  2
*D14
340
0
  0
BLOCK_RECORD
  5
B1C
330
1
100
AcDbSymbolTableRecord
100
AcDbBlockTableRecord
  2
*D15
340
0
  0
BLOCK_RECORD
  5
B42
330
1
100
AcDbSymbolTableRecord
100
AcDbBlockTableRecord
  2
*D16
340
0
  0
BLOCK_RECORD
  5
B50
330
1
100
AcDbSymbolTableRecord
100
AcDbBlockTableRecord
  2
*D17
340
0
  0
BLOCK_RECORD
  5
B66
330
1
100
AcDbSymbolTableRecord
100
AcDbBlockTableRecord
  2
*D18
340
0
  0
BLOCK_RECORD
  5
B70
330
1
100
AcDbSymbolTableRecord
100
AcDbBlockTableRecord
  2
*D19
340
0
  0
BLOCK_RECORD
  5
BC5
330
1
100
AcDbSymbolTableRecord
100
AcDbBlockTableRecord
  2
*D20
340
0
  0
BLOCK_RECORD
  5
BE7
330
1
100
AcDbSymbolTableRecord
100
AcDbBlockTableRecord
  2
*D21
340
0
  0
BLOCK_RECORD
  5
C40
330
1
100
AcDbSymbolTableRecord
100
AcDbBlockTableRecord
  2
*D22
340
0
  0
BLOCK_RECORD
  5
C4D
330
1
100
AcDbSymbolTableRecord
100
AcDbBlockTableRecord
  2
*D23
340
0
  0
BLOCK_RECORD
  5
C63
330
1
100
AcDbSymbolTableRecord
100
AcDbBlockTableRecord
  2
*D24
340
0
  0
BLOCK_RECORD
  5
C71
330
1
100
AcDbSymbolTableRecord
100
AcDbBlockTableRecord
  2
*D25
340
0
  0
BLOCK_RECORD
  5
C8B
330
1
100
AcDbSymbolTableRecord
100
AcDbBlockTableRecord
  2
*D26
340
0
  0
BLOCK_RECORD
  5
C99
330
1
100
AcDbSymbolTableRecord
100
AcDbBlockTableRecord
  2
*D27
340
0
  0
BLOCK_RECORD
  5
D2F
330
1
100
AcDbSymbolTableRecord
100
AcDbBlockTableRecord
  2
_Open
340
0
102
{BLKREFS
331
E84
331
E85
331
E8D
331
E8E
331
E68
331
E69
331
E56
331
E57
331
DB5
331
DB6
331
EBD
331
EBE
331
EC6
331
EC7
331
ED9
331
EDA
331
E97
331
E98
331
EA1
331
EA2
331
E5F
331
E60
331
E71
331
E72
331
E7B
331
E7C
331
EB4
331
EB5
331
EAB
331
EAC
331
ED0
331
ED1
102
}
  0
ENDTAB
  0
ENDSEC
  0
SECTION
  2
BLOCKS
  0
BLOCK
  5
4F
330
1E
100
AcDbEntity
  8
0
100
AcDbBlockBegin
  2
*Model_Space
 70
     0
 10
0.0
 20
0.0
 30
0.0
  3
*Model_Space
  1

  0
ENDBLK
  5
50
330
1E
100
AcDbEntity
  8
0
100
AcDbBlockEnd
  0
BLOCK
  5
4D
330
1A
100
AcDbEntity
 67
     1
  8
0
100
AcDbBlockBegin
  2
*Paper_Space
 70
     0
 10
0.0
 20
0.0
 30
0.0
  3
*Paper_Space
  1

  0
ENDBLK
  5
4E
330
1A
100
AcDbEntity
 67
     1
  8
0
100
AcDbBlockEnd
  0
BLOCK
  5
1C5
330
1C1
100
AcDbEntity
  8
0
100
AcDbBlockBegin
  2
_Open30
 70
     0
 10
0.0
 20
0.0
 30
0.0
  3
_Open30
  1

  0
LINE
  5
1C2
330
1C1
100
AcDbEntity
  8
下図
 62
     0
370
    -2
100
AcDbLine
 10
-1.0
 20
0.26794919
 30
0.0
 11
0.0
 21
0.0
 31
0.0
  0
LINE
  5
1C3
330
1C1
100
AcDbEntity
  8
下図
 62
     0
370
    -2
100
AcDbLine
 10
0.0
 20
0.0
 30
0.0
 11
-1.0
 21
-0.26794919
 31
0.0
  0
LINE
  5
1C4
330
1C1
100
AcDbEntity
  8
下図
 62
     0
370
    -2
100
AcDbLine
 10
0.0
 20
0.0
 30
0.0
 11
-1.0
 21
0.0
 31
0.0
  0
ENDBLK
  5
1C6
330
1C1
100
AcDbEntity
  8
0
100
AcDbBlockEnd
  0
BLOCK
  5
5B8
330
5B5
100
AcDbEntity
  8
ﾚｲﾔ1
 62
     0
370
     0
100
AcDbBlockBegin
  2
WMF0
 70
     0
 10
0.0
 20
0.0
 30
0.0
  3
WMF0
  1

  0
TEXT
  5
5BB
330
5B5
100
AcDbEntity
  8
ﾚｲﾔ1
 62
     7
370
     0
100
AcDbText
 10
0.3008669911924759
 20
-1.323814761246894
 30
0.0
 40
0.9507396921682238
  1
能
  7
WMF-ＭＳ Ｐ明朝0
100
AcDbText
  0
TEXT
  5
5BD
330
5B5
100
AcDbEntity
  8
ﾚｲﾔ1
 62
     7
370
     0
100
AcDbText
 10
6.93498414698657
 20
-1.323814761246894
 30
0.0
 40
0.9507396921682238
  1
力
  7
WMF-ＭＳ Ｐ明朝0
100
AcDbText
  0
TEXT
  5
5BE
330
5B5
100
AcDbEntity
  8
ﾚｲﾔ1
 62
     7
370
     0
100
AcDbText
 10
0.3008669911924759
 20
-2.858236416328521
 30
0.0
 40
0.9507396921682238
  1
ス
  7
WMF-ＭＳ Ｐ明朝0
100
AcDbText
  0
TEXT
  5
5BF
330
5B5
100
AcDbEntity
  8
ﾚｲﾔ1
 62
     7
370
     0
100
AcDbText
 10
2.075982239228083
 20
-2.858236416328521
 30
0.0
 40
0.9507396921682238
  1
ト
  7
WMF-ＭＳ Ｐ明朝0
100
AcDbText
  0
TEXT
  5
5C0
330
5B5
100
AcDbEntity
  8
ﾚｲﾔ1
 62
     7
370
     0
100
AcDbText
 10
3.535187146511592
 20
-2.858236416328521
 30
0.0
 40
0.9507396921682238
  1
ロ
  7
WMF-ＭＳ Ｐ明朝0
100
AcDbText
  0
TEXT
  5
5C1
330
5B5
100
AcDbEntity
  8
ﾚｲﾔ1
 62
     7
370
     0
100
AcDbText
 10
5.265172345868328
 20
-2.858236416328521
 30
0.0
 40
0.9507396921682238
  1
ー
  7
WMF-ＭＳ Ｐ明朝0
100
AcDbText
  0
TEXT
  5
5C2
330
5B5
100
AcDbEntity
  8
ﾚｲﾔ1
 62
     7
370
     0
100
AcDbText
 10
7.280981186857917
 20
-2.858236416328521
 30
0.0
 40
0.9507396921682238
  1
ク
  7
WMF-ＭＳ Ｐ明朝0
100
AcDbText
  0
TEXT
  5
5C3
330
5B5
100
AcDbEntity
  8
ﾚｲﾔ1
 62
     7
370
     0
100
AcDbText
 10
0.3008669911924759
 20
-4.392658071410147
 30
0.0
 40
0.9507396921682238
  1
外
  7
WMF-ＭＳ Ｐ明朝0
100
AcDbText
  0
TEXT
  5
5C4
330
5B5
100
AcDbEntity
  8
ﾚｲﾔ1
 62
     7
370
     0
100
AcDbText
 10
6.93498414698657
 20
-4.392658071410147
 30
0.0
 40
0.9507396921682238
  1
径
  7
WMF-ＭＳ Ｐ明朝0
100
AcDbText
  0
TEXT
  5
5C5
330
5B5
100
AcDbEntity
  8
ﾚｲﾔ1
 62
     7
370
     0
100
AcDbText
 10
0.3008669911924759
 20
-5.927079726491776
 30
0.0
 40
0.9507396921682238
  1
内
  7
WMF-ＭＳ Ｐ明朝0
100
AcDbText
  0
TEXT
  5
5C6
330
5B5
100
AcDbEntity
  8
ﾚｲﾔ1
 62
     7
370
     0
100
AcDbText
 10
6.93498414698657
 20
-5.927079726491776
 30
0.0
 40
0.9507396921682238
  1
径
  7
WMF-ＭＳ Ｐ明朝0
100
AcDbText
  0
TEXT
  5
5C7
330
5B5
100
AcDbEntity
  8
ﾚｲﾔ1
 62
     7
370
     0
100
AcDbText
 10
0.3008669911924759
 20
-7.461501381573402
 30
0.0
 40
0.9507396921682238
  1
受
  7
WMF-ＭＳ Ｐ明朝0
100
AcDbText
  0
TEXT
  5
5C8
330
5B5
100
AcDbEntity
  8
ﾚｲﾔ1
 62
     7
370
     0
100
AcDbText
 10
2.512239376457173
 20
-7.461501381573402
 30
0.0
 40
0.9507396921682238
  1
圧
  7
WMF-ＭＳ Ｐ明朝0
100
AcDbText
  0
TEXT
  5
5C9
330
5B5
100
AcDbEntity
  8
ﾚｲﾔ1
 62
     7
370
     0
100
AcDbText
 10
4.723611761721872
 20
-7.461501381573402
 30
0.0
 40
0.9507396921682238
  1
面
  7
WMF-ＭＳ Ｐ明朝0
100
AcDbText
  0
TEXT
  5
5CA
330
5B5
100
AcDbEntity
  8
ﾚｲﾔ1
 62
     7
370
     0
100
AcDbText
 10
6.93498414698657
 20
-7.461501381573402
 30
0.0
 40
0.9507396921682238
  1
積
  7
WMF-ＭＳ Ｐ明朝0
100
AcDbText
  0
TEXT
  5
5CB
330
5B5
100
AcDbEntity
  8
ﾚｲﾔ1
 62
     7
370
     0
100
AcDbText
 10
0.3008669911924759
 20
-8.99592303665503
 30
0.0
 40
0.9507396921682238
  1
ロ
  7
WMF-ＭＳ Ｐ明朝0
100
AcDbText
  0
TEXT
  5
5CC
330
5B5
100
AcDbEntity
  8
ﾚｲﾔ1
 62
     7
370
     0
100
AcDbText
 10
2.61754282337454
 20
-8.99592303665503
 30
0.0
 40
0.9507396921682238
  1
ッ
  7
WMF-ＭＳ Ｐ明朝0
100
AcDbText
  0
TEXT
  5
5CD
330
5B5
100
AcDbEntity
  8
ﾚｲﾔ1
 62
     7
370
     0
100
AcDbText
 10
4.889088606877733
 20
-8.99592303665503
 30
0.0
 40
0.9507396921682238
  1
ト
  7
WMF-ＭＳ Ｐ明朝0
100
AcDbText
  0
TEXT
  5
5CE
330
5B5
100
AcDbEntity
  8
ﾚｲﾔ1
 62
     7
370
     0
100
AcDbText
 10
6.93498414698657
 20
-8.99592303665503
 30
0.0
 40
0.9507396921682238
  1
径
  7
WMF-ＭＳ Ｐ明朝0
100
AcDbText
  0
TEXT
  5
5CF
330
5B5
100
AcDbEntity
  8
ﾚｲﾔ1
 62
     7
370
     0
100
AcDbText
 10
0.3008669911924759
 20
-10.53034469173666
 30
0.0
 40
0.9507396921682238
  1
最
  7
WMF-ＭＳ Ｐ明朝0
100
AcDbText
  0
TEXT
  5
5D0
330
5B5
100
AcDbEntity
  8
ﾚｲﾔ1
 62
     7
370
     0
100
AcDbText
 10
1.955635442751093
 20
-10.53034469173666
 30
0.0
 40
0.9507396921682238
  1
高
  7
WMF-ＭＳ Ｐ明朝0
100
AcDbText
  0
TEXT
  5
5D1
330
5B5
100
AcDbEntity
  8
ﾚｲﾔ1
 62
     7
370
     0
100
AcDbText
 10
3.61040389430971
 20
-10.53034469173666
 30
0.0
 40
0.9507396921682238
  1
使
  7
WMF-ＭＳ Ｐ明朝0
100
AcDbText
  0
TEXT
  5
5D2
330
5B5
100
AcDbEntity
  8
ﾚｲﾔ1
 62
     7
370
     0
100
AcDbText
 10
5.280215695427952
 20
-10.53034469173666
 30
0.0
 40
0.9507396921682238
  1
用
  7
WMF-ＭＳ Ｐ明朝0
100
AcDbText
  0
TEXT
  5
5D3
330
5B5
100
AcDbEntity
  8
ﾚｲﾔ1
 62
     7
370
     0
100
AcDbText
 10
6.93498414698657
 20
-10.53034469173666
 30
0.0
 40
0.9507396921682238
  1
圧
  7
WMF-ＭＳ Ｐ明朝0
100
AcDbText
  0
TEXT
  5
5D4
330
5B5
100
AcDbEntity
  8
ﾚｲﾔ1
 62
     7
370
     0
100
AcDbText
 10
0.3008669911924759
 20
-12.06476634681828
 30
0.0
 40
0.9507396921682238
  1
重
  7
WMF-ＭＳ Ｐ明朝0
100
AcDbText
  0
TEXT
  5
5D5
330
5B5
100
AcDbEntity
  8
ﾚｲﾔ1
 62
     7
370
     0
100
AcDbText
 10
6.93498414698657
 20
-12.06476634681828
 30
0.0
 40
0.9507396921682238
  1
量
  7
WMF-ＭＳ Ｐ明朝0
100
AcDbText
  0
ENDBLK
  5
5D6
330
5B5
100
AcDbEntity
  8
ﾚｲﾔ1
 62
     7
370
     0
100
AcDbBlockEnd
  0
BLOCK
  5
5F7
330
5F4
100
AcDbEntity
  8
ﾚｲﾔ1
 62
     0
370
     0
100
AcDbBlockBegin
  2
WMF1
 70
     0
 10
0.0
 20
0.0
 30
0.0
  3
WMF1
  1

  0
TEXT
  5
5F8
330
5F4
100
AcDbEntity
  8
ﾚｲﾔ1
 62
     7
370
     0
100
AcDbText
 10
0.4010676984272923
 20
-1.764697873080086
 30
0.0
 40
1.267373927030243
  1
TON
  7
WMF-ＭＳ Ｐ明朝0
100
AcDbText
  0
TEXT
  5
5F9
330
5F4
100
AcDbEntity
  8
ﾚｲﾔ1
 62
     7
370
     0
100
AcDbText
 10
0.4010676984272923
 20
-3.810143135059277
 30
0.0
 40
1.267373927030243
  1
㎜
  7
WMF-ＭＳ Ｐ明朝0
100
AcDbText
  0
TEXT
  5
5FA
330
5F4
100
AcDbEntity
  8
ﾚｲﾔ1
 62
     7
370
     0
100
AcDbText
 10
0.4010676984272923
 20
-5.855588397038469
 30
0.0
 40
1.267373927030243
  1
㎜
  7
WMF-ＭＳ Ｐ明朝0
100
AcDbText
  0
TEXT
  5
5FB
330
5F4
100
AcDbEntity
  8
ﾚｲﾔ1
 62
     7
370
     0
100
AcDbText
 10
0.4010676984272923
 20
-7.90103365901766
 30
0.0
 40
1.267373927030243
  1
㎜
  7
WMF-ＭＳ Ｐ明朝0
100
AcDbText
  0
TEXT
  5
5FC
330
5F4
100
AcDbEntity
  8
ﾚｲﾔ1
 62
     7
370
     0
100
AcDbText
 10
0.4010676984272923
 20
-9.946478920996851
 30
0.0
 40
1.267373927030243
  1
㎜
  7
WMF-ＭＳ Ｐ明朝0
100
AcDbText
  0
TEXT
  5
5FD
330
5F4
100
AcDbEntity
  8
ﾚｲﾔ1
 62
     7
370
     0
100
AcDbText
 10
0.4010676984272923
 20
-11.99192418297604
 30
0.0
 40
1.267373927030243
  1
c㎡
  7
WMF-ＭＳ Ｐ明朝0
100
AcDbText
  0
TEXT
  5
5FE
330
5F4
100
AcDbEntity
  8
ﾚｲﾔ1
 62
     7
370
     0
100
AcDbText
 10
0.4010676984272923
 20
-14.03736944495523
 30
0.0
 40
1.267373927030243
  1
㎜
  7
WMF-ＭＳ Ｐ明朝0
100
AcDbText
  0
TEXT
  5
5FF
330
5F4
100
AcDbEntity
  8
ﾚｲﾔ1
 62
     7
370
     0
100
AcDbText
 10
0.4010676984272923
 20
-16.08281470693442
 30
0.0
 40
1.267373927030243
  1
ｋｇｆ/c㎡
  7
WMF-ＭＳ Ｐ明朝0
100
AcDbText
  0
TEXT
  5
600
330
5F4
100
AcDbEntity
  8
ﾚｲﾔ1
 62
     7
370
     0
100
AcDbText
 10
0.4010676984272923
 20
-18.12825996891361
 30
0.0
 40
1.267373927030243
  1
㎏
  7
WMF-ＭＳ Ｐ明朝0
100
AcDbText
  0
ENDBLK
  5
601
330
5F4
100
AcDbEntity
  8
ﾚｲﾔ1
 62
     7
370
     0
100
AcDbBlockEnd
  0
BLOCK
  5
6D7
330
6CD
100
AcDbEntity
  8
0
100
AcDbBlockBegin
  2
*D3
 70
     1
 10
0.0
 20
0.0
 30
0.0
  3
*D3
  1

  0
LINE
  5
E81
330
6CD
100
AcDbEntity
  8
図面
 62
     1
370
    -2
100
AcDbLine
 10
436.5884351535869
 20
1262.599552226663
 30
0.0
 11
436.5884351535869
 21
1350.435353775449
 31
0.0
  0
LINE
  5
E82
330
6CD
100
AcDbEntity
  8
図面
 62
     1
370
    -2
100
AcDbLine
 10
736.5884351535869
 20
1262.599552226663
 30
0.0
 11
736.5884351535869
 21
1350.435353775449
 31
0.0
  0
LINE
  5
E83
330
6CD
100
AcDbEntity
  8
図面
 62
     1
370
    -2
100
AcDbLine
 10
452.5884351535869
 20
1349.935353775449
 30
0.0
 11
720.5884351535869
 21
1349.935353775449
 31
0.0
  0
INSERT
  5
E84
330
6CD
100
AcDbEntity
  8
図面
 62
     1
370
    -2
100
AcDbBlockReference
  2
_Open
 10
436.5884351535869
 20
1349.935353775449
 30
0.0
 41
16.0
 42
16.0
 43
16.0
 50
180.0
  0
INSERT
  5
E85
330
6CD
100
AcDbEntity
  8
図面
 62
     1
370
    -2
100
AcDbBlockReference
  2
_Open
 10
736.5884351535869
 20
1349.935353775449
 30
0.0
 41
16.0
 42
16.0
 43
16.0
  0
MTEXT
  5
E86
330
6CD
100
AcDbEntity
  8
図面
 62
     1
100
AcDbMText
 10
586.5884351535869
 20
1360.435353775449
 30
0.0
 40
20.0
 41
0.0
 71
     5
 72
     1
  1
\A1;300
  7
WMF-ＭＳ Ｐ明朝0
 73
     1
 44
1.0
  0
POINT
  5
E87
330
6CD
100
AcDbEntity
  8
Defpoints
 62
     0
100
AcDbPoint
 10
436.5884351535869
 20
1262.537052226663
 30
0.0
  0
POINT
  5
E88
330
6CD
100
AcDbEntity
  8
Defpoints
 62
     0
100
AcDbPoint
 10
736.5884351535869
 20
1262.537052226663
 30
0.0
  0
POINT
  5
E89
330
6CD
100
AcDbEntity
  8
Defpoints
 62
     0
100
AcDbPoint
 10
736.5884351535869
 20
1349.935353775449
 30
0.0
  0
ENDBLK
  5
6D8
330
6CD
100
AcDbEntity
  8
0
100
AcDbBlockEnd
  0
BLOCK
  5
6E4
330
6DA
100
AcDbEntity
  8
0
100
AcDbBlockBegin
  2
*D4
 70
     1
 10
0.0
 20
0.0
 30
0.0
  3
*D4
  1

  0
LINE
  5
E8A
330
6DA
100
AcDbEntity
  8
図面
 62
     1
370
    -2
100
AcDbLine
 10
736.5884351535869
 20
1265.099552226663
 30
0.0
 11
736.5884351535869
 21
1350.435353775449
 31
0.0
  0
LINE
  5
E8B
330
6DA
100
AcDbEntity
  8
図面
 62
     1
370
    -2
100
AcDbLine
 10
841.5884351535869
 20
1265.099552226663
 30
0.0
 11
841.5884351535869
 21
1350.435353775449
 31
0.0
  0
LINE
  5
E8C
330
6DA
100
AcDbEntity
  8
図面
 62
     1
370
    -2
100
AcDbLine
 10
752.5884351535869
 20
1349.935353775449
 30
0.0
 11
825.5884351535869
 21
1349.935353775449
 31
0.0
  0
INSERT
  5
E8D
330
6DA
100
AcDbEntity
  8
図面
 62
     1
370
    -2
100
AcDbBlockReference
  2
_Open
 10
736.5884351535869
 20
1349.935353775449
 30
0.0
 41
16.0
 42
16.0
 43
16.0
 50
180.0
  0
INSERT
  5
E8E
330
6DA
100
AcDbEntity
  8
図面
 62
     1
370
    -2
100
AcDbBlockReference
  2
_Open
 10
841.5884351535869
 20
1349.935353775449
 30
0.0
 41
16.0
 42
16.0
 43
16.0
  0
MTEXT
  5
E8F
330
6DA
100
AcDbEntity
  8
図面
 62
     1
100
AcDbMText
 10
789.0884351535869
 20
1360.435353775449
 30
0.0
 40
20.0
 41
0.0
 71
     5
 72
     1
  1
\A1;105
  7
WMF-ＭＳ Ｐ明朝0
 73
     1
 44
1.0
  0
POINT
  5
E90
330
6DA
100
AcDbEntity
  8
Defpoints
 62
     0
100
AcDbPoint
 10
736.5884351535869
 20
1265.037052226663
 30
0.0
  0
POINT
  5
E91
330
6DA
100
AcDbEntity
  8
Defpoints
 62
     0
100
AcDbPoint
 10
841.5884351535869
 20
1265.037052226663
 30
0.0
  0
POINT
  5
E92
330
6DA
100
AcDbEntity
  8
Defpoints
 62
     0
100
AcDbPoint
 10
841.5884351535869
 20
1349.935353775449
 30
0.0
  0
ENDBLK
  5
6E5
330
6DA
100
AcDbEntity
  8
0
100
AcDbBlockEnd
  0
BLOCK
  5
6F1
330
6E7
100
AcDbEntity
  8
0
100
AcDbBlockBegin
  2
*D5
 70
     1
 10
0.0
 20
0.0
 30
0.0
  3
*D5
  1

  0
LINE
  5
E65
330
6E7
100
AcDbEntity
  8
図面
 62
     1
370
    -2
100
AcDbLine
 10
187.5884351535869
 20
1180.162052226663
 30
0.0
 11
187.5884351535869
 21
1350.935353775449
 31
0.0
  0
LINE
  5
E66
330
6E7
100
AcDbEntity
  8
図面
 62
     1
370
    -2
100
AcDbLine
 10
417.5884351535869
 20
1180.099552226663
 30
0.0
 11
417.5884351535869
 21
1350.935353775449
 31
0.0
  0
LINE
  5
E67
330
6E7
100
AcDbEntity
  8
図面
 62
     1
370
    -2
100
AcDbLine
 10
203.5884351535869
 20
1350.435353775449
 30
0.0
 11
401.5884351535869
 21
1350.435353775449
 31
0.0
  0
INSERT
  5
E68
330
6E7
100
AcDbEntity
  8
図面
 62
     1
370
    -2
100
AcDbBlockReference
  2
_Open
 10
187.5884351535869
 20
1350.435353775449
 30
0.0
 41
16.0
 42
16.0
 43
16.0
 50
180.0
  0
INSERT
  5
E69
330
6E7
100
AcDbEntity
  8
図面
 62
     1
370
    -2
100
AcDbBlockReference
  2
_Open
 10
417.5884351535869
 20
1350.435353775449
 30
0.0
 41
16.0
 42
16.0
 43
16.0
  0
MTEXT
  5
E6A
330
6E7
100
AcDbEntity
  8
図面
 62
     1
100
AcDbMText
 10
302.5884351535869
 20
1360.935353775449
 30
0.0
 40
20.0
 41
0.0
 71
     5
 72
     1
  1
\A1;230
  7
WMF-ＭＳ Ｐ明朝0
 73
     1
 44
1.0
  0
POINT
  5
E6B
330
6E7
100
AcDbEntity
  8
Defpoints
 62
     0
100
AcDbPoint
 10
187.5884351535869
 20
1180.099552226663
 30
0.0
  0
POINT
  5
E6C
330
6E7
100
AcDbEntity
  8
Defpoints
 62
     0
100
AcDbPoint
 10
417.5884351535869
 20
1180.037052226663
 30
0.0
  0
POINT
  5
E6D
330
6E7
100
AcDbEntity
  8
Defpoints
 62
     0
100
AcDbPoint
 10
417.5884351535869
 20
1350.435353775449
 30
0.0
  0
ENDBLK
  5
6F2
330
6E7
100
AcDbEntity
  8
0
100
AcDbBlockEnd
  0
BLOCK
  5
741
330
737
100
AcDbEntity
  8
0
100
AcDbBlockBegin
  2
*D6
 70
     1
 10
0.0
 20
0.0
 30
0.0
  3
*D6
  1

  0
LINE
  5
E53
330
737
100
AcDbEntity
  8
図面
 62
     1
370
    -2
100
AcDbLine
 10
187.5259351535869
 20
1180.162052226663
 30
0.0
 11
157.6603641049123
 21
1180.162052226663
 31
0.0
  0
LINE
  5
E54
330
737
100
AcDbEntity
  8
図面
 62
     1
370
    -2
100
AcDbLine
 10
187.5259351535869
 20
1080.037052226663
 30
0.0
 11
157.6603641049123
 21
1080.037052226663
 31
0.0
  0
LINE
  5
E55
330
737
100
AcDbEntity
  8
図面
 62
     1
370
    -2
100
AcDbLine
 10
158.1603641049123
 20
1164.162052226663
 30
0.0
 11
158.1603641049123
 21
1096.037052226663
 31
0.0
  0
INSERT
  5
E56
330
737
100
AcDbEntity
  8
図面
 62
     1
370
    -2
100
AcDbBlockReference
  2
_Open
 10
158.1603641049123
 20
1180.162052226663
 30
0.0
 41
16.0
 42
16.0
 43
16.0
 50
90.0
  0
INSERT
  5
E57
330
737
100
AcDbEntity
  8
図面
 62
     1
370
    -2
100
AcDbBlockReference
  2
_Open
 10
158.1603641049123
 20
1080.037052226663
 30
0.0
 41
16.0
 42
16.0
 43
16.0
 50
270.0
  0
MTEXT
  5
E58
330
737
100
AcDbEntity
  8
図面
 62
     1
100
AcDbMText
 10
147.6603641049123
 20
1130.099552226663
 30
0.0
 40
20.0
 41
0.0
 71
     5
 72
     1
  1
\A1;100
  7
WMF-ＭＳ Ｐ明朝0
 11
0.0
 21
1.0
 31
0.0
 73
     1
 44
1.0
  0
POINT
  5
E59
330
737
100
AcDbEntity
  8
Defpoints
 62
     0
100
AcDbPoint
 10
187.5884351535869
 20
1180.162052226663
 30
0.0
  0
POINT
  5
E5A
330
737
100
AcDbEntity
  8
Defpoints
 62
     0
100
AcDbPoint
 10
187.5884351535869
 20
1080.037052226663
 30
0.0
  0
POINT
  5
E5B
330
737
100
AcDbEntity
  8
Defpoints
 62
     0
100
AcDbPoint
 10
158.1603641049123
 20
1080.037052226663
 30
0.0
  0
ENDBLK
  5
742
330
737
100
AcDbEntity
  8
0
100
AcDbBlockEnd
  0
BLOCK
  5
7F9
330
7EF
100
AcDbEntity
  8
0
100
AcDbBlockBegin
  2
*D7
 70
     1
 10
0.0
 20
0.0
 30
0.0
  3
*D7
  1

  0
LINE
  5
D78
330
7EF
100
AcDbEntity
  8
図面
 62
     1
370
    -2
100
AcDbLine
 10
872.7759351535868
 20
668.2680478489646
 30
0.0
 11
984.8914672368126
 21
668.2680478489646
 31
0.0
  0
LINE
  5
D79
330
7EF
100
AcDbEntity
  8
図面
 62
     1
370
    -2
100
AcDbLine
 10
737.2134351535869
 20
726.2680478489646
 30
0.0
 11
984.8914672368126
 21
726.2680478489646
 31
0.0
  0
LINE
  5
D7A
330
7EF
100
AcDbEntity
  8
図面
 62
     1
370
    -2
100
AcDbLine
 10
981.8914672368126
 20
684.2680478489646
 30
0.0
 11
981.8914672368126
 21
710.2680478489646
 31
0.0
  0
SOLID
  5
D7B
330
7EF
100
AcDbEntity
  8
図面
 62
     1
100
AcDbTrace
 10
979.2248005701459
 20
684.2680478489646
 30
0.0
 11
984.5581339034792
 21
684.2680478489646
 31
0.0
 12
981.8914672368126
 22
668.2680478489646
 32
0.0
 13
981.8914672368126
 23
668.2680478489646
 33
0.0
  0
SOLID
  5
D7C
330
7EF
100
AcDbEntity
  8
図面
 62
     1
100
AcDbTrace
 10
984.5581339034792
 20
710.2680478489646
 30
0.0
 11
979.2248005701459
 21
710.2680478489646
 31
0.0
 12
981.8914672368126
 22
726.2680478489646
 32
0.0
 13
981.8914672368126
 23
726.2680478489646
 33
0.0
  0
MTEXT
  5
D7D
330
7EF
100
AcDbEntity
  8
図面
 62
     1
100
AcDbMText
 10
971.3914672368126
 20
697.2680478489646
 30
0.0
 40
20.0
 41
0.0
 71
     5
 72
     1
  1
\A1;58
  7
WMF-ＭＳ Ｐ明朝0
 11
0.0
 21
1.0
 31
0.0
 73
     1
 44
1.0
  0
POINT
  5
D7E
330
7EF
100
AcDbEntity
  8
Defpoints
 62
     0
100
AcDbPoint
 10
872.7134351535868
 20
668.2680478489646
 30
0.0
  0
POINT
  5
D7F
330
7EF
100
AcDbEntity
  8
Defpoints
 62
     0
100
AcDbPoint
 10
737.1509351535869
 20
726.2680478489646
 30
0.0
  0
POINT
  5
D80
330
7EF
100
AcDbEntity
  8
Defpoints
 62
     0
100
AcDbPoint
 10
981.8914672368126
 20
726.2680478489646
 30
0.0
  0
ENDBLK
  5
7FA
330
7EF
100
AcDbEntity
  8
0
100
AcDbBlockEnd
  0
BLOCK
  5
806
330
7FC
100
AcDbEntity
  8
0
100
AcDbBlockBegin
  2
*D8
 70
     1
 10
0.0
 20
0.0
 30
0.0
  3
*D8
  1

  0
LINE
  5
D6F
330
7FC
100
AcDbEntity
  8
図面
 62
     1
370
    -2
100
AcDbLine
 10
872.8384351535867
 20
668.2680478489646
 30
0.0
 11
946.0360681496093
 21
668.2680478489646
 31
0.0
  0
LINE
  5
D70
330
7FC
100
AcDbEntity
  8
図面
 62
     1
370
    -2
100
AcDbLine
 10
844.7759351535869
 20
712.2680478489646
 30
0.0
 11
946.0360681496093
 21
712.2680478489646
 31
0.0
  0
LINE
  5
D71
330
7FC
100
AcDbEntity
  8
図面
 62
     1
370
    -2
100
AcDbLine
 10
943.0360681496093
 20
684.2680478489646
 30
0.0
 11
943.0360681496093
 21
696.2680478489646
 31
0.0
  0
SOLID
  5
D72
330
7FC
100
AcDbEntity
  8
図面
 62
     1
100
AcDbTrace
 10
940.3694014829426
 20
684.2680478489646
 30
0.0
 11
945.7027348162759
 21
684.2680478489646
 31
0.0
 12
943.0360681496093
 22
668.2680478489646
 32
0.0
 13
943.0360681496093
 23
668.2680478489646
 33
0.0
  0
SOLID
  5
D73
330
7FC
100
AcDbEntity
  8
図面
 62
     1
100
AcDbTrace
 10
945.7027348162759
 20
696.2680478489646
 30
0.0
 11
940.3694014829426
 21
696.2680478489646
 31
0.0
 12
943.0360681496093
 22
712.2680478489646
 32
0.0
 13
943.0360681496093
 23
712.2680478489646
 33
0.0
  0
MTEXT
  5
D74
330
7FC
100
AcDbEntity
  8
図面
 62
     1
100
AcDbMText
 10
932.5360681496093
 20
690.2680478489646
 30
0.0
 40
20.0
 41
0.0
 71
     5
 72
     1
  1
\A1;44
  7
WMF-ＭＳ Ｐ明朝0
 11
0.0
 21
1.0
 31
0.0
 73
     1
 44
1.0
  0
POINT
  5
D75
330
7FC
100
AcDbEntity
  8
Defpoints
 62
     0
100
AcDbPoint
 10
872.7759351535867
 20
668.2680478489646
 30
0.0
  0
POINT
  5
D76
330
7FC
100
AcDbEntity
  8
Defpoints
 62
     0
100
AcDbPoint
 10
844.7134351535869
 20
712.2680478489646
 30
0.0
  0
POINT
  5
D77
330
7FC
100
AcDbEntity
  8
Defpoints
 62
     0
100
AcDbPoint
 10
943.0360681496093
 20
712.2680478489646
 30
0.0
  0
ENDBLK
  5
807
330
7FC
100
AcDbEntity
  8
0
100
AcDbBlockEnd
  0
BLOCK
  5
813
330
809
100
AcDbEntity
  8
0
100
AcDbBlockBegin
  2
*D9
 70
     1
 10
0.0
 20
0.0
 30
0.0
  3
*D9
  1

  0
LINE
  5
DB2
330
809
100
AcDbEntity
  8
図面
 62
     1
370
    -2
100
AcDbLine
 10
187.5259351535869
 20
668.2680478489646
 30
0.0
 11
132.6903928298497
 21
668.2680478489646
 31
0.0
  0
LINE
  5
DB3
330
809
100
AcDbEntity
  8
図面
 62
     1
370
    -2
100
AcDbLine
 10
423.5884351535869
 20
808.2680478489646
 30
0.0
 11
132.6903928298497
 21
808.2680478489646
 31
0.0
  0
LINE
  5
DB4
330
809
100
AcDbEntity
  8
図面
 62
     1
370
    -2
100
AcDbLine
 10
133.1903928298497
 20
684.2680478489646
 30
0.0
 11
133.1903928298497
 21
792.2680478489646
 31
0.0
  0
INSERT
  5
DB5
330
809
100
AcDbEntity
  8
図面
 62
     1
370
    -2
100
AcDbBlockReference
  2
_Open
 10
133.1903928298497
 20
668.2680478489646
 30
0.0
 41
16.0
 42
16.0
 43
16.0
 50
270.0
  0
INSERT
  5
DB6
330
809
100
AcDbEntity
  8
図面
 62
     1
370
    -2
100
AcDbBlockReference
  2
_Open
 10
133.1903928298497
 20
808.2680478489646
 30
0.0
 41
16.0
 42
16.0
 43
16.0
 50
90.0
  0
MTEXT
  5
DB7
330
809
100
AcDbEntity
  8
図面
 62
     1
100
AcDbMText
 10
122.6903928298497
 20
738.2680478489646
 30
0.0
 40
20.0
 41
0.0
 71
     5
 72
     1
  1
\A1;140
  7
WMF-ＭＳ Ｐ明朝0
 11
0.0
 21
1.0
 31
0.0
 73
     1
 44
1.0
  0
POINT
  5
DB8
330
809
100
AcDbEntity
  8
Defpoints
 62
     0
100
AcDbPoint
 10
187.5884351535869
 20
668.2680478489646
 30
0.0
  0
POINT
  5
DB9
330
809
100
AcDbEntity
  8
Defpoints
 62
     0
100
AcDbPoint
 10
423.6509351535869
 20
808.2680478489646
 30
0.0
  0
POINT
  5
DBA
330
809
100
AcDbEntity
  8
Defpoints
 62
     0
100
AcDbPoint
 10
133.1903928298497
 20
808.2680478489646
 30
0.0
  0
ENDBLK
  5
814
330
809
100
AcDbEntity
  8
0
100
AcDbBlockEnd
  0
BLOCK
  5
A1C
330
A11
100
AcDbEntity
  8
0
100
AcDbBlockBegin
  2
*D10
 70
     1
 10
0.0
 20
0.0
 30
0.0
  3
*D10
  1

  0
LINE
  5
D65
330
A11
100
AcDbEntity
  8
補助線
 62
     1
370
    -2
100
AcDbLine
 10
737.2134351535869
 20
726.2680478489646
 30
0.0
 11
817.5574570337576
 21
726.2680478489646
 31
0.0
  0
LINE
  5
D66
330
A11
100
AcDbEntity
  8
補助線
 62
     1
370
    -2
100
AcDbLine
 10
737.2134351535869
 20
716.2680478489646
 30
0.0
 11
817.5574570337576
 21
716.2680478489646
 31
0.0
  0
LINE
  5
D67
330
A11
100
AcDbEntity
  8
補助線
 62
     1
370
    -2
100
AcDbLine
 10
817.0574570337576
 20
742.2680478489646
 30
0.0
 11
817.0574570337576
 21
758.2680478489646
 31
0.0
  0
LINE
  5
D68
330
A11
100
AcDbEntity
  8
補助線
 62
     1
370
    -2
100
AcDbLine
 10
817.0574570337576
 20
700.2680478489646
 30
0.0
 11
817.0574570337576
 21
684.2680478489646
 31
0.0
  0
SOLID
  5
D69
330
A11
100
AcDbEntity
  8
補助線
 62
     1
100
AcDbTrace
 10
814.390790367091
 20
742.2680478489646
 30
0.0
 11
819.7241237004242
 21
742.2680478489646
 31
0.0
 12
817.0574570337576
 22
726.2680478489646
 32
0.0
 13
817.0574570337576
 23
726.2680478489646
 33
0.0
  0
SOLID
  5
D6A
330
A11
100
AcDbEntity
  8
補助線
 62
     1
100
AcDbTrace
 10
819.7241237004242
 20
700.2680478489646
 30
0.0
 11
814.390790367091
 21
700.2680478489646
 31
0.0
 12
817.0574570337576
 22
716.2680478489646
 32
0.0
 13
817.0574570337576
 23
716.2680478489646
 33
0.0
  0
MTEXT
  5
D6B
330
A11
100
AcDbEntity
  8
補助線
 62
     1
100
AcDbMText
 10
805.3859924298812
 20
766.3170312672073
 30
0.0
 40
20.0
 41
0.0
 71
     5
 72
     1
  1
\A1;10
  7
WMF-ＭＳ Ｐ明朝0
 11
0.0
 21
1.0
 31
0.0
 73
     1
 44
1.0
  0
POINT
  5
D6C
330
A11
100
AcDbEntity
  8
Defpoints
 62
     0
100
AcDbPoint
 10
737.1509351535869
 20
726.2680478489646
 30
0.0
  0
POINT
  5
D6D
330
A11
100
AcDbEntity
  8
Defpoints
 62
     0
100
AcDbPoint
 10
737.1509351535869
 20
716.2680478489646
 30
0.0
  0
POINT
  5
D6E
330
A11
100
AcDbEntity
  8
Defpoints
 62
     0
100
AcDbPoint
 10
817.0574570337576
 20
716.2680478489646
 30
0.0
  0
ENDBLK
  5
A1D
330
A11
100
AcDbEntity
  8
0
100
AcDbBlockEnd
  0
BLOCK
  5
A2A
330
A1F
100
AcDbEntity
  8
0
100
AcDbBlockBegin
  2
*D11
 70
     1
 10
0.0
 20
0.0
 30
0.0
  3
*D11
  1

  0
LINE
  5
D5B
330
A1F
100
AcDbEntity
  8
補助線
 62
     1
370
    -2
100
AcDbLine
 10
739.7134351535869
 20
716.2680478489646
 30
0.0
 11
804.1473850510429
 21
716.2680478489646
 31
0.0
  0
LINE
  5
D5C
330
A1F
100
AcDbEntity
  8
補助線
 62
     1
370
    -2
100
AcDbLine
 10
739.7134351535869
 20
700.2680478489646
 30
0.0
 11
804.1473850510429
 21
700.2680478489646
 31
0.0
  0
LINE
  5
D5D
330
A1F
100
AcDbEntity
  8
補助線
 62
     1
370
    -2
100
AcDbLine
 10
803.6473850510429
 20
732.2680478489646
 30
0.0
 11
803.6473850510429
 21
748.2680478489646
 31
0.0
  0
LINE
  5
D5E
330
A1F
100
AcDbEntity
  8
補助線
 62
     1
370
    -2
100
AcDbLine
 10
803.6473850510429
 20
684.2680478489646
 30
0.0
 11
803.6473850510429
 21
668.2680478489646
 31
0.0
  0
SOLID
  5
D5F
330
A1F
100
AcDbEntity
  8
補助線
 62
     1
100
AcDbTrace
 10
800.9807183843762
 20
732.2680478489646
 30
0.0
 11
806.3140517177095
 21
732.2680478489646
 31
0.0
 12
803.6473850510429
 22
716.2680478489646
 32
0.0
 13
803.6473850510429
 23
716.2680478489646
 33
0.0
  0
SOLID
  5
D60
330
A1F
100
AcDbEntity
  8
補助線
 62
     1
100
AcDbTrace
 10
806.3140517177095
 20
684.2680478489646
 30
0.0
 11
800.9807183843762
 21
684.2680478489646
 31
0.0
 12
803.6473850510429
 22
700.2680478489646
 32
0.0
 13
803.6473850510429
 23
700.2680478489646
 33
0.0
  0
MTEXT
  5
D61
330
A1F
100
AcDbEntity
  8
補助線
 62
     1
100
AcDbMText
 10
789.0480928665565
 20
739.3004585252111
 30
0.0
 40
20.0
 41
0.0
 71
     5
 72
     1
  1
\A1;16
  7
WMF-ＭＳ Ｐ明朝0
 11
0.0
 21
1.0
 31
0.0
 73
     1
 44
1.0
  0
POINT
  5
D62
330
A1F
100
AcDbEntity
  8
Defpoints
 62
     0
100
AcDbPoint
 10
739.6509351535869
 20
716.2680478489646
 30
0.0
  0
POINT
  5
D63
330
A1F
100
AcDbEntity
  8
Defpoints
 62
     0
100
AcDbPoint
 10
739.6509351535869
 20
700.2680478489646
 30
0.0
  0
POINT
  5
D64
330
A1F
100
AcDbEntity
  8
Defpoints
 62
     0
100
AcDbPoint
 10
803.6473850510429
 20
700.2680478489646
 30
0.0
  0
ENDBLK
  5
A2B
330
A1F
100
AcDbEntity
  8
0
100
AcDbBlockEnd
  0
BLOCK
  5
AB7
330
AAD
100
AcDbEntity
  8
0
100
AcDbBlockBegin
  2
*D12
 70
     1
 10
0.0
 20
0.0
 30
0.0
  3
*D12
  1

  0
LINE
  5
AAE
330
AAD
100
AcDbEntity
  8
図面
 62
     1
370
    -2
100
AcDbLine
 10
1234.036058527483
 20
1084.961573637752
 30
0.0
 11
1234.036058527483
 21
1139.489598834812
 31
0.0
  0
LINE
  5
AAF
330
AAD
100
AcDbEntity
  8
図面
 62
     1
370
    -2
100
AcDbLine
 10
1389.036059527483
 20
1063.406308637752
 30
0.0
 11
1389.036059527483
 21
1139.489598834812
 31
0.0
  0
LINE
  5
AB0
330
AAD
100
AcDbEntity
  8
図面
 62
     1
370
    -2
100
AcDbLine
 10
1250.036058527483
 20
1138.989598834812
 30
0.0
 11
1373.036059527483
 21
1138.989598834812
 31
0.0
  0
SOLID
  5
AB1
330
AAD
100
AcDbEntity
  8
図面
 62
     1
100
AcDbTrace
 10
1250.036058527483
 20
1141.656265501479
 30
0.0
 11
1250.036058527483
 21
1136.322932168145
 31
0.0
 12
1234.036058527483
 22
1138.989598834812
 32
0.0
 13
1234.036058527483
 23
1138.989598834812
 33
0.0
  0
SOLID
  5
AB2
330
AAD
100
AcDbEntity
  8
図面
 62
     1
100
AcDbTrace
 10
1373.036059527483
 20
1136.322932168145
 30
0.0
 11
1373.036059527483
 21
1141.656265501479
 31
0.0
 12
1389.036059527483
 22
1138.989598834812
 32
0.0
 13
1389.036059527483
 23
1138.989598834812
 33
0.0
  0
MTEXT
  5
AB3
330
AAD
100
AcDbEntity
  8
図面
 62
     1
100
AcDbMText
 10
1311.536059027483
 20
1149.489598834812
 30
0.0
 40
20.0
 41
0.0
 71
     5
 72
     1
  1
\A1;155
  7
WMF-ＭＳ Ｐ明朝0
 73
     1
 44
1.0
  0
POINT
  5
AB4
330
AAD
100
AcDbEntity
  8
Defpoints
 62
     0
100
AcDbPoint
 10
1234.036058527483
 20
1084.899073637752
 30
0.0
  0
POINT
  5
AB5
330
AAD
100
AcDbEntity
  8
Defpoints
 62
     0
100
AcDbPoint
 10
1389.036059527483
 20
1063.343808637752
 30
0.0
  0
POINT
  5
AB6
330
AAD
100
AcDbEntity
  8
Defpoints
 62
     0
100
AcDbPoint
 10
1389.036059527483
 20
1138.989598834812
 30
0.0
  0
ENDBLK
  5
AB8
330
AAD
100
AcDbEntity
  8
0
100
AcDbBlockEnd
  0
BLOCK
  5
AD2
330
AC7
100
AcDbEntity
  8
0
100
AcDbBlockBegin
  2
*D13
 70
     1
 10
0.0
 20
0.0
 30
0.0
  3
*D13
  1

  0
LINE
  5
D9F
330
AC7
100
AcDbEntity
  8
補助線
 62
     1
370
    -2
100
AcDbLine
 10
444.713435153587
 20
687.2680478489646
 30
0.0
 11
499.7706512069835
 21
687.2680478489646
 31
0.0
  0
LINE
  5
DA0
330
AC7
100
AcDbEntity
  8
補助線
 62
     1
370
    -2
100
AcDbLine
 10
444.713435153587
 20
693.2680478489646
 30
0.0
 11
499.7706512069835
 21
693.2680478489646
 31
0.0
  0
LINE
  5
DA1
330
AC7
100
AcDbEntity
  8
補助線
 62
     1
370
    -2
100
AcDbLine
 10
499.2706512069835
 20
671.2680478489646
 30
0.0
 11
499.2706512069835
 21
655.2680478489646
 31
0.0
  0
LINE
  5
DA2
330
AC7
100
AcDbEntity
  8
補助線
 62
     1
370
    -2
100
AcDbLine
 10
499.2706512069835
 20
709.2680478489646
 30
0.0
 11
499.2706512069835
 21
725.2680478489646
 31
0.0
  0
SOLID
  5
DA3
330
AC7
100
AcDbEntity
  8
補助線
 62
     1
100
AcDbTrace
 10
501.9373178736502
 20
671.2680478489646
 30
0.0
 11
496.6039845403168
 21
671.2680478489646
 31
0.0
 12
499.2706512069835
 22
687.2680478489646
 32
0.0
 13
499.2706512069835
 23
687.2680478489646
 33
0.0
  0
SOLID
  5
DA4
330
AC7
100
AcDbEntity
  8
補助線
 62
     1
100
AcDbTrace
 10
496.6039845403168
 20
709.2680478489646
 30
0.0
 11
501.9373178736502
 21
709.2680478489646
 31
0.0
 12
499.2706512069835
 22
693.2680478489646
 32
0.0
 13
499.2706512069835
 23
693.2680478489646
 33
0.0
  0
MTEXT
  5
DA5
330
AC7
100
AcDbEntity
  8
補助線
 62
     1
100
AcDbMText
 10
486.128514313541
 20
690.6320434939762
 30
0.0
 40
20.0
 41
0.0
 71
     5
 72
     1
  1
\A1;6
  7
WMF-ＭＳ Ｐ明朝0
 11
0.0
 21
1.0
 31
0.0
 73
     1
 44
1.0
  0
POINT
  5
DA6
330
AC7
100
AcDbEntity
  8
Defpoints
 62
     0
100
AcDbPoint
 10
444.650935153587
 20
687.2680478489646
 30
0.0
  0
POINT
  5
DA7
330
AC7
100
AcDbEntity
  8
Defpoints
 62
     0
100
AcDbPoint
 10
444.650935153587
 20
693.2680478489646
 30
0.0
  0
POINT
  5
DA8
330
AC7
100
AcDbEntity
  8
Defpoints
 62
     0
100
AcDbPoint
 10
499.2706512069835
 20
693.2680478489646
 30
0.0
  0
ENDBLK
  5
AD3
330
AC7
100
AcDbEntity
  8
0
100
AcDbBlockEnd
  0
BLOCK
  5
AF4
330
AE9
100
AcDbEntity
  8
0
100
AcDbBlockBegin
  2
*D14
 70
     1
 10
0.0
 20
0.0
 30
0.0
  3
*D14
  1

  0
LINE
  5
D95
330
AE9
100
AcDbEntity
  8
補助線
 62
     1
370
    -2
100
AcDbLine
 10
512.2134351535869
 20
693.2680478489646
 30
0.0
 11
552.1375491038779
 21
693.2680478489646
 31
0.0
  0
LINE
  5
D96
330
AE9
100
AcDbEntity
  8
補助線
 62
     1
370
    -2
100
AcDbLine
 10
512.2134351535869
 20
700.2680478489646
 30
0.0
 11
552.1375491038779
 21
700.2680478489646
 31
0.0
  0
LINE
  5
D97
330
AE9
100
AcDbEntity
  8
補助線
 62
     1
370
    -2
100
AcDbLine
 10
551.6375491038779
 20
677.2680478489646
 30
0.0
 11
551.6375491038779
 21
661.2680478489646
 31
0.0
  0
LINE
  5
D98
330
AE9
100
AcDbEntity
  8
補助線
 62
     1
370
    -2
100
AcDbLine
 10
551.6375491038779
 20
716.2680478489646
 30
0.0
 11
551.6375491038779
 21
732.2680478489646
 31
0.0
  0
SOLID
  5
D99
330
AE9
100
AcDbEntity
  8
補助線
 62
     1
100
AcDbTrace
 10
554.3042157705445
 20
677.2680478489646
 30
0.0
 11
548.9708824372112
 21
677.2680478489646
 31
0.0
 12
551.6375491038779
 22
693.2680478489646
 32
0.0
 13
551.6375491038779
 23
693.2680478489646
 33
0.0
  0
SOLID
  5
D9A
330
AE9
100
AcDbEntity
  8
補助線
 62
     1
100
AcDbTrace
 10
548.9708824372112
 20
716.2680478489646
 30
0.0
 11
554.3042157705445
 21
716.2680478489646
 31
0.0
 12
551.6375491038779
 22
700.2680478489646
 32
0.0
 13
551.6375491038779
 23
700.2680478489646
 33
0.0
  0
MTEXT
  5
D9B
330
AE9
100
AcDbEntity
  8
補助線
 62
     1
100
AcDbMText
 10
539.124508671719
 20
703.6157183179783
 30
0.0
 40
20.0
 41
0.0
 71
     5
 72
     1
  1
\A1;7
  7
WMF-ＭＳ Ｐ明朝0
 11
0.0
 21
1.0
 31
0.0
 73
     1
 44
1.0
  0
POINT
  5
D9C
330
AE9
100
AcDbEntity
  8
Defpoints
 62
     0
100
AcDbPoint
 10
512.1509351535869
 20
693.2680478489646
 30
0.0
  0
POINT
  5
D9D
330
AE9
100
AcDbEntity
  8
Defpoints
 62
     0
100
AcDbPoint
 10
512.1509351535869
 20
700.2680478489646
 30
0.0
  0
POINT
  5
D9E
330
AE9
100
AcDbEntity
  8
Defpoints
 62
     0
100
AcDbPoint
 10
551.6375491038779
 20
700.2680478489646
 30
0.0
  0
ENDBLK
  5
AF5
330
AE9
100
AcDbEntity
  8
0
100
AcDbBlockEnd
  0
BLOCK
  5
B26
330
B1C
100
AcDbEntity
  8
0
100
AcDbBlockBegin
  2
*D15
 70
     1
 10
0.0
 20
0.0
 30
0.0
  3
*D15
  1

  0
LINE
  5
EBA
330
B1C
100
AcDbEntity
  8
図面
 62
     1
370
    -2
100
AcDbLine
 10
864.6509351535869
 20
970.0370522266634
 30
0.0
 11
990.3580954967185
 21
970.0370522266634
 31
0.0
  0
LINE
  5
EBB
330
B1C
100
AcDbEntity
  8
図面
 62
     1
370
    -2
100
AcDbLine
 10
864.6509351535869
 20
1290.037052226663
 30
0.0
 11
990.3580954967185
 21
1290.037052226663
 31
0.0
  0
LINE
  5
EBC
330
B1C
100
AcDbEntity
  8
図面
 62
     1
370
    -2
100
AcDbLine
 10
989.8580954967185
 20
986.0370522266634
 30
0.0
 11
989.8580954967185
 21
1274.037052226663
 31
0.0
  0
INSERT
  5
EBD
330
B1C
100
AcDbEntity
  8
図面
 62
     1
370
    -2
100
AcDbBlockReference
  2
_Open
 10
989.8580954967185
 20
970.0370522266634
 30
0.0
 41
16.0
 42
16.0
 43
16.0
 50
270.0
  0
INSERT
  5
EBE
330
B1C
100
AcDbEntity
  8
図面
 62
     1
370
    -2
100
AcDbBlockReference
  2
_Open
 10
989.8580954967185
 20
1290.037052226663
 30
0.0
 41
16.0
 42
16.0
 43
16.0
 50
90.0
  0
MTEXT
  5
EBF
330
B1C
100
AcDbEntity
  8
図面
 62
     1
100
AcDbMText
 10
979.3580954967185
 20
1130.037052226663
 30
0.0
 40
20.0
 41
0.0
 71
     5
 72
     1
  1
\A1;320
  7
WMF-ＭＳ Ｐ明朝0
 11
0.0
 21
1.0
 31
0.0
 73
     1
 44
1.0
  0
POINT
  5
EC0
330
B1C
100
AcDbEntity
  8
Defpoints
 62
     0
100
AcDbPoint
 10
864.5884351535869
 20
970.0370522266634
 30
0.0
  0
POINT
  5
EC1
330
B1C
100
AcDbEntity
  8
Defpoints
 62
     0
100
AcDbPoint
 10
864.5884351535869
 20
1290.037052226663
 30
0.0
  0
POINT
  5
EC2
330
B1C
100
AcDbEntity
  8
Defpoints
 62
     0
100
AcDbPoint
 10
989.8580954967185
 20
1290.037052226663
 30
0.0
  0
ENDBLK
  5
B27
330
B1C
100
AcDbEntity
  8
0
100
AcDbBlockEnd
  0
BLOCK
  5
B4C
330
B42
100
AcDbEntity
  8
0
100
AcDbBlockBegin
  2
*D16
 70
     1
 10
0.0
 20
0.0
 30
0.0
  3
*D16
  1

  0
LINE
  5
EC3
330
B42
100
AcDbEntity
  8
図面
 62
     1
370
    -2
100
AcDbLine
 10
736.6509351535869
 20
1262.537052226663
 30
0.0
 11
802.1426304575597
 21
1262.537052226663
 31
0.0
  0
LINE
  5
EC4
330
B42
100
AcDbEntity
  8
図面
 62
     1
370
    -2
100
AcDbLine
 10
736.6509351535869
 20
997.5370522266635
 30
0.0
 11
802.1426304575597
 21
997.5370522266635
 31
0.0
  0
LINE
  5
EC5
330
B42
100
AcDbEntity
  8
図面
 62
     1
370
    -2
100
AcDbLine
 10
801.6426304575597
 20
1246.537052226663
 30
0.0
 11
801.6426304575597
 21
1013.537052226663
 31
0.0
  0
INSERT
  5
EC6
330
B42
100
AcDbEntity
  8
図面
 62
     1
370
    -2
100
AcDbBlockReference
  2
_Open
 10
801.6426304575597
 20
1262.537052226663
 30
0.0
 41
16.0
 42
16.0
 43
16.0
 50
90.0
  0
INSERT
  5
EC7
330
B42
100
AcDbEntity
  8
図面
 62
     1
370
    -2
100
AcDbBlockReference
  2
_Open
 10
801.6426304575597
 20
997.5370522266635
 30
0.0
 41
16.0
 42
16.0
 43
16.0
 50
270.0
  0
MTEXT
  5
EC8
330
B42
100
AcDbEntity
  8
図面
 62
     1
100
AcDbMText
 10
791.1426304575597
 20
1130.037052226663
 30
0.0
 40
20.0
 41
0.0
 71
     5
 72
     1
  1
\A1;265
  7
WMF-ＭＳ Ｐ明朝0
 11
0.0
 21
1.0
 31
0.0
 73
     1
 44
1.0
  0
POINT
  5
EC9
330
B42
100
AcDbEntity
  8
Defpoints
 62
     0
100
AcDbPoint
 10
736.5884351535869
 20
1262.537052226663
 30
0.0
  0
POINT
  5
ECA
330
B42
100
AcDbEntity
  8
Defpoints
 62
     0
100
AcDbPoint
 10
736.5884351535869
 20
997.5370522266635
 30
0.0
  0
POINT
  5
ECB
330
B42
100
AcDbEntity
  8
Defpoints
 62
     0
100
AcDbPoint
 10
801.6426304575597
 20
997.5370522266635
 30
0.0
  0
ENDBLK
  5
B4D
330
B42
100
AcDbEntity
  8
0
100
AcDbBlockEnd
  0
BLOCK
  5
B5A
330
B50
100
AcDbEntity
  8
0
100
AcDbBlockBegin
  2
*D17
 70
     1
 10
0.0
 20
0.0
 30
0.0
  3
*D17
  1

  0
LINE
  5
ED6
330
B50
100
AcDbEntity
  8
図面
 62
     1
370
    -2
100
AcDbLine
 10
417.5884351535869
 20
969.9745522266634
 30
0.0
 11
417.5884351535869
 21
914.6596046739832
 31
0.0
  0
LINE
  5
ED7
330
B50
100
AcDbEntity
  8
図面
 62
     1
370
    -2
100
AcDbLine
 10
864.5884351535869
 20
969.9745522266634
 30
0.0
 11
864.5884351535869
 21
914.6596046739832
 31
0.0
  0
LINE
  5
ED8
330
B50
100
AcDbEntity
  8
図面
 62
     1
370
    -2
100
AcDbLine
 10
433.5884351535869
 20
915.1596046739832
 30
0.0
 11
848.5884351535869
 21
915.1596046739832
 31
0.0
  0
INSERT
  5
ED9
330
B50
100
AcDbEntity
  8
図面
 62
     1
370
    -2
100
AcDbBlockReference
  2
_Open
 10
417.5884351535869
 20
915.1596046739832
 30
0.0
 41
16.0
 42
16.0
 43
16.0
 50
180.0
  0
INSERT
  5
EDA
330
B50
100
AcDbEntity
  8
図面
 62
     1
370
    -2
100
AcDbBlockReference
  2
_Open
 10
864.5884351535869
 20
915.1596046739832
 30
0.0
 41
16.0
 42
16.0
 43
16.0
  0
MTEXT
  5
EDB
330
B50
100
AcDbEntity
  8
図面
 62
     1
100
AcDbMText
 10
641.0884351535869
 20
925.6596046739832
 30
0.0
 40
20.0
 41
0.0
 71
     5
 72
     1
  1
\A1;450
  7
WMF-ＭＳ Ｐ明朝0
 73
     1
 44
1.0
  0
POINT
  5
EDC
330
B50
100
AcDbEntity
  8
Defpoints
 62
     0
100
AcDbPoint
 10
417.5884351535869
 20
970.0370522266634
 30
0.0
  0
POINT
  5
EDD
330
B50
100
AcDbEntity
  8
Defpoints
 62
     0
100
AcDbPoint
 10
864.5884351535869
 20
970.0370522266634
 30
0.0
  0
POINT
  5
EDE
330
B50
100
AcDbEntity
  8
Defpoints
 62
     0
100
AcDbPoint
 10
864.5884351535869
 20
915.1596046739832
 30
0.0
  0
ENDBLK
  5
B5B
330
B50
100
AcDbEntity
  8
0
100
AcDbBlockEnd
  0
BLOCK
  5
B6D
330
B66
100
AcDbEntity
  8
0
100
AcDbBlockBegin
  2
*D18
 70
     1
 10
0.0
 20
0.0
 30
0.0
  3
*D18
  1

  0
LINE
  5
EDF
330
B66
100
AcDbEntity
  8
図面
 62
     1
370
    -2
100
AcDbLine
 10
535.9446782288964
 20
1060.304144699524
 30
0.0
 11
683.4147573172017
 21
1211.213308681334
 31
0.0
  0
MTEXT
  5
EE0
330
B66
100
AcDbEntity
  8
図面
 62
     1
100
AcDbMText
 10
601.4690504259468
 20
1146.622438837936
 30
0.0
 40
20.0
 41
0.0
 71
     5
 72
     1
  1
\A1;%%c227
  7
WMF-ＭＳ Ｐ明朝0
 11
0.6989103274327273
 21
0.7152093079706652
 31
0.0
 73
     1
 44
1.0
  0
SOLID
  5
EE1
330
B66
100
AcDbEntity
  8
図面
 62
     1
100
AcDbTrace
 10
674.1394168995332
 20
1197.906198880649
 30
0.0
 11
670.324967257023
 21
1201.633720626957
 31
0.0
 12
683.4147573172017
 22
1211.213308681334
 32
0.0
 13
683.4147573172017
 23
1211.213308681334
 33
0.0
  0
SOLID
  5
EE2
330
B66
100
AcDbEntity
  8
図面
 62
     1
100
AcDbTrace
 10
534.0374534076412
 20
1062.167905572678
 30
0.0
 11
537.8519030501515
 21
1058.44038382637
 31
0.0
 12
524.7621129899727
 22
1048.860795771993
 32
0.0
 13
524.7621129899727
 23
1048.860795771993
 33
0.0
  0
POINT
  5
EE3
330
B66
100
AcDbEntity
  8
Defpoints
 62
     0
100
AcDbPoint
 10
524.7621129899727
 20
1048.860795771993
 30
0.0
  0
POINT
  5
EE4
330
B66
100
AcDbEntity
  8
Defpoints
 62
     0
100
AcDbPoint
 10
683.4147573172017
 20
1211.213308681334
 30
0.0
  0
ENDBLK
  5
B6E
330
B66
100
AcDbEntity
  8
0
100
AcDbBlockEnd
  0
BLOCK
  5
B77
330
B70
100
AcDbEntity
  8
0
100
AcDbBlockBegin
  2
*D19
 70
     1
 10
0.0
 20
0.0
 30
0.0
  3
*D19
  1

  0
LINE
  5
EE5
330
B70
100
AcDbEntity
  8
図面
 62
     1
370
    -2
100
AcDbLine
 10
553.655254471853
 20
1027.799611500071
 30
0.0
 11
661.5999569836351
 21
1246.623607441199
 31
0.0
  0
MTEXT
  5
EE6
330
B70
100
AcDbEntity
  8
図面
 62
     1
100
AcDbMText
 10
589.7172917085026
 20
1069.122532819674
 30
0.0
 40
20.0
 41
0.0
 71
     5
 72
     1
  1
\A1;%%c260
  7
WMF-ＭＳ Ｐ明朝0
 11
0.4423963217695988
 21
0.8968196554964268
 31
0.0
 73
     1
 44
1.0
  0
SOLID
  5
EE7
330
B70
100
AcDbEntity
  8
図面
 62
     1
100
AcDbTrace
 10
656.9131349166454
 20
1231.094769428537
 30
0.0
 11
652.1300967539977
 21
1233.454216477975
 31
0.0
 12
661.5999569836351
 22
1246.623607441199
 32
0.0
 13
661.5999569836351
 23
1246.623607441199
 33
0.0
  0
SOLID
  5
EE8
330
B70
100
AcDbEntity
  8
図面
 62
     1
100
AcDbTrace
 10
551.2637353905292
 20
1028.97933502479
 30
0.0
 11
556.0467735531769
 21
1026.619887975352
 31
0.0
 12
546.5769133235394
 22
1013.450497012128
 32
0.0
 13
546.5769133235394
 23
1013.450497012128
 33
0.0
  0
POINT
  5
EE9
330
B70
100
AcDbEntity
  8
Defpoints
 62
     0
100
AcDbPoint
 10
546.5769133235394
 20
1013.450497012128
 30
0.0
  0
POINT
  5
EEA
330
B70
100
AcDbEntity
  8
Defpoints
 62
     0
100
AcDbPoint
 10
661.5999569836351
 20
1246.623607441199
 30
0.0
  0
ENDBLK
  5
B78
330
B70
100
AcDbEntity
  8
0
100
AcDbBlockEnd
  0
BLOCK
  5
BD0
330
BC5
100
AcDbEntity
  8
0
100
AcDbBlockBegin
  2
*D20
 70
     1
 10
0.0
 20
0.0
 30
0.0
  3
*D20
  1

  0
LINE
  5
E93
330
BC5
100
AcDbEntity
  8
図面
 62
     1
370
    -2
100
AcDbLine
 10
841.5884351535869
 20
1284.099552226663
 30
0.0
 11
841.5884351535869
 21
1350.435353775449
 31
0.0
  0
LINE
  5
E94
330
BC5
100
AcDbEntity
  8
図面
 62
     1
370
    -2
100
AcDbLine
 10
860.588435153587
 20
1284.099552226663
 30
0.0
 11
860.588435153587
 21
1350.435353775449
 31
0.0
  0
LINE
  5
E95
330
BC5
100
AcDbEntity
  8
図面
 62
     1
370
    -2
100
AcDbLine
 10
825.5884351535869
 20
1349.935353775449
 30
0.0
 11
809.5884351535869
 21
1349.935353775449
 31
0.0
  0
LINE
  5
E96
330
BC5
100
AcDbEntity
  8
図面
 62
     1
370
    -2
100
AcDbLine
 10
876.588435153587
 20
1349.935353775449
 30
0.0
 11
892.588435153587
 21
1349.935353775449
 31
0.0
  0
INSERT
  5
E97
330
BC5
100
AcDbEntity
  8
図面
 62
     1
370
    -2
100
AcDbBlockReference
  2
_Open
 10
841.5884351535869
 20
1349.935353775449
 30
0.0
 41
16.0
 42
16.0
 43
16.0
  0
INSERT
  5
E98
330
BC5
100
AcDbEntity
  8
図面
 62
     1
370
    -2
100
AcDbBlockReference
  2
_Open
 10
860.588435153587
 20
1349.935353775449
 30
0.0
 41
16.0
 42
16.0
 43
16.0
 50
180.0
  0
MTEXT
  5
E99
330
BC5
100
AcDbEntity
  8
図面
 62
     1
100
AcDbMText
 10
849.0139534031504
 20
1362.230539230297
 30
0.0
 40
20.0
 41
0.0
 71
     5
 72
     1
  1
\A1;19
  7
WMF-ＭＳ Ｐ明朝0
 73
     1
 44
1.0
  0
POINT
  5
E9A
330
BC5
100
AcDbEntity
  8
Defpoints
 62
     0
100
AcDbPoint
 10
841.5884351535869
 20
1284.037052226663
 30
0.0
  0
POINT
  5
E9B
330
BC5
100
AcDbEntity
  8
Defpoints
 62
     0
100
AcDbPoint
 10
860.588435153587
 20
1284.037052226663
 30
0.0
  0
POINT
  5
E9C
330
BC5
100
AcDbEntity
  8
Defpoints
 62
     0
100
AcDbPoint
 10
860.588435153587
 20
1349.935353775449
 30
0.0
  0
ENDBLK
  5
BD1
330
BC5
100
AcDbEntity
  8
0
100
AcDbBlockEnd
  0
BLOCK
  5
BF2
330
BE7
100
AcDbEntity
  8
0
100
AcDbBlockBegin
  2
*D21
 70
     1
 10
0.0
 20
0.0
 30
0.0
  3
*D21
  1

  0
LINE
  5
E9D
330
BE7
100
AcDbEntity
  8
図面
 62
     1
370
    -2
100
AcDbLine
 10
860.588435153587
 20
1284.099552226663
 30
0.0
 11
860.588435153587
 21
1316.430234064211
 31
0.0
  0
LINE
  5
E9E
330
BE7
100
AcDbEntity
  8
図面
 62
     1
370
    -2
100
AcDbLine
 10
864.5884351535869
 20
1284.099552226663
 30
0.0
 11
864.5884351535869
 21
1316.430234064211
 31
0.0
  0
LINE
  5
E9F
330
BE7
100
AcDbEntity
  8
図面
 62
     1
370
    -2
100
AcDbLine
 10
844.588435153587
 20
1315.930234064211
 30
0.0
 11
828.588435153587
 21
1315.930234064211
 31
0.0
  0
LINE
  5
EA0
330
BE7
100
AcDbEntity
  8
図面
 62
     1
370
    -2
100
AcDbLine
 10
880.5884351535869
 20
1315.930234064211
 30
0.0
 11
896.5884351535869
 21
1315.930234064211
 31
0.0
  0
INSERT
  5
EA1
330
BE7
100
AcDbEntity
  8
図面
 62
     1
370
    -2
100
AcDbBlockReference
  2
_Open
 10
860.588435153587
 20
1315.930234064211
 30
0.0
 41
16.0
 42
16.0
 43
16.0
  0
INSERT
  5
EA2
330
BE7
100
AcDbEntity
  8
図面
 62
     1
370
    -2
100
AcDbBlockReference
  2
_Open
 10
864.5884351535869
 20
1315.930234064211
 30
0.0
 41
16.0
 42
16.0
 43
16.0
 50
180.0
  0
MTEXT
  5
EA3
330
BE7
100
AcDbEntity
  8
図面
 62
     1
100
AcDbMText
 10
884.2902472521391
 20
1328.701288562479
 30
0.0
 40
20.0
 41
0.0
 71
     5
 72
     1
  1
\A1;7
  7
WMF-ＭＳ Ｐ明朝0
 73
     1
 44
1.0
  0
POINT
  5
EA4
330
BE7
100
AcDbEntity
  8
Defpoints
 62
     0
100
AcDbPoint
 10
860.588435153587
 20
1284.037052226663
 30
0.0
  0
POINT
  5
EA5
330
BE7
100
AcDbEntity
  8
Defpoints
 62
     0
100
AcDbPoint
 10
864.5884351535869
 20
1284.037052226663
 30
0.0
  0
POINT
  5
EA6
330
BE7
100
AcDbEntity
  8
Defpoints
 62
     0
100
AcDbPoint
 10
864.5884351535869
 20
1315.930234064211
 30
0.0
  0
ENDBLK
  5
BF3
330
BE7
100
AcDbEntity
  8
0
100
AcDbBlockEnd
  0
BLOCK
  5
C4A
330
C40
100
AcDbEntity
  8
0
100
AcDbBlockBegin
  2
*D22
 70
     1
 10
0.0
 20
0.0
 30
0.0
  3
*D22
  1

  0
LINE
  5
E5C
330
C40
100
AcDbEntity
  8
図面
 62
     1
370
    -2
100
AcDbLine
 10
187.4634351535869
 20
1075.037052226663
 30
0.0
 11
120.8591934790047
 21
1075.037052226663
 31
0.0
  0
LINE
  5
E5D
330
C40
100
AcDbEntity
  8
図面
 62
     1
370
    -2
100
AcDbLine
 10
187.5259351535869
 20
1185.037052226663
 30
0.0
 11
120.8591934790047
 21
1185.037052226663
 31
0.0
  0
LINE
  5
E5E
330
C40
100
AcDbEntity
  8
図面
 62
     1
370
    -2
100
AcDbLine
 10
121.3591934790047
 20
1091.037052226663
 30
0.0
 11
121.3591934790047
 21
1169.037052226663
 31
0.0
  0
INSERT
  5
E5F
330
C40
100
AcDbEntity
  8
図面
 62
     1
370
    -2
100
AcDbBlockReference
  2
_Open
 10
121.3591934790047
 20
1075.037052226663
 30
0.0
 41
16.0
 42
16.0
 43
16.0
 50
270.0
  0
INSERT
  5
E60
330
C40
100
AcDbEntity
  8
図面
 62
     1
370
    -2
100
AcDbBlockReference
  2
_Open
 10
121.3591934790047
 20
1185.037052226663
 30
0.0
 41
16.0
 42
16.0
 43
16.0
 50
90.0
  0
MTEXT
  5
E61
330
C40
100
AcDbEntity
  8
図面
 62
     1
100
AcDbMText
 10
110.8591934790047
 20
1130.037052226663
 30
0.0
 40
20.0
 41
0.0
 71
     5
 72
     1
  1
\A1;110
  7
WMF-ＭＳ Ｐ明朝0
 11
0.0
 21
1.0
 31
0.0
 73
     1
 44
1.0
  0
POINT
  5
E62
330
C40
100
AcDbEntity
  8
Defpoints
 62
     0
100
AcDbPoint
 10
187.5259351535869
 20
1075.037052226663
 30
0.0
  0
POINT
  5
E63
330
C40
100
AcDbEntity
  8
Defpoints
 62
     0
100
AcDbPoint
 10
187.5884351535869
 20
1185.037052226663
 30
0.0
  0
POINT
  5
E64
330
C40
100
AcDbEntity
  8
Defpoints
 62
     0
100
AcDbPoint
 10
121.3591934790047
 20
1185.037052226663
 30
0.0
  0
ENDBLK
  5
C4B
330
C40
100
AcDbEntity
  8
0
100
AcDbBlockEnd
  0
BLOCK
  5
C57
330
C4D
100
AcDbEntity
  8
0
100
AcDbBlockBegin
  2
*D23
 70
     1
 10
0.0
 20
0.0
 30
0.0
  3
*D23
  1

  0
LINE
  5
E6E
330
C4D
100
AcDbEntity
  8
図面
 62
     1
370
    -2
100
AcDbLine
 10
187.5884351535869
 20
1185.099552226663
 30
0.0
 11
187.5884351535868
 21
1395.394096842402
 31
0.0
  0
LINE
  5
E6F
330
C4D
100
AcDbEntity
  8
図面
 62
     1
370
    -2
100
AcDbLine
 10
864.6509351535868
 20
1290.099552226663
 30
0.0
 11
864.6509351535868
 21
1395.394096842402
 31
0.0
  0
LINE
  5
E70
330
C4D
100
AcDbEntity
  8
図面
 62
     1
370
    -2
100
AcDbLine
 10
203.5884351535868
 20
1394.894096842402
 30
0.0
 11
848.6509351535868
 21
1394.894096842402
 31
0.0
  0
INSERT
  5
E71
330
C4D
100
AcDbEntity
  8
図面
 62
     1
370
    -2
100
AcDbBlockReference
  2
_Open
 10
187.5884351535868
 20
1394.894096842402
 30
0.0
 41
16.0
 42
16.0
 43
16.0
 50
180.0
  0
INSERT
  5
E72
330
C4D
100
AcDbEntity
  8
図面
 62
     1
370
    -2
100
AcDbBlockReference
  2
_Open
 10
864.6509351535868
 20
1394.894096842402
 30
0.0
 41
16.0
 42
16.0
 43
16.0
  0
MTEXT
  5
E73
330
C4D
100
AcDbEntity
  8
図面
 62
     1
100
AcDbMText
 10
526.1196851535868
 20
1405.394096842402
 30
0.0
 40
20.0
 41
0.0
 71
     5
 72
     1
  1
\A1;680
  7
WMF-ＭＳ Ｐ明朝0
 73
     1
 44
1.0
  0
POINT
  5
E74
330
C4D
100
AcDbEntity
  8
Defpoints
 62
     0
100
AcDbPoint
 10
187.5884351535869
 20
1185.037052226663
 30
0.0
  0
POINT
  5
E75
330
C4D
100
AcDbEntity
  8
Defpoints
 62
     0
100
AcDbPoint
 10
864.6509351535868
 20
1290.037052226663
 30
0.0
  0
POINT
  5
E76
330
C4D
100
AcDbEntity
  8
Defpoints
 62
     0
100
AcDbPoint
 10
864.6509351535868
 20
1394.894096842402
 30
0.0
  0
ENDBLK
  5
C58
330
C4D
100
AcDbEntity
  8
0
100
AcDbBlockEnd
  0
BLOCK
  5
C6E
330
C63
100
AcDbEntity
  8
0
100
AcDbBlockBegin
  2
*D24
 70
     1
 10
0.0
 20
0.0
 30
0.0
  3
*D24
  1

  0
LINE
  5
E77
330
C63
100
AcDbEntity
  8
図面
 62
     1
370
    -2
100
AcDbLine
 10
417.5884351535869
 20
1290.099552226663
 30
0.0
 11
417.5884351535869
 21
1350.935353775449
 31
0.0
  0
LINE
  5
E78
330
C63
100
AcDbEntity
  8
図面
 62
     1
370
    -2
100
AcDbLine
 10
436.5884351535869
 20
1290.099552226663
 30
0.0
 11
436.5884351535869
 21
1350.935353775449
 31
0.0
  0
LINE
  5
E79
330
C63
100
AcDbEntity
  8
図面
 62
     1
370
    -2
100
AcDbLine
 10
401.5884351535869
 20
1350.435353775449
 30
0.0
 11
385.5884351535869
 21
1350.435353775449
 31
0.0
  0
LINE
  5
E7A
330
C63
100
AcDbEntity
  8
図面
 62
     1
370
    -2
100
AcDbLine
 10
452.5884351535869
 20
1350.435353775449
 30
0.0
 11
468.5884351535869
 21
1350.435353775449
 31
0.0
  0
INSERT
  5
E7B
330
C63
100
AcDbEntity
  8
図面
 62
     1
370
    -2
100
AcDbBlockReference
  2
_Open
 10
417.5884351535869
 20
1350.435353775449
 30
0.0
 41
16.0
 42
16.0
 43
16.0
  0
INSERT
  5
E7C
330
C63
100
AcDbEntity
  8
図面
 62
     1
370
    -2
100
AcDbBlockReference
  2
_Open
 10
436.5884351535869
 20
1350.435353775449
 30
0.0
 41
16.0
 42
16.0
 43
16.0
 50
180.0
  0
MTEXT
  5
E7D
330
C63
100
AcDbEntity
  8
図面
 62
     1
100
AcDbMText
 10
427.0884351535869
 20
1361.685353775449
 30
0.0
 40
20.0
 41
0.0
 71
     5
 72
     1
  1
\A1;19
  7
WMF-ＭＳ Ｐ明朝0
 73
     1
 44
1.0
  0
POINT
  5
E7E
330
C63
100
AcDbEntity
  8
Defpoints
 62
     0
100
AcDbPoint
 10
417.5884351535869
 20
1290.037052226663
 30
0.0
  0
POINT
  5
E7F
330
C63
100
AcDbEntity
  8
Defpoints
 62
     0
100
AcDbPoint
 10
436.5884351535869
 20
1290.037052226663
 30
0.0
  0
POINT
  5
E80
330
C63
100
AcDbEntity
  8
Defpoints
 62
     0
100
AcDbPoint
 10
436.5884351535869
 20
1350.435353775449
 30
0.0
  0
ENDBLK
  5
C6F
330
C63
100
AcDbEntity
  8
0
100
AcDbBlockEnd
  0
BLOCK
  5
C7B
330
C71
100
AcDbEntity
  8
0
100
AcDbBlockBegin
  2
*D25
 70
     1
 10
0.0
 20
0.0
 30
0.0
  3
*D25
  1

  0
LINE
  5
EB1
330
C71
100
AcDbEntity
  8
図面
 62
     1
370
    -2
100
AcDbLine
 10
841.5884351535869
 20
995.0995522266635
 30
0.0
 11
915.0770764543222
 21
995.0995522266635
 31
0.0
  0
LINE
  5
EB2
330
C71
100
AcDbEntity
  8
図面
 62
     1
370
    -2
100
AcDbLine
 10
841.6509351535869
 20
1265.037052226663
 30
0.0
 11
915.0770764543222
 21
1265.037052226663
 31
0.0
  0
LINE
  5
EB3
330
C71
100
AcDbEntity
  8
図面
 62
     1
370
    -2
100
AcDbLine
 10
914.5770764543222
 20
1011.099552226663
 30
0.0
 11
914.5770764543222
 21
1249.037052226663
 31
0.0
  0
INSERT
  5
EB4
330
C71
100
AcDbEntity
  8
図面
 62
     1
370
    -2
100
AcDbBlockReference
  2
_Open
 10
914.5770764543222
 20
995.0995522266635
 30
0.0
 41
16.0
 42
16.0
 43
16.0
 50
270.0
  0
INSERT
  5
EB5
330
C71
100
AcDbEntity
  8
図面
 62
     1
370
    -2
100
AcDbBlockReference
  2
_Open
 10
914.5770764543222
 20
1265.037052226663
 30
0.0
 41
16.0
 42
16.0
 43
16.0
 50
90.0
  0
MTEXT
  5
EB6
330
C71
100
AcDbEntity
  8
図面
 62
     1
100
AcDbMText
 10
904.0770764543222
 20
1130.068302226663
 30
0.0
 40
20.0
 41
0.0
 71
     5
 72
     1
  1
\A1;270
  7
WMF-ＭＳ Ｐ明朝0
 11
0.0
 21
1.0
 31
0.0
 73
     1
 44
1.0
  0
POINT
  5
EB7
330
C71
100
AcDbEntity
  8
Defpoints
 62
     0
100
AcDbPoint
 10
841.5259351535869
 20
995.0995522266635
 30
0.0
  0
POINT
  5
EB8
330
C71
100
AcDbEntity
  8
Defpoints
 62
     0
100
AcDbPoint
 10
841.5884351535869
 20
1265.037052226663
 30
0.0
  0
POINT
  5
EB9
330
C71
100
AcDbEntity
  8
Defpoints
 62
     0
100
AcDbPoint
 10
914.5770764543222
 20
1265.037052226663
 30
0.0
  0
ENDBLK
  5
C7C
330
C71
100
AcDbEntity
  8
0
100
AcDbBlockEnd
  0
BLOCK
  5
C96
330
C8B
100
AcDbEntity
  8
0
100
AcDbBlockBegin
  2
*D26
 70
     1
 10
0.0
 20
0.0
 30
0.0
  3
*D26
  1

  0
LINE
  5
EA7
330
C8B
100
AcDbEntity
  8
図面
 62
     1
370
    -2
100
AcDbLine
 10
841.713435153587
 20
1265.037052226663
 30
0.0
 11
915.0770764543224
 21
1265.037052226663
 31
0.0
  0
LINE
  5
EA8
330
C8B
100
AcDbEntity
  8
図面
 62
     1
370
    -2
100
AcDbLine
 10
841.6509351535869
 20
1284.099552226663
 30
0.0
 11
915.0770764543224
 21
1284.099552226663
 31
0.0
  0
LINE
  5
EA9
330
C8B
100
AcDbEntity
  8
図面
 62
     1
370
    -2
100
AcDbLine
 10
914.5770764543224
 20
1249.037052226663
 30
0.0
 11
914.5770764543224
 21
1233.037052226663
 31
0.0
  0
LINE
  5
EAA
330
C8B
100
AcDbEntity
  8
図面
 62
     1
370
    -2
100
AcDbLine
 10
914.5770764543224
 20
1300.099552226663
 30
0.0
 11
914.5770764543224
 21
1316.099552226663
 31
0.0
  0
INSERT
  5
EAB
330
C8B
100
AcDbEntity
  8
図面
 62
     1
370
    -2
100
AcDbBlockReference
  2
_Open
 10
914.5770764543224
 20
1265.037052226663
 30
0.0
 41
16.0
 42
16.0
 43
16.0
 50
90.0
  0
INSERT
  5
EAC
330
C8B
100
AcDbEntity
  8
図面
 62
     1
370
    -2
100
AcDbBlockReference
  2
_Open
 10
914.5770764543224
 20
1284.099552226663
 30
0.0
 41
16.0
 42
16.0
 43
16.0
 50
270.0
  0
MTEXT
  5
EAD
330
C8B
100
AcDbEntity
  8
図面
 62
     1
100
AcDbMText
 10
945.8270764543224
 20
1274.568302226663
 30
0.0
 40
20.0
 41
0.0
 71
     5
 72
     1
  1
\A1;19
  7
WMF-ＭＳ Ｐ明朝0
 11
0.0
 21
1.0
 31
0.0
 73
     1
 44
1.0
  0
POINT
  5
EAE
330
C8B
100
AcDbEntity
  8
Defpoints
 62
     0
100
AcDbPoint
 10
841.650935153587
 20
1265.037052226663
 30
0.0
  0
POINT
  5
EAF
330
C8B
100
AcDbEntity
  8
Defpoints
 62
     0
100
AcDbPoint
 10
841.5884351535869
 20
1284.099552226663
 30
0.0
  0
POINT
  5
EB0
330
C8B
100
AcDbEntity
  8
Defpoints
 62
     0
100
AcDbPoint
 10
914.5770764543224
 20
1284.099552226663
 30
0.0
  0
ENDBLK
  5
C97
330
C8B
100
AcDbEntity
  8
0
100
AcDbBlockEnd
  0
BLOCK
  5
CA4
330
C99
100
AcDbEntity
  8
0
100
AcDbBlockBegin
  2
*D27
 70
     1
 10
0.0
 20
0.0
 30
0.0
  3
*D27
  1

  0
LINE
  5
ECC
330
C99
100
AcDbEntity
  8
図面
 62
     1
370
    -2
100
AcDbLine
 10
841.6509351535869
 20
995.0995522266635
 30
0.0
 11
915.0770764543222
 21
995.0995522266635
 31
0.0
  0
LINE
  5
ECD
330
C99
100
AcDbEntity
  8
図面
 62
     1
370
    -2
100
AcDbLine
 10
860.650935153587
 20
976.0370522266635
 30
0.0
 11
915.0770764543222
 21
976.0370522266635
 31
0.0
  0
LINE
  5
ECE
330
C99
100
AcDbEntity
  8
図面
 62
     1
370
    -2
100
AcDbLine
 10
914.5770764543222
 20
1011.099552226663
 30
0.0
 11
914.5770764543222
 21
1027.099552226663
 31
0.0
  0
LINE
  5
ECF
330
C99
100
AcDbEntity
  8
図面
 62
     1
370
    -2
100
AcDbLine
 10
914.5770764543222
 20
960.0370522266635
 30
0.0
 11
914.5770764543222
 21
944.0370522266635
 31
0.0
  0
INSERT
  5
ED0
330
C99
100
AcDbEntity
  8
図面
 62
     1
370
    -2
100
AcDbBlockReference
  2
_Open
 10
914.5770764543222
 20
995.0995522266635
 30
0.0
 41
16.0
 42
16.0
 43
16.0
 50
270.0
  0
INSERT
  5
ED1
330
C99
100
AcDbEntity
  8
図面
 62
     1
370
    -2
100
AcDbBlockReference
  2
_Open
 10
914.5770764543222
 20
976.0370522266635
 30
0.0
 41
16.0
 42
16.0
 43
16.0
 50
90.0
  0
MTEXT
  5
ED2
330
C99
100
AcDbEntity
  8
図面
 62
     1
100
AcDbMText
 10
945.8270764543222
 20
985.5683022266635
 30
0.0
 40
20.0
 41
0.0
 71
     5
 72
     1
  1
\A1;19
  7
WMF-ＭＳ Ｐ明朝0
 11
0.0
 21
1.0
 31
0.0
 73
     1
 44
1.0
  0
POINT
  5
ED3
330
C99
100
AcDbEntity
  8
Defpoints
 62
     0
100
AcDbPoint
 10
841.5884351535869
 20
995.0995522266635
 30
0.0
  0
POINT
  5
ED4
330
C99
100
AcDbEntity
  8
Defpoints
 62
     0
100
AcDbPoint
 10
860.588435153587
 20
976.0370522266635
 30
0.0
  0
POINT
  5
ED5
330
C99
100
AcDbEntity
  8
Defpoints
 62
     0
100
AcDbPoint
 10
914.5770764543222
 20
976.0370522266635
 30
0.0
  0
ENDBLK
  5
CA5
330
C99
100
AcDbEntity
  8
0
100
AcDbBlockEnd
  0
BLOCK
  5
D33
330
D2F
100
AcDbEntity
  8
0
100
AcDbBlockBegin
  2
_Open
 70
     0
 10
0.0
 20
0.0
 30
0.0
  3
_Open
  1

  0
LINE
  5
D30
330
D2F
100
AcDbEntity
  8
0
  6
ByBlock
 62
     0
370
    -2
100
AcDbLine
 10
-1.0
 20
0.1666666666666666
 30
0.0
 11
0.0
 21
0.0
 31
0.0
  0
LINE
  5
D31
330
D2F
100
AcDbEntity
  8
0
  6
ByBlock
 62
     0
370
    -2
100
AcDbLine
 10
-1.0
 20
-0.1666666666666666
 30
0.0
 11
0.0
 21
0.0
 31
0.0
  0
LINE
  5
D32
330
D2F
100
AcDbEntity
  8
0
  6
ByBlock
 62
     0
370
    -2
100
AcDbLine
 10
0.0
 20
0.0
 30
0.0
 11
-1.0
 21
0.0
 31
0.0
  0
ENDBLK
  5
D34
330
D2F
100
AcDbEntity
  8
0
100
AcDbBlockEnd
  0
ENDSEC
  0
SECTION
  2
ENTITIES
  0
LWPOLYLINE
  5
51
330
1E
100
AcDbEntity
  8
図面枠
  6
Continuous
 62
   254
100
AcDbPolyline
 90
        4
 70
     1
 43
0.0
 10
-88.77551939125169
 20
394.9282501544121
 10
1591.224480608748
 20
394.9282501544121
 10
1591.224480608748
 20
1582.928250154412
 10
-88.77551939125169
 20
1582.928250154412
  0
LINE
  5
57
330
1E
100
AcDbEntity
  8
図面枠
  6
Continuous
100
AcDbLine
 10
1531.224480608748
 20
1542.928250154412
 30
0.0
 11
-8.775519391251692
 21
1542.928250154412
 31
0.0
  0
LINE
  5
58
330
1E
100
AcDbEntity
  8
図面枠
  6
Continuous
100
AcDbLine
 10
-8.775519391251692
 20
1542.928250154412
 30
0.0
 11
-8.775519391251692
 21
454.9282501544121
 31
0.0
  0
LINE
  5
59
330
1E
100
AcDbEntity
  8
図面枠
  6
Continuous
100
AcDbLine
 10
1531.224480608748
 20
454.9282501544121
 30
0.0
 11
-8.775519391251692
 21
454.9282501544121
 31
0.0
  0
LINE
  5
5A
330
1E
100
AcDbEntity
  8
図面枠
  6
Continuous
100
AcDbLine
 10
1531.224480608748
 20
1542.928250154412
 30
0.0
 11
1531.224480608748
 21
454.9282501544121
 31
0.0
  0
LINE
  5
6A
330
1E
100
AcDbEntity
  8
図面枠
  6
Continuous
100
AcDbLine
 10
1179.224480608748
 20
466.9282501544121
 30
0.0
 11
1235.224480608748
 21
466.9282501544121
 31
0.0
  0
LINE
  5
6B
330
1E
100
AcDbEntity
  8
図面枠
  6
Continuous
100
AcDbLine
 10
1235.224480608748
 20
466.9282501544121
 30
0.0
 11
1235.224480608748
 21
506.9282501544121
 31
0.0
  0
LINE
  5
6D
330
1E
100
AcDbEntity
  8
図面枠
  6
Continuous
100
AcDbLine
 10
1235.224480608748
 20
506.9282501544121
 30
0.0
 11
1235.224480608748
 21
466.9282501544121
 31
0.0
  0
LINE
  5
6E
330
1E
100
AcDbEntity
  8
図面枠
  6
Continuous
100
AcDbLine
 10
1235.224480608748
 20
466.9282501544121
 30
0.0
 11
1291.224480608748
 21
466.9282501544121
 31
0.0
  0
LINE
  5
6F
330
1E
100
AcDbEntity
  8
図面枠
  6
Continuous
100
AcDbLine
 10
1291.224480608748
 20
466.9282501544121
 30
0.0
 11
1291.224480608748
 21
506.9282501544121
 31
0.0
  0
LINE
  5
70
330
1E
100
AcDbEntity
  8
図面枠
  6
Continuous
100
AcDbLine
 10
1291.224480608748
 20
506.9282501544121
 30
0.0
 11
1235.224480608748
 21
506.9282501544121
 31
0.0
  0
LINE
  5
71
330
1E
100
AcDbEntity
  8
図面枠
  6
Continuous
100
AcDbLine
 10
1291.224480608748
 20
506.9282501544121
 30
0.0
 11
1291.224480608748
 21
466.9282501544121
 31
0.0
  0
LINE
  5
72
330
1E
100
AcDbEntity
  8
図面枠
  6
Continuous
100
AcDbLine
 10
1291.224480608748
 20
466.9282501544121
 30
0.0
 11
1335.224480608748
 21
466.9282501544121
 31
0.0
  0
LINE
  5
73
330
1E
100
AcDbEntity
  8
図面枠
  6
Continuous
100
AcDbLine
 10
1335.224480608748
 20
466.9282501544121
 30
0.0
 11
1335.224480608748
 21
506.9282501544121
 31
0.0
  0
LINE
  5
74
330
1E
100
AcDbEntity
  8
図面枠
  6
Continuous
100
AcDbLine
 10
1335.224480608748
 20
506.9282501544121
 30
0.0
 11
1291.224480608748
 21
506.9282501544121
 31
0.0
  0
LINE
  5
75
330
1E
100
AcDbEntity
  8
図面枠
  6
Continuous
100
AcDbLine
 10
1335.224480608748
 20
506.9282501544121
 30
0.0
 11
1335.224480608748
 21
466.9282501544121
 31
0.0
  0
LINE
  5
76
330
1E
100
AcDbEntity
  8
図面枠
  6
Continuous
100
AcDbLine
 10
1335.224480608748
 20
466.9282501544121
 30
0.0
 11
1351.224480608748
 21
466.9282501544121
 31
0.0
  0
LINE
  5
77
330
1E
100
AcDbEntity
  8
図面枠
  6
Continuous
100
AcDbLine
 10
1351.224480608748
 20
466.9282501544121
 30
0.0
 11
1351.224480608748
 21
506.9282501544121
 31
0.0
  0
LINE
  5
78
330
1E
100
AcDbEntity
  8
図面枠
  6
Continuous
100
AcDbLine
 10
1351.224480608748
 20
506.9282501544121
 30
0.0
 11
1335.224480608748
 21
506.9282501544121
 31
0.0
  0
LINE
  5
79
330
1E
100
AcDbEntity
  8
図面枠
  6
Continuous
100
AcDbLine
 10
1351.224480608748
 20
506.9282501544121
 30
0.0
 11
1351.224480608748
 21
466.9282501544121
 31
0.0
  0
LINE
  5
7A
330
1E
100
AcDbEntity
  8
図面枠
  6
Continuous
100
AcDbLine
 10
1351.224480608748
 20
466.9282501544121
 30
0.0
 11
1519.224480608748
 21
466.9282501544121
 31
0.0
  0
LINE
  5
7B
330
1E
100
AcDbEntity
  8
図面枠
  6
Continuous
100
AcDbLine
 10
1519.224480608748
 20
466.9282501544121
 30
0.0
 11
1519.224480608748
 21
506.9282501544121
 31
0.0
  0
LINE
  5
7C
330
1E
100
AcDbEntity
  8
図面枠
  6
Continuous
100
AcDbLine
 10
1519.224480608748
 20
506.9282501544121
 30
0.0
 11
1351.224480608748
 21
506.9282501544121
 31
0.0
  0
LINE
  5
7F
330
1E
100
AcDbEntity
  8
図面枠
  6
Continuous
100
AcDbLine
 10
1235.224480608748
 20
526.9282501544121
 30
0.0
 11
1235.224480608748
 21
506.9282501544121
 31
0.0
  0
LINE
  5
83
330
1E
100
AcDbEntity
  8
図面枠
  6
Continuous
100
AcDbLine
 10
1235.224480608748
 20
546.9282501544121
 30
0.0
 11
1235.224480608748
 21
526.9282501544121
 31
0.0
  0
LINE
  5
87
330
1E
100
AcDbEntity
  8
図面枠
  6
Continuous
100
AcDbLine
 10
1235.224480608748
 20
566.9282501544121
 30
0.0
 11
1235.224480608748
 21
546.9282501544121
 31
0.0
  0
LINE
  5
89
330
1E
100
AcDbEntity
  8
図面枠
  6
Continuous
100
AcDbLine
 10
1235.224480608748
 20
566.9282501544121
 30
0.0
 11
1235.224480608748
 21
506.9282501544121
 31
0.0
  0
LINE
  5
8A
330
1E
100
AcDbEntity
  8
図面枠
  6
Continuous
100
AcDbLine
 10
1235.224480608748
 20
506.9282501544121
 30
0.0
 11
1255.224480608748
 21
506.9282501544121
 31
0.0
  0
LINE
  5
8B
330
1E
100
AcDbEntity
  8
図面枠
  6
Continuous
100
AcDbLine
 10
1255.224480608748
 20
506.9282501544121
 30
0.0
 11
1255.224480608748
 21
566.9282501544121
 31
0.0
  0
LINE
  5
8C
330
1E
100
AcDbEntity
  8
図面枠
  6
Continuous
100
AcDbLine
 10
1255.224480608748
 20
566.9282501544121
 30
0.0
 11
1235.224480608748
 21
566.9282501544121
 31
0.0
  0
LINE
  5
8D
330
1E
100
AcDbEntity
  8
図面枠
  6
Continuous
100
AcDbLine
 10
1255.224480608748
 20
506.9282501544121
 30
0.0
 11
1255.224480608748
 21
566.9282501544121
 31
0.0
  0
LINE
  5
8E
330
1E
100
AcDbEntity
  8
図面枠
  6
Continuous
100
AcDbLine
 10
1255.224480608748
 20
566.9282501544121
 30
0.0
 11
1519.224480608748
 21
566.9282501544121
 31
0.0
  0
LINE
  5
8F
330
1E
100
AcDbEntity
  8
図面枠
  6
Continuous
100
AcDbLine
 10
1519.224480608748
 20
566.9282501544121
 30
0.0
 11
1519.224480608748
 21
506.9282501544121
 31
0.0
  0
LINE
  5
90
330
1E
100
AcDbEntity
  8
図面枠
  6
Continuous
100
AcDbLine
 10
1519.224480608748
 20
506.9282501544121
 30
0.0
 11
1255.224480608748
 21
506.9282501544121
 31
0.0
  0
LINE
  5
93
330
1E
100
AcDbEntity
  8
図面枠
  6
Continuous
100
AcDbLine
 10
1519.224480608748
 20
646.9282501544121
 30
0.0
 11
1519.224480608748
 21
566.9282501544121
 31
0.0
  0
LINE
  5
A5
330
1E
100
AcDbEntity
  8
図面枠
  6
Continuous
100
AcDbLine
 10
1267.224480608748
 20
534.528250154412
 30
0.0
 11
1506.424480608748
 21
534.528250154412
 31
0.0
  0
LINE
  5
A6
330
1E
100
AcDbEntity
  8
図面枠
  6
Continuous
100
AcDbLine
 10
3.224480608748308
 20
1530.928250154412
 30
0.0
 11
1519.224480608748
 21
1530.928250154412
 31
0.0
  0
LINE
  5
A7
330
1E
100
AcDbEntity
  8
図面枠
  6
Continuous
100
AcDbLine
 10
3.224480608748308
 20
466.9282501544121
 30
0.0
 11
3.224480608748308
 21
1530.928250154412
 31
0.0
  0
LINE
  5
A8
330
1E
100
AcDbEntity
  8
図面枠
  6
Continuous
100
AcDbLine
 10
1519.224480608748
 20
1530.928250154412
 30
0.0
 11
1519.224480608748
 21
466.9282501544121
 31
0.0
  0
LINE
  5
AB
330
1E
100
AcDbEntity
  8
図面枠
  6
Continuous
100
AcDbLine
 10
1519.224480608748
 20
466.9282501544121
 30
0.0
 11
3.224480608748308
 21
466.9282501544121
 31
0.0
  0
TEXT
  5
130
330
1E
100
AcDbEntity
  8
図面枠
100
AcDbText
 10
1241.548148671471
 20
489.7823743530727
 30
0.0
 40
10.66666666666667
  1
尺  度
  7
WMF-ＭＳ Ｐ明朝0
100
AcDbText
  0
TEXT
  5
136
330
1E
100
AcDbEntity
  8
図面枠
100
AcDbText
 10
1336.687010707062
 20
470.9558345041323
 30
0.0
 40
9.600000000000001
  1
番
  7
WMF-ＭＳ Ｐ明朝0
100
AcDbText
  0
TEXT
  5
14C
330
1E
100
AcDbEntity
  8
図面枠
100
AcDbText
 10
1295.191789638536
 20
489.4636086570024
 30
0.0
 40
9.600000000000001
  1
重  量
  7
WMF-ＭＳ Ｐ明朝0
100
AcDbText
  0
TEXT
  5
150
330
1E
100
AcDbEntity
  8
図面枠
100
AcDbText
 10
1249.847355831439
 20
471.3999752537936
 30
0.0
 40
12.0
  1
１：4
  7
WMF-ＭＳ Ｐ明朝0
100
AcDbText
  0
TEXT
  5
152
330
1E
100
AcDbEntity
  8
図面枠
100
AcDbText
 10
1336.878879621034
 20
490.8674697847212
 30
0.0
 40
9.600000000000001
  1
図
  7
WMF-ＭＳ Ｐ明朝0
100
AcDbText
  0
MTEXT
  5
191
330
1E
100
AcDbEntity
  8
図面枠
370
    30
100
AcDbMText
 10
1224.900439548851
 20
453.0941945029451
 30
0.0
 40
17.6
 41
319.5152555495015
 71
     1
 72
     5
  1
株式会社　関東油機サービス
  7
WMF-ＭＳ Ｐ明朝0
 73
     1
 44
1.0
1001
ACAD
1000
ACAD_MTEXT_DEFINED_HEIGHT_BEGIN
1070
    46
1040
51.97074300569238
1000
ACAD_MTEXT_DEFINED_HEIGHT_END
  0
LINE
  5
63E
330
1E
100
AcDbEntity
  8
図面
100
AcDbLine
 10
417.5884351535869
 20
1290.037052226663
 30
0.0
 11
864.5884351535869
 21
1290.037052226663
 31
0.0
  0
LINE
  5
640
330
1E
100
AcDbEntity
  8
図面
100
AcDbLine
 10
864.5884351535869
 20
970.0370522266634
 30
0.0
 11
417.5884351535869
 21
970.0370522266634
 31
0.0
  0
LINE
  5
642
330
1E
100
AcDbEntity
  8
図面
100
AcDbLine
 10
436.5884351535869
 20
1265.037052226663
 30
0.0
 11
841.5259351535867
 21
1265.037052226663
 31
0.0
  0
LINE
  5
643
330
1E
100
AcDbEntity
  8
図面
100
AcDbLine
 10
841.5259351535869
 20
1265.099552226663
 30
0.0
 11
841.5259351535869
 21
995.0995522266635
 31
0.0
  0
LINE
  5
644
330
1E
100
AcDbEntity
  8
図面
100
AcDbLine
 10
841.5259351535869
 20
995.0995522266635
 30
0.0
 11
436.5884351535869
 21
995.0370522266634
 31
0.0
  0
LINE
  5
645
330
1E
100
AcDbEntity
  8
図面
100
AcDbLine
 10
436.5884351535869
 20
995.0370522266634
 30
0.0
 11
436.5884351535869
 21
1177.537052226663
 31
0.0
  0
LINE
  5
650
330
1E
100
AcDbEntity
  8
図面
100
AcDbLine
 10
417.5884351535869
 20
1180.037052226663
 30
0.0
 11
187.5884351535869
 21
1180.037052226663
 31
0.0
  0
LINE
  5
651
330
1E
100
AcDbEntity
  8
図面
100
AcDbLine
 10
187.5884351535869
 20
1180.037052226663
 30
0.0
 11
187.5884351535869
 21
1080.037052226663
 31
0.0
  0
LINE
  5
652
330
1E
100
AcDbEntity
  8
図面
100
AcDbLine
 10
187.5884351535869
 20
1080.037052226663
 30
0.0
 11
417.5884351535869
 21
1080.037052226663
 31
0.0
  0
LINE
  5
653
330
1E
100
AcDbEntity
  8
図面
100
AcDbLine
 10
417.5884351535869
 20
1080.037052226663
 30
0.0
 11
417.5884351535869
 21
1180.037052226663
 31
0.0
  0
LINE
  5
654
330
1E
100
AcDbEntity
  8
図面
100
AcDbLine
 10
417.5884351535869
 20
1172.537052226663
 30
0.0
 11
187.5884351535869
 21
1172.537052226663
 31
0.0
  0
LINE
  5
655
330
1E
100
AcDbEntity
  8
図面
100
AcDbLine
 10
417.5884351535869
 20
1087.537052226663
 30
0.0
 11
187.5884351535869
 21
1087.537052226663
 31
0.0
  0
LINE
  5
657
330
1E
100
AcDbEntity
  8
図面
100
AcDbLine
 10
207.5884351535869
 20
1180.037052226663
 30
0.0
 11
207.5884351535869
 21
1172.537052226663
 31
0.0
  0
LINE
  5
658
330
1E
100
AcDbEntity
  8
図面
100
AcDbLine
 10
207.5884351535869
 20
1087.537052226663
 30
0.0
 11
207.5884351535869
 21
1080.037052226663
 31
0.0
  0
LWPOLYLINE
  5
671
330
1E
100
AcDbEntity
  8
図面
100
AcDbPolyline
 90
        4
 70
     1
 43
0.0
 10
436.5884351535869
 20
1262.537052226663
 10
736.5884351535869
 20
1262.537052226663
 10
736.5884351535869
 20
997.5370522266635
 10
436.5884351535869
 20
997.5370522266635
  0
LINE
  5
680
330
1E
100
AcDbEntity
  8
図面
100
AcDbLine
 10
436.5884351535869
 20
1177.537052226663
 30
0.0
 11
452.5884351535869
 21
1177.537052226663
 31
0.0
  0
LINE
  5
682
330
1E
100
AcDbEntity
  8
図面
100
AcDbLine
 10
452.5884351535869
 20
1082.537052226663
 30
0.0
 11
436.5884351535869
 21
1082.537052226663
 31
0.0
  0
LINE
  5
684
330
1E
100
AcDbEntity
  8
図面
100
AcDbLine
 10
436.5884351535869
 20
1177.537052226663
 30
0.0
 11
506.5884351535869
 21
1177.537052226663
 31
0.0
  0
LINE
  5
685
330
1E
100
AcDbEntity
  8
図面
100
AcDbLine
 10
506.5884351535869
 20
1177.537052226663
 30
0.0
 11
506.5884351535869
 21
1161.537052226663
 31
0.0
  0
LINE
  5
686
330
1E
100
AcDbEntity
  8
図面
100
AcDbLine
 10
506.5884351535869
 20
1161.537052226663
 30
0.0
 11
436.5884351535869
 21
1161.537052226663
 31
0.0
  0
LINE
  5
688
330
1E
100
AcDbEntity
  8
図面
100
AcDbLine
 10
436.5884351535869
 20
1098.537052226663
 30
0.0
 11
506.5884351535869
 21
1098.537052226663
 31
0.0
  0
LINE
  5
689
330
1E
100
AcDbEntity
  8
図面
100
AcDbLine
 10
506.5884351535869
 20
1098.537052226663
 30
0.0
 11
506.5884351535869
 21
1082.537052226663
 31
0.0
  0
LINE
  5
68A
330
1E
100
AcDbEntity
  8
図面
100
AcDbLine
 10
506.5884351535869
 20
1082.537052226663
 30
0.0
 11
436.5884351535869
 21
1082.537052226663
 31
0.0
  0
LINE
  5
68C
330
1E
100
AcDbEntity
  8
図面
100
AcDbLine
 10
451.5884351535869
 20
1177.537052226663
 30
0.0
 11
451.5884351535869
 21
1098.537052226663
 31
0.0
  0
LINE
  5
68D
330
1E
100
AcDbEntity
  8
図面
100
AcDbLine
 10
451.5884351535869
 20
1098.537052226663
 30
0.0
 11
451.5884351535869
 21
1082.537052226663
 31
0.0
  0
LINE
  5
68E
330
1E
100
AcDbEntity
  8
図面
100
AcDbLine
 10
436.5884351535869
 20
1177.537052226663
 30
0.0
 11
436.5884351535869
 21
1265.037052226663
 31
0.0
  0
LINE
  5
697
330
1E
100
AcDbEntity
  8
図面
100
AcDbLine
 10
417.5884351535869
 20
1290.037052226663
 30
0.0
 11
230.0884351535872
 21
1185.037052226663
 31
0.0
  0
LINE
  5
699
330
1E
100
AcDbEntity
  8
図面
100
AcDbLine
 10
417.5884351535869
 20
970.0370522266634
 30
0.0
 11
230.0884351535868
 21
1075.037052226663
 31
0.0
  0
LINE
  5
6A3
330
1E
100
AcDbEntity
  8
図面
100
AcDbLine
 10
267.588435153587
 20
1172.537052226663
 30
0.0
 11
267.588435153587
 21
1087.537052226663
 31
0.0
  0
LINE
  5
6B7
330
1E
100
AcDbEntity
  8
図面
100
AcDbLine
 10
255.588435153587
 20
1172.537052226663
 30
0.0
 11
255.588435153587
 21
1087.537052226663
 31
0.0
  0
LINE
  5
6B9
330
1E
100
AcDbEntity
  8
図面
100
AcDbLine
 10
200.5884351535869
 20
1134.537052226663
 30
0.0
 11
255.588435153587
 21
1134.537052226663
 31
0.0
  0
LINE
  5
6BA
330
1E
100
AcDbEntity
  8
図面
100
AcDbLine
 10
255.588435153587
 20
1134.537052226663
 30
0.0
 11
255.588435153587
 21
1125.537052226663
 31
0.0
  0
LINE
  5
6BB
330
1E
100
AcDbEntity
  8
図面
100
AcDbLine
 10
255.588435153587
 20
1125.537052226663
 30
0.0
 11
200.5884351535869
 21
1125.537052226663
 31
0.0
  0
LINE
  5
6BC
330
1E
100
AcDbEntity
  8
図面
100
AcDbLine
 10
200.5884351535869
 20
1125.537052226663
 30
0.0
 11
200.5884351535869
 21
1134.537052226663
 31
0.0
  0
LINE
  5
6BD
330
1E
100
AcDbEntity
  8
図面
100
AcDbLine
 10
240.588435153587
 20
1134.537052226663
 30
0.0
 11
240.588435153587
 21
1125.537052226663
 31
0.0
  0
DIMENSION
  5
6CC
330
1E
100
AcDbEntity
  8
図面
100
AcDbDimension
  2
*D3
 10
736.5884351535869
 20
1349.935353775449
 30
0.0
 11
586.5884351535869
 21
1360.435353775449
 31
0.0
 70
    32
 71
     5
 42
300.0000000000001
  3
Standard
100
AcDbAlignedDimension
 13
436.5884351535869
 23
1262.537052226663
 33
0.0
 14
736.5884351535869
 24
1262.537052226663
 34
0.0
100
AcDbRotatedDimension
1001
ACAD
1000
DSTYLE
1002
{
1070
   344
1005
D2F
1070
   173
1070
     1
1070
   343
1005
D2F
1070
    41
1040
16.0
1070
    44
1040
0.5
1070
    73
1070
     0
1070
    74
1070
     0
1070
    77
1070
     1
1070
   140
1040
20.0
1070
   147
1040
0.5
1070
   176
1070
     1
1070
   177
1070
     1
1070
   178
1070
     1
1070
   271
1070
     0
1070
   272
1070
     0
1070
   279
1070
     2
1070
   340
1005
5B9
1002
}
  0
DIMENSION
  5
6D9
330
1E
100
AcDbEntity
  8
図面
100
AcDbDimension
  2
*D4
 10
841.5884351535869
 20
1349.935353775449
 30
0.0
 11
789.0884351535869
 21
1360.435353775449
 31
0.0
 70
    32
  1
105
 71
     5
 42
105.0
  3
Standard
100
AcDbAlignedDimension
 13
736.5884351535869
 23
1265.037052226663
 33
0.0
 14
841.5884351535869
 24
1265.037052226663
 34
0.0
100
AcDbRotatedDimension
1001
ACAD
1000
DSTYLE
1002
{
1070
   344
1005
D2F
1070
   173
1070
     1
1070
   343
1005
D2F
1070
    41
1040
16.0
1070
    44
1040
0.5
1070
    73
1070
     0
1070
    74
1070
     0
1070
    77
1070
     1
1070
   140
1040
20.0
1070
   147
1040
0.5
1070
   176
1070
     1
1070
   177
1070
     1
1070
   178
1070
     1
1070
   271
1070
     0
1070
   272
1070
     0
1070
   279
1070
     2
1070
   340
1005
5B9
1002
}
  0
DIMENSION
  5
6E6
330
1E
100
AcDbEntity
  8
図面
100
AcDbDimension
  2
*D5
 10
417.5884351535869
 20
1350.435353775449
 30
0.0
 11
302.5884351535869
 21
1360.935353775449
 31
0.0
 70
    32
 71
     5
 42
230.0
  3
Standard
100
AcDbAlignedDimension
 13
187.5884351535869
 23
1180.099552226663
 33
0.0
 14
417.5884351535869
 24
1180.037052226663
 34
0.0
100
AcDbRotatedDimension
1001
ACAD
1000
DSTYLE
1002
{
1070
   344
1005
D2F
1070
   173
1070
     1
1070
   343
1005
D2F
1070
    41
1040
16.0
1070
    44
1040
0.5
1070
    73
1070
     0
1070
    74
1070
     0
1070
    77
1070
     1
1070
   140
1040
20.0
1070
   147
1040
0.5
1070
   176
1070
     1
1070
   177
1070
     1
1070
   178
1070
     1
1070
   271
1070
     0
1070
   272
1070
     0
1070
   279
1070
     2
1070
   340
1005
5B9
1002
}
  0
DIMENSION
  5
736
330
1E
100
AcDbEntity
  8
図面
100
AcDbDimension
  2
*D6
 10
158.1603641049123
 20
1080.037052226663
 30
0.0
 11
147.6603641049123
 21
1130.099552226663
 31
0.0
 70
    32
 71
     5
 42
100.125
  3
Standard
100
AcDbAlignedDimension
 13
187.5884351535869
 23
1180.162052226663
 33
0.0
 14
187.5884351535869
 24
1080.037052226663
 34
0.0
 50
90.0
100
AcDbRotatedDimension
1001
ACAD
1000
DSTYLE
1002
{
1070
   344
1005
D2F
1070
   173
1070
     1
1070
   343
1005
D2F
1070
    41
1040
16.0
1070
    44
1040
0.5
1070
    73
1070
     0
1070
    74
1070
     0
1070
    77
1070
     1
1070
   140
1040
20.0
1070
   147
1040
0.5
1070
   176
1070
     1
1070
   177
1070
     1
1070
   178
1070
     1
1070
   271
1070
     0
1070
   272
1070
     0
1070
   279
1070
     2
1070
   340
1005
5B9
1002
}
  0
LINE
  5
74B
330
1E
100
AcDbEntity
  8
図面
100
AcDbLine
 10
187.5884351535869
 20
668.2680478489646
 30
0.0
 11
187.5884351535869
 21
698.2680478489647
 31
0.0
  0
LINE
  5
74C
330
1E
100
AcDbEntity
  8
図面
100
AcDbLine
 10
187.5884351535869
 20
698.2680478489647
 30
0.0
 11
207.588435153587
 21
718.2680478489646
 31
0.0
  0
LINE
  5
74D
330
1E
100
AcDbEntity
  8
図面
100
AcDbLine
 10
207.588435153587
 20
718.2680478489646
 30
0.0
 11
417.6509351535869
 21
718.2680478489646
 31
0.0
  0
LINE
  5
74E
330
1E
100
AcDbEntity
  8
図面
100
AcDbLine
 10
417.6509351535869
 20
718.2680478489646
 30
0.0
 11
417.6509351535869
 21
668.2680478489646
 31
0.0
  0
LINE
  5
74F
330
1E
100
AcDbEntity
  8
図面
100
AcDbLine
 10
417.6509351535869
 20
668.2680478489646
 30
0.0
 11
187.5884351535869
 21
668.2680478489646
 31
0.0
  0
LINE
  5
757
330
1E
100
AcDbEntity
  8
図面
100
AcDbLine
 10
292.6509351535869
 20
668.2680478489646
 30
0.0
 11
292.6509351535869
 21
684.2680478489646
 31
0.0
  0
LINE
  5
758
330
1E
100
AcDbEntity
  8
図面
100
AcDbLine
 10
292.6509351535869
 20
684.2680478489646
 30
0.0
 11
417.6509351535869
 21
684.2680478489646
 31
0.0
  0
LINE
  5
759
330
1E
100
AcDbEntity
  8
図面
100
AcDbLine
 10
417.6509351535869
 20
684.2680478489646
 30
0.0
 11
417.6509351535869
 21
668.2680478489646
 31
0.0
  0
LINE
  5
75A
330
1E
100
AcDbEntity
  8
図面
100
AcDbLine
 10
187.5884351535869
 20
668.2680478489646
 30
0.0
 11
872.7134351535868
 21
668.2680478489646
 31
0.0
  0
LINE
  5
75B
330
1E
100
AcDbEntity
  8
図面
100
AcDbLine
 10
872.7134351535868
 20
668.2680478489646
 30
0.0
 11
872.713435153587
 21
687.2680478489646
 31
0.0
  0
LINE
  5
764
330
1E
100
AcDbEntity
  8
図面
100
AcDbLine
 10
417.6509351535869
 20
687.2680478489646
 30
0.0
 11
872.713435153587
 21
687.2680478489646
 31
0.0
  0
LINE
  5
765
330
1E
100
AcDbEntity
  8
図面
100
AcDbLine
 10
432.6509351535869
 20
712.2680478489646
 30
0.0
 11
844.7134351535869
 21
712.2680478489646
 31
0.0
  0
LINE
  5
766
330
1E
100
AcDbEntity
  8
図面
100
AcDbLine
 10
872.713435153587
 20
706.2680478489646
 30
0.0
 11
872.713435153587
 21
687.2680478489646
 31
0.0
  0
LINE
  5
76D
330
1E
100
AcDbEntity
  8
図面
100
AcDbLine
 10
262.6509351535869
 20
718.2680478489646
 30
0.0
 11
262.6509351535869
 21
763.2680478489646
 31
0.0
  0
LINE
  5
76E
330
1E
100
AcDbEntity
  8
図面
100
AcDbLine
 10
262.6509351535869
 20
763.2680478489646
 30
0.0
 11
250.650935153587
 21
763.2680478489646
 31
0.0
  0
LINE
  5
76F
330
1E
100
AcDbEntity
  8
図面
100
AcDbLine
 10
250.650935153587
 20
763.2680478489646
 30
0.0
 11
250.650935153587
 21
718.2680478489646
 31
0.0
  0
LINE
  5
778
330
1E
100
AcDbEntity
  8
図面
100
AcDbLine
 10
872.713435153587
 20
687.2680478489646
 30
0.0
 11
872.713435153587
 21
706.2680478489646
 31
0.0
  0
LINE
  5
779
330
1E
100
AcDbEntity
  8
図面
100
AcDbLine
 10
872.713435153587
 20
706.2680478489646
 30
0.0
 11
844.7134351535869
 21
706.2680478489646
 31
0.0
  0
LINE
  5
77A
330
1E
100
AcDbEntity
  8
図面
100
AcDbLine
 10
844.7134351535869
 20
706.2680478489646
 30
0.0
 11
844.7134351535869
 21
687.2680478489646
 31
0.0
  0
LINE
  5
77B
330
1E
100
AcDbEntity
  8
図面
100
AcDbLine
 10
844.7134351535869
 20
687.2680478489646
 30
0.0
 11
844.7134351535869
 21
712.2680478489646
 31
0.0
  0
LINE
  5
784
330
1E
100
AcDbEntity
  8
図面
100
AcDbLine
 10
439.6509351535869
 20
712.2680478489646
 30
0.0
 11
439.6509351535869
 21
716.2680478489646
 31
0.0
  0
LINE
  5
785
330
1E
100
AcDbEntity
  8
図面
100
AcDbLine
 10
439.6509351535869
 20
716.2680478489646
 30
0.0
 11
739.6509351535869
 21
716.2680478489646
 31
0.0
  0
LINE
  5
786
330
1E
100
AcDbEntity
  8
図面
100
AcDbLine
 10
739.6509351535869
 20
716.2680478489646
 30
0.0
 11
739.6509351535868
 21
712.2680478489646
 31
0.0
  0
LINE
  5
78A
330
1E
100
AcDbEntity
  8
図面
100
AcDbLine
 10
512.1509351535869
 20
716.2680478489646
 30
0.0
 11
512.1509351535869
 21
726.2680478489646
 31
0.0
  0
LINE
  5
78B
330
1E
100
AcDbEntity
  8
図面
100
AcDbLine
 10
512.1509351535869
 20
726.2680478489646
 30
0.0
 11
737.1509351535869
 21
726.2680478489646
 31
0.0
  0
LINE
  5
78C
330
1E
100
AcDbEntity
  8
図面
100
AcDbLine
 10
737.1509351535869
 20
726.2680478489646
 30
0.0
 11
737.1509351535869
 21
716.2680478489646
 31
0.0
  0
LINE
  5
78F
330
1E
100
AcDbEntity
  8
図面
100
AcDbLine
 10
423.6509351535869
 20
716.2680478489646
 30
0.0
 11
423.6509351535869
 21
808.2680478489646
 31
0.0
  0
LINE
  5
790
330
1E
100
AcDbEntity
  8
図面
100
AcDbLine
 10
423.6509351535869
 20
808.2680478489646
 30
0.0
 11
439.6509351535869
 21
808.2680478489646
 31
0.0
  0
LINE
  5
791
330
1E
100
AcDbEntity
  8
図面
100
AcDbLine
 10
439.6509351535869
 20
808.2680478489646
 30
0.0
 11
439.6509351535869
 21
712.2680478489647
 31
0.0
  0
LINE
  5
792
330
1E
100
AcDbEntity
  8
図面
100
AcDbLine
 10
439.6509351535869
 20
716.2680478489646
 30
0.0
 11
439.6509351535869
 21
712.2680478489646
 31
0.0
  0
LINE
  5
793
330
1E
100
AcDbEntity
  8
図面
100
AcDbLine
 10
423.6509351535869
 20
716.2680478489646
 30
0.0
 11
439.6509351535869
 21
716.2680478489646
 31
0.0
  0
LINE
  5
797
330
1E
100
AcDbEntity
  8
図面
100
AcDbLine
 10
439.6509351535869
 20
808.2680478489646
 30
0.0
 11
454.6509351535869
 21
808.2680478489646
 31
0.0
  0
LINE
  5
798
330
1E
100
AcDbEntity
  8
図面
100
AcDbLine
 10
454.6509351535869
 20
808.2680478489646
 30
0.0
 11
509.6509351535869
 21
716.2680478489646
 31
0.0
  0
LINE
  5
7B1
330
1E
100
AcDbEntity
  8
図面
100
AcDbLine
 10
250.650935153587
 20
738.2680478489646
 30
0.0
 11
235.6509351535869
 21
738.2680478489646
 31
0.0
  0
LINE
  5
7B3
330
1E
100
AcDbEntity
  8
図面
100
AcDbLine
 10
235.6509351535869
 20
738.2680478489646
 30
0.0
 11
223.3432428458946
 21
718.2680478489646
 31
0.0
  0
LINE
  5
7B8
330
1E
100
AcDbEntity
  8
図面
100
AcDbLine
 10
432.6509351535869
 20
687.2680478489646
 30
0.0
 11
432.6509351535869
 21
712.2680478489646
 31
0.0
  0
LINE
  5
7B9
330
1E
100
AcDbEntity
  8
図面
100
AcDbLine
 10
432.6509351535869
 20
707.2680478489647
 30
0.0
 11
417.6509351535869
 21
707.2680478489647
 31
0.0
  0
LINE
  5
7C7
330
1E
100
AcDbEntity
  8
図面
  6
DASHED
100
AcDbLine
 10
844.6509351535869
 20
691.2680478489646
 30
0.0
 11
844.6509351535869
 21
687.2680478489646
 31
0.0
  0
LINE
  5
7C8
330
1E
100
AcDbEntity
  8
図面
  6
DASHED
100
AcDbLine
 10
844.6509351535869
 20
687.2680478489646
 30
0.0
 11
444.650935153587
 21
687.2680478489646
 31
0.0
  0
LINE
  5
7D7
330
1E
100
AcDbEntity
  8
図面
  6
DASHED
100
AcDbLine
 10
739.6509351535869
 20
712.2680478489646
 30
0.0
 11
739.6509351535869
 21
700.2680478489646
 31
0.0
  0
LINE
  5
7D8
330
1E
100
AcDbEntity
  8
図面
  6
DASHED
100
AcDbLine
 10
739.6509351535869
 20
700.2680478489646
 30
0.0
 11
439.6509351535869
 21
700.2680478489646
 31
0.0
  0
LINE
  5
7D9
330
1E
100
AcDbEntity
  8
図面
  6
DASHED
100
AcDbLine
 10
439.6509351535869
 20
700.2680478489646
 30
0.0
 11
439.6509351535869
 21
712.2680478489647
 31
0.0
  0
LINE
  5
7DA
330
1E
100
AcDbEntity
  8
図面
  6
DASHED
100
AcDbLine
 10
512.1509351535869
 20
700.2680478489646
 30
0.0
 11
512.1509351535869
 21
693.2680478489646
 31
0.0
  0
LINE
  5
7DB
330
1E
100
AcDbEntity
  8
図面
  6
DASHED
100
AcDbLine
 10
737.1509351535869
 20
700.2680478489646
 30
0.0
 11
737.1509351535869
 21
693.2680478489646
 31
0.0
  0
LINE
  5
7DE
330
1E
100
AcDbEntity
  8
図面
  6
DASHED
100
AcDbLine
 10
444.650935153587
 20
687.2680478489646
 30
0.0
 11
444.650935153587
 21
693.2680478489646
 31
0.0
  0
LINE
  5
7DF
330
1E
100
AcDbEntity
  8
図面
  6
DASHED
100
AcDbLine
 10
444.650935153587
 20
693.2680478489646
 30
0.0
 11
844.7134351535869
 21
693.2680478489646
 31
0.0
  0
DIMENSION
  5
7EE
330
1E
100
AcDbEntity
  8
図面
100
AcDbDimension
  2
*D7
 10
981.8914672368126
 20
726.2680478489646
 30
0.0
 11
971.3914672368126
 21
697.2680478489646
 31
0.0
 70
    32
 71
     5
 42
57.99999999999999
  3
Standard
100
AcDbAlignedDimension
 13
872.7134351535868
 23
668.2680478489646
 33
0.0
 14
737.1509351535869
 24
726.2680478489646
 34
0.0
 50
90.0
100
AcDbRotatedDimension
1001
ACAD
1000
DSTYLE
1002
{
1070
   343
1005
0
1070
   173
1070
     1
1070
   344
1005
0
1070
    41
1040
16.0
1070
    44
1040
3.0
1070
    73
1070
     0
1070
    74
1070
     0
1070
    77
1070
     1
1070
   140
1040
20.0
1070
   147
1040
0.5
1070
   176
1070
     1
1070
   177
1070
     1
1070
   178
1070
     1
1070
   271
1070
     0
1070
   272
1070
     0
1070
   279
1070
     2
1070
   340
1005
5B9
1002
}
  0
DIMENSION
  5
7FB
330
1E
100
AcDbEntity
  8
図面
100
AcDbDimension
  2
*D8
 10
943.0360681496093
 20
712.2680478489646
 30
0.0
 11
932.5360681496093
 21
690.2680478489646
 31
0.0
 70
    32
 71
     5
 42
44.0
  3
Standard
100
AcDbAlignedDimension
 13
872.7759351535867
 23
668.2680478489646
 33
0.0
 14
844.7134351535869
 24
712.2680478489646
 34
0.0
 50
90.0
100
AcDbRotatedDimension
1001
ACAD
1000
DSTYLE
1002
{
1070
   280
1070
     0
1070
   343
1005
0
1070
   173
1070
     1
1070
   344
1005
0
1070
    41
1040
16.0
1070
    44
1040
3.0
1070
    73
1070
     0
1070
    74
1070
     0
1070
    77
1070
     3
1070
   140
1040
20.0
1070
   147
1040
0.5
1070
   176
1070
     1
1070
   177
1070
     1
1070
   178
1070
     1
1070
   271
1070
     0
1070
   272
1070
     0
1070
   279
1070
     2
1070
   340
1005
5B9
1002
}
  0
DIMENSION
  5
808
330
1E
100
AcDbEntity
  8
図面
100
AcDbDimension
  2
*D9
 10
133.1903928298497
 20
808.2680478489646
 30
0.0
 11
122.6903928298497
 21
738.2680478489646
 31
0.0
 70
    32
 71
     5
 42
140.0
  3
Standard
100
AcDbAlignedDimension
 13
187.5884351535869
 23
668.2680478489646
 33
0.0
 14
423.6509351535869
 24
808.2680478489646
 34
0.0
 50
90.0
100
AcDbRotatedDimension
1001
ACAD
1000
DSTYLE
1002
{
1070
   343
1005
D2F
1070
   173
1070
     1
1070
   344
1005
D2F
1070
    41
1040
16.0
1070
    44
1040
0.5
1070
    73
1070
     0
1070
    74
1070
     0
1070
    77
1070
     1
1070
   140
1040
20.0
1070
   147
1040
0.5
1070
   176
1070
     1
1070
   177
1070
     1
1070
   178
1070
     1
1070
   271
1070
     0
1070
   272
1070
     0
1070
   279
1070
     2
1070
   340
1005
5B9
1002
}
  0
MTEXT
  5
816
330
1E
100
AcDbEntity
  8
文字
100
AcDbMText
 10
1279.0
 20
559.9282501544121
 30
0.0
 40
20.0
 41
252.0
 71
     1
 72
     5
  1
油圧送り台
  7
WMF-ＭＳ Ｐ明朝0
 73
     1
 44
1.0
  0
LINE
  5
909
330
1E
100
AcDbEntity
  8
ﾚｲﾔ1
100
AcDbLine
 10
1314.036059527483
 20
1001.999074637752
 30
0.0
 11
1311.036059527483
 21
1000.449074637752
 31
0.0
  0
LINE
  5
90A
330
1E
100
AcDbEntity
  8
ﾚｲﾔ1
100
AcDbLine
 10
1314.036059527483
 20
1084.899073637752
 30
0.0
 11
1311.036059527483
 21
1086.449073637752
 31
0.0
  0
LINE
  5
90B
330
1E
100
AcDbEntity
  8
ﾚｲﾔ1
  6
Continuous
100
AcDbLine
 10
1374.036059527483
 20
1003.999074637752
 30
0.0
 11
1314.036059527483
 21
1003.999074637752
 31
0.0
  0
LINE
  5
90C
330
1E
100
AcDbEntity
  8
ﾚｲﾔ1
  6
Continuous
100
AcDbLine
 10
1372.036059527483
 20
1001.999074637752
 30
0.0
 11
1314.036059527483
 21
1001.999074637752
 31
0.0
  0
LINE
  5
90D
330
1E
100
AcDbEntity
  8
ﾚｲﾔ1
  6
Continuous
100
AcDbLine
 10
1372.036059527483
 20
1084.899073637752
 30
0.0
 11
1314.036059527483
 21
1084.899073637752
 31
0.0
  0
LINE
  5
90E
330
1E
100
AcDbEntity
  8
ﾚｲﾔ1
  6
Continuous
100
AcDbLine
 10
1374.036059527483
 20
1082.899073637752
 30
0.0
 11
1314.036059527483
 21
1082.899073637752
 31
0.0
  0
LINE
  5
90F
330
1E
100
AcDbEntity
  8
ﾚｲﾔ1
  6
Continuous
100
AcDbLine
 10
1236.036058527483
 20
1000.449074637752
 30
0.0
 11
1311.036059527483
 21
1000.449074637752
 31
0.0
  0
LINE
  5
910
330
1E
100
AcDbEntity
  8
ﾚｲﾔ1
  6
Continuous
100
AcDbLine
 10
1290.386059527483
 20
1086.449073637752
 30
0.0
 11
1311.036059527483
 21
1086.449073637752
 31
0.0
  0
LINE
  5
911
330
1E
100
AcDbEntity
  8
ﾚｲﾔ1
  6
Continuous
100
AcDbLine
 10
1236.036058527483
 20
1000.449074637752
 30
0.0
 11
1234.036058527483
 21
1001.999074637752
 31
0.0
  0
LINE
  5
912
330
1E
100
AcDbEntity
  8
ﾚｲﾔ1
  6
Continuous
100
AcDbLine
 10
1234.036058527483
 20
1001.999074637752
 30
0.0
 11
1234.036058527483
 21
1043.449073637752
 31
0.0
  0
LINE
  5
913
330
1E
100
AcDbEntity
  8
ﾚｲﾔ1
  6
Continuous
100
AcDbLine
 10
1236.036058527483
 20
1000.449074637752
 30
0.0
 11
1236.036058527483
 21
1043.449073637752
 31
0.0
  0
LINE
  5
914
330
1E
100
AcDbEntity
  8
ﾚｲﾔ1
  6
Continuous
100
AcDbLine
 10
1236.036058527483
 20
1086.449073637752
 30
0.0
 11
1236.036058527483
 21
1043.449073637752
 31
0.0
  0
LINE
  5
915
330
1E
100
AcDbEntity
  8
ﾚｲﾔ1
  6
Continuous
100
AcDbLine
 10
1234.036058527483
 20
1084.899073637752
 30
0.0
 11
1234.036058527483
 21
1043.449073637752
 31
0.0
  0
LINE
  5
916
330
1E
100
AcDbEntity
  8
ﾚｲﾔ1
  6
Continuous
100
AcDbLine
 10
1236.036058527483
 20
1086.449073637752
 30
0.0
 11
1234.036058527483
 21
1084.899073637752
 31
0.0
  0
LINE
  5
917
330
1E
100
AcDbEntity
  8
ﾚｲﾔ1
  6
Continuous
100
AcDbLine
 10
1276.236059527483
 20
1086.449073637752
 30
0.0
 11
1296.752723527483
 21
1086.449073637752
 31
0.0
  0
LINE
  5
918
330
1E
100
AcDbEntity
  8
ﾚｲﾔ1
  6
Continuous
 62
    22
100
AcDbLine
 10
1241.636058527483
 20
1086.449073637752
 30
0.0
 11
1236.036058527483
 21
1086.449073637752
 31
0.0
  0
LINE
  5
919
330
1E
100
AcDbEntity
  8
ﾚｲﾔ1
  6
Continuous
100
AcDbLine
 10
1276.286059527483
 20
1083.149073637752
 30
0.0
 11
1276.086059527482
 21
1083.099073637752
 31
0.0
  0
LINE
  5
91A
330
1E
100
AcDbEntity
  8
ﾚｲﾔ1
  6
Continuous
100
AcDbLine
 10
1276.436059527483
 20
1083.199073637752
 30
0.0
 11
1276.286059527483
 21
1083.149073637752
 31
0.0
  0
LINE
  5
91B
330
1E
100
AcDbEntity
  8
ﾚｲﾔ1
  6
Continuous
100
AcDbLine
 10
1276.586059527483
 20
1083.249073637752
 30
0.0
 11
1276.436059527483
 21
1083.199073637752
 31
0.0
  0
LINE
  5
91C
330
1E
100
AcDbEntity
  8
ﾚｲﾔ1
  6
Continuous
100
AcDbLine
 10
1276.686059527483
 20
1083.299073637752
 30
0.0
 11
1276.586059527483
 21
1083.249073637752
 31
0.0
  0
LINE
  5
91D
330
1E
100
AcDbEntity
  8
ﾚｲﾔ1
  6
Continuous
100
AcDbLine
 10
1276.836059527483
 20
1083.349073637752
 30
0.0
 11
1276.686059527483
 21
1083.299073637752
 31
0.0
  0
LINE
  5
91E
330
1E
100
AcDbEntity
  8
ﾚｲﾔ1
  6
Continuous
100
AcDbLine
 10
1276.936059527483
 20
1083.399073637752
 30
0.0
 11
1276.836059527483
 21
1083.349073637752
 31
0.0
  0
LINE
  5
91F
330
1E
100
AcDbEntity
  8
ﾚｲﾔ1
  6
Continuous
100
AcDbLine
 10
1276.986059527483
 20
1083.449073637752
 30
0.0
 11
1276.936059527483
 21
1083.399073637752
 31
0.0
  0
LINE
  5
920
330
1E
100
AcDbEntity
  8
ﾚｲﾔ1
  6
Continuous
100
AcDbLine
 10
1277.086059527483
 20
1083.499073637752
 30
0.0
 11
1276.986059527483
 21
1083.449073637752
 31
0.0
  0
LINE
  5
921
330
1E
100
AcDbEntity
  8
ﾚｲﾔ1
  6
Continuous
100
AcDbLine
 10
1277.136059527483
 20
1083.549073637752
 30
0.0
 11
1277.086059527483
 21
1083.499073637752
 31
0.0
  0
LINE
  5
922
330
1E
100
AcDbEntity
  8
ﾚｲﾔ1
  6
Continuous
100
AcDbLine
 10
1277.236059527483
 20
1083.599073637752
 30
0.0
 11
1277.136059527483
 21
1083.549073637752
 31
0.0
  0
LINE
  5
923
330
1E
100
AcDbEntity
  8
ﾚｲﾔ1
  6
Continuous
100
AcDbLine
 10
1277.286059527483
 20
1083.699073637752
 30
0.0
 11
1277.236059527483
 21
1083.599073637752
 31
0.0
  0
LINE
  5
924
330
1E
100
AcDbEntity
  8
ﾚｲﾔ1
  6
Continuous
100
AcDbLine
 10
1277.286059527483
 20
1083.749073637752
 30
0.0
 11
1277.286059527483
 21
1083.699073637752
 31
0.0
  0
LINE
  5
925
330
1E
100
AcDbEntity
  8
ﾚｲﾔ1
  6
Continuous
100
AcDbLine
 10
1277.336059527483
 20
1083.799073637752
 30
0.0
 11
1277.286059527483
 21
1083.749073637752
 31
0.0
  0
LINE
  5
926
330
1E
100
AcDbEntity
  8
ﾚｲﾔ1
  6
Continuous
100
AcDbLine
 10
1277.386059527483
 20
1083.899073637752
 30
0.0
 11
1277.336059527483
 21
1083.799073637752
 31
0.0
  0
LINE
  5
927
330
1E
100
AcDbEntity
  8
ﾚｲﾔ1
  6
Continuous
100
AcDbLine
 10
1277.386059527483
 20
1083.999073637752
 30
0.0
 11
1277.386059527483
 21
1083.899073637752
 31
0.0
  0
LINE
  5
928
330
1E
100
AcDbEntity
  8
ﾚｲﾔ1
  6
Continuous
100
AcDbLine
 10
1277.386059527483
 20
1084.099073637752
 30
0.0
 11
1277.386059527483
 21
1083.999073637752
 31
0.0
  0
LINE
  5
929
330
1E
100
AcDbEntity
  8
ﾚｲﾔ1
  6
Continuous
100
AcDbLine
 10
1277.386059527483
 20
1084.199073637752
 30
0.0
 11
1277.386059527483
 21
1084.099073637752
 31
0.0
  0
LINE
  5
92A
330
1E
100
AcDbEntity
  8
ﾚｲﾔ1
  6
Continuous
100
AcDbLine
 10
1277.386059527483
 20
1084.299073637752
 30
0.0
 11
1277.386059527483
 21
1084.199073637752
 31
0.0
  0
LINE
  5
92B
330
1E
100
AcDbEntity
  8
ﾚｲﾔ1
  6
Continuous
100
AcDbLine
 10
1277.386059527483
 20
1084.399073637752
 30
0.0
 11
1277.386059527483
 21
1084.299073637752
 31
0.0
  0
LINE
  5
92C
330
1E
100
AcDbEntity
  8
ﾚｲﾔ1
  6
Continuous
100
AcDbLine
 10
1277.386059527483
 20
1084.499073637752
 30
0.0
 11
1277.386059527483
 21
1084.399073637752
 31
0.0
  0
LINE
  5
92D
330
1E
100
AcDbEntity
  8
ﾚｲﾔ1
  6
Continuous
100
AcDbLine
 10
1277.336059527483
 20
1084.599073637752
 30
0.0
 11
1277.386059527483
 21
1084.499073637752
 31
0.0
  0
LINE
  5
92E
330
1E
100
AcDbEntity
  8
ﾚｲﾔ1
  6
Continuous
100
AcDbLine
 10
1277.286059527483
 20
1084.749073637752
 30
0.0
 11
1277.336059527483
 21
1084.599073637752
 31
0.0
  0
LINE
  5
92F
330
1E
100
AcDbEntity
  8
ﾚｲﾔ1
  6
Continuous
100
AcDbLine
 10
1277.286059527483
 20
1084.899073637752
 30
0.0
 11
1277.286059527483
 21
1084.749073637752
 31
0.0
  0
LINE
  5
930
330
1E
100
AcDbEntity
  8
ﾚｲﾔ1
  6
Continuous
100
AcDbLine
 10
1277.236059527483
 20
1084.999073637752
 30
0.0
 11
1277.286059527483
 21
1084.899073637752
 31
0.0
  0
LINE
  5
931
330
1E
100
AcDbEntity
  8
ﾚｲﾔ1
  6
Continuous
100
AcDbLine
 10
1277.136059527483
 20
1085.149073637752
 30
0.0
 11
1277.236059527483
 21
1084.999073637752
 31
0.0
  0
LINE
  5
932
330
1E
100
AcDbEntity
  8
ﾚｲﾔ1
  6
Continuous
100
AcDbLine
 10
1277.086059527483
 20
1085.299073637752
 30
0.0
 11
1277.136059527483
 21
1085.149073637752
 31
0.0
  0
LINE
  5
933
330
1E
100
AcDbEntity
  8
ﾚｲﾔ1
  6
Continuous
100
AcDbLine
 10
1276.986059527483
 20
1085.449073637752
 30
0.0
 11
1277.086059527483
 21
1085.299073637752
 31
0.0
  0
LINE
  5
934
330
1E
100
AcDbEntity
  8
ﾚｲﾔ1
  6
Continuous
100
AcDbLine
 10
1276.936059527483
 20
1085.599073637752
 30
0.0
 11
1276.986059527483
 21
1085.449073637752
 31
0.0
  0
LINE
  5
935
330
1E
100
AcDbEntity
  8
ﾚｲﾔ1
  6
Continuous
100
AcDbLine
 10
1276.836059527483
 20
1085.749073637752
 30
0.0
 11
1276.936059527483
 21
1085.599073637752
 31
0.0
  0
LINE
  5
936
330
1E
100
AcDbEntity
  8
ﾚｲﾔ1
  6
Continuous
100
AcDbLine
 10
1276.736059527483
 20
1085.899073637752
 30
0.0
 11
1276.836059527483
 21
1085.749073637752
 31
0.0
  0
LINE
  5
937
330
1E
100
AcDbEntity
  8
ﾚｲﾔ1
  6
Continuous
100
AcDbLine
 10
1276.636059527483
 20
1086.049073637752
 30
0.0
 11
1276.736059527483
 21
1085.899073637752
 31
0.0
  0
LINE
  5
938
330
1E
100
AcDbEntity
  8
ﾚｲﾔ1
  6
Continuous
100
AcDbLine
 10
1276.536059527483
 20
1086.199073637752
 30
0.0
 11
1276.636059527483
 21
1086.049073637752
 31
0.0
  0
LINE
  5
939
330
1E
100
AcDbEntity
  8
ﾚｲﾔ1
  6
Continuous
100
AcDbLine
 10
1276.436059527483
 20
1086.299073637752
 30
0.0
 11
1276.536059527483
 21
1086.199073637752
 31
0.0
  0
LINE
  5
93A
330
1E
100
AcDbEntity
  8
ﾚｲﾔ1
  6
Continuous
100
AcDbLine
 10
1276.336059527483
 20
1086.449073637752
 30
0.0
 11
1276.436059527483
 21
1086.299073637752
 31
0.0
  0
LINE
  5
93B
330
1E
100
AcDbEntity
  8
ﾚｲﾔ1
  6
Continuous
100
AcDbLine
 10
1276.236059527483
 20
1086.599073637752
 30
0.0
 11
1276.336059527483
 21
1086.449073637752
 31
0.0
  0
LINE
  5
93C
330
1E
100
AcDbEntity
  8
ﾚｲﾔ1
  6
Continuous
100
AcDbLine
 10
1276.136059527483
 20
1086.699073637752
 30
0.0
 11
1276.236059527483
 21
1086.599073637752
 31
0.0
  0
LINE
  5
93D
330
1E
100
AcDbEntity
  8
ﾚｲﾔ1
  6
Continuous
100
AcDbLine
 10
1276.036059527483
 20
1086.849073637752
 30
0.0
 11
1276.136059527483
 21
1086.699073637752
 31
0.0
  0
LINE
  5
93E
330
1E
100
AcDbEntity
  8
ﾚｲﾔ1
  6
Continuous
100
AcDbLine
 10
1241.486058527483
 20
1086.049073637752
 30
0.0
 11
1241.536058527483
 21
1086.199073637752
 31
0.0
  0
LINE
  5
93F
330
1E
100
AcDbEntity
  8
ﾚｲﾔ1
  6
Continuous
100
AcDbLine
 10
1241.386058527483
 20
1085.899073637752
 30
0.0
 11
1241.486058527483
 21
1086.049073637752
 31
0.0
  0
LINE
  5
940
330
1E
100
AcDbEntity
  8
ﾚｲﾔ1
  6
Continuous
100
AcDbLine
 10
1241.286058527483
 20
1085.749073637752
 30
0.0
 11
1241.386058527483
 21
1085.899073637752
 31
0.0
  0
LINE
  5
941
330
1E
100
AcDbEntity
  8
ﾚｲﾔ1
  6
Continuous
100
AcDbLine
 10
1241.436058527483
 20
1083.299073637752
 30
0.0
 11
1241.286058527483
 21
1083.349073637752
 31
0.0
  0
LINE
  5
942
330
1E
100
AcDbEntity
  8
ﾚｲﾔ1
  6
Continuous
100
AcDbLine
 10
1241.536058527483
 20
1083.249073637752
 30
0.0
 11
1241.436058527483
 21
1083.299073637752
 31
0.0
  0
LINE
  5
943
330
1E
100
AcDbEntity
  8
ﾚｲﾔ1
  6
Continuous
100
AcDbLine
 10
1241.686058527483
 20
1083.199073637752
 30
0.0
 11
1241.536058527483
 21
1083.249073637752
 31
0.0
  0
LINE
  5
944
330
1E
100
AcDbEntity
  8
ﾚｲﾔ1
  6
Continuous
100
AcDbLine
 10
1241.886058527483
 20
1083.149073637752
 30
0.0
 11
1241.686058527483
 21
1083.199073637752
 31
0.0
  0
LINE
  5
945
330
1E
100
AcDbEntity
  8
ﾚｲﾔ1
  6
Continuous
100
AcDbLine
 10
1242.086058527483
 20
1083.099073637752
 30
0.0
 11
1241.886058527483
 21
1083.149073637752
 31
0.0
  0
LINE
  5
946
330
1E
100
AcDbEntity
  8
ﾚｲﾔ1
  6
Continuous
100
AcDbLine
 10
1242.286058527483
 20
1083.049073637752
 30
0.0
 11
1242.086058527483
 21
1083.099073637752
 31
0.0
  0
LINE
  5
947
330
1E
100
AcDbEntity
  8
ﾚｲﾔ1
  6
Continuous
100
AcDbLine
 10
1242.536058527483
 20
1082.999073637752
 30
0.0
 11
1242.286058527483
 21
1083.049073637752
 31
0.0
  0
LINE
  5
948
330
1E
100
AcDbEntity
  8
ﾚｲﾔ1
  6
Continuous
100
AcDbLine
 10
1241.186058527483
 20
1085.599073637752
 30
0.0
 11
1241.286058527483
 21
1085.749073637752
 31
0.0
  0
LINE
  5
949
330
1E
100
AcDbEntity
  8
ﾚｲﾔ1
  6
Continuous
100
AcDbLine
 10
1241.086058527483
 20
1085.449073637752
 30
0.0
 11
1241.186058527483
 21
1085.599073637752
 31
0.0
  0
LINE
  5
94A
330
1E
100
AcDbEntity
  8
ﾚｲﾔ1
  6
Continuous
100
AcDbLine
 10
1241.036058527483
 20
1085.299073637752
 30
0.0
 11
1241.086058527483
 21
1085.449073637752
 31
0.0
  0
LINE
  5
94B
330
1E
100
AcDbEntity
  8
ﾚｲﾔ1
  6
Continuous
100
AcDbLine
 10
1240.986058527483
 20
1085.149073637752
 30
0.0
 11
1241.036058527483
 21
1085.299073637752
 31
0.0
  0
LINE
  5
94C
330
1E
100
AcDbEntity
  8
ﾚｲﾔ1
  6
Continuous
100
AcDbLine
 10
1240.886058527483
 20
1084.999073637752
 30
0.0
 11
1240.986058527483
 21
1085.149073637752
 31
0.0
  0
LINE
  5
94D
330
1E
100
AcDbEntity
  8
ﾚｲﾔ1
  6
Continuous
100
AcDbLine
 10
1240.836058527483
 20
1084.899073637752
 30
0.0
 11
1240.886058527483
 21
1084.999073637752
 31
0.0
  0
LINE
  5
94E
330
1E
100
AcDbEntity
  8
ﾚｲﾔ1
  6
Continuous
100
AcDbLine
 10
1240.786058527483
 20
1084.749073637752
 30
0.0
 11
1240.836058527483
 21
1084.899073637752
 31
0.0
  0
LINE
  5
94F
330
1E
100
AcDbEntity
  8
ﾚｲﾔ1
  6
Continuous
100
AcDbLine
 10
1240.786058527483
 20
1084.599073637752
 30
0.0
 11
1240.786058527483
 21
1084.749073637752
 31
0.0
  0
LINE
  5
950
330
1E
100
AcDbEntity
  8
ﾚｲﾔ1
  6
Continuous
100
AcDbLine
 10
1240.736058527483
 20
1084.499073637752
 30
0.0
 11
1240.786058527483
 21
1084.599073637752
 31
0.0
  0
LINE
  5
951
330
1E
100
AcDbEntity
  8
ﾚｲﾔ1
  6
Continuous
100
AcDbLine
 10
1240.736058527483
 20
1084.399073637752
 30
0.0
 11
1240.736058527483
 21
1084.499073637752
 31
0.0
  0
LINE
  5
952
330
1E
100
AcDbEntity
  8
ﾚｲﾔ1
  6
Continuous
100
AcDbLine
 10
1240.736058527483
 20
1084.299073637752
 30
0.0
 11
1240.736058527483
 21
1084.399073637752
 31
0.0
  0
LINE
  5
953
330
1E
100
AcDbEntity
  8
ﾚｲﾔ1
  6
Continuous
100
AcDbLine
 10
1240.686058527483
 20
1084.199073637752
 30
0.0
 11
1240.736058527483
 21
1084.299073637752
 31
0.0
  0
LINE
  5
954
330
1E
100
AcDbEntity
  8
ﾚｲﾔ1
  6
Continuous
100
AcDbLine
 10
1240.736058527483
 20
1084.099073637752
 30
0.0
 11
1240.686058527483
 21
1084.199073637752
 31
0.0
  0
LINE
  5
955
330
1E
100
AcDbEntity
  8
ﾚｲﾔ1
  6
Continuous
100
AcDbLine
 10
1240.736058527483
 20
1083.999073637752
 30
0.0
 11
1240.736058527483
 21
1084.099073637752
 31
0.0
  0
LINE
  5
956
330
1E
100
AcDbEntity
  8
ﾚｲﾔ1
  6
Continuous
100
AcDbLine
 10
1240.736058527483
 20
1083.899073637752
 30
0.0
 11
1240.736058527483
 21
1083.999073637752
 31
0.0
  0
LINE
  5
957
330
1E
100
AcDbEntity
  8
ﾚｲﾔ1
  6
Continuous
100
AcDbLine
 10
1240.786058527483
 20
1083.799073637752
 30
0.0
 11
1240.736058527483
 21
1083.899073637752
 31
0.0
  0
LINE
  5
958
330
1E
100
AcDbEntity
  8
ﾚｲﾔ1
  6
Continuous
100
AcDbLine
 10
1240.786058527483
 20
1083.749073637752
 30
0.0
 11
1240.786058527483
 21
1083.799073637752
 31
0.0
  0
LINE
  5
959
330
1E
100
AcDbEntity
  8
ﾚｲﾔ1
  6
Continuous
100
AcDbLine
 10
1240.836058527483
 20
1083.699073637752
 30
0.0
 11
1240.786058527483
 21
1083.749073637752
 31
0.0
  0
LINE
  5
95A
330
1E
100
AcDbEntity
  8
ﾚｲﾔ1
  6
Continuous
100
AcDbLine
 10
1240.886058527483
 20
1083.599073637752
 30
0.0
 11
1240.836058527483
 21
1083.699073637752
 31
0.0
  0
LINE
  5
95B
330
1E
100
AcDbEntity
  8
ﾚｲﾔ1
  6
Continuous
100
AcDbLine
 10
1240.986058527483
 20
1083.549073637752
 30
0.0
 11
1240.886058527483
 21
1083.599073637752
 31
0.0
  0
LINE
  5
95C
330
1E
100
AcDbEntity
  8
ﾚｲﾔ1
  6
Continuous
100
AcDbLine
 10
1241.036058527483
 20
1083.499073637752
 30
0.0
 11
1240.986058527483
 21
1083.549073637752
 31
0.0
  0
LINE
  5
95D
330
1E
100
AcDbEntity
  8
ﾚｲﾔ1
  6
Continuous
100
AcDbLine
 10
1241.086058527483
 20
1083.449073637752
 30
0.0
 11
1241.036058527483
 21
1083.499073637752
 31
0.0
  0
LINE
  5
95E
330
1E
100
AcDbEntity
  8
ﾚｲﾔ1
  6
Continuous
100
AcDbLine
 10
1241.186058527483
 20
1083.399073637752
 30
0.0
 11
1241.086058527483
 21
1083.449073637752
 31
0.0
  0
LINE
  5
95F
330
1E
100
AcDbEntity
  8
ﾚｲﾔ1
  6
Continuous
100
AcDbLine
 10
1241.286058527483
 20
1083.349073637752
 30
0.0
 11
1241.186058527483
 21
1083.399073637752
 31
0.0
  0
LINE
  5
960
330
1E
100
AcDbEntity
  8
ﾚｲﾔ1
  6
DASHDOT
 62
     9
100
AcDbLine
 10
1259.036058527483
 20
1109.549073637752
 30
0.0
 11
1259.036058527483
 21
1075.549073637752
 31
0.0
  0
LINE
  5
961
330
1E
100
AcDbEntity
  8
ﾚｲﾔ1
  6
Continuous
100
AcDbLine
 10
1245.036058527483
 20
1106.849073637752
 30
0.0
 11
1245.036058527483
 21
1088.849073637752
 31
0.0
  0
LINE
  5
962
330
1E
100
AcDbEntity
  8
ﾚｲﾔ1
  6
Continuous
100
AcDbLine
 10
1273.036059527483
 20
1088.849073637752
 30
0.0
 11
1273.036059527483
 21
1106.849073637752
 31
0.0
  0
LINE
  5
963
330
1E
100
AcDbEntity
  8
ﾚｲﾔ1
  6
Continuous
100
AcDbLine
 10
1252.036058527483
 20
1086.349073637752
 30
0.0
 11
1245.036058527483
 21
1088.849073637752
 31
0.0
  0
LINE
  5
964
330
1E
100
AcDbEntity
  8
ﾚｲﾔ1
  6
Continuous
100
AcDbLine
 10
1254.836058527483
 20
1085.549073637752
 30
0.0
 11
1252.036058527483
 21
1086.349073637752
 31
0.0
  0
LINE
  5
965
330
1E
100
AcDbEntity
  8
ﾚｲﾔ1
  6
Continuous
100
AcDbLine
 10
1257.636058527483
 20
1085.149073637752
 30
0.0
 11
1254.836058527483
 21
1085.549073637752
 31
0.0
  0
LINE
  5
966
330
1E
100
AcDbEntity
  8
ﾚｲﾔ1
  6
Continuous
100
AcDbLine
 10
1260.436058527483
 20
1085.149073637752
 30
0.0
 11
1257.636058527483
 21
1085.149073637752
 31
0.0
  0
LINE
  5
967
330
1E
100
AcDbEntity
  8
ﾚｲﾔ1
  6
Continuous
100
AcDbLine
 10
1263.236059527483
 20
1085.549073637752
 30
0.0
 11
1260.436058527483
 21
1085.149073637752
 31
0.0
  0
LINE
  5
968
330
1E
100
AcDbEntity
  8
ﾚｲﾔ1
  6
Continuous
100
AcDbLine
 10
1266.036059527483
 20
1086.349073637752
 30
0.0
 11
1263.236059527483
 21
1085.549073637752
 31
0.0
  0
LINE
  5
969
330
1E
100
AcDbEntity
  8
ﾚｲﾔ1
  6
Continuous
100
AcDbLine
 10
1273.036059527483
 20
1088.849073637752
 30
0.0
 11
1266.036059527483
 21
1086.349073637752
 31
0.0
  0
LINE
  5
96A
330
1E
100
AcDbEntity
  8
ﾚｲﾔ1
  6
Continuous
100
AcDbLine
 10
1244.436058527483
 20
1088.599073637752
 30
0.0
 11
1245.036058527483
 21
1088.849073637752
 31
0.0
  0
LINE
  5
96B
330
1E
100
AcDbEntity
  8
ﾚｲﾔ1
  6
Continuous
100
AcDbLine
 10
1244.186058527483
 20
1088.499073637752
 30
0.0
 11
1244.436058527483
 21
1088.599073637752
 31
0.0
  0
LINE
  5
96C
330
1E
100
AcDbEntity
  8
ﾚｲﾔ1
  6
Continuous
100
AcDbLine
 10
1243.986058527483
 20
1088.399073637752
 30
0.0
 11
1244.186058527483
 21
1088.499073637752
 31
0.0
  0
LINE
  5
96D
330
1E
100
AcDbEntity
  8
ﾚｲﾔ1
  6
Continuous
100
AcDbLine
 10
1243.836058527483
 20
1088.299073637752
 30
0.0
 11
1243.986058527483
 21
1088.399073637752
 31
0.0
  0
LINE
  5
96E
330
1E
100
AcDbEntity
  8
ﾚｲﾔ1
  6
Continuous
100
AcDbLine
 10
1243.686058527483
 20
1088.249073637752
 30
0.0
 11
1243.836058527483
 21
1088.299073637752
 31
0.0
  0
LINE
  5
96F
330
1E
100
AcDbEntity
  8
ﾚｲﾔ1
  6
Continuous
100
AcDbLine
 10
1243.536058527483
 20
1088.199073637752
 30
0.0
 11
1243.686058527483
 21
1088.249073637752
 31
0.0
  0
LINE
  5
970
330
1E
100
AcDbEntity
  8
ﾚｲﾔ1
  6
Continuous
100
AcDbLine
 10
1243.436058527483
 20
1088.099073637752
 30
0.0
 11
1243.536058527483
 21
1088.199073637752
 31
0.0
  0
LINE
  5
971
330
1E
100
AcDbEntity
  8
ﾚｲﾔ1
  6
Continuous
100
AcDbLine
 10
1243.336058527483
 20
1088.049073637752
 30
0.0
 11
1243.436058527483
 21
1088.099073637752
 31
0.0
  0
LINE
  5
972
330
1E
100
AcDbEntity
  8
ﾚｲﾔ1
  6
Continuous
100
AcDbLine
 10
1243.236058527483
 20
1087.999073637752
 30
0.0
 11
1243.336058527483
 21
1088.049073637752
 31
0.0
  0
LINE
  5
973
330
1E
100
AcDbEntity
  8
ﾚｲﾔ1
  6
Continuous
100
AcDbLine
 10
1243.136058527483
 20
1087.899073637752
 30
0.0
 11
1243.236058527483
 21
1087.999073637752
 31
0.0
  0
LINE
  5
974
330
1E
100
AcDbEntity
  8
ﾚｲﾔ1
  6
Continuous
100
AcDbLine
 10
1243.036058527483
 20
1087.849073637752
 30
0.0
 11
1243.136058527483
 21
1087.899073637752
 31
0.0
  0
LINE
  5
975
330
1E
100
AcDbEntity
  8
ﾚｲﾔ1
  6
Continuous
100
AcDbLine
 10
1242.936058527483
 20
1087.799073637752
 30
0.0
 11
1243.036058527483
 21
1087.849073637752
 31
0.0
  0
LINE
  5
976
330
1E
100
AcDbEntity
  8
ﾚｲﾔ1
  6
Continuous
100
AcDbLine
 10
1242.836058527483
 20
1087.699073637752
 30
0.0
 11
1242.936058527483
 21
1087.799073637752
 31
0.0
  0
LINE
  5
977
330
1E
100
AcDbEntity
  8
ﾚｲﾔ1
  6
Continuous
100
AcDbLine
 10
1242.736058527483
 20
1087.599073637752
 30
0.0
 11
1242.836058527483
 21
1087.699073637752
 31
0.0
  0
LINE
  5
978
330
1E
100
AcDbEntity
  8
ﾚｲﾔ1
  6
Continuous
100
AcDbLine
 10
1242.636058527483
 20
1087.499073637752
 30
0.0
 11
1242.736058527483
 21
1087.599073637752
 31
0.0
  0
LINE
  5
979
330
1E
100
AcDbEntity
  8
ﾚｲﾔ1
  6
Continuous
100
AcDbLine
 10
1242.536058527483
 20
1087.449073637752
 30
0.0
 11
1242.636058527483
 21
1087.499073637752
 31
0.0
  0
LINE
  5
97A
330
1E
100
AcDbEntity
  8
ﾚｲﾔ1
  6
Continuous
100
AcDbLine
 10
1242.436058527483
 20
1087.299073637752
 30
0.0
 11
1242.536058527483
 21
1087.449073637752
 31
0.0
  0
LINE
  5
97B
330
1E
100
AcDbEntity
  8
ﾚｲﾔ1
  6
Continuous
100
AcDbLine
 10
1242.336058527483
 20
1087.199073637752
 30
0.0
 11
1242.436058527483
 21
1087.299073637752
 31
0.0
  0
LINE
  5
97C
330
1E
100
AcDbEntity
  8
ﾚｲﾔ1
  6
Continuous
100
AcDbLine
 10
1242.236058527483
 20
1087.099073637752
 30
0.0
 11
1242.336058527483
 21
1087.199073637752
 31
0.0
  0
LINE
  5
97D
330
1E
100
AcDbEntity
  8
ﾚｲﾔ1
  6
Continuous
100
AcDbLine
 10
1242.136058527483
 20
1086.999073637752
 30
0.0
 11
1242.236058527483
 21
1087.099073637752
 31
0.0
  0
LINE
  5
97E
330
1E
100
AcDbEntity
  8
ﾚｲﾔ1
  6
Continuous
100
AcDbLine
 10
1242.036058527483
 20
1086.849073637752
 30
0.0
 11
1242.136058527483
 21
1086.999073637752
 31
0.0
  0
LINE
  5
97F
330
1E
100
AcDbEntity
  8
ﾚｲﾔ1
  6
Continuous
100
AcDbLine
 10
1241.936058527483
 20
1086.699073637752
 30
0.0
 11
1242.036058527483
 21
1086.849073637752
 31
0.0
  0
LINE
  5
980
330
1E
100
AcDbEntity
  8
ﾚｲﾔ1
  6
Continuous
100
AcDbLine
 10
1241.836058527483
 20
1086.599073637752
 30
0.0
 11
1241.936058527483
 21
1086.699073637752
 31
0.0
  0
LINE
  5
981
330
1E
100
AcDbEntity
  8
ﾚｲﾔ1
  6
Continuous
100
AcDbLine
 10
1241.736058527483
 20
1086.449073637752
 30
0.0
 11
1241.836058527483
 21
1086.599073637752
 31
0.0
  0
LINE
  5
982
330
1E
100
AcDbEntity
  8
ﾚｲﾔ1
  6
Continuous
100
AcDbLine
 10
1241.636058527483
 20
1086.299073637752
 30
0.0
 11
1241.736058527483
 21
1086.449073637752
 31
0.0
  0
LINE
  5
983
330
1E
100
AcDbEntity
  8
ﾚｲﾔ1
  6
Continuous
100
AcDbLine
 10
1241.536058527483
 20
1086.199073637752
 30
0.0
 11
1241.636058527483
 21
1086.299073637752
 31
0.0
  0
LINE
  5
984
330
1E
100
AcDbEntity
  8
ﾚｲﾔ1
  6
Continuous
100
AcDbLine
 10
1242.786058527483
 20
1082.949073637752
 30
0.0
 11
1242.536058527483
 21
1082.999073637752
 31
0.0
  0
LINE
  5
985
330
1E
100
AcDbEntity
  8
ﾚｲﾔ1
  6
Continuous
100
AcDbLine
 10
1243.086058527483
 20
1082.899073637752
 30
0.0
 11
1242.786058527483
 21
1082.949073637752
 31
0.0
  0
LINE
  5
986
330
1E
100
AcDbEntity
  8
ﾚｲﾔ1
  6
Continuous
100
AcDbLine
 10
1243.386058527483
 20
1082.849073637752
 30
0.0
 11
1243.086058527483
 21
1082.899073637752
 31
0.0
  0
LINE
  5
987
330
1E
100
AcDbEntity
  8
ﾚｲﾔ1
  6
Continuous
100
AcDbLine
 10
1243.686058527483
 20
1082.799073637752
 30
0.0
 11
1243.386058527483
 21
1082.849073637752
 31
0.0
  0
LINE
  5
988
330
1E
100
AcDbEntity
  8
ﾚｲﾔ1
  6
Continuous
100
AcDbLine
 10
1244.036058527483
 20
1082.749073637752
 30
0.0
 11
1243.686058527483
 21
1082.799073637752
 31
0.0
  0
LINE
  5
989
330
1E
100
AcDbEntity
  8
ﾚｲﾔ1
  6
Continuous
100
AcDbLine
 10
1244.386058527483
 20
1082.699073637752
 30
0.0
 11
1244.036058527483
 21
1082.749073637752
 31
0.0
  0
LINE
  5
98A
330
1E
100
AcDbEntity
  8
ﾚｲﾔ1
  6
Continuous
100
AcDbLine
 10
1244.786058527483
 20
1082.599073637752
 30
0.0
 11
1244.386058527483
 21
1082.699073637752
 31
0.0
  0
LINE
  5
98B
330
1E
100
AcDbEntity
  8
ﾚｲﾔ1
  6
Continuous
100
AcDbLine
 10
1245.236058527483
 20
1082.549073637752
 30
0.0
 11
1244.786058527483
 21
1082.599073637752
 31
0.0
  0
LINE
  5
98C
330
1E
100
AcDbEntity
  8
ﾚｲﾔ1
  6
Continuous
100
AcDbLine
 10
1245.636058527483
 20
1082.499073637752
 30
0.0
 11
1245.236058527483
 21
1082.549073637752
 31
0.0
  0
LINE
  5
98D
330
1E
100
AcDbEntity
  8
ﾚｲﾔ1
  6
Continuous
100
AcDbLine
 10
1246.086058527483
 20
1082.399073637752
 30
0.0
 11
1245.636058527483
 21
1082.499073637752
 31
0.0
  0
LINE
  5
98E
330
1E
100
AcDbEntity
  8
ﾚｲﾔ1
  6
Continuous
100
AcDbLine
 10
1246.586058527483
 20
1082.349073637752
 30
0.0
 11
1246.086058527483
 21
1082.399073637752
 31
0.0
  0
LINE
  5
98F
330
1E
100
AcDbEntity
  8
ﾚｲﾔ1
  6
Continuous
100
AcDbLine
 10
1247.086058527483
 20
1082.299073637752
 30
0.0
 11
1246.586058527483
 21
1082.349073637752
 31
0.0
  0
LINE
  5
990
330
1E
100
AcDbEntity
  8
ﾚｲﾔ1
  6
Continuous
100
AcDbLine
 10
1247.586058527483
 20
1082.199073637752
 30
0.0
 11
1247.086058527483
 21
1082.299073637752
 31
0.0
  0
LINE
  5
991
330
1E
100
AcDbEntity
  8
ﾚｲﾔ1
  6
Continuous
100
AcDbLine
 10
1248.136058527483
 20
1082.149073637752
 30
0.0
 11
1247.586058527483
 21
1082.199073637752
 31
0.0
  0
LINE
  5
992
330
1E
100
AcDbEntity
  8
ﾚｲﾔ1
  6
Continuous
100
AcDbLine
 10
1248.736058527483
 20
1082.049073637752
 30
0.0
 11
1248.136058527483
 21
1082.149073637752
 31
0.0
  0
LINE
  5
993
330
1E
100
AcDbEntity
  8
ﾚｲﾔ1
  6
Continuous
100
AcDbLine
 10
1249.286058527483
 20
1081.999073637752
 30
0.0
 11
1248.736058527483
 21
1082.049073637752
 31
0.0
  0
LINE
  5
994
330
1E
100
AcDbEntity
  8
ﾚｲﾔ1
  6
Continuous
100
AcDbLine
 10
1249.936058527483
 20
1081.949073637752
 30
0.0
 11
1249.286058527483
 21
1081.999073637752
 31
0.0
  0
LINE
  5
995
330
1E
100
AcDbEntity
  8
ﾚｲﾔ1
  6
Continuous
100
AcDbLine
 10
1250.536058527483
 20
1081.849073637752
 30
0.0
 11
1249.936058527483
 21
1081.949073637752
 31
0.0
  0
LINE
  5
996
330
1E
100
AcDbEntity
  8
ﾚｲﾔ1
  6
Continuous
100
AcDbLine
 10
1251.186058527483
 20
1081.799073637752
 30
0.0
 11
1250.536058527483
 21
1081.849073637752
 31
0.0
  0
LINE
  5
997
330
1E
100
AcDbEntity
  8
ﾚｲﾔ1
  6
Continuous
100
AcDbLine
 10
1251.786058527483
 20
1081.699073637752
 30
0.0
 11
1251.186058527483
 21
1081.799073637752
 31
0.0
  0
LINE
  5
998
330
1E
100
AcDbEntity
  8
ﾚｲﾔ1
  6
Continuous
100
AcDbLine
 10
1252.436058527483
 20
1081.649073637752
 30
0.0
 11
1251.786058527483
 21
1081.699073637752
 31
0.0
  0
LINE
  5
999
330
1E
100
AcDbEntity
  8
ﾚｲﾔ1
  6
Continuous
100
AcDbLine
 10
1253.136058527483
 20
1081.599073637752
 30
0.0
 11
1252.436058527483
 21
1081.649073637752
 31
0.0
  0
LINE
  5
99A
330
1E
100
AcDbEntity
  8
ﾚｲﾔ1
  6
Continuous
100
AcDbLine
 10
1253.786058527483
 20
1081.549073637752
 30
0.0
 11
1253.136058527483
 21
1081.599073637752
 31
0.0
  0
LINE
  5
99B
330
1E
100
AcDbEntity
  8
ﾚｲﾔ1
  6
Continuous
100
AcDbLine
 10
1254.436058527483
 20
1081.499073637752
 30
0.0
 11
1253.786058527483
 21
1081.549073637752
 31
0.0
  0
LINE
  5
99C
330
1E
100
AcDbEntity
  8
ﾚｲﾔ1
  6
Continuous
100
AcDbLine
 10
1255.086058527483
 20
1081.449073637752
 30
0.0
 11
1254.436058527483
 21
1081.499073637752
 31
0.0
  0
LINE
  5
99D
330
1E
100
AcDbEntity
  8
ﾚｲﾔ1
  6
Continuous
100
AcDbLine
 10
1255.736058527483
 20
1081.399073637752
 30
0.0
 11
1255.086058527483
 21
1081.449073637752
 31
0.0
  0
LINE
  5
99E
330
1E
100
AcDbEntity
  8
ﾚｲﾔ1
  6
Continuous
100
AcDbLine
 10
1256.436058527483
 20
1081.349073637752
 30
0.0
 11
1255.736058527483
 21
1081.399073637752
 31
0.0
  0
LINE
  5
99F
330
1E
100
AcDbEntity
  8
ﾚｲﾔ1
  6
Continuous
100
AcDbLine
 10
1257.086058527483
 20
1081.349073637752
 30
0.0
 11
1256.436058527483
 21
1081.349073637752
 31
0.0
  0
LINE
  5
9A0
330
1E
100
AcDbEntity
  8
ﾚｲﾔ1
  6
Continuous
100
AcDbLine
 10
1257.736058527483
 20
1081.349073637752
 30
0.0
 11
1257.086058527483
 21
1081.349073637752
 31
0.0
  0
LINE
  5
9A1
330
1E
100
AcDbEntity
  8
ﾚｲﾔ1
  6
Continuous
100
AcDbLine
 10
1258.386058527483
 20
1081.349073637752
 30
0.0
 11
1257.736058527483
 21
1081.349073637752
 31
0.0
  0
LINE
  5
9A2
330
1E
100
AcDbEntity
  8
ﾚｲﾔ1
  6
Continuous
100
AcDbLine
 10
1259.036058527483
 20
1081.349073637752
 30
0.0
 11
1258.386058527483
 21
1081.349073637752
 31
0.0
  0
LINE
  5
9A3
330
1E
100
AcDbEntity
  8
ﾚｲﾔ1
  6
Continuous
100
AcDbLine
 10
1259.736058527483
 20
1081.349073637752
 30
0.0
 11
1259.036058527483
 21
1081.349073637752
 31
0.0
  0
LINE
  5
9A4
330
1E
100
AcDbEntity
  8
ﾚｲﾔ1
  6
Continuous
100
AcDbLine
 10
1260.386058527483
 20
1081.349073637752
 30
0.0
 11
1259.736058527483
 21
1081.349073637752
 31
0.0
  0
LINE
  5
9A5
330
1E
100
AcDbEntity
  8
ﾚｲﾔ1
  6
Continuous
100
AcDbLine
 10
1261.036058527483
 20
1081.349073637752
 30
0.0
 11
1260.386058527483
 21
1081.349073637752
 31
0.0
  0
LINE
  5
9A6
330
1E
100
AcDbEntity
  8
ﾚｲﾔ1
  6
Continuous
100
AcDbLine
 10
1261.686059527483
 20
1081.349073637752
 30
0.0
 11
1261.036058527483
 21
1081.349073637752
 31
0.0
  0
LINE
  5
9A7
330
1E
100
AcDbEntity
  8
ﾚｲﾔ1
  6
Continuous
100
AcDbLine
 10
1262.336059527483
 20
1081.399073637752
 30
0.0
 11
1261.686059527483
 21
1081.349073637752
 31
0.0
  0
LINE
  5
9A8
330
1E
100
AcDbEntity
  8
ﾚｲﾔ1
  6
Continuous
100
AcDbLine
 10
1263.036059527483
 20
1081.449073637752
 30
0.0
 11
1262.336059527483
 21
1081.399073637752
 31
0.0
  0
LINE
  5
9A9
330
1E
100
AcDbEntity
  8
ﾚｲﾔ1
  6
Continuous
100
AcDbLine
 10
1263.686059527483
 20
1081.499073637752
 30
0.0
 11
1263.036059527483
 21
1081.449073637752
 31
0.0
  0
LINE
  5
9AA
330
1E
100
AcDbEntity
  8
ﾚｲﾔ1
  6
Continuous
100
AcDbLine
 10
1264.336059527483
 20
1081.549073637752
 30
0.0
 11
1263.686059527483
 21
1081.499073637752
 31
0.0
  0
LINE
  5
9AB
330
1E
100
AcDbEntity
  8
ﾚｲﾔ1
  6
Continuous
100
AcDbLine
 10
1264.986059527483
 20
1081.599073637752
 30
0.0
 11
1264.336059527483
 21
1081.549073637752
 31
0.0
  0
LINE
  5
9AC
330
1E
100
AcDbEntity
  8
ﾚｲﾔ1
  6
Continuous
100
AcDbLine
 10
1265.636059527483
 20
1081.649073637752
 30
0.0
 11
1264.986059527483
 21
1081.599073637752
 31
0.0
  0
LINE
  5
9AD
330
1E
100
AcDbEntity
  8
ﾚｲﾔ1
  6
Continuous
100
AcDbLine
 10
1266.336059527483
 20
1081.699073637752
 30
0.0
 11
1265.636059527483
 21
1081.649073637752
 31
0.0
  0
LINE
  5
9AE
330
1E
100
AcDbEntity
  8
ﾚｲﾔ1
  6
Continuous
100
AcDbLine
 10
1266.936059527483
 20
1081.799073637752
 30
0.0
 11
1266.336059527483
 21
1081.699073637752
 31
0.0
  0
LINE
  5
9AF
330
1E
100
AcDbEntity
  8
ﾚｲﾔ1
  6
Continuous
100
AcDbLine
 10
1267.586059527483
 20
1081.849073637752
 30
0.0
 11
1266.936059527483
 21
1081.799073637752
 31
0.0
  0
LINE
  5
9B0
330
1E
100
AcDbEntity
  8
ﾚｲﾔ1
  6
Continuous
100
AcDbLine
 10
1268.236059527483
 20
1081.949073637752
 30
0.0
 11
1267.586059527483
 21
1081.849073637752
 31
0.0
  0
LINE
  5
9B1
330
1E
100
AcDbEntity
  8
ﾚｲﾔ1
  6
Continuous
100
AcDbLine
 10
1268.836059527483
 20
1081.999073637752
 30
0.0
 11
1268.236059527483
 21
1081.949073637752
 31
0.0
  0
LINE
  5
9B2
330
1E
100
AcDbEntity
  8
ﾚｲﾔ1
  6
Continuous
100
AcDbLine
 10
1269.436059527483
 20
1082.049073637752
 30
0.0
 11
1268.836059527483
 21
1081.999073637752
 31
0.0
  0
LINE
  5
9B3
330
1E
100
AcDbEntity
  8
ﾚｲﾔ1
  6
Continuous
100
AcDbLine
 10
1269.986059527483
 20
1082.149073637752
 30
0.0
 11
1269.436059527483
 21
1082.049073637752
 31
0.0
  0
LINE
  5
9B4
330
1E
100
AcDbEntity
  8
ﾚｲﾔ1
  6
Continuous
100
AcDbLine
 10
1270.536059527483
 20
1082.199073637752
 30
0.0
 11
1269.986059527483
 21
1082.149073637752
 31
0.0
  0
LINE
  5
9B5
330
1E
100
AcDbEntity
  8
ﾚｲﾔ1
  6
Continuous
100
AcDbLine
 10
1271.086059527483
 20
1082.299073637752
 30
0.0
 11
1270.536059527483
 21
1082.199073637752
 31
0.0
  0
LINE
  5
9B6
330
1E
100
AcDbEntity
  8
ﾚｲﾔ1
  6
Continuous
100
AcDbLine
 10
1271.586059527483
 20
1082.349073637752
 30
0.0
 11
1271.086059527483
 21
1082.299073637752
 31
0.0
  0
LINE
  5
9B7
330
1E
100
AcDbEntity
  8
ﾚｲﾔ1
  6
Continuous
100
AcDbLine
 10
1272.086059527483
 20
1082.399073637752
 30
0.0
 11
1271.586059527483
 21
1082.349073637752
 31
0.0
  0
LINE
  5
9B8
330
1E
100
AcDbEntity
  8
ﾚｲﾔ1
  6
Continuous
100
AcDbLine
 10
1272.536059527483
 20
1082.499073637752
 30
0.0
 11
1272.086059527483
 21
1082.399073637752
 31
0.0
  0
LINE
  5
9B9
330
1E
100
AcDbEntity
  8
ﾚｲﾔ1
  6
Continuous
100
AcDbLine
 10
1272.936059527483
 20
1082.549073637752
 30
0.0
 11
1272.536059527483
 21
1082.499073637752
 31
0.0
  0
LINE
  5
9BA
330
1E
100
AcDbEntity
  8
ﾚｲﾔ1
  6
Continuous
100
AcDbLine
 10
1273.386059527483
 20
1082.599073637752
 30
0.0
 11
1272.936059527483
 21
1082.549073637752
 31
0.0
  0
LINE
  5
9BB
330
1E
100
AcDbEntity
  8
ﾚｲﾔ1
  6
Continuous
100
AcDbLine
 10
1273.736059527483
 20
1082.699073637752
 30
0.0
 11
1273.386059527483
 21
1082.599073637752
 31
0.0
  0
LINE
  5
9BC
330
1E
100
AcDbEntity
  8
ﾚｲﾔ1
  6
Continuous
100
AcDbLine
 10
1274.136059527483
 20
1082.749073637752
 30
0.0
 11
1273.736059527483
 21
1082.699073637752
 31
0.0
  0
LINE
  5
9BD
330
1E
100
AcDbEntity
  8
ﾚｲﾔ1
  6
Continuous
100
AcDbLine
 10
1274.486059527483
 20
1082.799073637752
 30
0.0
 11
1274.136059527483
 21
1082.749073637752
 31
0.0
  0
LINE
  5
9BE
330
1E
100
AcDbEntity
  8
ﾚｲﾔ1
  6
Continuous
100
AcDbLine
 10
1274.786059527483
 20
1082.849073637752
 30
0.0
 11
1274.486059527483
 21
1082.799073637752
 31
0.0
  0
LINE
  5
9BF
330
1E
100
AcDbEntity
  8
ﾚｲﾔ1
  6
Continuous
100
AcDbLine
 10
1275.086059527483
 20
1082.899073637752
 30
0.0
 11
1274.786059527483
 21
1082.849073637752
 31
0.0
  0
LINE
  5
9C0
330
1E
100
AcDbEntity
  8
ﾚｲﾔ1
  6
Continuous
100
AcDbLine
 10
1275.386059527483
 20
1082.949073637752
 30
0.0
 11
1275.086059527483
 21
1082.899073637752
 31
0.0
  0
LINE
  5
9C1
330
1E
100
AcDbEntity
  8
ﾚｲﾔ1
  6
Continuous
100
AcDbLine
 10
1275.636059527483
 20
1082.999073637752
 30
0.0
 11
1275.386059527483
 21
1082.949073637752
 31
0.0
  0
LINE
  5
9C2
330
1E
100
AcDbEntity
  8
ﾚｲﾔ1
  6
Continuous
100
AcDbLine
 10
1275.886059527483
 20
1083.049073637752
 30
0.0
 11
1275.636059527483
 21
1082.999073637752
 31
0.0
  0
LINE
  5
9C3
330
1E
100
AcDbEntity
  8
ﾚｲﾔ1
  6
Continuous
100
AcDbLine
 10
1276.086059527482
 20
1083.099073637752
 30
0.0
 11
1275.886059527483
 21
1083.049073637752
 31
0.0
  0
LINE
  5
9C4
330
1E
100
AcDbEntity
  8
ﾚｲﾔ1
  6
Continuous
100
AcDbLine
 10
1275.936059527483
 20
1086.999073637752
 30
0.0
 11
1276.036059527483
 21
1086.849073637752
 31
0.0
  0
LINE
  5
9C5
330
1E
100
AcDbEntity
  8
ﾚｲﾔ1
  6
Continuous
100
AcDbLine
 10
1275.836059527483
 20
1087.099073637752
 30
0.0
 11
1275.936059527483
 21
1086.999073637752
 31
0.0
  0
LINE
  5
9C6
330
1E
100
AcDbEntity
  8
ﾚｲﾔ1
  6
Continuous
100
AcDbLine
 10
1275.736059527483
 20
1087.199073637752
 30
0.0
 11
1275.836059527483
 21
1087.099073637752
 31
0.0
  0
LINE
  5
9C7
330
1E
100
AcDbEntity
  8
ﾚｲﾔ1
  6
Continuous
100
AcDbLine
 10
1275.636059527483
 20
1087.299073637752
 30
0.0
 11
1275.736059527483
 21
1087.199073637752
 31
0.0
  0
LINE
  5
9C8
330
1E
100
AcDbEntity
  8
ﾚｲﾔ1
  6
Continuous
100
AcDbLine
 10
1275.536059527483
 20
1087.449073637752
 30
0.0
 11
1275.636059527483
 21
1087.299073637752
 31
0.0
  0
LINE
  5
9C9
330
1E
100
AcDbEntity
  8
ﾚｲﾔ1
  6
Continuous
100
AcDbLine
 10
1275.436059527483
 20
1087.499073637752
 30
0.0
 11
1275.536059527483
 21
1087.449073637752
 31
0.0
  0
LINE
  5
9CA
330
1E
100
AcDbEntity
  8
ﾚｲﾔ1
  6
Continuous
100
AcDbLine
 10
1275.336059527482
 20
1087.599073637752
 30
0.0
 11
1275.436059527483
 21
1087.499073637752
 31
0.0
  0
LINE
  5
9CB
330
1E
100
AcDbEntity
  8
ﾚｲﾔ1
  6
Continuous
100
AcDbLine
 10
1275.236059527483
 20
1087.699073637752
 30
0.0
 11
1275.336059527482
 21
1087.599073637752
 31
0.0
  0
LINE
  5
9CC
330
1E
100
AcDbEntity
  8
ﾚｲﾔ1
  6
Continuous
100
AcDbLine
 10
1275.136059527483
 20
1087.799073637752
 30
0.0
 11
1275.236059527483
 21
1087.699073637752
 31
0.0
  0
LINE
  5
9CD
330
1E
100
AcDbEntity
  8
ﾚｲﾔ1
  6
Continuous
100
AcDbLine
 10
1275.036059527483
 20
1087.849073637752
 30
0.0
 11
1275.136059527483
 21
1087.799073637752
 31
0.0
  0
LINE
  5
9CE
330
1E
100
AcDbEntity
  8
ﾚｲﾔ1
  6
Continuous
100
AcDbLine
 10
1274.936059527483
 20
1087.899073637752
 30
0.0
 11
1275.036059527483
 21
1087.849073637752
 31
0.0
  0
LINE
  5
9CF
330
1E
100
AcDbEntity
  8
ﾚｲﾔ1
  6
Continuous
100
AcDbLine
 10
1274.836059527483
 20
1087.999073637752
 30
0.0
 11
1274.936059527483
 21
1087.899073637752
 31
0.0
  0
LINE
  5
9D0
330
1E
100
AcDbEntity
  8
ﾚｲﾔ1
  6
Continuous
100
AcDbLine
 10
1274.736059527483
 20
1088.049073637752
 30
0.0
 11
1274.836059527483
 21
1087.999073637752
 31
0.0
  0
LINE
  5
9D1
330
1E
100
AcDbEntity
  8
ﾚｲﾔ1
  6
Continuous
100
AcDbLine
 10
1274.636059527483
 20
1088.099073637752
 30
0.0
 11
1274.736059527483
 21
1088.049073637752
 31
0.0
  0
LINE
  5
9D2
330
1E
100
AcDbEntity
  8
ﾚｲﾔ1
  6
Continuous
100
AcDbLine
 10
1274.536059527483
 20
1088.199073637752
 30
0.0
 11
1274.636059527483
 21
1088.099073637752
 31
0.0
  0
LINE
  5
9D3
330
1E
100
AcDbEntity
  8
ﾚｲﾔ1
  6
Continuous
100
AcDbLine
 10
1274.436059527483
 20
1088.249073637752
 30
0.0
 11
1274.536059527483
 21
1088.199073637752
 31
0.0
  0
LINE
  5
9D4
330
1E
100
AcDbEntity
  8
ﾚｲﾔ1
  6
Continuous
100
AcDbLine
 10
1274.286059527483
 20
1088.299073637752
 30
0.0
 11
1274.436059527483
 21
1088.249073637752
 31
0.0
  0
LINE
  5
9D5
330
1E
100
AcDbEntity
  8
ﾚｲﾔ1
  6
Continuous
100
AcDbLine
 10
1274.136059527483
 20
1088.399073637752
 30
0.0
 11
1274.286059527483
 21
1088.299073637752
 31
0.0
  0
LINE
  5
9D6
330
1E
100
AcDbEntity
  8
ﾚｲﾔ1
  6
Continuous
100
AcDbLine
 10
1273.936059527483
 20
1088.499073637752
 30
0.0
 11
1274.136059527483
 21
1088.399073637752
 31
0.0
  0
LINE
  5
9D7
330
1E
100
AcDbEntity
  8
ﾚｲﾔ1
  6
Continuous
100
AcDbLine
 10
1273.686059527483
 20
1088.599073637752
 30
0.0
 11
1273.936059527483
 21
1088.499073637752
 31
0.0
  0
LINE
  5
9D8
330
1E
100
AcDbEntity
  8
ﾚｲﾔ1
  6
Continuous
100
AcDbLine
 10
1273.036059527483
 20
1088.849073637752
 30
0.0
 11
1273.686059527483
 21
1088.599073637752
 31
0.0
  0
LINE
  5
9D9
330
1E
100
AcDbEntity
  8
ﾚｲﾔ1
  6
Continuous
100
AcDbLine
 10
1273.036059527483
 20
1106.849073637752
 30
0.0
 11
1245.036058527483
 21
1106.849073637752
 31
0.0
  0
LINE
  5
9DA
330
1E
100
AcDbEntity
  8
ﾚｲﾔ1
  6
Continuous
100
AcDbLine
 10
1247.036058527483
 20
1108.849073637752
 30
0.0
 11
1245.036058527483
 21
1106.849073637752
 31
0.0
  0
LINE
  5
9DB
330
1E
100
AcDbEntity
  8
ﾚｲﾔ1
  6
Continuous
100
AcDbLine
 10
1271.036059527483
 20
1108.849073637752
 30
0.0
 11
1247.036058527483
 21
1108.849073637752
 31
0.0
  0
LINE
  5
9DC
330
1E
100
AcDbEntity
  8
ﾚｲﾔ1
  6
Continuous
100
AcDbLine
 10
1273.036059527483
 20
1106.849073637752
 30
0.0
 11
1271.036059527483
 21
1108.849073637752
 31
0.0
  0
LINE
  5
9DD
330
1E
100
AcDbEntity
  8
ﾚｲﾔ1
  6
Continuous
100
AcDbLine
 10
1311.036059527483
 20
1000.449074637752
 30
0.0
 11
1311.036059527483
 21
1043.449073637752
 31
0.0
  0
LINE
  5
9DE
330
1E
100
AcDbEntity
  8
ﾚｲﾔ1
  6
Continuous
100
AcDbLine
 10
1314.036059527483
 20
1001.999074637752
 30
0.0
 11
1314.036059527483
 21
1043.449073637752
 31
0.0
  0
LINE
  5
9DF
330
1E
100
AcDbEntity
  8
ﾚｲﾔ1
  6
Continuous
100
AcDbLine
 10
1314.036059527483
 20
1084.899073637752
 30
0.0
 11
1314.036059527483
 21
1043.449073637752
 31
0.0
  0
LINE
  5
9E0
330
1E
100
AcDbEntity
  8
ﾚｲﾔ1
  6
Continuous
100
AcDbLine
 10
1314.036059527483
 20
1084.899073637752
 30
0.0
 11
1314.036059527483
 21
1043.449073637752
 31
0.0
  0
LINE
  5
9E1
330
1E
100
AcDbEntity
  8
ﾚｲﾔ1
  6
Continuous
100
AcDbLine
 10
1311.036059527483
 20
1086.449073637752
 30
0.0
 11
1311.036059527483
 21
1043.449073637752
 31
0.0
  0
LINE
  5
9E2
330
1E
100
AcDbEntity
  8
ﾚｲﾔ1
  6
Continuous
100
AcDbLine
 10
1374.036059527483
 20
1003.999074637752
 30
0.0
 11
1372.036059527483
 21
1001.999074637752
 31
0.0
  0
LINE
  5
9E3
330
1E
100
AcDbEntity
  8
ﾚｲﾔ1
  6
Continuous
100
AcDbLine
 10
1374.036059527483
 20
1082.899073637752
 30
0.0
 11
1372.036059527483
 21
1084.899073637752
 31
0.0
  0
LINE
  5
9E4
330
1E
100
AcDbEntity
  8
ﾚｲﾔ1
  6
Continuous
100
AcDbLine
 10
1374.036059527483
 20
1065.599073637752
 30
0.0
 11
1374.036059527483
 21
1082.899073637752
 31
0.0
  0
LINE
  5
9E5
330
1E
100
AcDbEntity
  8
ﾚｲﾔ1
  6
Continuous
100
AcDbLine
 10
1374.036059527483
 20
1065.599073637752
 30
0.0
 11
1374.036059527483
 21
1003.999074637752
 31
0.0
  0
LINE
  5
9E6
330
1E
100
AcDbEntity
  8
ﾚｲﾔ1
  6
Continuous
100
AcDbLine
 10
1372.036059527483
 20
1001.999074637752
 30
0.0
 11
1372.036059527483
 21
1043.449073637752
 31
0.0
  0
LINE
  5
9E7
330
1E
100
AcDbEntity
  8
ﾚｲﾔ1
  6
Continuous
100
AcDbLine
 10
1372.036059527483
 20
1084.899073637752
 30
0.0
 11
1372.036059527483
 21
1043.449073637752
 31
0.0
  0
LINE
  5
9E8
330
1E
100
AcDbEntity
  8
ﾚｲﾔ1
  6
Continuous
100
AcDbLine
 10
1387.036059527483
 20
1022.449074637752
 30
0.0
 11
1374.036059527483
 21
1022.449074637752
 31
0.0
  0
LINE
  5
9E9
330
1E
100
AcDbEntity
  8
ﾚｲﾔ1
  6
Continuous
100
AcDbLine
 10
1389.036059527483
 20
1023.554338637752
 30
0.0
 11
1387.036059527483
 21
1022.449074637752
 31
0.0
  0
LINE
  5
9EA
330
1E
100
AcDbEntity
  8
ﾚｲﾔ1
  6
Continuous
100
AcDbLine
 10
1389.036059527483
 20
1043.449073637752
 30
0.0
 11
1389.036059527483
 21
1023.554338637752
 31
0.0
  0
LINE
  5
9EB
330
1E
100
AcDbEntity
  8
ﾚｲﾔ1
  6
Continuous
100
AcDbLine
 10
1387.036059527483
 20
1064.449073637752
 30
0.0
 11
1374.036059527483
 21
1064.449073637752
 31
0.0
  0
LINE
  5
9EC
330
1E
100
AcDbEntity
  8
ﾚｲﾔ1
  6
Continuous
100
AcDbLine
 10
1389.036059527483
 20
1063.343808637752
 30
0.0
 11
1387.036059527483
 21
1064.449073637752
 31
0.0
  0
LINE
  5
9ED
330
1E
100
AcDbEntity
  8
ﾚｲﾔ1
  6
Continuous
100
AcDbLine
 10
1389.036059527483
 20
1043.449073637752
 30
0.0
 11
1389.036059527483
 21
1063.343808637752
 31
0.0
  0
LINE
  5
9EE
330
1E
100
AcDbEntity
  8
ﾚｲﾔ1
  6
Continuous
100
AcDbLine
 10
1387.036059527483
 20
1022.449074637752
 30
0.0
 11
1387.036059527483
 21
1043.449073637752
 31
0.0
  0
LINE
  5
9EF
330
1E
100
AcDbEntity
  8
ﾚｲﾔ1
  6
Continuous
100
AcDbLine
 10
1387.036059527483
 20
1064.449073637752
 30
0.0
 11
1387.036059527483
 21
1043.449073637752
 31
0.0
  0
DIMENSION
  5
A10
330
1E
100
AcDbEntity
  8
補助線
100
AcDbDimension
  2
*D10
 10
817.0574570337576
 20
716.2680478489646
 30
0.0
 11
805.3859924298812
 21
766.3170312672073
 31
0.0
 70
   160
 71
     5
 42
10.0
  3
Standard
100
AcDbAlignedDimension
 13
737.1509351535869
 23
726.2680478489646
 33
0.0
 14
737.1509351535869
 24
716.2680478489646
 34
0.0
 50
90.0
100
AcDbRotatedDimension
1001
ACAD
1000
DSTYLE
1002
{
1070
   343
1005
0
1070
   173
1070
     1
1070
   344
1005
0
1070
    41
1040
16.0
1070
    44
1040
0.5
1070
    73
1070
     0
1070
    74
1070
     0
1070
    77
1070
     1
1070
   140
1040
20.0
1070
   147
1040
0.5
1070
   176
1070
     1
1070
   177
1070
     1
1070
   178
1070
     1
1070
   271
1070
     0
1070
   272
1070
     0
1070
   279
1070
     2
1070
   340
1005
5B9
1002
}
  0
DIMENSION
  5
A1E
330
1E
100
AcDbEntity
  8
補助線
100
AcDbDimension
  2
*D11
 10
803.6473850510429
 20
700.2680478489646
 30
0.0
 11
789.0480928665565
 21
739.3004585252111
 31
0.0
 70
   160
 71
     5
 42
16.0
  3
Standard
100
AcDbAlignedDimension
 13
739.6509351535869
 23
716.2680478489646
 33
0.0
 14
739.6509351535869
 24
700.2680478489646
 34
0.0
 50
90.0
100
AcDbRotatedDimension
1001
ACAD
1000
DSTYLE
1002
{
1070
   343
1005
0
1070
   173
1070
     1
1070
   344
1005
0
1070
    41
1040
16.0
1070
    44
1040
0.5
1070
    73
1070
     0
1070
    74
1070
     0
1070
    77
1070
     1
1070
   140
1040
20.0
1070
   147
1040
0.5
1070
   176
1070
     1
1070
   177
1070
     1
1070
   178
1070
     1
1070
   271
1070
     0
1070
   272
1070
     0
1070
   279
1070
     2
1070
   340
1005
5B9
1002
}
  0
LEADER
  5
A68
330
1E
100
AcDbEntity
  8
補助線
 62
     3
100
AcDbLeader
  3
Standard
 73
     0
 74
     0
 40
25.67423543935866
 41
149.437577159288
 76
     3
 10
844.7637979007321
 20
691.5303392204204
 30
0.0
 10
888.2680330171314
 20
744.846078935464
 30
0.0
 10
1002.539159822759
 20
744.8460789354639
 30
0.0
340
A69
213
0.0
223
-10.0
233
0.0
1001
ACAD
1000
DSTYLE
1002
{
1070
   341
1005
D2F
1070
    41
1040
16.0
1070
    44
1040
0.5
1070
    73
1070
     0
1070
    74
1070
     0
1070
    77
1070
     0
1070
   140
1040
20.0
1070
   147
1040
0.5
1070
   176
1070
     1
1070
   177
1070
     1
1070
   178
1070
     1
1070
   271
1070
     0
1070
   272
1070
     0
1070
   279
1070
     2
1070
   340
1005
23
1002
}
  0
MTEXT
  5
A69
102
{ACAD_REACTORS
330
A68
102
}
330
1E
100
AcDbEntity
  8
図面
 62
     7
100
AcDbMText
 10
1003.039159822759
 20
754.8460789354639
 30
0.0
 40
20.0
 41
0.0
 71
     1
 72
     1
  1
ステンレス板
  7
WMF-ＭＳ Ｐ明朝0
 73
     1
 44
1.0
  0
MTEXT
  5
A6B
330
1E
100
AcDbEntity
  8
補助線
 62
     1
100
AcDbMText
 10
932.5619090972741
 20
812.4643650459528
 30
0.0
 40
20.0
 41
0.0
 71
     1
 72
     1
  1
\A1;
  7
TextStyle01
 73
     1
 44
1.0
  0
LEADER
  5
A6C
330
1E
100
AcDbEntity
  8
補助線
 62
     0
100
AcDbLeader
  3
Standard
 73
     0
 74
     0
 40
25.67423543935866
 41
124.2627869544154
 76
     3
 10
673.4987980967124
 20
696.9519636274781
 30
0.0
 10
766.7271841618476
 20
810.4687565743379
 30
0.0
 10
823.538240551019
 20
810.4687565743379
 30
0.0
340
A6D
213
0.0
223
-10.0
233
0.0
1001
ACAD
1000
DSTYLE
1002
{
1070
   341
1005
D2F
1070
    41
1040
16.0
1070
    44
1040
0.5
1070
    73
1070
     0
1070
    74
1070
     0
1070
    77
1070
     0
1070
   140
1040
20.0
1070
   147
1040
0.5
1070
   176
1070
     1
1070
   177
1070
     1
1070
   178
1070
     1
1070
   271
1070
     0
1070
   272
1070
     0
1070
   279
1070
     2
1070
   340
1005
23
1002
}
  0
MTEXT
  5
A6D
102
{ACAD_REACTORS
330
A6C
102
}
330
1E
100
AcDbEntity
  8
図面
 62
     0
100
AcDbMText
 10
824.038240551019
 20
820.4687565743379
 30
0.0
 40
20.0
 41
0.0
 71
     1
 72
     1
  1
テフロン板
  7
WMF-ＭＳ Ｐ明朝0
 73
     1
 44
1.0
  0
DIMENSION
  5
AAC
330
1E
100
AcDbEntity
  8
図面
100
AcDbDimension
  2
*D12
 10
1389.036059527483
 20
1138.989598834812
 30
0.0
 11
1311.536059027483
 21
1149.489598834812
 31
0.0
 70
    32
 71
     5
 42
155.0000010000001
  3
Standard
100
AcDbAlignedDimension
 13
1234.036058527483
 23
1084.899073637752
 33
0.0
 14
1389.036059527483
 24
1063.343808637752
 34
0.0
100
AcDbRotatedDimension
1001
ACAD
1000
DSTYLE
1002
{
1070
    41
1040
16.0
1070
    44
1040
0.5
1070
    73
1070
     0
1070
    74
1070
     0
1070
    77
1070
     1
1070
   140
1040
20.0
1070
   147
1040
0.5
1070
   176
1070
     1
1070
   177
1070
     1
1070
   178
1070
     1
1070
   271
1070
     0
1070
   272
1070
     0
1070
   279
1070
     2
1070
   340
1005
5B9
1002
}
  0
DIMENSION
  5
AC6
330
1E
100
AcDbEntity
  8
補助線
100
AcDbDimension
  2
*D13
 10
499.2706512069835
 20
693.2680478489646
 30
0.0
 11
486.128514313541
 21
690.6320434939762
 31
0.0
 70
   160
 71
     5
 42
6.0
  3
Standard
100
AcDbAlignedDimension
 13
444.650935153587
 23
687.2680478489646
 33
0.0
 14
444.650935153587
 24
693.2680478489646
 34
0.0
 50
90.0
100
AcDbRotatedDimension
1001
ACAD
1000
DSTYLE
1002
{
1070
   343
1005
0
1070
   173
1070
     1
1070
   344
1005
0
1070
    41
1040
16.0
1070
    44
1040
0.5
1070
    73
1070
     0
1070
    74
1070
     0
1070
    77
1070
     1
1070
   140
1040
20.0
1070
   147
1040
0.5
1070
   176
1070
     1
1070
   177
1070
     1
1070
   178
1070
     1
1070
   271
1070
     0
1070
   272
1070
     0
1070
   279
1070
     2
1070
   340
1005
5B9
1002
}
  0
DIMENSION
  5
AE8
330
1E
100
AcDbEntity
  8
補助線
100
AcDbDimension
  2
*D14
 10
551.6375491038779
 20
700.2680478489646
 30
0.0
 11
539.124508671719
 21
703.6157183179783
 31
0.0
 70
   160
 71
     5
 42
7.0
  3
Standard
100
AcDbAlignedDimension
 13
512.1509351535869
 23
693.2680478489646
 33
0.0
 14
512.1509351535869
 24
700.2680478489646
 34
0.0
 50
90.0
100
AcDbRotatedDimension
1001
ACAD
1000
DSTYLE
1002
{
1070
   343
1005
0
1070
   173
1070
     1
1070
   344
1005
0
1070
    41
1040
16.0
1070
    44
1040
0.5
1070
    73
1070
     0
1070
    74
1070
     0
1070
    77
1070
     1
1070
   140
1040
20.0
1070
   147
1040
0.5
1070
   176
1070
     1
1070
   177
1070
     1
1070
   178
1070
     1
1070
   271
1070
     0
1070
   272
1070
     0
1070
   279
1070
     2
1070
   340
1005
5B9
1002
}
  0
LINE
  5
B0D
330
1E
100
AcDbEntity
  8
図面
100
AcDbLine
 10
864.5884351535869
 20
1290.037052226663
 30
0.0
 11
864.5884351535869
 21
970.0370522266634
 31
0.0
  0
DIMENSION
  5
B1B
330
1E
100
AcDbEntity
  8
図面
100
AcDbDimension
  2
*D15
 10
989.8580954967185
 20
1290.037052226663
 30
0.0
 11
979.3580954967185
 21
1130.037052226663
 31
0.0
 70
    32
 71
     5
 42
319.9999999999997
  3
Standard
100
AcDbAlignedDimension
 13
864.5884351535869
 23
970.0370522266634
 33
0.0
 14
864.5884351535869
 24
1290.037052226663
 34
0.0
 50
90.0
100
AcDbRotatedDimension
1001
ACAD
1000
DSTYLE
1002
{
1070
   344
1005
D2F
1070
   173
1070
     1
1070
   343
1005
D2F
1070
    41
1040
16.0
1070
    44
1040
0.5
1070
    73
1070
     0
1070
    74
1070
     0
1070
    77
1070
     1
1070
   140
1040
20.0
1070
   147
1040
0.5
1070
   176
1070
     1
1070
   177
1070
     1
1070
   178
1070
     1
1070
   271
1070
     0
1070
   272
1070
     0
1070
   279
1070
     2
1070
   340
1005
5B9
1002
}
  0
CIRCLE
  5
B34
330
1E
100
AcDbEntity
  8
図面
100
AcDbCircle
 10
604.088435153587
 20
1130.037052226663
 30
0.0
 40
113.5
  0
CIRCLE
  5
B35
330
1E
100
AcDbEntity
  8
図面
100
AcDbCircle
 10
604.0884351535869
 20
1130.037052226664
 30
0.0
 40
130.0
  0
DIMENSION
  5
B41
330
1E
100
AcDbEntity
  8
図面
100
AcDbDimension
  2
*D16
 10
801.6426304575597
 20
997.5370522266635
 30
0.0
 11
791.1426304575597
 21
1130.037052226663
 31
0.0
 70
    32
 71
     5
 42
264.9999999999995
  3
Standard
100
AcDbAlignedDimension
 13
736.5884351535869
 23
1262.537052226663
 33
0.0
 14
736.5884351535869
 24
997.5370522266635
 34
0.0
 50
90.0
100
AcDbRotatedDimension
1001
ACAD
1000
DSTYLE
1002
{
1070
   344
1005
D2F
1070
   173
1070
     1
1070
   343
1005
D2F
1070
    41
1040
16.0
1070
    44
1040
0.5
1070
    73
1070
     0
1070
    74
1070
     0
1070
    77
1070
     1
1070
   140
1040
20.0
1070
   147
1040
0.5
1070
   176
1070
     1
1070
   177
1070
     1
1070
   178
1070
     1
1070
   271
1070
     0
1070
   272
1070
     0
1070
   279
1070
     2
1070
   340
1005
5B9
1002
}
  0
DIMENSION
  5
B4F
330
1E
100
AcDbEntity
  8
図面
100
AcDbDimension
  2
*D17
 10
864.5884351535869
 20
915.1596046739832
 30
0.0
 11
641.0884351535869
 21
925.6596046739832
 31
0.0
 70
    32
  1
450
 71
     5
 42
447.0000000000001
  3
Standard
100
AcDbAlignedDimension
 13
417.5884351535869
 23
970.0370522266634
 33
0.0
 14
864.5884351535869
 24
970.0370522266634
 34
0.0
100
AcDbRotatedDimension
1001
ACAD
1000
DSTYLE
1002
{
1070
   344
1005
D2F
1070
   173
1070
     1
1070
   343
1005
D2F
1070
    41
1040
16.0
1070
    44
1040
0.5
1070
    73
1070
     0
1070
    74
1070
     0
1070
    77
1070
     1
1070
   140
1040
20.0
1070
   147
1040
0.5
1070
   176
1070
     1
1070
   177
1070
     1
1070
   178
1070
     1
1070
   271
1070
     0
1070
   272
1070
     0
1070
   279
1070
     2
1070
   340
1005
5B9
1002
}
  0
DIMENSION
  5
B65
330
1E
100
AcDbEntity
  8
図面
100
AcDbDimension
  2
*D18
 10
683.4147573172017
 20
1211.213308681334
 30
0.0
 11
601.4690504259468
 21
1146.622438837936
 31
0.0
 70
   163
 71
     5
 42
226.9999999999999
  3
Standard
100
AcDbDiametricDimension
 15
524.7621129899727
 25
1048.860795771993
 35
0.0
 40
0.0
1001
ACAD
1000
DSTYLE
1002
{
1070
   344
1005
0
1070
   173
1070
     1
1070
   343
1005
0
1070
    41
1040
16.0
1070
    44
1040
0.5
1070
    73
1070
     0
1070
    74
1070
     0
1070
    77
1070
     1
1070
   140
1040
20.0
1070
   147
1040
0.5
1070
   176
1070
     1
1070
   177
1070
     1
1070
   178
1070
     1
1070
   271
1070
     0
1070
   272
1070
     0
1070
   279
1070
     2
1070
   288
1070
     1
1070
   340
1005
5B9
1002
}
  0
DIMENSION
  5
B6F
330
1E
100
AcDbEntity
  8
図面
100
AcDbDimension
  2
*D19
 10
661.5999569836351
 20
1246.623607441199
 30
0.0
 11
589.7172917085026
 21
1069.122532819674
 31
0.0
 70
   163
 71
     5
 42
260.0000000000001
  3
Standard
100
AcDbDiametricDimension
 15
546.5769133235394
 25
1013.450497012128
 35
0.0
 40
0.0
1001
ACAD
1000
DSTYLE
1002
{
1070
   344
1005
0
1070
   173
1070
     1
1070
   343
1005
0
1070
    41
1040
16.0
1070
    44
1040
0.5
1070
    73
1070
     0
1070
    74
1070
     0
1070
    77
1070
     1
1070
   140
1040
20.0
1070
   147
1040
0.5
1070
   176
1070
     1
1070
   177
1070
     1
1070
   178
1070
     1
1070
   271
1070
     0
1070
   272
1070
     0
1070
   279
1070
     2
1070
   288
1070
     1
1070
   340
1005
5B9
1002
}
  0
LINE
  5
B86
330
1E
100
AcDbEntity
  8
図面
100
AcDbLine
 10
860.588435153587
 20
1284.037052226663
 30
0.0
 11
439.5884351535869
 21
1284.037052226663
 31
0.0
  0
LINE
  5
BBF
330
1E
100
AcDbEntity
  8
図面
100
AcDbLine
 10
860.588435153587
 20
1284.037052226663
 30
0.0
 11
860.588435153587
 21
976.0370522266635
 31
0.0
  0
LINE
  5
BC0
330
1E
100
AcDbEntity
  8
図面
100
AcDbLine
 10
860.588435153587
 20
976.0370522266635
 30
0.0
 11
417.5884351535869
 21
976.0370522266635
 31
0.0
  0
LINE
  5
BC1
330
1E
100
AcDbEntity
  8
図面
100
AcDbLine
 10
417.5884351535869
 20
976.0370522266635
 30
0.0
 11
417.5884351535869
 21
1284.037052226663
 31
0.0
  0
LINE
  5
BC2
330
1E
100
AcDbEntity
  8
図面
100
AcDbLine
 10
417.5884351535869
 20
1284.037052226663
 30
0.0
 11
439.5884351535869
 21
1284.037052226663
 31
0.0
  0
DIMENSION
  5
BC4
330
1E
100
AcDbEntity
  8
図面
100
AcDbDimension
  2
*D20
 10
860.588435153587
 20
1349.935353775449
 30
0.0
 11
849.0139534031504
 21
1362.230539230297
 31
0.0
 70
   160
 71
     5
 42
19.00000000000011
  3
Standard
100
AcDbAlignedDimension
 13
841.5884351535869
 23
1284.037052226663
 33
0.0
 14
860.588435153587
 24
1284.037052226663
 34
0.0
100
AcDbRotatedDimension
1001
ACAD
1000
DSTYLE
1002
{
1070
   344
1005
D2F
1070
   173
1070
     1
1070
   343
1005
D2F
1070
    41
1040
16.0
1070
    44
1040
0.5
1070
    73
1070
     0
1070
    74
1070
     0
1070
    77
1070
     1
1070
   140
1040
20.0
1070
   147
1040
0.5
1070
   176
1070
     1
1070
   177
1070
     1
1070
   178
1070
     1
1070
   271
1070
     0
1070
   272
1070
     0
1070
   279
1070
     2
1070
   340
1005
5B9
1002
}
  0
DIMENSION
  5
BE6
330
1E
100
AcDbEntity
  8
図面
100
AcDbDimension
  2
*D21
 10
864.5884351535869
 20
1315.930234064211
 30
0.0
 11
884.2902472521391
 21
1328.701288562479
 31
0.0
 70
   160
  1
7
 71
     5
 42
3.999999999999886
  3
Standard
100
AcDbAlignedDimension
 13
860.588435153587
 23
1284.037052226663
 33
0.0
 14
864.5884351535869
 24
1284.037052226663
 34
0.0
100
AcDbRotatedDimension
1001
ACAD
1000
DSTYLE
1002
{
1070
   344
1005
D2F
1070
   173
1070
     1
1070
   343
1005
D2F
1070
    41
1040
16.0
1070
    44
1040
0.5
1070
    73
1070
     0
1070
    74
1070
     0
1070
    77
1070
     1
1070
   140
1040
20.0
1070
   147
1040
0.5
1070
   176
1070
     1
1070
   177
1070
     1
1070
   178
1070
     1
1070
   271
1070
     0
1070
   272
1070
     0
1070
   279
1070
     2
1070
   340
1005
5B9
1002
}
  0
LINE
  5
C22
330
1E
100
AcDbEntity
  8
下図
100
AcDbLine
 10
446.5884351535864
 20
1252.537052226663
 30
0.0
 11
726.5884351535865
 21
1252.537052226663
 31
0.0
  0
LINE
  5
C23
330
1E
100
AcDbEntity
  8
下図
100
AcDbLine
 10
726.5884351535865
 20
1252.537052226663
 30
0.0
 11
726.5884351535865
 21
1007.537052226663
 31
0.0
  0
LINE
  5
C24
330
1E
100
AcDbEntity
  8
下図
100
AcDbLine
 10
726.5884351535865
 20
1007.537052226663
 30
0.0
 11
446.5884351535864
 21
1007.537052226663
 31
0.0
  0
LINE
  5
C25
330
1E
100
AcDbEntity
  8
下図
100
AcDbLine
 10
446.5884351535865
 20
1007.537052226663
 30
0.0
 11
446.5884351535865
 21
1252.537052226663
 31
0.0
  0
LINE
  5
C3C
330
1E
100
AcDbEntity
  8
図面
100
AcDbLine
 10
230.0884351535869
 20
1185.037052226663
 30
0.0
 11
187.5884351535869
 21
1185.037052226663
 31
0.0
  0
LINE
  5
C3D
330
1E
100
AcDbEntity
  8
図面
100
AcDbLine
 10
187.5884351535869
 20
1185.037052226663
 30
0.0
 11
187.5259351535869
 21
1075.037052226663
 31
0.0
  0
LINE
  5
C3E
330
1E
100
AcDbEntity
  8
図面
100
AcDbLine
 10
187.5259351535869
 20
1075.037052226663
 30
0.0
 11
230.0884351535868
 21
1075.037052226663
 31
0.0
  0
DIMENSION
  5
C3F
330
1E
100
AcDbEntity
  8
図面
100
AcDbDimension
  2
*D22
 10
121.3591934790047
 20
1185.037052226663
 30
0.0
 11
110.8591934790047
 21
1130.037052226663
 31
0.0
 70
    32
 71
     5
 42
110.0
  3
Standard
100
AcDbAlignedDimension
 13
187.5259351535869
 23
1075.037052226663
 33
0.0
 14
187.5884351535869
 24
1185.037052226663
 34
0.0
 50
90.0
100
AcDbRotatedDimension
1001
ACAD
1000
DSTYLE
1002
{
1070
   344
1005
D2F
1070
   173
1070
     1
1070
   343
1005
D2F
1070
    41
1040
16.0
1070
    44
1040
0.5
1070
    73
1070
     0
1070
    74
1070
     0
1070
    77
1070
     1
1070
   140
1040
20.0
1070
   147
1040
0.5
1070
   176
1070
     1
1070
   177
1070
     1
1070
   178
1070
     1
1070
   271
1070
     0
1070
   272
1070
     0
1070
   279
1070
     2
1070
   340
1005
5B9
1002
}
  0
DIMENSION
  5
C4C
330
1E
100
AcDbEntity
  8
図面
100
AcDbDimension
  2
*D23
 10
864.6509351535868
 20
1394.894096842402
 30
0.0
 11
526.1196851535868
 21
1405.394096842402
 31
0.0
 70
    32
  1
680
 71
     5
 42
677.0625
  3
Standard
100
AcDbAlignedDimension
 13
187.5884351535869
 23
1185.037052226663
 33
0.0
 14
864.6509351535868
 24
1290.037052226663
 34
0.0
100
AcDbRotatedDimension
1001
ACAD
1000
DSTYLE
1002
{
1070
   344
1005
D2F
1070
   173
1070
     1
1070
   343
1005
D2F
1070
    41
1040
16.0
1070
    44
1040
0.5
1070
    73
1070
     0
1070
    74
1070
     0
1070
    77
1070
     1
1070
   140
1040
20.0
1070
   147
1040
0.5
1070
   176
1070
     1
1070
   177
1070
     1
1070
   178
1070
     1
1070
   271
1070
     0
1070
   272
1070
     0
1070
   279
1070
     2
1070
   340
1005
5B9
1002
}
  0
DIMENSION
  5
C62
330
1E
100
AcDbEntity
  8
図面
100
AcDbDimension
  2
*D24
 10
436.5884351535869
 20
1350.435353775449
 30
0.0
 11
427.0884351535869
 21
1361.685353775449
 31
0.0
 70
    32
 71
     5
 42
19.0
  3
Standard
100
AcDbAlignedDimension
 13
417.5884351535869
 23
1290.037052226663
 33
0.0
 14
436.5884351535869
 24
1290.037052226663
 34
0.0
100
AcDbRotatedDimension
1001
ACAD
1000
DSTYLE
1002
{
1070
   344
1005
D2F
1070
   173
1070
     1
1070
   343
1005
D2F
1070
    41
1040
16.0
1070
    44
1040
0.5
1070
    73
1070
     0
1070
    74
1070
     0
1070
    77
1070
     1
1070
   140
1040
20.0
1070
   147
1040
0.5
1070
   176
1070
     1
1070
   177
1070
     1
1070
   178
1070
     1
1070
   271
1070
     0
1070
   272
1070
     0
1070
   279
1070
     2
1070
   340
1005
5B9
1002
}
  0
DIMENSION
  5
C70
330
1E
100
AcDbEntity
  8
図面
100
AcDbDimension
  2
*D25
 10
914.5770764543222
 20
1265.037052226663
 30
0.0
 11
904.0770764543222
 21
1130.068302226663
 31
0.0
 70
    32
 71
     5
 42
269.9374999999995
  3
Standard
100
AcDbAlignedDimension
 13
841.5259351535869
 23
995.0995522266635
 33
0.0
 14
841.5884351535869
 24
1265.037052226663
 34
0.0
 50
90.0
100
AcDbRotatedDimension
1001
ACAD
1000
DSTYLE
1002
{
1070
   344
1005
D2F
1070
   173
1070
     1
1070
   343
1005
D2F
1070
    41
1040
16.0
1070
    44
1040
0.5
1070
    73
1070
     0
1070
    74
1070
     0
1070
    77
1070
     1
1070
   140
1040
20.0
1070
   147
1040
0.5
1070
   176
1070
     1
1070
   177
1070
     1
1070
   178
1070
     1
1070
   271
1070
     0
1070
   272
1070
     0
1070
   279
1070
     2
1070
   340
1005
5B9
1002
}
  0
DIMENSION
  5
C8A
330
1E
100
AcDbEntity
  8
図面
100
AcDbDimension
  2
*D26
 10
914.5770764543224
 20
1284.099552226663
 30
0.0
 11
945.8270764543224
 21
1274.568302226663
 31
0.0
 70
    32
 71
     5
 42
19.0625
  3
Standard
100
AcDbAlignedDimension
 13
841.650935153587
 23
1265.037052226663
 33
0.0
 14
841.5884351535869
 24
1284.099552226663
 34
0.0
 50
90.0
100
AcDbRotatedDimension
1001
ACAD
1000
DSTYLE
1002
{
1070
   344
1005
D2F
1070
   173
1070
     1
1070
   343
1005
D2F
1070
    41
1040
16.0
1070
    44
1040
0.5
1070
    73
1070
     0
1070
    74
1070
     0
1070
    77
1070
     1
1070
   140
1040
20.0
1070
   147
1040
0.5
1070
   176
1070
     1
1070
   177
1070
     1
1070
   178
1070
     1
1070
   271
1070
     0
1070
   272
1070
     0
1070
   279
1070
     2
1070
   340
1005
5B9
1002
}
  0
DIMENSION
  5
C98
330
1E
100
AcDbEntity
  8
図面
100
AcDbDimension
  2
*D27
 10
914.5770764543222
 20
976.0370522266635
 30
0.0
 11
945.8270764543222
 21
985.5683022266635
 31
0.0
 70
    32
 71
     5
 42
19.0625
  3
Standard
100
AcDbAlignedDimension
 13
841.5884351535869
 23
995.0995522266635
 33
0.0
 14
860.588435153587
 24
976.0370522266635
 34
0.0
 50
90.0
100
AcDbRotatedDimension
1001
ACAD
1000
DSTYLE
1002
{
1070
   344
1005
D2F
1070
   173
1070
     1
1070
   343
1005
D2F
1070
    41
1040
16.0
1070
    44
1040
0.5
1070
    73
1070
     0
1070
    74
1070
     0
1070
    77
1070
     1
1070
   140
1040
20.0
1070
   147
1040
0.5
1070
   176
1070
     1
1070
   177
1070
     1
1070
   178
1070
     1
1070
   271
1070
     0
1070
   272
1070
     0
1070
   279
1070
     2
1070
   340
1005
5B9
1002
}
  0
MTEXT
  5
F08
330
1E
100
AcDbEntity
  8
文字
100
AcDbMText
 10
1279.0
 20
528.0533689811656
 30
0.0
 40
20.0
 41
252.0
 71
     1
 72
     5
  1
{SST-200}
  7
WMF-ＭＳ Ｐ明朝0
 73
     1
 44
1.0
1001
ACAD
1000
ACAD_MTEXT_DEFINED_HEIGHT_BEGIN
1070
    46
1040
20.0
1000
ACAD_MTEXT_DEFINED_HEIGHT_END
  0
LINE
  5
F0C
330
1E
100
AcDbEntity
  8
図面枠
100
AcDbLine
 10
1235.224480608748
 20
486.9282501544121
 30
0.0
 11
1335.224480608748
 21
486.9282501544121
 31
0.0
  0
TEXT
  5
F0D
330
1E
100
AcDbEntity
  8
図面枠
100
AcDbText
 10
1238.399925951486
 20
546.409929989222
 30
0.0
 40
9.830400000000004
  1
名
  7
WMF-ＭＳ Ｐ明朝0
100
AcDbText
  0
TEXT
  5
F0E
330
1E
100
AcDbEntity
  8
図面枠
100
AcDbText
 10
1237.458613392776
 20
516.3053268133962
 30
0.0
 40
10.92266666666667
  1
称
  7
WMF-ＭＳ Ｐ明朝0
100
AcDbText
  0
TEXT
  5
F3C
330
1E
100
AcDbEntity
  8
図面枠
100
AcDbText
 10
1297.043271290222
 20
471.335699167613
 30
0.0
 40
12.0
  1
55kg
  7
WMF-ＭＳ Ｐ明朝0
100
AcDbText
  0
ENDSEC
  0
SECTION
  2
OBJECTS
  0
DICTIONARY
  5
C
330
0
100
AcDbDictionary
281
     1
  3
ACAD_DETAILVIEWSTYLE
350
F13
  3
ACAD_GROUP
350
D
  3
ACAD_LAYOUT
350
19
  3
ACAD_MLINESTYLE
350
16
  3
ACAD_PLOTSETTINGS
350
18
  3
ACAD_PLOTSTYLENAME
350
E
  3
ACAD_SCALELIST
350
CD4
  3
ACAD_SECTIONVIEWSTYLE
350
F14
  3
AcDbVariableDictionary
350
D25
  3
APPDATA
350
F07
  3
DWGPROPS
350
F3D
  0
DICTIONARY
  5
F09
330
2
100
AcDbDictionary
280
     1
281
     1
  3
ACAD_LAYERSTATES
360
F0A
  0
DICTIONARY
  5
CFE
330
10
100
AcDbDictionary
280
     1
281
     1
  3
ADSK_XREC_LAYER_RECONCILED
360
CFF
  0
DICTIONARY
  5
D00
330
16B
100
AcDbDictionary
280
     1
281
     1
  3
ADSK_XREC_LAYER_RECONCILED
360
D01
  0
DICTIONARY
  5
D02
330
16C
100
AcDbDictionary
280
     1
281
     1
  3
ADSK_XREC_LAYER_RECONCILED
360
D03
  0
DICTIONARY
  5
D04
330
1AB
100
AcDbDictionary
280
     1
281
     1
  3
ADSK_XREC_LAYER_RECONCILED
360
D05
  0
DICTIONARY
  5
D06
330
1CD
100
AcDbDictionary
280
     1
281
     1
  3
ADSK_XREC_LAYER_RECONCILED
360
D07
  0
DICTIONARY
  5
D08
330
620
100
AcDbDictionary
280
     1
281
     1
  3
ADSK_XREC_LAYER_RECONCILED
360
D09
  0
DICTIONARY
  5
F18
330
1E
100
AcDbDictionary
280
     1
281
     1
  3
DIM_BOUNDING_BOXES_V1
360
F19
  0
DICTIONARY
  5
F13
102
{ACAD_REACTORS
330
C
102
}
330
C
100
AcDbDictionary
281
     1
  0
DICTIONARY
  5
D
102
{ACAD_REACTORS
330
C
102
}
330
C
100
AcDbDictionary
281
     1
  0
DICTIONARY
  5
19
102
{ACAD_REACTORS
330
C
102
}
330
C
100
AcDbDictionary
281
     1
  3
Model
350
21
  3
ﾚｲｱｳﾄ1
350
1D
  0
DICTIONARY
  5
16
102
{ACAD_REACTORS
330
C
102
}
330
C
100
AcDbDictionary
281
     1
  3
Standard
350
17
  0
DICTIONARY
  5
18
102
{ACAD_REACTORS
330
C
102
}
330
C
100
AcDbDictionary
281
     1
  0
ACDBDICTIONARYWDFLT
  5
E
102
{ACAD_REACTORS
330
C
102
}
330
C
100
AcDbDictionary
281
     1
  3
Normal
350
F
100
AcDbDictionaryWithDefault
340
F
  0
DICTIONARY
  5
CD4
102
{ACAD_REACTORS
330
C
102
}
330
C
100
AcDbDictionary
281
     1
  3
A0
350
CD5
  3
A1
350
CD6
  3
A2
350
CD7
  3
A3
350
CD8
  3
A4
350
CD9
  3
A5
350
CDA
  3
A6
350
CDB
  3
A7
350
CDC
  3
A8
350
CDD
  3
A9
350
CDE
  3
B0
350
CDF
  3
B1
350
CE0
  3
B2
350
CE1
  3
B3
350
CE2
  3
B4
350
CE3
  3
B5
350
CE4
  3
B6
350
CE5
  3
B7
350
CE6
  3
B8
350
CE7
  3
B9
350
CE8
  3
C0
350
CE9
  3
C1
350
CEA
  3
C2
350
CEB
  3
C3
350
CEC
  3
C4
350
CED
  3
C5
350
CEE
  3
C6
350
CEF
  3
C7
350
CF0
  3
C8
350
CF1
  3
C9
350
CF2
  3
D0
350
CF3
  3
D1
350
CF4
  3
D2
350
CF5
  0
DICTIONARY
  5
F14
102
{ACAD_REACTORS
330
C
102
}
330
C
100
AcDbDictionary
281
     1
  0
DICTIONARY
  5
D25
102
{ACAD_REACTORS
330
C
102
}
330
C
100
AcDbDictionary
281
     1
  3
DIMASSOC
350
EF2
  3
PROJECTNAME
350
EF3
  0
DICTIONARY
  5
F07
102
{ACAD_REACTORS
330
C
102
}
330
C
100
AcDbDictionary
281
     1
  0
XRECORD
  5
F3D
102
{ACAD_REACTORS
330
C
102
}
330
C
100
AcDbXrecord
280
     1
  1
DWGPROPS COOKIE
  2

  3

  4

  6

  7

  8
Hiroki Noike
  9

300
=
301
=
302
=
303
=
304
=
305
=
306
=
307
=
308
=
309
=
 40
0.0
 41
2449944.550517361
 42
2460004.180821435
  1

 90
        0
  0
DICTIONARY
  5
F0A
102
{ACAD_REACTORS
330
F09
102
}
330
F09
100
AcDbDictionary
281
     1
  0
XRECORD
  5
CFF
102
{ACAD_REACTORS
330
CFE
102
}
330
CFE
100
AcDbXrecord
280
     1
290
     1
  0
XRECORD
  5
D01
102
{ACAD_REACTORS
330
D00
102
}
330
D00
100
AcDbXrecord
280
     1
290
     1
  0
XRECORD
  5
D03
102
{ACAD_REACTORS
330
D02
102
}
330
D02
100
AcDbXrecord
280
     1
290
     1
  0
XRECORD
  5
D05
102
{ACAD_REACTORS
330
D04
102
}
330
D04
100
AcDbXrecord
280
     1
290
     1
  0
XRECORD
  5
D07
102
{ACAD_REACTORS
330
D06
102
}
330
D06
100
AcDbXrecord
280
     1
290
     1
  0
XRECORD
  5
D09
102
{ACAD_REACTORS
330
D08
102
}
330
D08
100
AcDbXrecord
280
     1
290
     1
  0
DICTIONARY
  5
F19
102
{ACAD_REACTORS
330
F18
102
}
330
F18
100
AcDbDictionary
281
     1
  0
LAYOUT
  5
21
102
{ACAD_REACTORS
330
19
102
}
330
19
100
AcDbPlotSettings
  1

  2
倉庫プリンタ.pc3
  4
A3
  6

 40
5.873749732971191
 41
5.873747825622558
 42
5.873748779296875
 43
5.873748779296875
 44
296.9259948730469
 45
419.9466552734374
 46
0.0
 47
2.459999999999999
 48
-210.0
 49
-148.5
140
210.0
141
148.5
142
1.0
143
1.041452997999771
 70
 11956
 72
     1
 73
     1
 74
     4
  7

 75
     0
147
0.9601969574436996
148
210.0
149
148.5
100
AcDbLayout
  1
Model
 70
     1
 71
     0
 10
0.0
 20
0.0
 11
12.0
 21
9.0
 12
0.0
 22
0.0
 32
0.0
 14
0.0
 24
0.0
 34
0.0
 15
0.0
 25
0.0
 35
0.0
146
0.0
 13
0.0
 23
0.0
 33
0.0
 16
1.0
 26
0.0
 36
0.0
 17
0.0
 27
1.0
 37
0.0
 76
     0
330
1E
331
EF4
  0
LAYOUT
  5
1D
102
{ACAD_REACTORS
330
19
102
}
330
19
100
AcDbPlotSettings
  1

  2
なし
  4

  6

 40
0.0
 41
0.0
 42
0.0
 43
0.0
 44
0.0
 45
0.0
 46
0.0
 47
0.0
 48
0.0
 49
0.0
140
0.0
141
0.0
142
1.0
143
1.0
 70
   688
 72
     0
 73
     0
 74
     5
  7

 75
    16
147
1.0
148
0.0
149
0.0
100
AcDbLayout
  1
ﾚｲｱｳﾄ1
 70
     1
 71
     1
 10
0.0
 20
0.0
 11
12.0
 21
9.0
 12
0.0
 22
0.0
 32
0.0
 14
1.000000000000000E+20
 24
1.000000000000000E+20
 34
1.000000000000000E+20
 15
-1.000000000000000E+20
 25
-1.000000000000000E+20
 35
-1.000000000000000E+20
146
0.0
 13
0.0
 23
0.0
 33
0.0
 16
1.0
 26
0.0
 36
0.0
 17
0.0
 27
1.0
 37
0.0
 76
     0
330
1A
  0
MLINESTYLE
  5
17
102
{ACAD_REACTORS
330
16
102
}
330
16
100
AcDbMlineStyle
  2
STANDARD
 70
     0
  3

 62
   256
 51
90.0
 52
90.0
 71
     2
 49
0.5
 62
   256
  6
BYLAYER
 49
-0.5
 62
   256
  6
BYLAYER
  0
ACDBPLACEHOLDER
  5
F
102
{ACAD_REACTORS
330
E
102
}
330
E
  0
SCALE
  5
CD5
102
{ACAD_REACTORS
330
CD4
102
}
330
CD4
100
AcDbScale
 70
     0
300
1:1
140
1.0
141
1.0
290
     1
1001
ACAD
1000
AcRTDxfName
1000
SCALE
  0
SCALE
  5
CD6
102
{ACAD_REACTORS
330
CD4
102
}
330
CD4
100
AcDbScale
 70
     0
300
1:2
140
1.0
141
2.0
290
     0
1001
ACAD
1000
AcRTDxfName
1000
SCALE
  0
SCALE
  5
CD7
102
{ACAD_REACTORS
330
CD4
102
}
330
CD4
100
AcDbScale
 70
     0
300
1:4
140
1.0
141
4.0
290
     0
1001
ACAD
1000
AcRTDxfName
1000
SCALE
  0
SCALE
  5
CD8
102
{ACAD_REACTORS
330
CD4
102
}
330
CD4
100
AcDbScale
 70
     0
300
1:5
140
1.0
141
5.0
290
     0
1001
ACAD
1000
AcRTDxfName
1000
SCALE
  0
SCALE
  5
CD9
102
{ACAD_REACTORS
330
CD4
102
}
330
CD4
100
AcDbScale
 70
     0
300
1:8
140
1.0
141
8.0
290
     0
1001
ACAD
1000
AcRTDxfName
1000
SCALE
  0
SCALE
  5
CDA
102
{ACAD_REACTORS
330
CD4
102
}
330
CD4
100
AcDbScale
 70
     0
300
1:10
140
1.0
141
10.0
290
     0
1001
ACAD
1000
AcRTDxfName
1000
SCALE
  0
SCALE
  5
CDB
102
{ACAD_REACTORS
330
CD4
102
}
330
CD4
100
AcDbScale
 70
     0
300
1:16
140
1.0
141
16.0
290
     0
1001
ACAD
1000
AcRTDxfName
1000
SCALE
  0
SCALE
  5
CDC
102
{ACAD_REACTORS
330
CD4
102
}
330
CD4
100
AcDbScale
 70
     0
300
1:20
140
1.0
141
20.0
290
     0
1001
ACAD
1000
AcRTDxfName
1000
SCALE
  0
SCALE
  5
CDD
102
{ACAD_REACTORS
330
CD4
102
}
330
CD4
100
AcDbScale
 70
     0
300
1:30
140
1.0
141
30.0
290
     0
1001
ACAD
1000
AcRTDxfName
1000
SCALE
  0
SCALE
  5
CDE
102
{ACAD_REACTORS
330
CD4
102
}
330
CD4
100
AcDbScale
 70
     0
300
1:40
140
1.0
141
40.0
290
     0
1001
ACAD
1000
AcRTDxfName
1000
SCALE
  0
SCALE
  5
CDF
102
{ACAD_REACTORS
330
CD4
102
}
330
CD4
100
AcDbScale
 70
     0
300
1:50
140
1.0
141
50.0
290
     0
1001
ACAD
1000
AcRTDxfName
1000
SCALE
  0
SCALE
  5
CE0
102
{ACAD_REACTORS
330
CD4
102
}
330
CD4
100
AcDbScale
 70
     0
300
1:100
140
1.0
141
100.0
290
     0
1001
ACAD
1000
AcRTDxfName
1000
SCALE
  0
SCALE
  5
CE1
102
{ACAD_REACTORS
330
CD4
102
}
330
CD4
100
AcDbScale
 70
     0
300
2:1
140
2.0
141
1.0
290
     0
1001
ACAD
1000
AcRTDxfName
1000
SCALE
  0
SCALE
  5
CE2
102
{ACAD_REACTORS
330
CD4
102
}
330
CD4
100
AcDbScale
 70
     0
300
4:1
140
4.0
141
1.0
290
     0
1001
ACAD
1000
AcRTDxfName
1000
SCALE
  0
SCALE
  5
CE3
102
{ACAD_REACTORS
330
CD4
102
}
330
CD4
100
AcDbScale
 70
     0
300
8:1
140
8.0
141
1.0
290
     0
1001
ACAD
1000
AcRTDxfName
1000
SCALE
  0
SCALE
  5
CE4
102
{ACAD_REACTORS
330
CD4
102
}
330
CD4
100
AcDbScale
 70
     0
300
10:1
140
10.0
141
1.0
290
     0
1001
ACAD
1000
AcRTDxfName
1000
SCALE
  0
SCALE
  5
CE5
102
{ACAD_REACTORS
330
CD4
102
}
330
CD4
100
AcDbScale
 70
     0
300
100:1
140
100.0
141
1.0
290
     0
1001
ACAD
1000
AcRTDxfName
1000
SCALE
  0
SCALE
  5
CE6
102
{ACAD_REACTORS
330
CD4
102
}
330
CD4
100
AcDbScale
 70
     0
300
1/128" = 1'-0"
140
0.0078125
141
12.0
290
     0
1001
ACAD
1000
AcRTDxfName
1000
SCALE
  0
SCALE
  5
CE7
102
{ACAD_REACTORS
330
CD4
102
}
330
CD4
100
AcDbScale
 70
     0
300
1/64" = 1'-0"
140
0.015625
141
12.0
290
     0
1001
ACAD
1000
AcRTDxfName
1000
SCALE
  0
SCALE
  5
CE8
102
{ACAD_REACTORS
330
CD4
102
}
330
CD4
100
AcDbScale
 70
     0
300
1/32" = 1'-0"
140
0.03125
141
12.0
290
     0
1001
ACAD
1000
AcRTDxfName
1000
SCALE
  0
SCALE
  5
CE9
102
{ACAD_REACTORS
330
CD4
102
}
330
CD4
100
AcDbScale
 70
     0
300
1/16" = 1'-0"
140
0.0625
141
12.0
290
     0
1001
ACAD
1000
AcRTDxfName
1000
SCALE
  0
SCALE
  5
CEA
102
{ACAD_REACTORS
330
CD4
102
}
330
CD4
100
AcDbScale
 70
     0
300
3/32" = 1'-0"
140
0.09375
141
12.0
290
     0
1001
ACAD
1000
AcRTDxfName
1000
SCALE
  0
SCALE
  5
CEB
102
{ACAD_REACTORS
330
CD4
102
}
330
CD4
100
AcDbScale
 70
     0
300
1/8" = 1'-0"
140
0.125
141
12.0
290
     0
1001
ACAD
1000
AcRTDxfName
1000
SCALE
  0
SCALE
  5
CEC
102
{ACAD_REACTORS
330
CD4
102
}
330
CD4
100
AcDbScale
 70
     0
300
3/16" = 1'-0"
140
0.1875
141
12.0
290
     0
1001
ACAD
1000
AcRTDxfName
1000
SCALE
  0
SCALE
  5
CED
102
{ACAD_REACTORS
330
CD4
102
}
330
CD4
100
AcDbScale
 70
     0
300
1/4" = 1'-0"
140
0.25
141
12.0
290
     0
1001
ACAD
1000
AcRTDxfName
1000
SCALE
  0
SCALE
  5
CEE
102
{ACAD_REACTORS
330
CD4
102
}
330
CD4
100
AcDbScale
 70
     0
300
3/8" = 1'-0"
140
0.375
141
12.0
290
     0
1001
ACAD
1000
AcRTDxfName
1000
SCALE
  0
SCALE
  5
CEF
102
{ACAD_REACTORS
330
CD4
102
}
330
CD4
100
AcDbScale
 70
     0
300
1/2" = 1'-0"
140
0.5
141
12.0
290
     0
1001
ACAD
1000
AcRTDxfName
1000
SCALE
  0
SCALE
  5
CF0
102
{ACAD_REACTORS
330
CD4
102
}
330
CD4
100
AcDbScale
 70
     0
300
3/4" = 1'-0"
140
0.75
141
12.0
290
     0
1001
ACAD
1000
AcRTDxfName
1000
SCALE
  0
SCALE
  5
CF1
102
{ACAD_REACTORS
330
CD4
102
}
330
CD4
100
AcDbScale
 70
     0
300
1" = 1'-0"
140
1.0
141
12.0
290
     0
1001
ACAD
1000
AcRTDxfName
1000
SCALE
  0
SCALE
  5
CF2
102
{ACAD_REACTORS
330
CD4
102
}
330
CD4
100
AcDbScale
 70
     0
300
1-1/2" = 1'-0"
140
1.5
141
12.0
290
     0
1001
ACAD
1000
AcRTDxfName
1000
SCALE
  0
SCALE
  5
CF3
102
{ACAD_REACTORS
330
CD4
102
}
330
CD4
100
AcDbScale
 70
     0
300
3" = 1'-0"
140
3.0
141
12.0
290
     0
1001
ACAD
1000
AcRTDxfName
1000
SCALE
  0
SCALE
  5
CF4
102
{ACAD_REACTORS
330
CD4
102
}
330
CD4
100
AcDbScale
 70
     0
300
6" = 1'-0"
140
6.0
141
12.0
290
     0
1001
ACAD
1000
AcRTDxfName
1000
SCALE
  0
SCALE
  5
CF5
102
{ACAD_REACTORS
330
CD4
102
}
330
CD4
100
AcDbScale
 70
     0
300
1'-0" = 1'-0"
140
12.0
141
12.0
290
     0
1001
ACAD
1000
AcRTDxfName
1000
SCALE
  0
DICTIONARYVAR
  5
EF2
102
{ACAD_REACTORS
330
D25
102
}
330
D25
100
DictionaryVariables
280
     0
  1
1
  0
DICTIONARYVAR
  5
EF3
102
{ACAD_REACTORS
330
D25
102
}
330
D25
100
DictionaryVariables
280
     0
  1

  0
ENDSEC
  0
EOF
