  0
SECTION
  2
HEADER
  9
$ACADVER
  1
AC1015
  9
$ACADMAINTVER
 70
     6
  9
$DWGCODEPAGE
  3
ANSI_932
  9
$INSBASE
 10
0.0
 20
0.0
 30
0.0
  9
$EXTMIN
 10
1414.084253117928
 20
61.75109913351639
 30
0.0
  9
$EXTMAX
 10
3094.084253117928
 20
1249.751099133516
 30
0.0
  9
$LIMMIN
 10
-210.0
 20
-148.5
  9
$LIMMAX
 10
1050.0
 20
742.4999999999999
  9
$ORTHOMODE
 70
     1
  9
$REGENMODE
 70
     1
  9
$FILLMODE
 70
     1
  9
$QTEXTMODE
 70
     0
  9
$MIRRTEXT
 70
     1
  9
$LTSCALE
 40
2.0
  9
$ATTMODE
 70
     1
  9
$TEXTSIZE
 40
1.0
  9
$TRACEWID
 40
0.05
  9
$TEXTSTYLE
  7
STANDARD
  9
$CLAYER
  8
図面
  9
$CELTYPE
  6
CONTINUOUS
  9
$CECOLOR
 62
   256
  9
$CELTSCALE
 40
1.0
  9
$DISPSILH
 70
     0
  9
$DIMSCALE
 40
1.0
  9
$DIMASZ
 40
9.0
  9
$DIMEXO
 40
0.0625
  9
$DIMDLI
 40
0.38
  9
$DIMRND
 40
0.0
  9
$DIMDLE
 40
0.0
  9
$DIMEXE
 40
0.5
  9
$DIMTP
 40
0.0
  9
$DIMTM
 40
0.0
  9
$DIMTXT
 40
15.0
  9
$DIMCEN
 40
0.09
  9
$DIMTSZ
 40
0.0
  9
$DIMTOL
 70
     0
  9
$DIMLIM
 70
     0
  9
$DIMTIH
 70
     0
  9
$DIMTOH
 70
     0
  9
$DIMSE1
 70
     0
  9
$DIMSE2
 70
     0
  9
$DIMTAD
 70
     1
  9
$DIMZIN
 70
     0
  9
$DIMBLK
  1
Open30
  9
$DIMASO
 70
     1
  9
$DIMSHO
 70
     1
  9
$DIMPOST
  1

  9
$DIMAPOST
  1

  9
$DIMALT
 70
     0
  9
$DIMALTD
 70
     2
  9
$DIMALTF
 40
25.4
  9
$DIMLFAC
 40
1.0
  9
$DIMTOFL
 70
     0
  9
$DIMTVP
 40
0.0
  9
$DIMTIX
 70
     0
  9
$DIMSOXD
 70
     0
  9
$DIMSAH
 70
     0
  9
$DIMBLK1
  1

  9
$DIMBLK2
  1

  9
$DIMSTYLE
  2
Standard
  9
$DIMCLRD
 70
     1
  9
$DIMCLRE
 70
     1
  9
$DIMCLRT
 70
     1
  9
$DIMTFAC
 40
1.0
  9
$DIMGAP
 40
0.5
  9
$DIMJUST
 70
     0
  9
$DIMSD1
 70
     0
  9
$DIMSD2
 70
     0
  9
$DIMTOLJ
 70
     1
  9
$DIMTZIN
 70
     0
  9
$DIMALTZ
 70
     0
  9
$DIMALTTZ
 70
     0
  9
$DIMUPT
 70
     0
  9
$DIMDEC
 70
     0
  9
$DIMTDEC
 70
     0
  9
$DIMALTU
 70
     2
  9
$DIMALTTD
 70
     2
  9
$DIMTXSTY
  7
TextStyle01
  9
$DIMAUNIT
 70
     0
  9
$DIMADEC
 70
     0
  9
$DIMALTRND
 40
0.0
  9
$DIMAZIN
 70
     0
  9
$DIMDSEP
 70
    46
  9
$DIMATFIT
 70
     3
  9
$DIMFRAC
 70
     0
  9
$DIMLDRBLK
  1
Open30
  9
$DIMLUNIT
 70
     2
  9
$DIMLWD
 70
    -2
  9
$DIMLWE
 70
    -2
  9
$DIMTMOVE
 70
     2
  9
$LUNITS
 70
     2
  9
$LUPREC
 70
     4
  9
$SKETCHINC
 40
0.1
  9
$FILLETRAD
 40
0.0
  9
$AUNITS
 70
     0
  9
$AUPREC
 70
     0
  9
$MENU
  1
acad
  9
$ELEVATION
 40
0.0
  9
$PELEVATION
 40
0.0
  9
$THICKNESS
 40
0.0
  9
$LIMCHECK
 70
     0
  9
$CHAMFERA
 40
0.0
  9
$CHAMFERB
 40
0.0
  9
$CHAMFERC
 40
0.0
  9
$CHAMFERD
 40
0.0
  9
$SKPOLY
 70
     0
  9
$TDCREATE
 40
2449944.925517361
  9
$TDUCREATE
 40
2449944.550517361
  9
$TDUPDATE
 40
2459998.706086551
  9
$TDUUPDATE
 40
2459998.331086551
  9
$TDINDWG
 40
0.6187790162
  9
$TDUSRTIMER
 40
0.0075309722
  9
$USRTIMER
 70
     1
  9
$ANGBASE
 50
0.0
  9
$ANGDIR
 70
     0
  9
$PDMODE
 70
     0
  9
$PDSIZE
 40
1.5
  9
$PLINEWID
 40
0.0
  9
$SPLFRAME
 70
     0
  9
$SPLINETYPE
 70
     6
  9
$SPLINESEGS
 70
     8
  9
$HANDSEED
  5
776
  9
$SURFTAB1
 70
     6
  9
$SURFTAB2
 70
     6
  9
$SURFTYPE
 70
     6
  9
$SURFU
 70
     6
  9
$SURFV
 70
     6
  9
$UCSBASE
  2

  9
$UCSNAME
  2

  9
$UCSORG
 10
0.0
 20
0.0
 30
0.0
  9
$UCSXDIR
 10
1.0
 20
0.0
 30
0.0
  9
$UCSYDIR
 10
0.0
 20
1.0
 30
0.0
  9
$UCSORTHOREF
  2

  9
$UCSORTHOVIEW
 70
     0
  9
$UCSORGTOP
 10
0.0
 20
0.0
 30
0.0
  9
$UCSORGBOTTOM
 10
0.0
 20
0.0
 30
0.0
  9
$UCSORGLEFT
 10
0.0
 20
0.0
 30
0.0
  9
$UCSORGRIGHT
 10
0.0
 20
0.0
 30
0.0
  9
$UCSORGFRONT
 10
0.0
 20
0.0
 30
0.0
  9
$UCSORGBACK
 10
0.0
 20
0.0
 30
0.0
  9
$PUCSBASE
  2

  9
$PUCSNAME
  2

  9
$PUCSORG
 10
0.0
 20
0.0
 30
0.0
  9
$PUCSXDIR
 10
1.0
 20
0.0
 30
0.0
  9
$PUCSYDIR
 10
0.0
 20
1.0
 30
0.0
  9
$PUCSORTHOREF
  2

  9
$PUCSORTHOVIEW
 70
     0
  9
$PUCSORGTOP
 10
0.0
 20
0.0
 30
0.0
  9
$PUCSORGBOTTOM
 10
0.0
 20
0.0
 30
0.0
  9
$PUCSORGLEFT
 10
0.0
 20
0.0
 30
0.0
  9
$PUCSORGRIGHT
 10
0.0
 20
0.0
 30
0.0
  9
$PUCSORGFRONT
 10
0.0
 20
0.0
 30
0.0
  9
$PUCSORGBACK
 10
0.0
 20
0.0
 30
0.0
  9
$USERI1
 70
     0
  9
$USERI2
 70
     0
  9
$USERI3
 70
     0
  9
$USERI4
 70
     0
  9
$USERI5
 70
     0
  9
$USERR1
 40
0.0
  9
$USERR2
 40
0.0
  9
$USERR3
 40
0.0
  9
$USERR4
 40
0.0
  9
$USERR5
 40
0.0
  9
$WORLDVIEW
 70
     1
  9
$SHADEDGE
 70
     3
  9
$SHADEDIF
 70
    70
  9
$TILEMODE
 70
     1
  9
$MAXACTVP
 70
    16
  9
$PINSBASE
 10
0.0
 20
0.0
 30
0.0
  9
$PLIMCHECK
 70
     0
  9
$PEXTMIN
 10
1.000000000000000E+20
 20
1.000000000000000E+20
 30
1.000000000000000E+20
  9
$PEXTMAX
 10
-1.000000000000000E+20
 20
-1.000000000000000E+20
 30
-1.000000000000000E+20
  9
$PLIMMIN
 10
0.0
 20
0.0
  9
$PLIMMAX
 10
0.0
 20
0.0
  9
$UNITMODE
 70
     0
  9
$VISRETAIN
 70
     0
  9
$PLINEGEN
 70
     0
  9
$PSLTSCALE
 70
     1
  9
$TREEDEPTH
 70
  3020
  9
$CMLSTYLE
  2
Standard
  9
$CMLJUST
 70
     0
  9
$CMLSCALE
 40
1.0
  9
$PROXYGRAPHICS
 70
     1
  9
$MEASUREMENT
 70
     0
  9
$CELWEIGHT
370
    -1
  9
$ENDCAPS
280
     0
  9
$JOINSTYLE
280
     0
  9
$LWDISPLAY
290
     0
  9
$INSUNITS
 70
     0
  9
$HYPERLINKBASE
  1

  9
$STYLESHEET
  1

  9
$XEDIT
290
     1
  9
$CEPSNTYPE
380
     0
  9
$PSTYLEMODE
290
     1
  9
$FINGERPRINTGUID
  2
{3F05092E-EABE-41D4-925D-E3C07104686B}
  9
$VERSIONGUID
  2
{EAEA4BF8-7E2C-49B4-9660-CC38E6A25EB3}
  9
$EXTNAMES
290
     1
  9
$PSVPSCALE
 40
0.0
  9
$OLESTARTUP
290
     0
  0
ENDSEC
  0
SECTION
  2
CLASSES
  0
CLASS
  1
ACDBDICTIONARYWDFLT
  2
AcDbDictionaryWithDefault
  3
ObjectDBX Classes
 90
        0
280
     0
281
     0
  0
CLASS
  1
ACDBPLACEHOLDER
  2
AcDbPlaceHolder
  3
ObjectDBX Classes
 90
        0
280
     0
281
     0
  0
CLASS
  1
LAYOUT
  2
AcDbLayout
  3
ObjectDBX Classes
 90
        0
280
     0
281
     0
  0
CLASS
  1
DICTIONARYVAR
  2
AcDbDictionaryVar
  3
ObjectDBX Classes
 90
        0
280
     0
281
     0
  0
CLASS
  1
SCALE
  2
AcDbScale
  3
ObjectDBX Classes
 90
     1153
280
     0
281
     0
  0
CLASS
  1
VISUALSTYLE
  2
AcDbVisualStyle
  3
ObjectDBX Classes
 90
     4095
280
     0
281
     0
  0
CLASS
  1
MATERIAL
  2
AcDbMaterial
  3
ObjectDBX Classes
 90
     1153
280
     0
281
     0
  0
CLASS
  1
TABLESTYLE
  2
AcDbTableStyle
  3
ObjectDBX Classes
 90
     4095
280
     0
281
     0
  0
CLASS
  1
MLEADERSTYLE
  2
AcDbMLeaderStyle
  3
ACDB_MLEADERSTYLE_CLASS
 90
     4095
280
     0
281
     0
  0
CLASS
  1
BREAKDATA
  2
AcDbBreakData
  3
ObjectDBX Classes
 90
     1024
280
     0
281
     0
  0
ENDSEC
  0
SECTION
  2
TABLES
  0
TABLE
  2
VPORT
  5
8
330
0
100
AcDbSymbolTable
 70
     1
  0
VPORT
  5
61C
330
8
100
AcDbSymbolTableRecord
100
AcDbViewportTableRecord
  2
*Active
 70
     0
 10
0.0
 20
0.0
 11
1.0
 21
1.0
 12
2643.619016236749
 22
380.0175738493709
 13
0.0
 23
0.0
 14
1.0
 24
1.0
 15
0.0
 25
0.0
 16
0.0
 26
0.0
 36
1.0
 17
0.0
 27
0.0
 37
0.0
 40
1566.52349707475
 41
2.082079343365253
 42
50.0
 43
0.0
 44
0.0
 50
0.0
 51
0.0
 71
    16
 72
   100
 73
     1
 74
     0
 75
     0
 76
     0
 77
     0
 78
     0
281
     0
 65
     1
110
0.0
120
0.0
130
0.0
111
1.0
121
0.0
131
0.0
112
0.0
122
1.0
132
0.0
 79
     0
146
0.0
  0
ENDTAB
  0
TABLE
  2
LTYPE
  5
5
330
0
100
AcDbSymbolTable
 70
    10
  0
LTYPE
  5
13
330
5
100
AcDbSymbolTableRecord
100
AcDbLinetypeTableRecord
  2
ByBlock
 70
     0
  3

 72
    65
 73
     0
 40
0.0
  0
LTYPE
  5
14
330
5
100
AcDbSymbolTableRecord
100
AcDbLinetypeTableRecord
  2
ByLayer
 70
     0
  3

 72
    65
 73
     0
 40
0.0
  0
LTYPE
  5
15
330
5
100
AcDbSymbolTableRecord
100
AcDbLinetypeTableRecord
  2
CONTINUOUS
 70
     0
  3
実線
 72
    65
 73
     0
 40
0.0
  0
LTYPE
  5
2D
330
5
100
AcDbSymbolTableRecord
100
AcDbLinetypeTableRecord
  2
DASHED
 70
     0
  3
破線A
 72
    65
 73
     2
 40
7.5
 49
5.0
 74
     0
 49
-2.5
 74
     0
  0
LTYPE
  5
2E
330
5
100
AcDbSymbolTableRecord
100
AcDbLinetypeTableRecord
  2
DASHEDX2
 70
     0
  3
破線B
 72
    65
 73
     2
 40
15.0
 49
10.0
 74
     0
 49
-5.0
 74
     0
  0
LTYPE
  5
2F
330
5
100
AcDbSymbolTableRecord
100
AcDbLinetypeTableRecord
  2
DASHDOT
 70
     0
  3
１点鎖線A
 72
    65
 73
     4
 40
10.0
 49
5.0
 74
     0
 49
-2.5
 74
     0
 49
0.0
 74
     0
 49
-2.5
 74
     0
  0
LTYPE
  5
30
330
5
100
AcDbSymbolTableRecord
100
AcDbLinetypeTableRecord
  2
DASHDOTX2
 70
     0
  3
１点鎖線B
 72
    65
 73
     4
 40
20.0
 49
10.0
 74
     0
 49
-5.0
 74
     0
 49
0.0
 74
     0
 49
-5.0
 74
     0
  0
LTYPE
  5
31
330
5
100
AcDbSymbolTableRecord
100
AcDbLinetypeTableRecord
  2
DIVIDE2
 70
     0
  3
２点鎖線A
 72
    65
 73
     6
 40
6.25
 49
2.5
 74
     0
 49
-1.25
 74
     0
 49
0.0
 74
     0
 49
-1.25
 74
     0
 49
0.0
 74
     0
 49
-1.25
 74
     0
  0
LTYPE
  5
32
330
5
100
AcDbSymbolTableRecord
100
AcDbLinetypeTableRecord
  2
DIVIDE
 70
     0
  3
２点鎖線B
 72
    65
 73
     6
 40
12.5
 49
5.0
 74
     0
 49
-2.5
 74
     0
 49
0.0
 74
     0
 49
-2.5
 74
     0
 49
0.0
 74
     0
 49
-2.5
 74
     0
  0
LTYPE
  5
33
330
5
100
AcDbSymbolTableRecord
100
AcDbLinetypeTableRecord
  2
DOT
 70
     0
  3
点線A
 72
    65
 73
     2
 40
2.5
 49
0.0
 74
     0
 49
-2.5
 74
     0
  0
LTYPE
  5
34
330
5
100
AcDbSymbolTableRecord
100
AcDbLinetypeTableRecord
  2
DOTX2
 70
     0
  3
点線B
 72
    65
 73
     2
 40
5.0
 49
0.0
 74
     0
 49
-5.0
 74
     0
  0
LTYPE
  5
49B
330
5
100
AcDbSymbolTableRecord
100
AcDbLinetypeTableRecord
  2
HIDDEN2
 70
     0
  3
Hidden (.5x) _ _ _ _ _ _ _ _ _ _ _ _ _ _ _ _ _
 72
    65
 73
     2
 40
0.1875
 49
0.125
 74
     0
 49
-0.0625
 74
     0
  0
ENDTAB
  0
TABLE
  2
LAYER
  5
2
102
{ACAD_XDICTIONARY
360
6AD
102
}
330
0
100
AcDbSymbolTable
 70
     7
  0
LAYER
  5
10
330
2
100
AcDbSymbolTableRecord
100
AcDbLayerTableRecord
  2
ﾚｲﾔ1
 70
     0
 62
     7
  6
CONTINUOUS
370
    -3
390
F
  0
LAYER
  5
4C
330
2
100
AcDbSymbolTableRecord
100
AcDbLayerTableRecord
  2
0
 70
     0
 62
     7
  6
CONTINUOUS
370
    -3
390
F
  0
LAYER
  5
16B
330
2
100
AcDbSymbolTableRecord
100
AcDbLayerTableRecord
  2
図面
 70
     0
 62
     7
  6
CONTINUOUS
370
    -3
390
F
  0
LAYER
  5
16C
330
2
100
AcDbSymbolTableRecord
100
AcDbLayerTableRecord
  2
図面枠
 70
     0
 62
     5
  6
CONTINUOUS
370
    -3
390
F
  0
LAYER
  5
1AB
330
2
100
AcDbSymbolTableRecord
100
AcDbLayerTableRecord
  2
下図
 70
     0
 62
     8
  6
CONTINUOUS
290
     0
370
    -3
390
F
  0
LAYER
  5
248
330
2
100
AcDbSymbolTableRecord
100
AcDbLayerTableRecord
  2
Defpoints
 70
     0
 62
     7
  6
CONTINUOUS
290
     0
370
    -3
390
F
  0
LAYER
  5
6EA
102
{ACAD_XDICTIONARY
360
6EB
102
}
330
2
100
AcDbSymbolTableRecord
100
AcDbLayerTableRecord
  2
文字
 70
     0
 62
     7
  6
CONTINUOUS
370
    -3
390
F
  0
ENDTAB
  0
TABLE
  2
STYLE
  5
3
330
0
100
AcDbSymbolTable
 70
    15
  0
STYLE
  5
11
330
3
100
AcDbSymbolTableRecord
100
AcDbTextStyleTableRecord
  2
STANDARD
 70
     0
 40
1.0
 41
1.0
 50
0.0
 71
     0
 42
1.0
  3
TXT
  4
BIGFONT
  0
STYLE
  5
22
330
3
100
AcDbSymbolTableRecord
100
AcDbTextStyleTableRecord
  2
TATE
 70
     4
 40
1.0
 41
1.0
 50
0.0
 71
     0
 42
1.0
  3
TXT
  4
BIGFONT
  0
STYLE
  5
23
330
3
100
AcDbSymbolTableRecord
100
AcDbTextStyleTableRecord
  2
TextStyle01
 70
     0
 40
0.0
 41
1.0
 50
0.0
 71
     0
 42
0.0
  3
TXT
  4
BIGFONT
  0
STYLE
  5
24
330
3
100
AcDbSymbolTableRecord
100
AcDbTextStyleTableRecord
  2
TextStyle02
 70
     0
 40
0.0
 41
1.0
 50
0.0
 71
     0
 42
0.0
  3
TXT
  4
BIGFONT
  0
STYLE
  5
25
330
3
100
AcDbSymbolTableRecord
100
AcDbTextStyleTableRecord
  2
TextStyle03
 70
     0
 40
0.0
 41
1.0
 50
0.0
 71
     0
 42
0.0
  3
TXT
  4
BIGFONT
  0
STYLE
  5
26
330
3
100
AcDbSymbolTableRecord
100
AcDbTextStyleTableRecord
  2
TextStyle04
 70
     0
 40
0.0
 41
1.0
 50
0.0
 71
     0
 42
0.0
  3
TXT
  4
BIGFONT
  0
STYLE
  5
27
330
3
100
AcDbSymbolTableRecord
100
AcDbTextStyleTableRecord
  2
TextStyle05
 70
     0
 40
0.0
 41
1.0
 50
0.0
 71
     0
 42
0.0
  3
TXT
  4
BIGFONT
  0
STYLE
  5
28
330
3
100
AcDbSymbolTableRecord
100
AcDbTextStyleTableRecord
  2
TextStyle06
 70
     0
 40
0.0
 41
1.0
 50
0.0
 71
     0
 42
0.0
  3

  4

  0
STYLE
  5
29
330
3
100
AcDbSymbolTableRecord
100
AcDbTextStyleTableRecord
  2
TextStyle07
 70
     0
 40
0.0
 41
1.0
 50
0.0
 71
     0
 42
0.0
  3

  4

  0
STYLE
  5
2A
330
3
100
AcDbSymbolTableRecord
100
AcDbTextStyleTableRecord
  2
TextStyle08
 70
     0
 40
0.0
 41
1.0
 50
0.0
 71
     0
 42
0.0
  3

  4

  0
STYLE
  5
2B
330
3
100
AcDbSymbolTableRecord
100
AcDbTextStyleTableRecord
  2
TextStyle09
 70
     0
 40
0.0
 41
1.0
 50
0.0
 71
     0
 42
0.0
  3

  4

  0
STYLE
  5
2C
330
3
100
AcDbSymbolTableRecord
100
AcDbTextStyleTableRecord
  2
TextStyle10
 70
     0
 40
0.0
 41
1.0
 50
0.0
 71
     0
 42
0.0
  3

  4

  0
STYLE
  5
49A
330
3
100
AcDbSymbolTableRecord
100
AcDbTextStyleTableRecord
  2

 70
     1
 40
0.0
 41
1.0
 50
0.0
 71
     0
 42
1.0
  3
ltypeshp.shx
  4

  0
STYLE
  5
520
330
3
100
AcDbSymbolTableRecord
100
AcDbTextStyleTableRecord
  2
WMF-ＭＳ Ｐ明朝0
 70
     0
 40
0.0
 41
1.0
 50
0.0
 71
     0
 42
1.0
  3
MS PMincho.ttf
  4

1001
ACAD
1000
MS PMincho
1071
    32768
  0
STYLE
  5
529
330
3
100
AcDbSymbolTableRecord
100
AcDbTextStyleTableRecord
  2
WMF-System0
 70
     0
 40
0.0
 41
1.0
 50
0.0
 71
     0
 42
1.0
  3

  4

  0
ENDTAB
  0
TABLE
  2
VIEW
  5
6
330
0
100
AcDbSymbolTable
 70
     0
  0
ENDTAB
  0
TABLE
  2
UCS
  5
7
330
0
100
AcDbSymbolTable
 70
     0
  0
ENDTAB
  0
TABLE
  2
APPID
  5
9
330
0
100
AcDbSymbolTable
 70
     3
  0
APPID
  5
12
330
9
100
AcDbSymbolTableRecord
100
AcDbRegAppTableRecord
  2
ACAD
 70
     0
  0
APPID
  5
771
330
9
100
AcDbSymbolTableRecord
100
AcDbRegAppTableRecord
  2
FX_DIMP_FAV_VERSION
 70
     0
  0
APPID
  5
772
330
9
100
AcDbSymbolTableRecord
100
AcDbRegAppTableRecord
  2
PLOTTRANSPARENCY
 70
     0
  0
ENDTAB
  0
TABLE
  2
DIMSTYLE
  5
A
330
0
100
AcDbSymbolTable
 70
     1
100
AcDbDimStyleTable
  0
DIMSTYLE
105
142
102
{ACAD_REACTORS
330
4CD
330
4DA
330
4E7
330
4F4
330
501
102
}
330
A
100
AcDbSymbolTableRecord
100
AcDbDimStyleTableRecord
  2
Standard
 70
     0
178
     0
340
11
  0
ENDTAB
  0
TABLE
  2
BLOCK_RECORD
  5
1
330
0
100
AcDbSymbolTable
 70
     8
  0
BLOCK_RECORD
  5
1E
102
{ACAD_XDICTIONARY
360
773
102
}
330
1
100
AcDbSymbolTableRecord
100
AcDbBlockTableRecord
  2
*Model_Space
340
21
  0
BLOCK_RECORD
  5
1A
330
1
100
AcDbSymbolTableRecord
100
AcDbBlockTableRecord
  2
*Paper_Space
340
1D
  0
BLOCK_RECORD
  5
1C1
330
1
100
AcDbSymbolTableRecord
100
AcDbBlockTableRecord
  2
_Open30
340
0
  0
BLOCK_RECORD
  5
4CE
330
1
100
AcDbSymbolTableRecord
100
AcDbBlockTableRecord
  2
*D1
340
0
  0
BLOCK_RECORD
  5
4DB
330
1
100
AcDbSymbolTableRecord
100
AcDbBlockTableRecord
  2
*D2
340
0
  0
BLOCK_RECORD
  5
4E8
330
1
100
AcDbSymbolTableRecord
100
AcDbBlockTableRecord
  2
*D3
340
0
  0
BLOCK_RECORD
  5
4F5
330
1
100
AcDbSymbolTableRecord
100
AcDbBlockTableRecord
  2
*D4
340
0
  0
BLOCK_RECORD
  5
502
330
1
100
AcDbSymbolTableRecord
100
AcDbBlockTableRecord
  2
*D5
340
0
  0
BLOCK_RECORD
  5
51C
330
1
100
AcDbSymbolTableRecord
100
AcDbBlockTableRecord
  2
WMF0
340
0
  0
BLOCK_RECORD
  5
5B1
330
1
100
AcDbSymbolTableRecord
100
AcDbBlockTableRecord
  2
_Open
340
0
102
{BLKREFS
331
0
331
0
331
0
331
0
331
0
331
0
331
0
331
0
331
0
331
0
102
}
  0
ENDTAB
  0
ENDSEC
  0
SECTION
  2
BLOCKS
  0
BLOCK
  5
4F
330
1E
100
AcDbEntity
  8
0
100
AcDbBlockBegin
  2
*Model_Space
 70
     0
 10
0.0
 20
0.0
 30
0.0
  3
*Model_Space
  1

  0
ENDBLK
  5
50
330
1E
100
AcDbEntity
  8
0
100
AcDbBlockEnd
  0
BLOCK
  5
4D
330
1A
100
AcDbEntity
 67
     1
  8
0
100
AcDbBlockBegin
  2
*Paper_Space
 70
     0
 10
0.0
 20
0.0
 30
0.0
  3
*Paper_Space
  1

  0
ENDBLK
  5
4E
330
1A
100
AcDbEntity
 67
     1
  8
0
100
AcDbBlockEnd
  0
BLOCK
  5
1C5
330
1C1
100
AcDbEntity
  8
0
100
AcDbBlockBegin
  2
_Open30
 70
     0
 10
0.0
 20
0.0
 30
0.0
  3
_Open30
  1

  0
LINE
  5
1C2
330
1C1
100
AcDbEntity
  8
下図
 62
     0
370
    -2
100
AcDbLine
 10
-1.0
 20
0.26794919
 30
0.0
 11
0.0
 21
0.0
 31
0.0
  0
LINE
  5
1C3
330
1C1
100
AcDbEntity
  8
下図
 62
     0
370
    -2
100
AcDbLine
 10
0.0
 20
0.0
 30
0.0
 11
-1.0
 21
-0.26794919
 31
0.0
  0
LINE
  5
1C4
330
1C1
100
AcDbEntity
  8
下図
 62
     0
370
    -2
100
AcDbLine
 10
0.0
 20
0.0
 30
0.0
 11
-1.0
 21
0.0
 31
0.0
  0
ENDBLK
  5
1C6
330
1C1
100
AcDbEntity
  8
0
100
AcDbBlockEnd
  0
BLOCK
  5
4D8
330
4CE
100
AcDbEntity
  8
0
100
AcDbBlockBegin
  2
*D1
 70
     1
 10
0.0
 20
0.0
 30
0.0
  3
*D1
  1

  0
LINE
  5
5FF
330
4CE
100
AcDbEntity
  8
図面
  6
Continuous
 62
     1
370
    -2
100
AcDbLine
 10
2102.883616101021
 20
470.0157900639313
 30
0.0
 11
2102.883616101021
 21
502.9596049130116
 31
0.0
  0
LINE
  5
600
330
4CE
100
AcDbEntity
  8
図面
  6
Continuous
 62
     1
370
    -2
100
AcDbLine
 10
2352.883616101021
 20
470.0157900639313
 30
0.0
 11
2352.883616101021
 21
502.9596049130116
 31
0.0
  0
LINE
  5
601
330
4CE
100
AcDbEntity
  8
図面
  6
Continuous
 62
     1
370
    -2
100
AcDbLine
 10
2122.883616101021
 20
500.9596049130116
 30
0.0
 11
2332.883616101021
 21
500.9596049130116
 31
0.0
  0
SOLID
  5
602
330
4CE
100
AcDbEntity
  8
図面
 62
     1
100
AcDbTrace
 10
2122.883616101021
 20
504.2929382463449
 30
0.0
 11
2122.883616101021
 21
497.6262715796783
 31
0.0
 12
2102.883616101021
 22
500.9596049130116
 32
0.0
 13
2102.883616101021
 23
500.9596049130116
 33
0.0
  0
SOLID
  5
603
330
4CE
100
AcDbEntity
  8
図面
 62
     1
100
AcDbTrace
 10
2332.883616101021
 20
497.6262715796783
 30
0.0
 11
2332.883616101021
 21
504.2929382463449
 31
0.0
 12
2352.883616101021
 22
500.9596049130116
 32
0.0
 13
2352.883616101021
 23
500.9596049130116
 33
0.0
  0
MTEXT
  5
604
330
4CE
100
AcDbEntity
  8
図面
  6
Continuous
 62
     1
100
AcDbMText
 10
2227.883616101021
 20
511.4596049130116
 30
0.0
 40
20.0
 41
0.0
 71
     5
 72
     1
  1
\A1;250
  7
WMF-ＭＳ Ｐ明朝0
 73
     1
 44
1.0
  0
POINT
  5
605
330
4CE
100
AcDbEntity
  8
Defpoints
 62
     0
100
AcDbPoint
 10
2102.883616101021
 20
469.9532900639313
 30
0.0
  0
POINT
  5
606
330
4CE
100
AcDbEntity
  8
Defpoints
 62
     0
100
AcDbPoint
 10
2352.883616101021
 20
469.9532900639313
 30
0.0
  0
POINT
  5
607
330
4CE
100
AcDbEntity
  8
Defpoints
 62
     0
100
AcDbPoint
 10
2352.883616101021
 20
500.9596049130116
 30
0.0
  0
ENDBLK
  5
4D9
330
4CE
100
AcDbEntity
  8
0
100
AcDbBlockEnd
  0
BLOCK
  5
4E5
330
4DB
100
AcDbEntity
  8
0
100
AcDbBlockBegin
  2
*D2
 70
     1
 10
0.0
 20
0.0
 30
0.0
  3
*D2
  1

  0
LINE
  5
5E4
330
4DB
100
AcDbEntity
  8
図面
  6
Continuous
 62
     1
370
    -2
100
AcDbLine
 10
1804.443614910185
 20
913.5114991510961
 30
0.0
 11
1804.443614910185
 21
1114.431545626878
 31
0.0
  0
LINE
  5
5E5
330
4DB
100
AcDbEntity
  8
図面
  6
Continuous
 62
     1
370
    -2
100
AcDbLine
 10
2642.443614910185
 20
913.5114991510961
 30
0.0
 11
2642.443614910185
 21
1114.431545626878
 31
0.0
  0
LINE
  5
5E6
330
4DB
100
AcDbEntity
  8
図面
  6
Continuous
 62
     1
370
    -2
100
AcDbLine
 10
1824.443614910185
 20
1104.431545626878
 30
0.0
 11
2622.443614910185
 21
1104.431545626878
 31
0.0
  0
SOLID
  5
5E7
330
4DB
100
AcDbEntity
  8
図面
 62
     1
100
AcDbTrace
 10
1824.443614910185
 20
1107.764878960211
 30
0.0
 11
1824.443614910185
 21
1101.098212293545
 31
0.0
 12
1804.443614910185
 22
1104.431545626878
 32
0.0
 13
1804.443614910185
 23
1104.431545626878
 33
0.0
  0
SOLID
  5
5E8
330
4DB
100
AcDbEntity
  8
図面
 62
     1
100
AcDbTrace
 10
2622.443614910185
 20
1101.098212293545
 30
0.0
 11
2622.443614910185
 21
1107.764878960211
 31
0.0
 12
2642.443614910185
 22
1104.431545626878
 32
0.0
 13
2642.443614910185
 23
1104.431545626878
 33
0.0
  0
MTEXT
  5
5E9
330
4DB
100
AcDbEntity
  8
図面
  6
Continuous
 62
     1
100
AcDbMText
 10
2223.443614910185
 20
1114.931545626878
 30
0.0
 40
20.0
 41
0.0
 71
     5
 72
     1
  1
\A1;838
  7
WMF-ＭＳ Ｐ明朝0
 73
     1
 44
1.0
  0
POINT
  5
5EA
330
4DB
100
AcDbEntity
  8
Defpoints
 62
     0
100
AcDbPoint
 10
1804.443614910185
 20
903.5114991510961
 30
0.0
  0
POINT
  5
5EB
330
4DB
100
AcDbEntity
  8
Defpoints
 62
     0
100
AcDbPoint
 10
2642.443614910185
 20
903.5114991510961
 30
0.0
  0
POINT
  5
5EC
330
4DB
100
AcDbEntity
  8
Defpoints
 62
     0
100
AcDbPoint
 10
2642.443614910185
 20
1104.431545626878
 30
0.0
  0
ENDBLK
  5
4E6
330
4DB
100
AcDbEntity
  8
0
100
AcDbBlockEnd
  0
BLOCK
  5
4F2
330
4E8
100
AcDbEntity
  8
0
100
AcDbBlockBegin
  2
*D3
 70
     1
 10
0.0
 20
0.0
 30
0.0
  3
*D3
  1

  0
LINE
  5
5ED
330
4E8
100
AcDbEntity
  8
図面
  6
Continuous
 62
     1
370
    -2
100
AcDbLine
 10
1932.443614910185
 20
956.877877359841
 30
0.0
 11
1932.443614910185
 21
1075.804920345605
 31
0.0
  0
LINE
  5
5EE
330
4E8
100
AcDbEntity
  8
図面
  6
Continuous
 62
     1
370
    -2
100
AcDbLine
 10
2514.443614910185
 20
956.877877359841
 30
0.0
 11
2514.443614910185
 21
1075.804920345605
 31
0.0
  0
LINE
  5
5EF
330
4E8
100
AcDbEntity
  8
図面
  6
Continuous
 62
     1
370
    -2
100
AcDbLine
 10
1952.443614910185
 20
1065.804920345605
 30
0.0
 11
2494.443614910185
 21
1065.804920345605
 31
0.0
  0
SOLID
  5
5F0
330
4E8
100
AcDbEntity
  8
図面
 62
     1
100
AcDbTrace
 10
1952.443614910185
 20
1069.138253678939
 30
0.0
 11
1952.443614910185
 21
1062.471587012272
 31
0.0
 12
1932.443614910185
 22
1065.804920345605
 32
0.0
 13
1932.443614910185
 23
1065.804920345605
 33
0.0
  0
SOLID
  5
5F1
330
4E8
100
AcDbEntity
  8
図面
 62
     1
100
AcDbTrace
 10
2494.443614910185
 20
1062.471587012272
 30
0.0
 11
2494.443614910185
 21
1069.138253678939
 31
0.0
 12
2514.443614910185
 22
1065.804920345605
 32
0.0
 13
2514.443614910185
 23
1065.804920345605
 33
0.0
  0
MTEXT
  5
5F2
330
4E8
100
AcDbEntity
  8
図面
  6
Continuous
 62
     1
100
AcDbMText
 10
2223.443614910185
 20
1076.304920345605
 30
0.0
 40
20.0
 41
0.0
 71
     5
 72
     1
  1
\A1;582
  7
WMF-ＭＳ Ｐ明朝0
 73
     1
 44
1.0
  0
POINT
  5
5F3
330
4E8
100
AcDbEntity
  8
Defpoints
 62
     0
100
AcDbPoint
 10
1932.443614910185
 20
946.877877359841
 30
0.0
  0
POINT
  5
5F4
330
4E8
100
AcDbEntity
  8
Defpoints
 62
     0
100
AcDbPoint
 10
2514.443614910185
 20
946.877877359841
 30
0.0
  0
POINT
  5
5F5
330
4E8
100
AcDbEntity
  8
Defpoints
 62
     0
100
AcDbPoint
 10
2514.443614910185
 20
1065.804920345605
 30
0.0
  0
ENDBLK
  5
4F3
330
4E8
100
AcDbEntity
  8
0
100
AcDbBlockEnd
  0
BLOCK
  5
4FF
330
4F5
100
AcDbEntity
  8
0
100
AcDbBlockBegin
  2
*D4
 70
     1
 10
0.0
 20
0.0
 30
0.0
  3
*D4
  1

  0
LINE
  5
5F6
330
4F5
100
AcDbEntity
  8
図面
  6
Continuous
 62
     1
370
    -2
100
AcDbLine
 10
2433.443614910185
 20
1008.270282423132
 30
0.0
 11
2713.139947989791
 21
1008.270282423132
 31
0.0
  0
LINE
  5
5F7
330
4F5
100
AcDbEntity
  8
図面
  6
Continuous
 62
     1
370
    -2
100
AcDbLine
 10
2433.443614910185
 20
708.2702824231325
 30
0.0
 11
2713.139947989791
 21
708.2702824231325
 31
0.0
  0
LINE
  5
5F8
330
4F5
100
AcDbEntity
  8
図面
  6
Continuous
 62
     1
370
    -2
100
AcDbLine
 10
2703.139947989791
 20
988.2702824231324
 30
0.0
 11
2703.139947989791
 21
728.2702824231325
 31
0.0
  0
SOLID
  5
5F9
330
4F5
100
AcDbEntity
  8
図面
 62
     1
100
AcDbTrace
 10
2706.473281323125
 20
988.2702824231324
 30
0.0
 11
2699.806614656458
 21
988.2702824231324
 31
0.0
 12
2703.139947989791
 22
1008.270282423132
 32
0.0
 13
2703.139947989791
 23
1008.270282423132
 33
0.0
  0
SOLID
  5
5FA
330
4F5
100
AcDbEntity
  8
図面
 62
     1
100
AcDbTrace
 10
2699.806614656458
 20
728.2702824231325
 30
0.0
 11
2706.473281323125
 21
728.2702824231325
 31
0.0
 12
2703.139947989791
 22
708.2702824231325
 32
0.0
 13
2703.139947989791
 23
708.2702824231325
 33
0.0
  0
MTEXT
  5
5FB
330
4F5
100
AcDbEntity
  8
図面
  6
Continuous
 62
     1
100
AcDbMText
 10
2692.639947989791
 20
858.2702824231324
 30
0.0
 40
20.0
 41
0.0
 71
     5
 72
     1
  1
\A1;300
  7
WMF-ＭＳ Ｐ明朝0
 11
0.0
 21
1.0
 31
0.0
 73
     1
 44
1.0
  0
POINT
  5
5FC
330
4F5
100
AcDbEntity
  8
Defpoints
 62
     0
100
AcDbPoint
 10
2423.443614910185
 20
1008.270282423132
 30
0.0
  0
POINT
  5
5FD
330
4F5
100
AcDbEntity
  8
Defpoints
 62
     0
100
AcDbPoint
 10
2423.443614910185
 20
708.2702824231325
 30
0.0
  0
POINT
  5
5FE
330
4F5
100
AcDbEntity
  8
Defpoints
 62
     0
100
AcDbPoint
 10
2703.139947989791
 20
708.2702824231325
 30
0.0
  0
ENDBLK
  5
500
330
4F5
100
AcDbEntity
  8
0
100
AcDbBlockEnd
  0
BLOCK
  5
50C
330
502
100
AcDbEntity
  8
0
100
AcDbBlockBegin
  2
*D5
 70
     1
 10
0.0
 20
0.0
 30
0.0
  3
*D5
  1

  0
LINE
  5
608
330
502
100
AcDbEntity
  8
図面
  6
Continuous
 62
     1
370
    -2
100
AcDbLine
 10
2352.946116101021
 20
469.9532900639313
 30
0.0
 11
2709.447214627225
 21
469.9532900639313
 31
0.0
  0
LINE
  5
609
330
502
100
AcDbEntity
  8
図面
  6
Continuous
 62
     1
370
    -2
100
AcDbLine
 10
2518.946116101021
 20
319.9532900639313
 30
0.0
 11
2709.447214627225
 21
319.9532900639313
 31
0.0
  0
LINE
  5
60A
330
502
100
AcDbEntity
  8
図面
  6
Continuous
 62
     1
370
    -2
100
AcDbLine
 10
2707.447214627225
 20
449.9532900639313
 30
0.0
 11
2707.447214627225
 21
339.9532900639313
 31
0.0
  0
SOLID
  5
60B
330
502
100
AcDbEntity
  8
図面
 62
     1
100
AcDbTrace
 10
2710.780547960558
 20
449.9532900639313
 30
0.0
 11
2704.113881293891
 21
449.9532900639313
 31
0.0
 12
2707.447214627225
 22
469.9532900639313
 32
0.0
 13
2707.447214627225
 23
469.9532900639313
 33
0.0
  0
SOLID
  5
60C
330
502
100
AcDbEntity
  8
図面
 62
     1
100
AcDbTrace
 10
2704.113881293891
 20
339.9532900639313
 30
0.0
 11
2710.780547960558
 21
339.9532900639313
 31
0.0
 12
2707.447214627225
 22
319.9532900639313
 32
0.0
 13
2707.447214627225
 23
319.9532900639313
 33
0.0
  0
MTEXT
  5
60D
330
502
100
AcDbEntity
  8
図面
  6
Continuous
 62
     1
100
AcDbMText
 10
2696.947214627225
 20
394.9532900639313
 30
0.0
 40
20.0
 41
0.0
 71
     5
 72
     1
  1
\A1;150
  7
WMF-ＭＳ Ｐ明朝0
 11
0.0
 21
1.0
 31
0.0
 73
     1
 44
1.0
  0
POINT
  5
60E
330
502
100
AcDbEntity
  8
Defpoints
 62
     0
100
AcDbPoint
 10
2352.883616101021
 20
469.9532900639313
 30
0.0
  0
POINT
  5
60F
330
502
100
AcDbEntity
  8
Defpoints
 62
     0
100
AcDbPoint
 10
2518.883616101021
 20
319.9532900639313
 30
0.0
  0
POINT
  5
610
330
502
100
AcDbEntity
  8
Defpoints
 62
     0
100
AcDbPoint
 10
2707.447214627225
 20
319.9532900639313
 30
0.0
  0
ENDBLK
  5
50D
330
502
100
AcDbEntity
  8
0
100
AcDbBlockEnd
  0
BLOCK
  5
51F
330
51C
100
AcDbEntity
  8
ﾚｲﾔ1
 62
     0
370
     0
100
AcDbBlockBegin
  2
WMF0
 70
     0
 10
0.0
 20
0.0
 30
0.0
  3
WMF0
  1

  0
TEXT
  5
521
330
51C
100
AcDbEntity
  8
ﾚｲﾔ1
 62
     7
370
     0
100
AcDbText
 10
2.592070553271705
 20
-12.18273160037702
 30
0.0
 40
8.190942948338593
  1
油圧送り台
  7
WMF-ＭＳ Ｐ明朝0
100
AcDbText
  0
TEXT
  5
523
330
51C
100
AcDbEntity
  8
ﾚｲﾔ1
 62
     7
370
     0
100
AcDbText
 10
2.592070553271705
 20
-26.82793022636217
 30
0.0
 40
8.190942948338593
  1
水平力
  7
WMF-ＭＳ Ｐ明朝0
100
AcDbText
  0
TEXT
  5
524
330
51C
100
AcDbEntity
  8
ﾚｲﾔ1
 62
     7
370
     0
100
AcDbText
 10
77.7621165981512
 20
-26.82793022636217
 30
0.0
 40
8.190942948338593
  1
10ton
  7
WMF-ＭＳ Ｐ明朝0
100
AcDbText
  0
TEXT
  5
525
330
51C
100
AcDbEntity
  8
ﾚｲﾔ1
 62
     7
370
     0
100
AcDbText
 10
2.592070553271705
 20
-41.4731288523473
 30
0.0
 40
8.190942948338593
  1
移動距離
  7
WMF-ＭＳ Ｐ明朝0
100
AcDbText
  0
TEXT
  5
526
330
51C
100
AcDbEntity
  8
ﾚｲﾔ1
 62
     7
370
     0
100
AcDbText
 10
71.02273315964476
 20
-41.4731288523473
 30
0.0
 40
8.190942948338593
  1
100mm
  7
WMF-ＭＳ Ｐ明朝0
100
AcDbText
  0
TEXT
  5
527
330
51C
100
AcDbEntity
  8
ﾚｲﾔ1
 62
     7
370
     0
100
AcDbText
 10
2.592070553271705
 20
-56.11832747833243
 30
0.0
 40
8.190942948338593
  1
最大荷重
  7
WMF-ＭＳ Ｐ明朝0
100
AcDbText
  0
TEXT
  5
528
330
51C
100
AcDbEntity
  8
ﾚｲﾔ1
 62
     7
370
     0
100
AcDbText
 10
71.80035432562627
 20
-56.11832747833243
 30
0.0
 40
8.190942948338593
  1
100ton
  7
WMF-ＭＳ Ｐ明朝0
100
AcDbText
  0
POLYLINE
  5
52A
330
51C
100
AcDbEntity
  8
ﾚｲﾔ1
 62
     7
370
     0
100
AcDb2dPolyline
 66
     1
 10
0.0
 20
0.0
 30
0.0
  0
VERTEX
  5
52B
330
52A
100
AcDbEntity
  8
ﾚｲﾔ1
 62
     7
370
     0
100
AcDbVertex
100
AcDb2dVertex
 10
0.0
 20
0.0
 30
0.0
  0
VERTEX
  5
52C
330
52A
100
AcDbEntity
  8
ﾚｲﾔ1
 62
     7
370
     0
100
AcDbVertex
100
AcDb2dVertex
 10
0.0
 20
-59.61762272524925
 30
0.0
  0
SEQEND
  5
52D
330
52A
100
AcDbEntity
  8
ﾚｲﾔ1
 62
     7
370
     0
  0
POLYLINE
  5
52E
330
51C
100
AcDbEntity
  8
ﾚｲﾔ1
 62
     7
370
     0
100
AcDb2dPolyline
 66
     1
 10
0.0
 20
0.0
 30
0.0
  0
VERTEX
  5
52F
330
52E
100
AcDbEntity
  8
ﾚｲﾔ1
 62
     7
370
     0
100
AcDbVertex
100
AcDb2dVertex
 10
107.3117209054486
 20
-1.036828221308682
 30
0.0
  0
VERTEX
  5
530
330
52E
100
AcDbEntity
  8
ﾚｲﾔ1
 62
     7
370
     0
100
AcDbVertex
100
AcDb2dVertex
 10
107.3117209054486
 20
-59.61762272524925
 30
0.0
  0
SEQEND
  5
531
330
52E
100
AcDbEntity
  8
ﾚｲﾔ1
 62
     7
370
     0
  0
POLYLINE
  5
532
330
51C
100
AcDbEntity
  8
ﾚｲﾔ1
 62
     7
370
     0
100
AcDb2dPolyline
 66
     1
 10
0.0
 20
0.0
 30
0.0
  0
VERTEX
  5
533
330
532
100
AcDbEntity
  8
ﾚｲﾔ1
 62
     7
370
     0
100
AcDbVertex
100
AcDb2dVertex
 10
53.65586045272433
 20
-15.68202684729382
 30
0.0
  0
VERTEX
  5
534
330
532
100
AcDbEntity
  8
ﾚｲﾔ1
 62
     7
370
     0
100
AcDbVertex
100
AcDb2dVertex
 10
53.65586045272433
 20
-59.61762272524925
 30
0.0
  0
SEQEND
  5
535
330
532
100
AcDbEntity
  8
ﾚｲﾔ1
 62
     7
370
     0
  0
POLYLINE
  5
536
330
51C
100
AcDbEntity
  8
ﾚｲﾔ1
 62
     7
370
     0
100
AcDb2dPolyline
 66
     1
 10
0.0
 20
0.0
 30
0.0
  0
VERTEX
  5
537
330
536
100
AcDbEntity
  8
ﾚｲﾔ1
 62
     7
370
     0
100
AcDbVertex
100
AcDb2dVertex
 10
1.036828221308682
 20
0.0
 30
0.0
  0
VERTEX
  5
538
330
536
100
AcDbEntity
  8
ﾚｲﾔ1
 62
     7
370
     0
100
AcDbVertex
100
AcDb2dVertex
 10
108.3485491267573
 20
0.0
 30
0.0
  0
SEQEND
  5
539
330
536
100
AcDbEntity
  8
ﾚｲﾔ1
 62
     7
370
     0
  0
POLYLINE
  5
53A
330
51C
100
AcDbEntity
  8
ﾚｲﾔ1
 62
     7
370
     0
100
AcDb2dPolyline
 66
     1
 10
0.0
 20
0.0
 30
0.0
  0
VERTEX
  5
53B
330
53A
100
AcDbEntity
  8
ﾚｲﾔ1
 62
     7
370
     0
100
AcDbVertex
100
AcDb2dVertex
 10
1.036828221308682
 20
-14.64519862598514
 30
0.0
  0
VERTEX
  5
53C
330
53A
100
AcDbEntity
  8
ﾚｲﾔ1
 62
     7
370
     0
100
AcDbVertex
100
AcDb2dVertex
 10
108.3485491267573
 20
-14.64519862598514
 30
0.0
  0
SEQEND
  5
53D
330
53A
100
AcDbEntity
  8
ﾚｲﾔ1
 62
     7
370
     0
  0
POLYLINE
  5
53E
330
51C
100
AcDbEntity
  8
ﾚｲﾔ1
 62
     7
370
     0
100
AcDb2dPolyline
 66
     1
 10
0.0
 20
0.0
 30
0.0
  0
VERTEX
  5
53F
330
53E
100
AcDbEntity
  8
ﾚｲﾔ1
 62
     7
370
     0
100
AcDbVertex
100
AcDb2dVertex
 10
1.036828221308682
 20
-29.29039725197029
 30
0.0
  0
VERTEX
  5
540
330
53E
100
AcDbEntity
  8
ﾚｲﾔ1
 62
     7
370
     0
100
AcDbVertex
100
AcDb2dVertex
 10
108.3485491267573
 20
-29.29039725197029
 30
0.0
  0
SEQEND
  5
541
330
53E
100
AcDbEntity
  8
ﾚｲﾔ1
 62
     7
370
     0
  0
POLYLINE
  5
542
330
51C
100
AcDbEntity
  8
ﾚｲﾔ1
 62
     7
370
     0
100
AcDb2dPolyline
 66
     1
 10
0.0
 20
0.0
 30
0.0
  0
VERTEX
  5
543
330
542
100
AcDbEntity
  8
ﾚｲﾔ1
 62
     7
370
     0
100
AcDbVertex
100
AcDb2dVertex
 10
1.036828221308682
 20
-43.93559587795542
 30
0.0
  0
VERTEX
  5
544
330
542
100
AcDbEntity
  8
ﾚｲﾔ1
 62
     7
370
     0
100
AcDbVertex
100
AcDb2dVertex
 10
108.3485491267573
 20
-43.93559587795542
 30
0.0
  0
SEQEND
  5
545
330
542
100
AcDbEntity
  8
ﾚｲﾔ1
 62
     7
370
     0
  0
POLYLINE
  5
546
330
51C
100
AcDbEntity
  8
ﾚｲﾔ1
 62
     7
370
     0
100
AcDb2dPolyline
 66
     1
 10
0.0
 20
0.0
 30
0.0
  0
VERTEX
  5
547
330
546
100
AcDbEntity
  8
ﾚｲﾔ1
 62
     7
370
     0
100
AcDbVertex
100
AcDb2dVertex
 10
1.036828221308682
 20
-58.58079450394057
 30
0.0
  0
VERTEX
  5
548
330
546
100
AcDbEntity
  8
ﾚｲﾔ1
 62
     7
370
     0
100
AcDbVertex
100
AcDb2dVertex
 10
108.3485491267573
 20
-58.58079450394057
 30
0.0
  0
SEQEND
  5
549
330
546
100
AcDbEntity
  8
ﾚｲﾔ1
 62
     7
370
     0
  0
ENDBLK
  5
54A
330
51C
100
AcDbEntity
  8
ﾚｲﾔ1
 62
     7
370
     0
100
AcDbBlockEnd
  0
BLOCK
  5
5B5
330
5B1
100
AcDbEntity
  8
0
100
AcDbBlockBegin
  2
_Open
 70
     0
 10
0.0
 20
0.0
 30
0.0
  3
_Open
  1

  0
LINE
  5
5B2
330
5B1
100
AcDbEntity
  8
0
  6
ByBlock
 62
     0
370
    -2
100
AcDbLine
 10
-1.0
 20
0.1666666666666666
 30
0.0
 11
0.0
 21
0.0
 31
0.0
  0
LINE
  5
5B3
330
5B1
100
AcDbEntity
  8
0
  6
ByBlock
 62
     0
370
    -2
100
AcDbLine
 10
-1.0
 20
-0.1666666666666666
 30
0.0
 11
0.0
 21
0.0
 31
0.0
  0
LINE
  5
5B4
330
5B1
100
AcDbEntity
  8
0
  6
ByBlock
 62
     0
370
    -2
100
AcDbLine
 10
0.0
 20
0.0
 30
0.0
 11
-1.0
 21
0.0
 31
0.0
  0
ENDBLK
  5
5B6
330
5B1
100
AcDbEntity
  8
0
100
AcDbBlockEnd
  0
ENDSEC
  0
SECTION
  2
ENTITIES
  0
LINE
  5
1D8
330
1E
100
AcDbEntity
  8
図面
  6
DASHDOT
 62
     1
100
AcDbLine
 10
2227.883616101021
 20
496.8144684125753
 30
0.0
 11
2227.883616101021
 21
286.6334763950315
 31
0.0
  0
LINE
  5
1D9
330
1E
100
AcDbEntity
  8
下図
  6
DASHDOT
100
AcDbLine
 10
2098.443614910185
 20
983.2702824231324
 30
0.0
 11
2098.443614910185
 21
733.2702824231325
 31
0.0
  0
LINE
  5
1DA
330
1E
100
AcDbEntity
  8
下図
  6
DASHDOT
100
AcDbLine
 10
2348.443614910185
 20
983.2702824231324
 30
0.0
 11
2348.443614910185
 21
733.2702824231325
 31
0.0
  0
LINE
  5
1DD
330
1E
100
AcDbEntity
  8
下図
  6
DASHDOT
100
AcDbLine
 10
2098.443614910185
 20
983.2702824231324
 30
0.0
 11
2348.443614910185
 21
983.2702824231324
 31
0.0
  0
LINE
  5
1DE
330
1E
100
AcDbEntity
  8
下図
  6
DASHDOT
100
AcDbLine
 10
2098.443614910185
 20
733.2702824231325
 30
0.0
 11
2348.443614910185
 21
733.2702824231325
 31
0.0
  0
LINE
  5
235
330
1E
100
AcDbEntity
  8
図面
  6
HIDDEN2
 62
   253
100
AcDbLine
 10
1964.443614910185
 20
827.5740798915755
 30
0.0
 11
1995.13981744183
 21
827.5740798915755
 31
0.0
  0
LINE
  5
236
330
1E
100
AcDbEntity
  8
図面
  6
HIDDEN2
 62
   253
100
AcDbLine
 10
1964.443614910185
 20
888.9664849548669
 30
0.0
 11
1995.13981744183
 21
888.9664849548669
 31
0.0
  0
LWPOLYLINE
  5
239
330
1E
100
AcDbEntity
  8
図面
100
AcDbPolyline
 90
        4
 70
     1
 43
0.0
 10
1995.13981744183
 20
901.244965967525
 10
1964.443614910185
 20
901.244965967525
 10
1964.443614910185
 20
815.2955988789172
 10
1995.13981744183
 20
815.2955988789172
  0
CIRCLE
  5
286
330
1E
100
AcDbEntity
  8
図面
100
AcDbCircle
 10
1829.443614910185
 20
858.2702824231324
 30
0.0
 40
15.34810126582329
  0
LINE
  5
295
330
1E
100
AcDbEntity
  8
図面
  6
DASHDOT
 62
     1
100
AcDbLine
 10
2223.443614910185
 20
1031.281456585086
 30
0.0
 11
2223.443614910185
 21
681.7898814861152
 31
0.0
  0
LINE
  5
2A5
330
1E
100
AcDbEntity
  8
図面
100
AcDbLine
 10
2223.443614910185
 20
993.5361052079426
 30
0.0
 11
2038.177792125375
 21
993.5361052079426
 31
0.0
  0
LINE
  5
2A6
330
1E
100
AcDbEntity
  8
図面
100
AcDbLine
 10
2038.177792125375
 20
993.5361052079426
 30
0.0
 11
2038.177792125375
 21
915.9791431827148
 31
0.0
  0
LINE
  5
2A7
330
1E
100
AcDbEntity
  8
図面
100
AcDbLine
 10
2223.443614910185
 20
993.5361052079426
 30
0.0
 11
2408.709437694995
 21
993.5361052079426
 31
0.0
  0
LINE
  5
2A9
330
1E
100
AcDbEntity
  8
図面
100
AcDbLine
 10
2038.177792125375
 20
915.9791431827148
 30
0.0
 11
2023.443614910185
 21
915.9791431827148
 31
0.0
  0
LINE
  5
2AA
330
1E
100
AcDbEntity
  8
図面
100
AcDbLine
 10
2023.443614910185
 20
915.9791431827148
 30
0.0
 11
2023.443614910185
 21
1008.270282423132
 31
0.0
  0
LINE
  5
2AB
330
1E
100
AcDbEntity
  8
図面
100
AcDbLine
 10
2023.443614910185
 20
1008.270282423132
 30
0.0
 11
2223.443614910185
 21
1008.270282423132
 31
0.0
  0
LINE
  5
2AE
330
1E
100
AcDbEntity
  8
図面
100
AcDbLine
 10
2423.443614910185
 20
1008.270282423132
 30
0.0
 11
2223.443614910185
 21
1008.270282423132
 31
0.0
  0
LINE
  5
2AF
330
1E
100
AcDbEntity
  8
図面
100
AcDbLine
 10
2023.443614910185
 20
1008.270282423132
 30
0.0
 11
1932.443614910185
 21
946.877877359841
 31
0.0
  0
LINE
  5
2B0
330
1E
100
AcDbEntity
  8
図面
100
AcDbLine
 10
1932.443614910185
 20
946.877877359841
 30
0.0
 11
1932.443614910185
 21
886.4702824231324
 31
0.0
  0
LINE
  5
2B3
330
1E
100
AcDbEntity
  8
図面
100
AcDbLine
 10
2348.443614910185
 20
983.2702824231324
 30
0.0
 11
2098.443614910185
 21
983.2702824231324
 31
0.0
  0
LINE
  5
2B4
330
1E
100
AcDbEntity
  8
図面
100
AcDbLine
 10
2098.443614910185
 20
983.2702824231324
 30
0.0
 11
2098.443614910185
 21
733.2702824231325
 31
0.0
  0
LINE
  5
2B5
330
1E
100
AcDbEntity
  8
図面
100
AcDbLine
 10
2098.443614910185
 20
733.2702824231325
 30
0.0
 11
2348.443614910185
 21
733.2702824231325
 31
0.0
  0
LINE
  5
2B6
330
1E
100
AcDbEntity
  8
図面
100
AcDbLine
 10
2348.443614910185
 20
733.2702824231325
 30
0.0
 11
2348.443614910185
 21
983.2702824231324
 31
0.0
  0
LINE
  5
2BB
330
1E
100
AcDbEntity
  8
図面
100
AcDbLine
 10
2023.443614910185
 20
708.2702824231325
 30
0.0
 11
1932.443614910185
 21
769.6626874864239
 31
0.0
  0
LINE
  5
2BC
330
1E
100
AcDbEntity
  8
図面
100
AcDbLine
 10
1932.443614910185
 20
769.6626874864239
 30
0.0
 11
1932.443614910185
 21
830.0702824231323
 31
0.0
  0
LINE
  5
2BD
330
1E
100
AcDbEntity
  8
図面
100
AcDbLine
 10
2001.279057948159
 20
800.5614216637273
 30
0.0
 11
1986.54488073297
 21
800.5614216637273
 31
0.0
  0
LINE
  5
2BE
330
1E
100
AcDbEntity
  8
図面
100
AcDbLine
 10
2023.443614910185
 20
800.5614216637273
 30
0.0
 11
2023.443614910185
 21
708.2702824231325
 31
0.0
  0
LINE
  5
2BF
330
1E
100
AcDbEntity
  8
図面
100
AcDbLine
 10
2023.443614910185
 20
708.2702824231325
 30
0.0
 11
2223.443614910185
 21
708.2702824231325
 31
0.0
  0
LINE
  5
2C4
330
1E
100
AcDbEntity
  8
図面
100
AcDbLine
 10
2423.443614910185
 20
708.2702824231325
 30
0.0
 11
2223.443614910185
 21
708.2702824231325
 31
0.0
  0
LINE
  5
2C8
330
1E
100
AcDbEntity
  8
図面
100
AcDbLine
 10
2038.177792125375
 20
723.0044596383224
 30
0.0
 11
2038.177792125375
 21
800.5614216637273
 31
0.0
  0
LINE
  5
2CE
330
1E
100
AcDbEntity
  8
図面
100
AcDbLine
 10
2408.709437694995
 20
723.0044596383224
 30
0.0
 11
2038.177792125375
 21
723.0044596383224
 31
0.0
  0
LINE
  5
2CF
330
1E
100
AcDbEntity
  8
図面
100
AcDbLine
 10
2348.443614910185
 20
983.2702824231324
 30
0.0
 11
2348.443614910185
 21
733.2702824231325
 31
0.0
  0
LINE
  5
2D7
330
1E
100
AcDbEntity
  8
図面
100
AcDbLine
 10
1964.443614910022
 20
832.4854722965492
 30
0.0
 11
1964.443614910022
 21
884.0550925497155
 31
0.0
  0
LINE
  5
308
330
1E
100
AcDbEntity
  8
図面
100
AcDbLine
 10
2038.177792125375
 20
915.9791431827148
 30
0.0
 11
1964.443614910185
 21
915.9791431827148
 31
0.0
  0
LINE
  5
309
330
1E
100
AcDbEntity
  8
図面
100
AcDbLine
 10
1932.443614910185
 20
915.9791431827148
 30
0.0
 11
1932.443614910185
 21
901.244965967525
 31
0.0
  0
LINE
  5
30A
330
1E
100
AcDbEntity
  8
図面
100
AcDbLine
 10
1964.443614910185
 20
901.244965967525
 30
0.0
 11
2038.177792125375
 21
901.244965967525
 31
0.0
  0
LINE
  5
30B
330
1E
100
AcDbEntity
  8
図面
100
AcDbLine
 10
2038.177792125375
 20
901.2449659675251
 30
0.0
 11
2038.177792125375
 21
915.9791431827149
 31
0.0
  0
LINE
  5
30C
330
1E
100
AcDbEntity
  8
図面
100
AcDbLine
 10
2038.177792125375
 20
815.2955988789172
 30
0.0
 11
1964.443614910185
 21
815.2955988789172
 31
0.0
  0
LINE
  5
30D
330
1E
100
AcDbEntity
  8
図面
100
AcDbLine
 10
1932.443614910185
 20
815.2955988789172
 30
0.0
 11
1932.443614910185
 21
800.5614216637273
 31
0.0
  0
LINE
  5
30E
330
1E
100
AcDbEntity
  8
図面
100
AcDbLine
 10
1964.443614910185
 20
800.5614216637273
 30
0.0
 11
2038.177792125375
 21
800.5614216637273
 31
0.0
  0
LINE
  5
30F
330
1E
100
AcDbEntity
  8
図面
100
AcDbLine
 10
2038.177792125375
 20
800.5614216637275
 30
0.0
 11
2038.177792125375
 21
815.2955988789174
 31
0.0
  0
LINE
  5
310
330
1E
100
AcDbEntity
  8
図面
  6
Continuous
100
AcDbLine
 10
1964.443614910185
 20
915.9791431827148
 30
0.0
 11
1964.443614910185
 21
901.244965967525
 31
0.0
  0
LINE
  5
311
330
1E
100
AcDbEntity
  8
図面
  6
Continuous
100
AcDbLine
 10
1964.443614910185
 20
800.5614216637273
 30
0.0
 11
1964.443614910185
 21
815.2955988789172
 31
0.0
  0
LINE
  5
403
330
1E
100
AcDbEntity
  8
図面
  6
Continuous
100
AcDbLine
 10
1923.068614910185
 20
886.4702824231324
 30
0.0
 11
1806.443614910185
 21
886.4702824231324
 31
0.0
  0
LINE
  5
404
330
1E
100
AcDbEntity
  8
図面
  6
Continuous
100
AcDbLine
 10
1962.443614910185
 20
830.0702824231323
 30
0.0
 11
1806.443614910185
 21
830.0702824231323
 31
0.0
  0
LINE
  5
405
330
1E
100
AcDbEntity
  8
図面
  6
Continuous
100
AcDbLine
 10
1806.443614910185
 20
886.4702824231324
 30
0.0
 11
1806.443614910185
 21
858.2702824231324
 31
0.0
  0
LINE
  5
406
330
1E
100
AcDbEntity
  8
図面
  6
Continuous
100
AcDbLine
 10
1804.443614910185
 20
884.4702824231324
 30
0.0
 11
1804.443614910185
 21
858.2702824231324
 31
0.0
  0
LINE
  5
407
330
1E
100
AcDbEntity
  8
図面
  6
DASHDOT
 62
     1
100
AcDbLine
 10
1829.443614910185
 20
873.6183836889556
 30
0.0
 11
1829.443614910185
 21
841.62361070005
 31
0.0
  0
LINE
  5
408
330
1E
100
AcDbEntity
  8
図面
  6
Continuous
100
AcDbLine
 10
1806.443614910185
 20
830.0702824231323
 30
0.0
 11
1804.443614910185
 21
832.0702824231325
 31
0.0
  0
LINE
  5
409
330
1E
100
AcDbEntity
  8
図面
  6
Continuous
100
AcDbLine
 10
1806.443614910185
 20
830.0702824231323
 30
0.0
 11
1806.443614910185
 21
858.2702824231324
 31
0.0
  0
LINE
  5
40A
330
1E
100
AcDbEntity
  8
図面
  6
Continuous
100
AcDbLine
 10
1804.443614910185
 20
832.0702824231325
 30
0.0
 11
1804.443614910185
 21
858.2702824231324
 31
0.0
  0
LINE
  5
40B
330
1E
100
AcDbEntity
  8
図面
  6
Continuous
100
AcDbLine
 10
1806.443614910185
 20
886.4702824231324
 30
0.0
 11
1804.443614910185
 21
884.4702824231324
 31
0.0
  0
LINE
  5
411
330
1E
100
AcDbEntity
  8
図面
  6
Continuous
100
AcDbLine
 10
1964.443614910185
 20
884.4702824231324
 30
0.0
 11
1964.443614910185
 21
858.2702824231324
 31
0.0
  0
LINE
  5
412
330
1E
100
AcDbEntity
  8
図面
  6
Continuous
100
AcDbLine
 10
1964.443614910185
 20
832.0702824231325
 30
0.0
 11
1962.443614910185
 21
830.0702824231323
 31
0.0
  0
LINE
  5
415
330
1E
100
AcDbEntity
  8
図面
  6
Continuous
100
AcDbLine
 10
1964.443614910185
 20
832.0702824231325
 30
0.0
 11
1964.443614910185
 21
858.2702824231324
 31
0.0
  0
LINE
  5
416
330
1E
100
AcDbEntity
  8
図面
100
AcDbLine
 10
1923.068614910185
 20
886.4702824231324
 30
0.0
 11
1962.316821910185
 21
886.4702824231324
 31
0.0
  0
LINE
  5
418
330
1E
100
AcDbEntity
  8
図面
  6
Continuous
100
AcDbLine
 10
1964.443614910185
 20
884.4702824231324
 30
0.0
 11
1962.443614910185
 21
886.4702824231324
 31
0.0
  0
LINE
  5
419
330
1E
100
AcDbEntity
  8
図面
100
AcDbLine
 10
1962.316821910185
 20
886.4702824231324
 30
0.0
 11
1962.446492910185
 21
886.4702824231324
 31
0.0
  0
LINE
  5
41A
330
1E
100
AcDbEntity
  8
図面
  6
Continuous
100
AcDbLine
 10
1998.443614910185
 20
873.2702824231325
 30
0.0
 11
1998.443614910185
 21
858.2702824231324
 31
0.0
  0
LINE
  5
41B
330
1E
100
AcDbEntity
  8
図面
  6
Continuous
100
AcDbLine
 10
2002.698934910185
 20
875.3702824231325
 30
0.0
 11
2002.698934910185
 21
858.2702824231324
 31
0.0
  0
LINE
  5
41E
330
1E
100
AcDbEntity
  8
図面
  6
Continuous
100
AcDbLine
 10
1996.443614910185
 20
886.4702824231324
 30
0.0
 11
1996.443614910185
 21
858.2702824231324
 31
0.0
  0
LINE
  5
420
330
1E
100
AcDbEntity
  8
図面
  6
Continuous
100
AcDbLine
 10
2007.805317910185
 20
881.0702824231323
 30
0.0
 11
2007.805317910185
 21
858.2702824231324
 31
0.0
  0
LINE
  5
421
330
1E
100
AcDbEntity
  8
図面
  6
Continuous
100
AcDbLine
 10
2009.507444910185
 20
886.7702824231324
 30
0.0
 11
2009.507444910185
 21
858.2702824231324
 31
0.0
  0
LINE
  5
422
330
1E
100
AcDbEntity
  8
図面
  6
Continuous
100
AcDbLine
 10
2036.741486910185
 20
886.7702824231324
 30
0.0
 11
2036.741486910185
 21
858.2702824231324
 31
0.0
  0
LINE
  5
423
330
1E
100
AcDbEntity
  8
図面
  6
Continuous
100
AcDbLine
 10
2038.443614910185
 20
858.2702824231324
 30
0.0
 11
2038.443614910185
 21
884.4902824231324
 31
0.0
  0
LINE
  5
424
330
1E
100
AcDbEntity
  8
図面
  6
Continuous
100
AcDbLine
 10
2036.741486910185
 20
829.7702824231324
 30
0.0
 11
2009.507444910185
 21
829.7702824231324
 31
0.0
  0
LINE
  5
425
330
1E
100
AcDbEntity
  8
図面
  6
Continuous
100
AcDbLine
 10
1998.443614910185
 20
832.0702824231325
 30
0.0
 11
1996.443614910185
 21
830.0702824231323
 31
0.0
  0
LINE
  5
428
330
1E
100
AcDbEntity
  8
図面
  6
Continuous
100
AcDbLine
 10
2009.507444910185
 20
829.7702824231324
 30
0.0
 11
2007.805317910185
 21
832.0502824231323
 31
0.0
  0
LINE
  5
42A
330
1E
100
AcDbEntity
  8
図面
  6
Continuous
100
AcDbLine
 10
1996.443614910185
 20
830.0702824231323
 30
0.0
 11
1996.443614910185
 21
858.2702824231324
 31
0.0
  0
LINE
  5
42C
330
1E
100
AcDbEntity
  8
図面
  6
Continuous
100
AcDbLine
 10
2009.507444910185
 20
829.7702824231324
 30
0.0
 11
2009.507444910185
 21
858.2702824231324
 31
0.0
  0
LINE
  5
42D
330
1E
100
AcDbEntity
  8
図面
  6
Continuous
100
AcDbLine
 10
1996.443614910185
 20
830.0702824231323
 30
0.0
 11
1995.13981744183
 21
830.0702824231323
 31
0.0
  0
LINE
  5
42E
330
1E
100
AcDbEntity
  8
図面
  6
Continuous
100
AcDbLine
 10
2007.805317910185
 20
835.4702824231324
 30
0.0
 11
2002.698934910185
 21
835.4702824231324
 31
0.0
  0
LINE
  5
42F
330
1E
100
AcDbEntity
  8
図面
  6
Continuous
100
AcDbLine
 10
1998.443614910185
 20
843.2702824231325
 30
0.0
 11
1998.443614910185
 21
858.2702824231324
 31
0.0
  0
LINE
  5
431
330
1E
100
AcDbEntity
  8
図面
  6
Continuous
100
AcDbLine
 10
2002.698934910185
 20
841.1702824231324
 30
0.0
 11
2002.698934910185
 21
858.2702824231324
 31
0.0
  0
LINE
  5
432
330
1E
100
AcDbEntity
  8
図面
  6
Continuous
100
AcDbLine
 10
2002.698934910185
 20
841.1702824231324
 30
0.0
 11
1998.443614910185
 21
841.1702824231324
 31
0.0
  0
LINE
  5
433
330
1E
100
AcDbEntity
  8
図面
  6
Continuous
100
AcDbLine
 10
2002.698934910185
 20
835.4702824231324
 30
0.0
 11
2002.698934910185
 21
841.1702824231324
 31
0.0
  0
LINE
  5
434
330
1E
100
AcDbEntity
  8
図面
  6
Continuous
100
AcDbLine
 10
1998.443614910185
 20
843.2702824231325
 30
0.0
 11
1998.443614910185
 21
832.0702824231325
 31
0.0
  0
LINE
  5
435
330
1E
100
AcDbEntity
  8
図面
  6
Continuous
100
AcDbLine
 10
2007.805317910185
 20
835.4702824231324
 30
0.0
 11
2007.805317910185
 21
858.2702824231324
 31
0.0
  0
LINE
  5
436
330
1E
100
AcDbEntity
  8
図面
  6
Continuous
100
AcDbLine
 10
2007.805317910185
 20
832.0502824231323
 30
0.0
 11
2007.805317910185
 21
835.4702824231324
 31
0.0
  0
LINE
  5
437
330
1E
100
AcDbEntity
  8
図面
  6
Continuous
100
AcDbLine
 10
2038.443614910185
 20
832.0502824231323
 30
0.0
 11
2036.741486910185
 21
829.7702824231324
 31
0.0
  0
LINE
  5
438
330
1E
100
AcDbEntity
  8
図面
  6
Continuous
100
AcDbLine
 10
2036.741486910185
 20
829.7702824231324
 30
0.0
 11
2036.741486910185
 21
858.2702824231324
 31
0.0
  0
LINE
  5
439
330
1E
100
AcDbEntity
  8
図面
  6
Continuous
100
AcDbLine
 10
2038.443614910185
 20
858.2702824231324
 30
0.0
 11
2038.443614910185
 21
832.0502824231323
 31
0.0
  0
LINE
  5
43A
330
1E
100
AcDbEntity
  8
図面
  6
Continuous
100
AcDbLine
 10
2036.741486910185
 20
886.7702824231324
 30
0.0
 11
2009.507444910185
 21
886.7702824231324
 31
0.0
  0
LINE
  5
43B
330
1E
100
AcDbEntity
  8
図面
  6
Continuous
100
AcDbLine
 10
2007.805317910185
 20
881.0702824231323
 30
0.0
 11
2002.698934910185
 21
881.0702824231323
 31
0.0
  0
LINE
  5
43C
330
1E
100
AcDbEntity
  8
図面
  6
Continuous
100
AcDbLine
 10
1998.443614910185
 20
873.2702824231325
 30
0.0
 11
1998.443614910185
 21
884.4702824231324
 31
0.0
  0
LINE
  5
43D
330
1E
100
AcDbEntity
  8
図面
  6
Continuous
100
AcDbLine
 10
2002.698934910185
 20
875.3702824231325
 30
0.0
 11
1998.443614910185
 21
875.3702824231325
 31
0.0
  0
LINE
  5
43E
330
1E
100
AcDbEntity
  8
図面
  6
Continuous
100
AcDbLine
 10
2002.698934910185
 20
881.0702824231323
 30
0.0
 11
2002.698934910185
 21
875.3702824231325
 31
0.0
  0
LINE
  5
43F
330
1E
100
AcDbEntity
  8
図面
  6
Continuous
100
AcDbLine
 10
1996.443614910185
 20
886.4702824231324
 30
0.0
 11
1995.13981744183
 21
886.4702824231324
 31
0.0
  0
LINE
  5
442
330
1E
100
AcDbEntity
  8
図面
  6
Continuous
100
AcDbLine
 10
1998.443614910185
 20
884.4702824231324
 30
0.0
 11
1996.443614910185
 21
886.4702824231324
 31
0.0
  0
LINE
  5
443
330
1E
100
AcDbEntity
  8
図面
  6
Continuous
100
AcDbLine
 10
2007.805317910185
 20
884.4902824231324
 30
0.0
 11
2007.805317910185
 21
881.0702824231323
 31
0.0
  0
LINE
  5
444
330
1E
100
AcDbEntity
  8
図面
  6
Continuous
100
AcDbLine
 10
2009.507444910185
 20
886.7702824231324
 30
0.0
 11
2007.805317910185
 21
884.4902824231324
 31
0.0
  0
LINE
  5
445
330
1E
100
AcDbEntity
  8
図面
  6
Continuous
100
AcDbLine
 10
2038.443614910185
 20
884.4902824231324
 30
0.0
 11
2036.741486910185
 21
886.7702824231324
 31
0.0
  0
LINE
  5
446
330
1E
100
AcDbEntity
  8
図面
  6
DASHDOT
 62
     1
100
AcDbLine
 10
1786.576810640566
 20
858.2702824231324
 30
0.0
 11
2660.347393625398
 21
858.2702824231324
 31
0.0
  0
LINE
  5
447
330
1E
100
AcDbEntity
  8
図面
100
AcDbLine
 10
2523.818614910185
 20
886.4702824231324
 30
0.0
 11
2484.570407910185
 21
886.4702824231324
 31
0.0
  0
LINE
  5
448
330
1E
100
AcDbEntity
  8
図面
  6
Continuous
100
AcDbLine
 10
2484.443614910185
 20
830.0702824231323
 30
0.0
 11
2640.443614910185
 21
830.0702824231323
 31
0.0
  0
LINE
  5
449
330
1E
100
AcDbEntity
  8
図面
100
AcDbLine
 10
2423.443614910185
 20
708.2702824231325
 30
0.0
 11
2514.443614910185
 21
769.6626874864239
 31
0.0
  0
LINE
  5
44A
330
1E
100
AcDbEntity
  8
図面
100
AcDbLine
 10
2423.443614910185
 20
1008.270282423132
 30
0.0
 11
2514.443614910185
 21
946.877877359841
 31
0.0
  0
LINE
  5
44B
330
1E
100
AcDbEntity
  8
図面
  6
DASHDOT
 62
     1
100
AcDbLine
 10
2617.443614910185
 20
873.6183836889556
 30
0.0
 11
2617.443614910185
 21
841.62361070005
 31
0.0
  0
CIRCLE
  5
44C
330
1E
100
AcDbEntity
  8
図面
100
AcDbCircle
 10
2617.443614910185
 20
858.2702824231324
 30
0.0
 40
15.34810126582329
  0
LINE
  5
44D
330
1E
100
AcDbEntity
  8
図面
  6
Continuous
100
AcDbLine
 10
2642.443614910185
 20
832.0702824231325
 30
0.0
 11
2642.443614910185
 21
858.2702824231324
 31
0.0
  0
LINE
  5
44E
330
1E
100
AcDbEntity
  8
図面
  6
Continuous
100
AcDbLine
 10
2640.443614910185
 20
830.0702824231323
 30
0.0
 11
2640.443614910185
 21
858.2702824231324
 31
0.0
  0
LINE
  5
44F
330
1E
100
AcDbEntity
  8
図面
  6
Continuous
100
AcDbLine
 10
2640.443614910185
 20
830.0702824231323
 30
0.0
 11
2642.443614910185
 21
832.0702824231325
 31
0.0
  0
LINE
  5
450
330
1E
100
AcDbEntity
  8
図面
100
AcDbLine
 10
2514.443614910185
 20
769.6626874864239
 30
0.0
 11
2514.443614910185
 21
830.0702824231323
 31
0.0
  0
LINE
  5
451
330
1E
100
AcDbEntity
  8
図面
100
AcDbLine
 10
2514.443614910185
 20
815.2955988789172
 30
0.0
 11
2514.443614910185
 21
800.5614216637273
 31
0.0
  0
LINE
  5
452
330
1E
100
AcDbEntity
  8
図面
  6
Continuous
100
AcDbLine
 10
2523.818614910185
 20
886.4702824231324
 30
0.0
 11
2640.443614910185
 21
886.4702824231324
 31
0.0
  0
LINE
  5
453
330
1E
100
AcDbEntity
  8
図面
  6
Continuous
100
AcDbLine
 10
2642.443614910185
 20
884.4702824231324
 30
0.0
 11
2642.443614910185
 21
858.2702824231324
 31
0.0
  0
LINE
  5
454
330
1E
100
AcDbEntity
  8
図面
  6
Continuous
100
AcDbLine
 10
2640.443614910185
 20
886.4702824231324
 30
0.0
 11
2640.443614910185
 21
858.2702824231324
 31
0.0
  0
LINE
  5
455
330
1E
100
AcDbEntity
  8
図面
  6
Continuous
100
AcDbLine
 10
2640.443614910185
 20
886.4702824231324
 30
0.0
 11
2642.443614910185
 21
884.4702824231324
 31
0.0
  0
LINE
  5
456
330
1E
100
AcDbEntity
  8
図面
100
AcDbLine
 10
2514.443614910185
 20
915.9791431827148
 30
0.0
 11
2514.443614910185
 21
901.244965967525
 31
0.0
  0
LINE
  5
457
330
1E
100
AcDbEntity
  8
図面
100
AcDbLine
 10
2514.443614910185
 20
946.877877359841
 30
0.0
 11
2514.443614910185
 21
886.4702824231324
 31
0.0
  0
LINE
  5
458
330
1E
100
AcDbEntity
  8
図面
100
AcDbLine
 10
2408.709437694995
 20
993.5361052079426
 30
0.0
 11
2408.709437694995
 21
915.9791431827148
 31
0.0
  0
LINE
  5
459
330
1E
100
AcDbEntity
  8
図面
100
AcDbLine
 10
2423.443614910185
 20
915.9791431827148
 30
0.0
 11
2423.443614910185
 21
1008.270282423132
 31
0.0
  0
LINE
  5
45A
330
1E
100
AcDbEntity
  8
図面
  6
Continuous
100
AcDbLine
 10
2408.443614910185
 20
858.2702824231324
 30
0.0
 11
2408.443614910185
 21
832.0502824231323
 31
0.0
  0
LINE
  5
45B
330
1E
100
AcDbEntity
  8
図面
  6
Continuous
100
AcDbLine
 10
2410.145742910185
 20
829.7702824231324
 30
0.0
 11
2410.145742910185
 21
858.2702824231324
 31
0.0
  0
LINE
  5
45C
330
1E
100
AcDbEntity
  8
図面
  6
Continuous
100
AcDbLine
 10
2439.081911910185
 20
835.4702824231324
 30
0.0
 11
2439.081911910185
 21
858.2702824231324
 31
0.0
  0
LINE
  5
45D
330
1E
100
AcDbEntity
  8
図面
  6
Continuous
100
AcDbLine
 10
2444.188294910185
 20
841.1702824231324
 30
0.0
 11
2444.188294910185
 21
858.2702824231324
 31
0.0
  0
LINE
  5
45E
330
1E
100
AcDbEntity
  8
図面
  6
Continuous
100
AcDbLine
 10
2448.443614910185
 20
843.2702824231325
 30
0.0
 11
2448.443614910185
 21
858.2702824231324
 31
0.0
  0
LINE
  5
45F
330
1E
100
AcDbEntity
  8
図面
  6
Continuous
100
AcDbLine
 10
2437.379784910185
 20
829.7702824231324
 30
0.0
 11
2437.379784910185
 21
858.2702824231324
 31
0.0
  0
LINE
  5
460
330
1E
100
AcDbEntity
  8
図面
  6
Continuous
100
AcDbLine
 10
2450.443614910185
 20
830.0702824231323
 30
0.0
 11
2450.443614910185
 21
858.2702824231324
 31
0.0
  0
LINE
  5
461
330
1E
100
AcDbEntity
  8
図面
  6
Continuous
100
AcDbLine
 10
2482.443614910185
 20
832.0702824231325
 30
0.0
 11
2482.443614910185
 21
858.2702824231324
 31
0.0
  0
LWPOLYLINE
  5
462
330
1E
100
AcDbEntity
  8
図面
100
AcDbPolyline
 90
        4
 70
     1
 43
0.0
 10
2451.747412378539
 20
901.244965967525
 10
2482.443614910185
 20
901.244965967525
 10
2482.443614910185
 20
815.2955988789172
 10
2451.747412378539
 20
815.2955988789172
  0
LINE
  5
463
330
1E
100
AcDbEntity
  8
図面
100
AcDbLine
 10
2482.443614910348
 20
832.4854722965492
 30
0.0
 11
2482.443614910348
 21
884.0550925497155
 31
0.0
  0
LINE
  5
464
330
1E
100
AcDbEntity
  8
図面
  6
Continuous
100
AcDbLine
 10
2408.443614910185
 20
832.0502824231323
 30
0.0
 11
2410.145742910185
 21
829.7702824231324
 31
0.0
  0
LINE
  5
465
330
1E
100
AcDbEntity
  8
図面
100
AcDbLine
 10
2482.443614910185
 20
800.5614216637273
 30
0.0
 11
2408.709437694994
 21
800.5614216637273
 31
0.0
  0
LINE
  5
466
330
1E
100
AcDbEntity
  8
図面
100
AcDbLine
 10
2408.709437694995
 20
815.2955988789172
 30
0.0
 11
2482.443614910185
 21
815.2955988789172
 31
0.0
  0
LINE
  5
467
330
1E
100
AcDbEntity
  8
図面
100
AcDbLine
 10
2423.443614910185
 20
800.5614216637273
 30
0.0
 11
2423.443614910185
 21
708.2702824231325
 31
0.0
  0
LINE
  5
468
330
1E
100
AcDbEntity
  8
図面
100
AcDbLine
 10
2445.60817187221
 20
800.5614216637273
 30
0.0
 11
2460.3423490874
 21
800.5614216637273
 31
0.0
  0
LINE
  5
469
330
1E
100
AcDbEntity
  8
図面
  6
HIDDEN2
 62
   253
100
AcDbLine
 10
2482.443614910185
 20
827.5740798915755
 30
0.0
 11
2451.747412378539
 21
827.5740798915755
 31
0.0
  0
LINE
  5
46A
330
1E
100
AcDbEntity
  8
図面
  6
Continuous
100
AcDbLine
 10
2482.443614910185
 20
800.5614216637273
 30
0.0
 11
2482.443614910185
 21
815.2955988789172
 31
0.0
  0
LINE
  5
46B
330
1E
100
AcDbEntity
  8
図面
  6
Continuous
100
AcDbLine
 10
2482.443614910185
 20
832.0702824231325
 30
0.0
 11
2484.443614910185
 21
830.0702824231323
 31
0.0
  0
LINE
  5
46C
330
1E
100
AcDbEntity
  8
図面
  6
Continuous
100
AcDbLine
 10
2410.145742910185
 20
829.7702824231324
 30
0.0
 11
2437.379784910185
 21
829.7702824231324
 31
0.0
  0
LINE
  5
46D
330
1E
100
AcDbEntity
  8
図面
  6
Continuous
100
AcDbLine
 10
2444.188294910185
 20
841.1702824231324
 30
0.0
 11
2448.443614910185
 21
841.1702824231324
 31
0.0
  0
LINE
  5
46E
330
1E
100
AcDbEntity
  8
図面
  6
Continuous
100
AcDbLine
 10
2450.443614910185
 20
830.0702824231323
 30
0.0
 11
2451.747412378539
 21
830.0702824231323
 31
0.0
  0
LINE
  5
46F
330
1E
100
AcDbEntity
  8
図面
  6
Continuous
100
AcDbLine
 10
2448.443614910185
 20
843.2702824231325
 30
0.0
 11
2448.443614910185
 21
832.0702824231325
 31
0.0
  0
LINE
  5
470
330
1E
100
AcDbEntity
  8
図面
  6
Continuous
100
AcDbLine
 10
2448.443614910185
 20
832.0702824231325
 30
0.0
 11
2450.443614910185
 21
830.0702824231323
 31
0.0
  0
LINE
  5
471
330
1E
100
AcDbEntity
  8
図面
  6
Continuous
100
AcDbLine
 10
2439.081911910185
 20
832.0502824231323
 30
0.0
 11
2439.081911910185
 21
835.4702824231324
 31
0.0
  0
LINE
  5
472
330
1E
100
AcDbEntity
  8
図面
  6
Continuous
100
AcDbLine
 10
2444.188294910185
 20
835.4702824231324
 30
0.0
 11
2444.188294910185
 21
841.1702824231324
 31
0.0
  0
LINE
  5
473
330
1E
100
AcDbEntity
  8
図面
  6
Continuous
100
AcDbLine
 10
2439.081911910185
 20
835.4702824231324
 30
0.0
 11
2444.188294910185
 21
835.4702824231324
 31
0.0
  0
LINE
  5
474
330
1E
100
AcDbEntity
  8
図面
  6
Continuous
100
AcDbLine
 10
2437.379784910185
 20
829.7702824231324
 30
0.0
 11
2439.081911910185
 21
832.0502824231323
 31
0.0
  0
LINE
  5
475
330
1E
100
AcDbEntity
  8
図面
100
AcDbLine
 10
2408.709437694995
 20
723.0044596383224
 30
0.0
 11
2408.709437694995
 21
800.5614216637273
 31
0.0
  0
LINE
  5
476
330
1E
100
AcDbEntity
  8
図面
100
AcDbLine
 10
2408.709437694995
 20
800.5614216637275
 30
0.0
 11
2408.709437694995
 21
815.2955988789174
 31
0.0
  0
LINE
  5
477
330
1E
100
AcDbEntity
  8
図面
  6
Continuous
100
AcDbLine
 10
2408.443614910185
 20
884.4902824231324
 30
0.0
 11
2410.145742910185
 21
886.7702824231324
 31
0.0
  0
LINE
  5
478
330
1E
100
AcDbEntity
  8
図面
100
AcDbLine
 10
2482.443614910185
 20
901.244965967525
 30
0.0
 11
2408.709437694995
 21
901.244965967525
 31
0.0
  0
LINE
  5
479
330
1E
100
AcDbEntity
  8
図面
100
AcDbLine
 10
2408.709437694995
 20
915.9791431827148
 30
0.0
 11
2482.443614910185
 21
915.9791431827148
 31
0.0
  0
LINE
  5
47A
330
1E
100
AcDbEntity
  8
図面
100
AcDbLine
 10
2408.709437694995
 20
915.9791431827148
 30
0.0
 11
2423.443614910185
 21
915.9791431827148
 31
0.0
  0
LINE
  5
47B
330
1E
100
AcDbEntity
  8
図面
  6
Continuous
100
AcDbLine
 10
2482.443614910185
 20
915.9791431827148
 30
0.0
 11
2482.443614910185
 21
901.244965967525
 31
0.0
  0
LINE
  5
47C
330
1E
100
AcDbEntity
  8
図面
  6
HIDDEN2
 62
   253
100
AcDbLine
 10
2482.443614910185
 20
888.9664849548669
 30
0.0
 11
2451.747412378539
 21
888.9664849548669
 31
0.0
  0
LINE
  5
47D
330
1E
100
AcDbEntity
  8
図面
  6
Continuous
100
AcDbLine
 10
2482.443614910185
 20
884.4702824231324
 30
0.0
 11
2482.443614910185
 21
858.2702824231324
 31
0.0
  0
LINE
  5
47E
330
1E
100
AcDbEntity
  8
図面
  6
Continuous
100
AcDbLine
 10
2482.443614910185
 20
884.4702824231324
 30
0.0
 11
2484.443614910185
 21
886.4702824231324
 31
0.0
  0
LINE
  5
47F
330
1E
100
AcDbEntity
  8
図面
100
AcDbLine
 10
2484.570407910185
 20
886.4702824231324
 30
0.0
 11
2484.440736910185
 21
886.4702824231324
 31
0.0
  0
LINE
  5
480
330
1E
100
AcDbEntity
  8
図面
  6
Continuous
100
AcDbLine
 10
2444.188294910185
 20
881.0702824231323
 30
0.0
 11
2444.188294910185
 21
875.3702824231325
 31
0.0
  0
LINE
  5
481
330
1E
100
AcDbEntity
  8
図面
  6
Continuous
100
AcDbLine
 10
2448.443614910185
 20
873.2702824231325
 30
0.0
 11
2448.443614910185
 21
884.4702824231324
 31
0.0
  0
LINE
  5
482
330
1E
100
AcDbEntity
  8
図面
  6
Continuous
100
AcDbLine
 10
2410.145742910185
 20
886.7702824231324
 30
0.0
 11
2410.145742910185
 21
858.2702824231324
 31
0.0
  0
LINE
  5
483
330
1E
100
AcDbEntity
  8
図面
  6
Continuous
100
AcDbLine
 10
2437.379784910185
 20
886.7702824231324
 30
0.0
 11
2437.379784910185
 21
858.2702824231324
 31
0.0
  0
LINE
  5
484
330
1E
100
AcDbEntity
  8
図面
  6
Continuous
100
AcDbLine
 10
2439.081911910185
 20
881.0702824231323
 30
0.0
 11
2439.081911910185
 21
858.2702824231324
 31
0.0
  0
LINE
  5
485
330
1E
100
AcDbEntity
  8
図面
  6
Continuous
100
AcDbLine
 10
2450.443614910185
 20
886.4702824231324
 30
0.0
 11
2450.443614910185
 21
858.2702824231324
 31
0.0
  0
LINE
  5
486
330
1E
100
AcDbEntity
  8
図面
  6
Continuous
100
AcDbLine
 10
2444.188294910185
 20
875.3702824231325
 30
0.0
 11
2444.188294910185
 21
858.2702824231324
 31
0.0
  0
LINE
  5
487
330
1E
100
AcDbEntity
  8
図面
  6
Continuous
100
AcDbLine
 10
2448.443614910185
 20
873.2702824231325
 30
0.0
 11
2448.443614910185
 21
858.2702824231324
 31
0.0
  0
LINE
  5
488
330
1E
100
AcDbEntity
  8
図面
  6
Continuous
100
AcDbLine
 10
2444.188294910185
 20
875.3702824231325
 30
0.0
 11
2448.443614910185
 21
875.3702824231325
 31
0.0
  0
LINE
  5
489
330
1E
100
AcDbEntity
  8
図面
  6
Continuous
100
AcDbLine
 10
2410.145742910185
 20
886.7702824231324
 30
0.0
 11
2437.379784910185
 21
886.7702824231324
 31
0.0
  0
LINE
  5
48A
330
1E
100
AcDbEntity
  8
図面
  6
Continuous
100
AcDbLine
 10
2450.443614910185
 20
886.4702824231324
 30
0.0
 11
2451.747412378539
 21
886.4702824231324
 31
0.0
  0
LINE
  5
48B
330
1E
100
AcDbEntity
  8
図面
  6
Continuous
100
AcDbLine
 10
2448.443614910185
 20
884.4702824231324
 30
0.0
 11
2450.443614910185
 21
886.4702824231324
 31
0.0
  0
LINE
  5
48C
330
1E
100
AcDbEntity
  8
図面
  6
Continuous
100
AcDbLine
 10
2437.379784910185
 20
886.7702824231324
 30
0.0
 11
2439.081911910185
 21
884.4902824231324
 31
0.0
  0
LINE
  5
48D
330
1E
100
AcDbEntity
  8
図面
  6
Continuous
100
AcDbLine
 10
2439.081911910185
 20
884.4902824231324
 30
0.0
 11
2439.081911910185
 21
881.0702824231323
 31
0.0
  0
LINE
  5
48E
330
1E
100
AcDbEntity
  8
図面
  6
Continuous
100
AcDbLine
 10
2439.081911910185
 20
881.0702824231323
 30
0.0
 11
2444.188294910185
 21
881.0702824231323
 31
0.0
  0
LINE
  5
48F
330
1E
100
AcDbEntity
  8
図面
100
AcDbLine
 10
2408.709437694995
 20
901.2449659675251
 30
0.0
 11
2408.709437694995
 21
915.9791431827149
 31
0.0
  0
LINE
  5
490
330
1E
100
AcDbEntity
  8
図面
  6
Continuous
100
AcDbLine
 10
2408.443614910185
 20
858.2702824231324
 30
0.0
 11
2408.443614910185
 21
884.4902824231324
 31
0.0
  0
LINE
  5
495
330
1E
100
AcDbEntity
  8
図面
  6
Continuous
 62
     4
100
AcDbLine
 10
2049.443614910185
 20
988.2702824231325
 30
0.0
 11
2049.443614910185
 21
728.2702824231325
 31
0.0
  0
LINE
  5
496
330
1E
100
AcDbEntity
  8
図面
  6
Continuous
 62
     4
100
AcDbLine
 10
2049.443614910185
 20
728.2702824231325
 30
0.0
 11
2397.443614910185
 21
728.2702824231325
 31
0.0
  0
LINE
  5
497
330
1E
100
AcDbEntity
  8
図面
  6
Continuous
 62
     4
100
AcDbLine
 10
2397.443614910185
 20
728.2702824231325
 30
0.0
 11
2397.443614910185
 21
988.2702824231325
 31
0.0
  0
LINE
  5
498
330
1E
100
AcDbEntity
  8
図面
  6
Continuous
 62
     4
100
AcDbLine
 10
2397.443614910185
 20
988.2702824231325
 30
0.0
 11
2049.443614910185
 21
988.2702824231325
 31
0.0
  0
LINE
  5
4AA
330
1E
100
AcDbEntity
  8
図面
  6
Continuous
100
AcDbLine
 10
1936.883616101021
 20
334.9532900639313
 30
0.0
 11
1936.883616101021
 21
319.9532900639313
 31
0.0
  0
LINE
  5
4AB
330
1E
100
AcDbEntity
  8
図面
  6
Continuous
100
AcDbLine
 10
1936.883616101021
 20
319.9532900639313
 30
0.0
 11
2518.883616101021
 21
319.9532900639313
 31
0.0
  0
LINE
  5
4AC
330
1E
100
AcDbEntity
  8
図面
  6
Continuous
100
AcDbLine
 10
2518.883616101021
 20
319.9532900639313
 30
0.0
 11
2518.883616101021
 21
334.9532900639313
 31
0.0
  0
LINE
  5
4AD
330
1E
100
AcDbEntity
  8
図面
  6
Continuous
100
AcDbLine
 10
2518.883616101021
 20
334.9532900639313
 30
0.0
 11
1936.883616101021
 21
334.9532900639313
 31
0.0
  0
LINE
  5
4AE
330
1E
100
AcDbEntity
  8
図面
  6
Continuous
100
AcDbLine
 10
2027.883616101021
 20
415.9532900639313
 30
0.0
 11
2027.883616101021
 21
334.9532900639313
 31
0.0
  0
LINE
  5
4AF
330
1E
100
AcDbEntity
  8
図面
  6
Continuous
100
AcDbLine
 10
2427.883616101021
 20
415.9532900639313
 30
0.0
 11
2427.883616101021
 21
334.9532900639313
 31
0.0
  0
LINE
  5
4B0
330
1E
100
AcDbEntity
  8
図面
  6
Continuous
100
AcDbLine
 10
2027.883616101021
 20
415.9532900639313
 30
0.0
 11
2427.883616101021
 21
415.9532900639313
 31
0.0
  0
LINE
  5
4B1
330
1E
100
AcDbEntity
  8
図面
  6
Continuous
100
AcDbLine
 10
2102.883616101021
 20
415.9532900639313
 30
0.0
 11
2102.883616101021
 21
469.9532900639313
 31
0.0
  0
LINE
  5
4B2
330
1E
100
AcDbEntity
  8
図面
  6
Continuous
100
AcDbLine
 10
2102.883616101021
 20
469.9532900639313
 30
0.0
 11
2352.883616101021
 21
469.9532900639313
 31
0.0
  0
LINE
  5
4B3
330
1E
100
AcDbEntity
  8
図面
  6
Continuous
100
AcDbLine
 10
2352.883616101021
 20
469.9532900639313
 30
0.0
 11
2352.883616101021
 21
415.9532900639313
 31
0.0
  0
LINE
  5
4B4
330
1E
100
AcDbEntity
  8
図面
  6
Continuous
100
AcDbLine
 10
1968.883616101021
 20
415.9532900639313
 30
0.0
 11
1968.883616101021
 21
334.9532900639313
 31
0.0
  0
LINE
  5
4B5
330
1E
100
AcDbEntity
  8
図面
  6
Continuous
100
AcDbLine
 10
2027.883616101021
 20
415.9532900639313
 30
0.0
 11
1968.883616101021
 21
415.9532900639313
 31
0.0
  0
LINE
  5
4B6
330
1E
100
AcDbEntity
  8
図面
  6
Continuous
100
AcDbLine
 10
2486.883616101021
 20
415.9532900639313
 30
0.0
 11
2486.883616101021
 21
334.9532900639313
 31
0.0
  0
LINE
  5
4B7
330
1E
100
AcDbEntity
  8
図面
  6
Continuous
100
AcDbLine
 10
2427.883616101021
 20
415.9532900639313
 30
0.0
 11
2427.883616101021
 21
334.9532900639313
 31
0.0
  0
LINE
  5
4B8
330
1E
100
AcDbEntity
  8
図面
  6
Continuous
100
AcDbLine
 10
2427.883616101021
 20
415.9532900639313
 30
0.0
 11
2486.883616101021
 21
415.9532900639313
 31
0.0
  0
LINE
  5
4B9
330
1E
100
AcDbEntity
  8
図面
  6
DASHDOT
 62
     1
100
AcDbLine
 10
1968.883616101021
 20
375.4532900639313
 30
0.0
 11
1792.927488754713
 21
375.4532900639313
 31
0.0
  0
LINE
  5
4BA
330
1E
100
AcDbEntity
  8
図面
  6
Continuous
100
AcDbLine
 10
1968.883616101021
 20
403.6532900639313
 30
0.0
 11
1810.883616101021
 21
403.6532900639313
 31
0.0
  0
LINE
  5
4BB
330
1E
100
AcDbEntity
  8
図面
  6
Continuous
100
AcDbLine
 10
1968.883616101021
 20
347.2532900639313
 30
0.0
 11
1810.883616101021
 21
347.2532900639313
 31
0.0
  0
LINE
  5
4BC
330
1E
100
AcDbEntity
  8
図面
  6
Continuous
100
AcDbLine
 10
1808.883616101021
 20
349.2532900639313
 30
0.0
 11
1808.883616101021
 21
375.4532900639313
 31
0.0
  0
LINE
  5
4BD
330
1E
100
AcDbEntity
  8
図面
  6
Continuous
100
AcDbLine
 10
1810.883616101021
 20
347.2532900639313
 30
0.0
 11
1810.883616101021
 21
375.4532900639313
 31
0.0
  0
LINE
  5
4BE
330
1E
100
AcDbEntity
  8
図面
  6
Continuous
100
AcDbLine
 10
1810.883616101021
 20
347.2532900639313
 30
0.0
 11
1808.883616101021
 21
349.2532900639313
 31
0.0
  0
LINE
  5
4BF
330
1E
100
AcDbEntity
  8
図面
  6
Continuous
100
AcDbLine
 10
1808.883616101021
 20
401.6532900639313
 30
0.0
 11
1808.883616101021
 21
375.4532900639313
 31
0.0
  0
LINE
  5
4C0
330
1E
100
AcDbEntity
  8
図面
  6
Continuous
100
AcDbLine
 10
1810.883616101021
 20
403.6532900639313
 30
0.0
 11
1810.883616101021
 21
375.4532900639313
 31
0.0
  0
LINE
  5
4C1
330
1E
100
AcDbEntity
  8
図面
  6
Continuous
100
AcDbLine
 10
1810.883616101021
 20
403.6532900639313
 30
0.0
 11
1808.883616101021
 21
401.6532900639313
 31
0.0
  0
LINE
  5
4C2
330
1E
100
AcDbEntity
  8
図面
  6
Continuous
100
AcDbLine
 10
2486.883616101021
 20
347.2532900639313
 30
0.0
 11
2644.883616101021
 21
347.2532900639313
 31
0.0
  0
LINE
  5
4C3
330
1E
100
AcDbEntity
  8
図面
  6
Continuous
100
AcDbLine
 10
2486.883616101021
 20
403.6532900639313
 30
0.0
 11
2644.883616101021
 21
403.6532900639313
 31
0.0
  0
LINE
  5
4C4
330
1E
100
AcDbEntity
  8
図面
  6
DASHDOT
 62
     1
100
AcDbLine
 10
2486.883616101021
 20
375.4532900639313
 30
0.0
 11
2662.839743447329
 21
375.4532900639313
 31
0.0
  0
LINE
  5
4C5
330
1E
100
AcDbEntity
  8
図面
  6
Continuous
100
AcDbLine
 10
2644.883616101021
 20
347.2532900639313
 30
0.0
 11
2644.883616101021
 21
375.4532900639313
 31
0.0
  0
LINE
  5
4C6
330
1E
100
AcDbEntity
  8
図面
  6
Continuous
100
AcDbLine
 10
2646.883616101021
 20
349.2532900639313
 30
0.0
 11
2646.883616101021
 21
375.4532900639313
 31
0.0
  0
LINE
  5
4C7
330
1E
100
AcDbEntity
  8
図面
  6
Continuous
100
AcDbLine
 10
2644.883616101021
 20
347.2532900639313
 30
0.0
 11
2646.883616101021
 21
349.2532900639313
 31
0.0
  0
LINE
  5
4C8
330
1E
100
AcDbEntity
  8
図面
  6
Continuous
100
AcDbLine
 10
2644.883616101021
 20
403.6532900639313
 30
0.0
 11
2644.883616101021
 21
375.4532900639313
 31
0.0
  0
LINE
  5
4C9
330
1E
100
AcDbEntity
  8
図面
  6
Continuous
100
AcDbLine
 10
2646.883616101021
 20
401.6532900639313
 30
0.0
 11
2646.883616101021
 21
375.4532900639313
 31
0.0
  0
LINE
  5
4CA
330
1E
100
AcDbEntity
  8
図面
  6
Continuous
100
AcDbLine
 10
2644.883616101021
 20
403.6532900639313
 30
0.0
 11
2646.883616101021
 21
401.6532900639313
 31
0.0
  0
DIMENSION
  5
4CD
330
1E
100
AcDbEntity
  8
図面
  6
Continuous
100
AcDbDimension
  2
*D1
 10
2352.883616101021
 20
500.9596049130116
 30
0.0
 11
2227.883616101021
 21
511.4596049130116
 31
0.0
 70
    32
 71
     5
 42
250.0
  3
Standard
100
AcDbAlignedDimension
 13
2102.883616101021
 23
469.9532900639313
 33
0.0
 14
2352.883616101021
 24
469.9532900639313
 34
0.0
100
AcDbRotatedDimension
1001
ACAD
1000
DSTYLE
1002
{
1070
   343
1005
0
1070
   173
1070
     1
1070
   344
1005
0
1070
    41
1040
20.0
1070
    44
1040
2.0
1070
    73
1070
     0
1070
    74
1070
     0
1070
    77
1070
     1
1070
   140
1040
20.0
1070
   147
1040
0.5
1070
   176
1070
     1
1070
   177
1070
     1
1070
   178
1070
     1
1070
   271
1070
     0
1070
   272
1070
     0
1070
   279
1070
     2
1070
   340
1005
520
1070
   341
1005
1C1
1070
   342
1005
0
1002
}
  0
DIMENSION
  5
4DA
330
1E
100
AcDbEntity
  8
図面
  6
Continuous
100
AcDbDimension
  2
*D2
 10
2642.443614910185
 20
1104.431545626878
 30
0.0
 11
2223.443614910185
 21
1114.931545626878
 31
0.0
 70
    32
 71
     5
 42
838.0
  3
Standard
100
AcDbAlignedDimension
 13
1804.443614910185
 23
903.5114991510961
 33
0.0
 14
2642.443614910185
 24
903.5114991510961
 34
0.0
100
AcDbRotatedDimension
1001
ACAD
1000
DSTYLE
1002
{
1070
    42
1040
10.0
1070
   343
1005
0
1070
   173
1070
     1
1070
   344
1005
0
1070
    41
1040
20.0
1070
    44
1040
10.0
1070
    73
1070
     0
1070
    74
1070
     0
1070
    77
1070
     1
1070
   140
1040
20.0
1070
   147
1040
0.5
1070
   176
1070
     1
1070
   177
1070
     1
1070
   178
1070
     1
1070
   271
1070
     0
1070
   272
1070
     0
1070
   279
1070
     2
1070
   340
1005
520
1070
   341
1005
1C1
1070
   342
1005
0
1002
}
  0
DIMENSION
  5
4E7
330
1E
100
AcDbEntity
  8
図面
  6
Continuous
100
AcDbDimension
  2
*D3
 10
2514.443614910185
 20
1065.804920345605
 30
0.0
 11
2223.443614910185
 21
1076.304920345605
 31
0.0
 70
    32
 71
     5
 42
582.0
  3
Standard
100
AcDbAlignedDimension
 13
1932.443614910185
 23
946.877877359841
 33
0.0
 14
2514.443614910185
 24
946.877877359841
 34
0.0
100
AcDbRotatedDimension
1001
ACAD
1000
DSTYLE
1002
{
1070
    42
1040
10.0
1070
   343
1005
0
1070
   173
1070
     1
1070
   344
1005
0
1070
    41
1040
20.0
1070
    44
1040
10.0
1070
    73
1070
     0
1070
    74
1070
     0
1070
    77
1070
     1
1070
   140
1040
20.0
1070
   147
1040
0.5
1070
   176
1070
     1
1070
   177
1070
     1
1070
   178
1070
     1
1070
   271
1070
     0
1070
   272
1070
     0
1070
   279
1070
     2
1070
   340
1005
520
1070
   341
1005
1C1
1070
   342
1005
0
1002
}
  0
DIMENSION
  5
4F4
330
1E
100
AcDbEntity
  8
図面
  6
Continuous
100
AcDbDimension
  2
*D4
 10
2703.139947989791
 20
708.2702824231325
 30
0.0
 11
2692.639947989791
 21
858.2702824231324
 31
0.0
 70
    32
 71
     5
 42
299.9999999999999
  3
Standard
100
AcDbAlignedDimension
 13
2423.443614910185
 23
1008.270282423132
 33
0.0
 14
2423.443614910185
 24
708.2702824231325
 34
0.0
 50
90.0
100
AcDbRotatedDimension
1001
ACAD
1000
DSTYLE
1002
{
1070
    42
1040
10.0
1070
   343
1005
0
1070
   173
1070
     1
1070
   344
1005
0
1070
    41
1040
20.0
1070
    44
1040
10.0
1070
    73
1070
     0
1070
    74
1070
     0
1070
    77
1070
     1
1070
   140
1040
20.0
1070
   147
1040
0.5
1070
   176
1070
     1
1070
   177
1070
     1
1070
   178
1070
     1
1070
   271
1070
     0
1070
   272
1070
     0
1070
   279
1070
     2
1070
   340
1005
520
1070
   341
1005
1C1
1070
   342
1005
0
1002
}
  0
DIMENSION
  5
501
330
1E
100
AcDbEntity
  8
図面
  6
Continuous
100
AcDbDimension
  2
*D5
 10
2707.447214627225
 20
319.9532900639313
 30
0.0
 11
2696.947214627225
 21
394.9532900639313
 31
0.0
 70
    32
 71
     5
 42
150.0
  3
Standard
100
AcDbAlignedDimension
 13
2352.883616101021
 23
469.9532900639313
 33
0.0
 14
2518.883616101021
 24
319.9532900639313
 34
0.0
 50
90.0
100
AcDbRotatedDimension
1001
ACAD
1000
DSTYLE
1002
{
1070
   343
1005
0
1070
   173
1070
     1
1070
   344
1005
0
1070
    41
1040
20.0
1070
    44
1040
2.0
1070
    73
1070
     0
1070
    74
1070
     0
1070
    77
1070
     1
1070
   140
1040
20.0
1070
   147
1040
0.5
1070
   176
1070
     1
1070
   177
1070
     1
1070
   178
1070
     1
1070
   271
1070
     0
1070
   272
1070
     0
1070
   279
1070
     2
1070
   340
1005
520
1070
   341
1005
1C1
1070
   342
1005
0
1002
}
  0
TEXT
  5
54C
102
{ACAD_REACTORS
330
76B
102
}
330
1E
100
AcDbEntity
  8
ﾚｲﾔ1
 62
     7
100
AcDbText
 10
2771.211768134447
 20
356.9255715498376
 30
0.0
 40
17.69787664823742
  1
油圧送り台
  7
WMF-ＭＳ Ｐ明朝0
100
AcDbText
  0
TEXT
  5
54D
102
{ACAD_REACTORS
330
76B
102
}
330
1E
100
AcDbEntity
  8
ﾚｲﾔ1
 62
     7
100
AcDbText
 10
2771.211768134447
 20
325.282216150299
 30
0.0
 40
17.69787664823742
  1
水平力
  7
WMF-ＭＳ Ｐ明朝0
100
AcDbText
  0
TEXT
  5
54E
102
{ACAD_REACTORS
330
76B
102
}
330
1E
100
AcDbEntity
  8
ﾚｲﾔ1
 62
     7
100
AcDbText
 10
2923.412484959033
 20
324.1777290605559
 30
0.0
 40
17.69787664823742
  1
100KN
  7
WMF-ＭＳ Ｐ明朝0
100
AcDbText
  0
TEXT
  5
54F
102
{ACAD_REACTORS
330
76B
102
}
330
1E
100
AcDbEntity
  8
ﾚｲﾔ1
 62
     7
100
AcDbText
 10
2771.211768134447
 20
293.638860750761
 30
0.0
 40
17.69787664823742
  1
移動距離
  7
WMF-ＭＳ Ｐ明朝0
100
AcDbText
  0
TEXT
  5
550
102
{ACAD_REACTORS
330
76B
102
}
330
1E
100
AcDbEntity
  8
ﾚｲﾔ1
 62
     7
100
AcDbText
 10
2919.067446461494
 20
293.638860750761
 30
0.0
 40
17.69787664823742
  1
100mm
  7
WMF-ＭＳ Ｐ明朝0
100
AcDbText
  0
TEXT
  5
551
102
{ACAD_REACTORS
330
76B
102
}
330
1E
100
AcDbEntity
  8
ﾚｲﾔ1
 62
     7
100
AcDbText
 10
2771.211768134447
 20
261.9955053512223
 30
0.0
 40
17.69787664823742
  1
最大荷重
  7
WMF-ＭＳ Ｐ明朝0
100
AcDbText
  0
TEXT
  5
552
102
{ACAD_REACTORS
330
76B
102
}
330
1E
100
AcDbEntity
  8
ﾚｲﾔ1
 62
     7
100
AcDbText
 10
2910.393058157959
 20
261.5640650817917
 30
0.0
 40
17.69787664823742
  1
1000KN
  7
WMF-ＭＳ Ｐ明朝0
100
AcDbText
  0
POLYLINE
  5
573
102
{ACAD_REACTORS
330
76B
102
}
330
1E
100
AcDbEntity
  8
ﾚｲﾔ1
 62
     7
100
AcDb2dPolyline
 66
     1
 10
0.0
 20
0.0
 30
0.0
  0
VERTEX
  5
574
330
573
100
AcDbEntity
  8
ﾚｲﾔ1
 62
     7
100
AcDbVertex
100
AcDb2dVertex
 10
2765.611174258422
 20
383.2483627671526
 30
0.0
  0
VERTEX
  5
575
330
573
100
AcDbEntity
  8
ﾚｲﾔ1
 62
     7
100
AcDbVertex
100
AcDb2dVertex
 10
2997.475760725837
 20
383.2483627671526
 30
0.0
  0
SEQEND
  5
576
330
573
100
AcDbEntity
  8
ﾚｲﾔ1
 62
     7
  0
POLYLINE
  5
577
102
{ACAD_REACTORS
330
76B
102
}
330
1E
100
AcDbEntity
  8
ﾚｲﾔ1
 62
     7
100
AcDb2dPolyline
 66
     1
 10
0.0
 20
0.0
 30
0.0
  0
VERTEX
  5
578
330
577
100
AcDbEntity
  8
ﾚｲﾔ1
 62
     7
100
AcDbVertex
100
AcDb2dVertex
 10
2765.611174258422
 20
351.6050073676146
 30
0.0
  0
VERTEX
  5
579
330
577
100
AcDbEntity
  8
ﾚｲﾔ1
 62
     7
100
AcDbVertex
100
AcDb2dVertex
 10
2997.475760725837
 20
351.6050073676146
 30
0.0
  0
SEQEND
  5
57A
330
577
100
AcDbEntity
  8
ﾚｲﾔ1
 62
     7
  0
POLYLINE
  5
57B
102
{ACAD_REACTORS
330
76B
102
}
330
1E
100
AcDbEntity
  8
ﾚｲﾔ1
 62
     7
100
AcDb2dPolyline
 66
     1
 10
0.0
 20
0.0
 30
0.0
  0
VERTEX
  5
57C
330
57B
100
AcDbEntity
  8
ﾚｲﾔ1
 62
     7
100
AcDbVertex
100
AcDb2dVertex
 10
2765.611174258422
 20
288.3182965685372
 30
0.0
  0
VERTEX
  5
57D
330
57B
100
AcDbEntity
  8
ﾚｲﾔ1
 62
     7
100
AcDbVertex
100
AcDb2dVertex
 10
2997.475760725837
 20
288.3182965685372
 30
0.0
  0
SEQEND
  5
57E
330
57B
100
AcDbEntity
  8
ﾚｲﾔ1
 62
     7
  0
POLYLINE
  5
57F
102
{ACAD_REACTORS
330
76B
102
}
330
1E
100
AcDbEntity
  8
ﾚｲﾔ1
 62
     7
100
AcDb2dPolyline
 66
     1
 10
0.0
 20
0.0
 30
0.0
  0
VERTEX
  5
580
330
57F
100
AcDbEntity
  8
ﾚｲﾔ1
 62
     7
100
AcDbVertex
100
AcDb2dVertex
 10
2765.611174258422
 20
319.9616519680759
 30
0.0
  0
VERTEX
  5
581
330
57F
100
AcDbEntity
  8
ﾚｲﾔ1
 62
     7
100
AcDbVertex
100
AcDb2dVertex
 10
2997.475760725837
 20
319.9616519680759
 30
0.0
  0
SEQEND
  5
582
330
57F
100
AcDbEntity
  8
ﾚｲﾔ1
 62
     7
  0
POLYLINE
  5
583
102
{ACAD_REACTORS
330
76B
102
}
330
1E
100
AcDbEntity
  8
ﾚｲﾔ1
 62
     7
100
AcDb2dPolyline
 66
     1
 10
0.0
 20
0.0
 30
0.0
  0
VERTEX
  5
584
330
583
100
AcDbEntity
  8
ﾚｲﾔ1
 62
     7
100
AcDbVertex
100
AcDb2dVertex
 10
2765.611174258422
 20
256.6749411689988
 30
0.0
  0
VERTEX
  5
585
330
583
100
AcDbEntity
  8
ﾚｲﾔ1
 62
     7
100
AcDbVertex
100
AcDb2dVertex
 10
2997.475760725837
 20
256.6749411689988
 30
0.0
  0
SEQEND
  5
586
330
583
100
AcDbEntity
  8
ﾚｲﾔ1
 62
     7
  0
POLYLINE
  5
587
102
{ACAD_REACTORS
330
76B
102
}
330
1E
100
AcDbEntity
  8
ﾚｲﾔ1
 62
     7
100
AcDb2dPolyline
 66
     1
 10
0.0
 20
0.0
 30
0.0
  0
VERTEX
  5
588
330
587
100
AcDbEntity
  8
ﾚｲﾔ1
 62
     7
100
AcDbVertex
100
AcDb2dVertex
 10
2765.611174258422
 20
383.2483627671526
 30
0.0
  0
VERTEX
  5
589
330
587
100
AcDbEntity
  8
ﾚｲﾔ1
 62
     7
100
AcDbVertex
100
AcDb2dVertex
 10
2765.611174258422
 20
256.6749411689988
 30
0.0
  0
SEQEND
  5
58A
330
587
100
AcDbEntity
  8
ﾚｲﾔ1
 62
     7
  0
POLYLINE
  5
58B
102
{ACAD_REACTORS
330
76B
102
}
330
1E
100
AcDbEntity
  8
ﾚｲﾔ1
 62
     7
100
AcDb2dPolyline
 66
     1
 10
0.0
 20
0.0
 30
0.0
  0
VERTEX
  5
58C
330
58B
100
AcDbEntity
  8
ﾚｲﾔ1
 62
     7
100
AcDbVertex
100
AcDb2dVertex
 10
2881.543467492129
 20
351.6050073676141
 30
0.0
  0
VERTEX
  5
58D
330
58B
100
AcDbEntity
  8
ﾚｲﾔ1
 62
     7
100
AcDbVertex
100
AcDb2dVertex
 10
2881.543467492129
 20
256.6749411689988
 30
0.0
  0
SEQEND
  5
58E
330
58B
100
AcDbEntity
  8
ﾚｲﾔ1
 62
     7
  0
POLYLINE
  5
58F
102
{ACAD_REACTORS
330
76B
102
}
330
1E
100
AcDbEntity
  8
ﾚｲﾔ1
 62
     7
100
AcDb2dPolyline
 66
     1
 10
0.0
 20
0.0
 30
0.0
  0
VERTEX
  5
590
330
58F
100
AcDbEntity
  8
ﾚｲﾔ1
 62
     7
100
AcDbVertex
100
AcDb2dVertex
 10
2997.475760725837
 20
381.0081252167428
 30
0.0
  0
VERTEX
  5
591
330
58F
100
AcDbEntity
  8
ﾚｲﾔ1
 62
     7
100
AcDbVertex
100
AcDb2dVertex
 10
2997.475760725837
 20
256.6749411689988
 30
0.0
  0
SEQEND
  5
592
330
58F
100
AcDbEntity
  8
ﾚｲﾔ1
 62
     7
  0
LWPOLYLINE
  5
72F
102
{ACAD_REACTORS
330
76C
102
}
330
1E
100
AcDbEntity
  8
図面枠
  6
Continuous
 62
   254
100
AcDbPolyline
 90
        4
 70
     1
 43
0.0
 10
1414.084253117928
 20
61.75109913351639
 10
3094.084253117928
 20
61.75109913351639
 10
3094.084253117928
 20
1249.751099133516
 10
1414.084253117928
 20
1249.751099133516
  0
LINE
  5
730
102
{ACAD_REACTORS
330
76C
102
}
330
1E
100
AcDbEntity
  8
図面枠
  6
Continuous
100
AcDbLine
 10
3034.084253117928
 20
1209.751099133516
 30
0.0
 11
1494.084253117928
 21
1209.751099133516
 31
0.0
  0
LINE
  5
731
102
{ACAD_REACTORS
330
76C
102
}
330
1E
100
AcDbEntity
  8
図面枠
  6
Continuous
100
AcDbLine
 10
1494.084253117928
 20
1209.751099133516
 30
0.0
 11
1494.084253117928
 21
121.7510991335164
 31
0.0
  0
LINE
  5
732
102
{ACAD_REACTORS
330
76C
102
}
330
1E
100
AcDbEntity
  8
図面枠
  6
Continuous
100
AcDbLine
 10
3034.084253117928
 20
121.7510991335164
 30
0.0
 11
1494.084253117928
 21
121.7510991335164
 31
0.0
  0
LINE
  5
733
102
{ACAD_REACTORS
330
76C
102
}
330
1E
100
AcDbEntity
  8
図面枠
  6
Continuous
100
AcDbLine
 10
3034.084253117928
 20
1209.751099133516
 30
0.0
 11
3034.084253117928
 21
121.7510991335164
 31
0.0
  0
LINE
  5
734
330
1E
100
AcDbEntity
  8
図面枠
  6
Continuous
100
AcDbLine
 10
2682.084253117928
 20
133.7510991335164
 30
0.0
 11
2738.084253117928
 21
133.7510991335164
 31
0.0
  0
LINE
  5
735
102
{ACAD_REACTORS
330
76C
102
}
330
1E
100
AcDbEntity
  8
図面枠
  6
Continuous
100
AcDbLine
 10
2738.084253117928
 20
133.7510991335164
 30
0.0
 11
2738.084253117928
 21
173.7510991335164
 31
0.0
  0
LINE
  5
736
102
{ACAD_REACTORS
330
76C
102
}
330
1E
100
AcDbEntity
  8
図面枠
  6
Continuous
100
AcDbLine
 10
2738.084253117928
 20
173.7510991335164
 30
0.0
 11
2738.084253117928
 21
133.7510991335164
 31
0.0
  0
LINE
  5
737
102
{ACAD_REACTORS
330
76C
102
}
330
1E
100
AcDbEntity
  8
図面枠
  6
Continuous
100
AcDbLine
 10
2738.084253117928
 20
133.7510991335164
 30
0.0
 11
2794.084253117928
 21
133.7510991335164
 31
0.0
  0
LINE
  5
738
102
{ACAD_REACTORS
330
76C
102
}
330
1E
100
AcDbEntity
  8
図面枠
  6
Continuous
100
AcDbLine
 10
2794.084253117928
 20
133.7510991335164
 30
0.0
 11
2794.084253117928
 21
173.7510991335164
 31
0.0
  0
LINE
  5
739
102
{ACAD_REACTORS
330
76C
102
}
330
1E
100
AcDbEntity
  8
図面枠
  6
Continuous
100
AcDbLine
 10
2794.084253117928
 20
173.7510991335164
 30
0.0
 11
2738.084253117928
 21
173.7510991335164
 31
0.0
  0
LINE
  5
73A
102
{ACAD_REACTORS
330
76C
102
}
330
1E
100
AcDbEntity
  8
図面枠
  6
Continuous
100
AcDbLine
 10
2794.084253117928
 20
173.7510991335164
 30
0.0
 11
2794.084253117928
 21
133.7510991335164
 31
0.0
  0
LINE
  5
73B
102
{ACAD_REACTORS
330
76C
102
}
330
1E
100
AcDbEntity
  8
図面枠
  6
Continuous
100
AcDbLine
 10
2794.084253117928
 20
133.7510991335164
 30
0.0
 11
2838.084253117928
 21
133.7510991335164
 31
0.0
  0
LINE
  5
73C
102
{ACAD_REACTORS
330
76C
102
}
330
1E
100
AcDbEntity
  8
図面枠
  6
Continuous
100
AcDbLine
 10
2838.084253117928
 20
133.7510991335164
 30
0.0
 11
2838.084253117928
 21
173.7510991335164
 31
0.0
  0
LINE
  5
73D
102
{ACAD_REACTORS
330
76C
102
}
330
1E
100
AcDbEntity
  8
図面枠
  6
Continuous
100
AcDbLine
 10
2838.084253117928
 20
173.7510991335164
 30
0.0
 11
2794.084253117928
 21
173.7510991335164
 31
0.0
  0
LINE
  5
73E
102
{ACAD_REACTORS
330
76C
102
}
330
1E
100
AcDbEntity
  8
図面枠
  6
Continuous
100
AcDbLine
 10
2838.084253117928
 20
173.7510991335164
 30
0.0
 11
2838.084253117928
 21
133.7510991335164
 31
0.0
  0
LINE
  5
73F
102
{ACAD_REACTORS
330
76C
102
}
330
1E
100
AcDbEntity
  8
図面枠
  6
Continuous
100
AcDbLine
 10
2838.084253117928
 20
133.7510991335164
 30
0.0
 11
2854.084253117928
 21
133.7510991335164
 31
0.0
  0
LINE
  5
740
102
{ACAD_REACTORS
330
76C
102
}
330
1E
100
AcDbEntity
  8
図面枠
  6
Continuous
100
AcDbLine
 10
2854.084253117928
 20
133.7510991335164
 30
0.0
 11
2854.084253117928
 21
173.7510991335164
 31
0.0
  0
LINE
  5
741
102
{ACAD_REACTORS
330
76C
102
}
330
1E
100
AcDbEntity
  8
図面枠
  6
Continuous
100
AcDbLine
 10
2854.084253117928
 20
173.7510991335164
 30
0.0
 11
2838.084253117928
 21
173.7510991335164
 31
0.0
  0
LINE
  5
742
102
{ACAD_REACTORS
330
76C
102
}
330
1E
100
AcDbEntity
  8
図面枠
  6
Continuous
100
AcDbLine
 10
2854.084253117928
 20
173.7510991335164
 30
0.0
 11
2854.084253117928
 21
133.7510991335164
 31
0.0
  0
LINE
  5
743
102
{ACAD_REACTORS
330
76C
102
}
330
1E
100
AcDbEntity
  8
図面枠
  6
Continuous
100
AcDbLine
 10
2854.084253117928
 20
133.7510991335164
 30
0.0
 11
3022.084253117928
 21
133.7510991335164
 31
0.0
  0
LINE
  5
744
102
{ACAD_REACTORS
330
76C
102
}
330
1E
100
AcDbEntity
  8
図面枠
  6
Continuous
100
AcDbLine
 10
3022.084253117928
 20
133.7510991335164
 30
0.0
 11
3022.084253117928
 21
173.7510991335164
 31
0.0
  0
LINE
  5
745
102
{ACAD_REACTORS
330
76C
102
}
330
1E
100
AcDbEntity
  8
図面枠
  6
Continuous
100
AcDbLine
 10
3022.084253117928
 20
173.7510991335164
 30
0.0
 11
2854.084253117928
 21
173.7510991335164
 31
0.0
  0
LINE
  5
746
102
{ACAD_REACTORS
330
76C
102
}
330
1E
100
AcDbEntity
  8
図面枠
  6
Continuous
100
AcDbLine
 10
2738.084253117928
 20
193.7510991335164
 30
0.0
 11
2738.084253117928
 21
173.7510991335164
 31
0.0
  0
LINE
  5
747
102
{ACAD_REACTORS
330
76C
102
}
330
1E
100
AcDbEntity
  8
図面枠
  6
Continuous
100
AcDbLine
 10
2738.084253117928
 20
213.7510991335164
 30
0.0
 11
2738.084253117928
 21
193.7510991335164
 31
0.0
  0
LINE
  5
748
102
{ACAD_REACTORS
330
76C
102
}
330
1E
100
AcDbEntity
  8
図面枠
  6
Continuous
100
AcDbLine
 10
2738.084253117928
 20
233.7510991335164
 30
0.0
 11
2738.084253117928
 21
213.7510991335164
 31
0.0
  0
LINE
  5
749
102
{ACAD_REACTORS
330
76C
102
}
330
1E
100
AcDbEntity
  8
図面枠
  6
Continuous
100
AcDbLine
 10
2738.084253117928
 20
233.7510991335164
 30
0.0
 11
2738.084253117928
 21
173.7510991335164
 31
0.0
  0
LINE
  5
74A
102
{ACAD_REACTORS
330
76C
102
}
330
1E
100
AcDbEntity
  8
図面枠
  6
Continuous
100
AcDbLine
 10
2738.084253117928
 20
173.7510991335164
 30
0.0
 11
2758.084253117928
 21
173.7510991335164
 31
0.0
  0
LINE
  5
74B
102
{ACAD_REACTORS
330
76C
102
}
330
1E
100
AcDbEntity
  8
図面枠
  6
Continuous
100
AcDbLine
 10
2758.084253117928
 20
173.7510991335164
 30
0.0
 11
2758.084253117928
 21
233.7510991335164
 31
0.0
  0
LINE
  5
74C
102
{ACAD_REACTORS
330
76C
102
}
330
1E
100
AcDbEntity
  8
図面枠
  6
Continuous
100
AcDbLine
 10
2758.084253117928
 20
233.7510991335164
 30
0.0
 11
2738.084253117928
 21
233.7510991335164
 31
0.0
  0
LINE
  5
74D
102
{ACAD_REACTORS
330
76C
102
}
330
1E
100
AcDbEntity
  8
図面枠
  6
Continuous
100
AcDbLine
 10
2758.084253117928
 20
173.7510991335164
 30
0.0
 11
2758.084253117928
 21
233.7510991335164
 31
0.0
  0
LINE
  5
74E
102
{ACAD_REACTORS
330
76C
102
}
330
1E
100
AcDbEntity
  8
図面枠
  6
Continuous
100
AcDbLine
 10
2758.084253117928
 20
233.7510991335164
 30
0.0
 11
3022.084253117928
 21
233.7510991335164
 31
0.0
  0
LINE
  5
74F
102
{ACAD_REACTORS
330
76C
102
}
330
1E
100
AcDbEntity
  8
図面枠
  6
Continuous
100
AcDbLine
 10
3022.084253117928
 20
233.7510991335164
 30
0.0
 11
3022.084253117928
 21
173.7510991335164
 31
0.0
  0
LINE
  5
750
102
{ACAD_REACTORS
330
76C
102
}
330
1E
100
AcDbEntity
  8
図面枠
  6
Continuous
100
AcDbLine
 10
3022.084253117928
 20
173.7510991335164
 30
0.0
 11
2758.084253117928
 21
173.7510991335164
 31
0.0
  0
LINE
  5
751
330
1E
100
AcDbEntity
  8
図面枠
  6
Continuous
100
AcDbLine
 10
3022.084253117928
 20
313.7510991335164
 30
0.0
 11
3022.084253117928
 21
233.7510991335164
 31
0.0
  0
LINE
  5
752
102
{ACAD_REACTORS
330
76C
102
}
330
1E
100
AcDbEntity
  8
図面枠
  6
Continuous
100
AcDbLine
 10
2770.084253117928
 20
201.3510991335163
 30
0.0
 11
3009.284253117928
 21
201.3510991335163
 31
0.0
  0
LINE
  5
753
102
{ACAD_REACTORS
330
76C
102
}
330
1E
100
AcDbEntity
  8
図面枠
  6
Continuous
100
AcDbLine
 10
1506.084253117928
 20
1197.751099133516
 30
0.0
 11
3022.084253117928
 21
1197.751099133516
 31
0.0
  0
LINE
  5
754
102
{ACAD_REACTORS
330
76C
102
}
330
1E
100
AcDbEntity
  8
図面枠
  6
Continuous
100
AcDbLine
 10
1506.084253117928
 20
133.7510991335164
 30
0.0
 11
1506.084253117928
 21
1197.751099133516
 31
0.0
  0
LINE
  5
755
102
{ACAD_REACTORS
330
76C
102
}
330
1E
100
AcDbEntity
  8
図面枠
  6
Continuous
100
AcDbLine
 10
3022.084253117928
 20
1197.751099133516
 30
0.0
 11
3022.084253117928
 21
133.7510991335164
 31
0.0
  0
LINE
  5
756
102
{ACAD_REACTORS
330
76C
102
}
330
1E
100
AcDbEntity
  8
図面枠
  6
Continuous
100
AcDbLine
 10
3022.084253117928
 20
133.7510991335164
 30
0.0
 11
1506.084253117928
 21
133.7510991335164
 31
0.0
  0
TEXT
  5
757
102
{ACAD_REACTORS
330
76C
102
}
330
1E
100
AcDbEntity
  8
図面枠
100
AcDbText
 10
2744.407921180651
 20
156.605223332177
 30
0.0
 40
10.66666666666667
  1
尺  度
  7
WMF-ＭＳ Ｐ明朝0
100
AcDbText
  0
TEXT
  5
758
102
{ACAD_REACTORS
330
76C
102
}
330
1E
100
AcDbEntity
  8
図面枠
100
AcDbText
 10
2839.546783216242
 20
137.7786834832366
 30
0.0
 40
9.600000000000001
  1
番
  7
WMF-ＭＳ Ｐ明朝0
100
AcDbText
  0
TEXT
  5
759
102
{ACAD_REACTORS
330
76C
102
}
330
1E
100
AcDbEntity
  8
図面枠
100
AcDbText
 10
2798.051562147716
 20
156.2864576361067
 30
0.0
 40
9.600000000000001
  1
重  量
  7
WMF-ＭＳ Ｐ明朝0
100
AcDbText
  0
TEXT
  5
75A
102
{ACAD_REACTORS
330
76C
102
}
330
1E
100
AcDbEntity
  8
図面枠
100
AcDbText
 10
2752.707128340619
 20
138.2228242328979
 30
0.0
 40
12.0
  1
１：3
  7
WMF-ＭＳ Ｐ明朝0
100
AcDbText
  0
TEXT
  5
75B
102
{ACAD_REACTORS
330
76C
102
}
330
1E
100
AcDbEntity
  8
図面枠
100
AcDbText
 10
2839.738652130214
 20
157.6903187638255
 30
0.0
 40
9.600000000000001
  1
図
  7
WMF-ＭＳ Ｐ明朝0
100
AcDbText
  0
MTEXT
  5
75C
102
{ACAD_REACTORS
330
76C
102
}
330
1E
100
AcDbEntity
  8
図面枠
370
    30
100
AcDbMText
 10
2727.760212058031
 20
119.9170434820493
 30
0.0
 40
17.6
 41
319.5152555495015
 71
     1
 72
     5
  1
株式会社　関東油機サービス
  7
WMF-ＭＳ Ｐ明朝0
 73
     1
 44
1.0
1001
ACAD
1000
ACAD_MTEXT_DEFINED_HEIGHT_BEGIN
1070
    46
1040
51.97074300569238
1000
ACAD_MTEXT_DEFINED_HEIGHT_END
  0
MTEXT
  5
75D
102
{ACAD_REACTORS
330
76C
102
}
330
1E
100
AcDbEntity
  8
文字
100
AcDbMText
 10
2781.85977250918
 20
226.7510991335164
 30
0.0
 40
20.0
 41
252.0
 71
     1
 72
     5
  1
油圧送り台
  7
WMF-ＭＳ Ｐ明朝0
 73
     1
 44
1.0
  0
MTEXT
  5
75E
102
{ACAD_REACTORS
330
76C
102
}
330
1E
100
AcDbEntity
  8
文字
100
AcDbMText
 10
2781.85977250918
 20
194.8762179602699
 30
0.0
 40
20.0
 41
252.0
 71
     1
 72
     5
  1
{SST-100}
  7
WMF-ＭＳ Ｐ明朝0
 73
     1
 44
1.0
1001
ACAD
1000
ACAD_MTEXT_DEFINED_HEIGHT_BEGIN
1070
    46
1040
20.0
1000
ACAD_MTEXT_DEFINED_HEIGHT_END
  0
LINE
  5
75F
102
{ACAD_REACTORS
330
76C
102
}
330
1E
100
AcDbEntity
  8
図面枠
100
AcDbLine
 10
2738.084253117928
 20
153.7510991335164
 30
0.0
 11
2838.084253117928
 21
153.7510991335164
 31
0.0
  0
TEXT
  5
760
102
{ACAD_REACTORS
330
76C
102
}
330
1E
100
AcDbEntity
  8
図面枠
100
AcDbText
 10
2741.259698460666
 20
213.2327789683262
 30
0.0
 40
9.830400000000004
  1
名
  7
WMF-ＭＳ Ｐ明朝0
100
AcDbText
  0
TEXT
  5
761
102
{ACAD_REACTORS
330
76C
102
}
330
1E
100
AcDbEntity
  8
図面枠
100
AcDbText
 10
2740.318385901956
 20
183.1281757925004
 30
0.0
 40
10.92266666666667
  1
称
  7
WMF-ＭＳ Ｐ明朝0
100
AcDbText
  0
TEXT
  5
76A
102
{ACAD_REACTORS
330
76C
102
}
330
1E
100
AcDbEntity
  8
図面枠
100
AcDbText
 10
2803.205835233184
 20
138.0624206553458
 30
0.0
 40
9.600000000000001
  1
63kg
  7
WMF-ＭＳ Ｐ明朝0
100
AcDbText
  0
ENDSEC
  0
SECTION
  2
OBJECTS
  0
DICTIONARY
  5
C
330
0
100
AcDbDictionary
281
     1
  3
ACAD_DETAILVIEWSTYLE
350
768
  3
ACAD_GROUP
350
D
  3
ACAD_LAYOUT
350
19
  3
ACAD_MLINESTYLE
350
16
  3
ACAD_PLOTSETTINGS
350
18
  3
ACAD_PLOTSTYLENAME
350
E
  3
ACAD_SCALELIST
350
624
  3
ACAD_SECTIONVIEWSTYLE
350
769
  3
AcDbVariableDictionary
350
619
  3
APPDATA
350
666
  3
DWGPROPS
350
775
  3
FX_DICT_DIMENSION_PALETTE
350
770
  0
DICTIONARY
  5
6AD
330
2
100
AcDbDictionary
280
     1
281
     1
  3
ACAD_LAYERSTATES
360
72B
  0
DICTIONARY
  5
6EB
330
6EA
100
AcDbDictionary
280
     1
281
     1
  3
ADSK_XREC_LAYER_RECONCILED
360
6EC
  0
DICTIONARY
  5
773
330
1E
100
AcDbDictionary
280
     1
281
     1
  3
DIM_BOUNDING_BOXES_V1
360
774
  0
DICTIONARY
  5
768
102
{ACAD_REACTORS
330
C
102
}
330
C
100
AcDbDictionary
281
     1
  0
DICTIONARY
  5
D
102
{ACAD_REACTORS
330
C
102
}
330
C
100
AcDbDictionary
281
     1
  3
*A1
350
76B
  3
*A2
350
76C
  0
DICTIONARY
  5
19
102
{ACAD_REACTORS
330
C
102
}
330
C
100
AcDbDictionary
281
     1
  3
Model
350
21
  3
ﾚｲｱｳﾄ1
350
1D
  0
DICTIONARY
  5
16
102
{ACAD_REACTORS
330
C
102
}
330
C
100
AcDbDictionary
281
     1
  3
Standard
350
17
  0
DICTIONARY
  5
18
102
{ACAD_REACTORS
330
C
102
}
330
C
100
AcDbDictionary
281
     1
  0
ACDBDICTIONARYWDFLT
  5
E
102
{ACAD_REACTORS
330
C
102
}
330
C
100
AcDbDictionary
281
     1
  3
Normal
350
F
100
AcDbDictionaryWithDefault
340
F
  0
DICTIONARY
  5
624
102
{ACAD_REACTORS
330
C
102
}
330
C
100
AcDbDictionary
281
     1
  3
A0
350
625
  3
A1
350
626
  3
A2
350
627
  3
A3
350
628
  3
A4
350
629
  3
A5
350
62A
  3
A6
350
62B
  3
A7
350
62C
  3
A8
350
62D
  3
A9
350
62E
  3
B0
350
62F
  3
B1
350
630
  3
B2
350
631
  3
B3
350
632
  3
B4
350
633
  3
B5
350
634
  3
B6
350
635
  3
B7
350
636
  3
B8
350
637
  3
B9
350
638
  3
C0
350
639
  3
C1
350
63A
  3
C2
350
63B
  3
C3
350
63C
  3
C4
350
63D
  3
C5
350
63E
  3
C6
350
63F
  3
C7
350
640
  3
C8
350
641
  3
C9
350
642
  3
D0
350
643
  3
D1
350
644
  3
D2
350
645
  0
DICTIONARY
  5
769
102
{ACAD_REACTORS
330
C
102
}
330
C
100
AcDbDictionary
281
     1
  0
DICTIONARY
  5
619
102
{ACAD_REACTORS
330
C
102
}
330
C
100
AcDbDictionary
281
     1
  3
DIMASSOC
350
61A
  3
PROJECTNAME
350
61B
  0
DICTIONARY
  5
666
102
{ACAD_REACTORS
330
C
102
}
330
C
100
AcDbDictionary
281
     1
  0
XRECORD
  5
775
102
{ACAD_REACTORS
330
C
102
}
330
C
100
AcDbXrecord
280
     1
  1
DWGPROPS COOKIE
  2

  3

  4

  6

  7

  8
Hiroki Noike
  9

300
=
301
=
302
=
303
=
304
=
305
=
306
=
307
=
308
=
309
=
 40
0.0
 41
2449944.550517361
 42
2459998.331086551
  1

 90
        0
  0
DICTIONARY
  5
770
102
{ACAD_REACTORS
330
C
102
}
330
C
100
AcDbDictionary
281
     1
1001
FX_DIMP_FAV_VERSION
1071
        1
  0
DICTIONARY
  5
72B
102
{ACAD_REACTORS
330
6AD
102
}
330
6AD
100
AcDbDictionary
281
     1
  0
XRECORD
  5
6EC
102
{ACAD_REACTORS
330
6EB
102
}
330
6EB
100
AcDbXrecord
280
     1
290
     1
  0
DICTIONARY
  5
774
102
{ACAD_REACTORS
330
773
102
}
330
773
100
AcDbDictionary
281
     1
  0
GROUP
  5
76B
102
{ACAD_REACTORS
330
D
102
}
330
D
100
AcDbGroup
300

 70
     1
 71
     1
340
54C
340
54D
340
54E
340
54F
340
550
340
551
340
552
340
573
340
577
340
57B
340
57F
340
583
340
587
340
58B
340
58F
  0
GROUP
  5
76C
102
{ACAD_REACTORS
330
D
102
}
330
D
100
AcDbGroup
300

 70
     1
 71
     1
340
72F
340
730
340
733
340
755
340
753
340
731
340
754
340
756
340
732
340
75C
340
750
340
752
340
74E
340
743
340
745
340
757
340
75F
340
75D
340
737
340
739
340
75E
340
746
340
748
340
760
340
761
340
747
340
749
340
74A
340
74D
340
74B
340
74C
340
735
340
736
340
75A
340
73D
340
759
340
75B
340
758
340
741
340
73F
340
73C
340
73B
340
73E
340
740
340
73A
340
742
340
738
340
76A
340
74F
340
744
  0
LAYOUT
  5
21
102
{ACAD_REACTORS
330
19
102
}
330
19
100
AcDbPlotSettings
  1

  2
倉庫プリンタ.pc3
  4
A3
  6

 40
5.873749732971191
 41
5.873747825622558
 42
5.873748779296875
 43
5.873748779296875
 44
296.9259948730469
 45
419.9466552734374
 46
0.0
 47
2.459999999999999
 48
-210.0
 49
-148.5
140
210.0
141
148.5
142
1.0
143
1.041452997999771
 70
 11956
 72
     1
 73
     1
 74
     4
  7

 75
     0
147
0.9601969574436996
148
210.0
149
148.5
100
AcDbLayout
  1
Model
 70
     1
 71
     0
 10
0.0
 20
0.0
 11
12.0
 21
9.0
 12
0.0
 22
0.0
 32
0.0
 14
1414.084253117928
 24
61.75109913351639
 34
0.0
 15
3094.084253117928
 25
1249.751099133516
 35
0.0
146
0.0
 13
0.0
 23
0.0
 33
0.0
 16
1.0
 26
0.0
 36
0.0
 17
0.0
 27
1.0
 37
0.0
 76
     0
330
1E
331
61C
  0
LAYOUT
  5
1D
102
{ACAD_REACTORS
330
19
102
}
330
19
100
AcDbPlotSettings
  1

  2
なし
  4

  6

 40
0.0
 41
0.0
 42
0.0
 43
0.0
 44
0.0
 45
0.0
 46
0.0
 47
0.0
 48
0.0
 49
0.0
140
0.0
141
0.0
142
1.0
143
1.0
 70
   688
 72
     0
 73
     0
 74
     5
  7

 75
    16
147
1.0
148
0.0
149
0.0
100
AcDbLayout
  1
ﾚｲｱｳﾄ1
 70
     1
 71
     1
 10
0.0
 20
0.0
 11
12.0
 21
9.0
 12
0.0
 22
0.0
 32
0.0
 14
1.000000000000000E+20
 24
1.000000000000000E+20
 34
1.000000000000000E+20
 15
-1.000000000000000E+20
 25
-1.000000000000000E+20
 35
-1.000000000000000E+20
146
0.0
 13
0.0
 23
0.0
 33
0.0
 16
1.0
 26
0.0
 36
0.0
 17
0.0
 27
1.0
 37
0.0
 76
     0
330
1A
  0
MLINESTYLE
  5
17
102
{ACAD_REACTORS
330
16
102
}
330
16
100
AcDbMlineStyle
  2
STANDARD
 70
     0
  3

 62
   256
 51
90.0
 52
90.0
 71
     2
 49
0.5
 62
   256
  6
BYLAYER
 49
-0.5
 62
   256
  6
BYLAYER
  0
ACDBPLACEHOLDER
  5
F
102
{ACAD_REACTORS
330
E
102
}
330
E
  0
SCALE
  5
625
102
{ACAD_REACTORS
330
624
102
}
330
624
100
AcDbScale
 70
     0
300
1:1
140
1.0
141
1.0
290
     1
  0
SCALE
  5
626
102
{ACAD_REACTORS
330
624
102
}
330
624
100
AcDbScale
 70
     0
300
1:2
140
1.0
141
2.0
290
     0
  0
SCALE
  5
627
102
{ACAD_REACTORS
330
624
102
}
330
624
100
AcDbScale
 70
     0
300
1:4
140
1.0
141
4.0
290
     0
  0
SCALE
  5
628
102
{ACAD_REACTORS
330
624
102
}
330
624
100
AcDbScale
 70
     0
300
1:5
140
1.0
141
5.0
290
     0
  0
SCALE
  5
629
102
{ACAD_REACTORS
330
624
102
}
330
624
100
AcDbScale
 70
     0
300
1:8
140
1.0
141
8.0
290
     0
  0
SCALE
  5
62A
102
{ACAD_REACTORS
330
624
102
}
330
624
100
AcDbScale
 70
     0
300
1:10
140
1.0
141
10.0
290
     0
  0
SCALE
  5
62B
102
{ACAD_REACTORS
330
624
102
}
330
624
100
AcDbScale
 70
     0
300
1:16
140
1.0
141
16.0
290
     0
  0
SCALE
  5
62C
102
{ACAD_REACTORS
330
624
102
}
330
624
100
AcDbScale
 70
     0
300
1:20
140
1.0
141
20.0
290
     0
  0
SCALE
  5
62D
102
{ACAD_REACTORS
330
624
102
}
330
624
100
AcDbScale
 70
     0
300
1:30
140
1.0
141
30.0
290
     0
  0
SCALE
  5
62E
102
{ACAD_REACTORS
330
624
102
}
330
624
100
AcDbScale
 70
     0
300
1:40
140
1.0
141
40.0
290
     0
  0
SCALE
  5
62F
102
{ACAD_REACTORS
330
624
102
}
330
624
100
AcDbScale
 70
     0
300
1:50
140
1.0
141
50.0
290
     0
  0
SCALE
  5
630
102
{ACAD_REACTORS
330
624
102
}
330
624
100
AcDbScale
 70
     0
300
1:100
140
1.0
141
100.0
290
     0
  0
SCALE
  5
631
102
{ACAD_REACTORS
330
624
102
}
330
624
100
AcDbScale
 70
     0
300
2:1
140
2.0
141
1.0
290
     0
  0
SCALE
  5
632
102
{ACAD_REACTORS
330
624
102
}
330
624
100
AcDbScale
 70
     0
300
4:1
140
4.0
141
1.0
290
     0
  0
SCALE
  5
633
102
{ACAD_REACTORS
330
624
102
}
330
624
100
AcDbScale
 70
     0
300
8:1
140
8.0
141
1.0
290
     0
  0
SCALE
  5
634
102
{ACAD_REACTORS
330
624
102
}
330
624
100
AcDbScale
 70
     0
300
10:1
140
10.0
141
1.0
290
     0
  0
SCALE
  5
635
102
{ACAD_REACTORS
330
624
102
}
330
624
100
AcDbScale
 70
     0
300
100:1
140
100.0
141
1.0
290
     0
  0
SCALE
  5
636
102
{ACAD_REACTORS
330
624
102
}
330
624
100
AcDbScale
 70
     0
300
1/128" = 1'-0"
140
0.0078125
141
12.0
290
     0
  0
SCALE
  5
637
102
{ACAD_REACTORS
330
624
102
}
330
624
100
AcDbScale
 70
     0
300
1/64" = 1'-0"
140
0.015625
141
12.0
290
     0
  0
SCALE
  5
638
102
{ACAD_REACTORS
330
624
102
}
330
624
100
AcDbScale
 70
     0
300
1/32" = 1'-0"
140
0.03125
141
12.0
290
     0
  0
SCALE
  5
639
102
{ACAD_REACTORS
330
624
102
}
330
624
100
AcDbScale
 70
     0
300
1/16" = 1'-0"
140
0.0625
141
12.0
290
     0
  0
SCALE
  5
63A
102
{ACAD_REACTORS
330
624
102
}
330
624
100
AcDbScale
 70
     0
300
3/32" = 1'-0"
140
0.09375
141
12.0
290
     0
  0
SCALE
  5
63B
102
{ACAD_REACTORS
330
624
102
}
330
624
100
AcDbScale
 70
     0
300
1/8" = 1'-0"
140
0.125
141
12.0
290
     0
  0
SCALE
  5
63C
102
{ACAD_REACTORS
330
624
102
}
330
624
100
AcDbScale
 70
     0
300
3/16" = 1'-0"
140
0.1875
141
12.0
290
     0
  0
SCALE
  5
63D
102
{ACAD_REACTORS
330
624
102
}
330
624
100
AcDbScale
 70
     0
300
1/4" = 1'-0"
140
0.25
141
12.0
290
     0
  0
SCALE
  5
63E
102
{ACAD_REACTORS
330
624
102
}
330
624
100
AcDbScale
 70
     0
300
3/8" = 1'-0"
140
0.375
141
12.0
290
     0
  0
SCALE
  5
63F
102
{ACAD_REACTORS
330
624
102
}
330
624
100
AcDbScale
 70
     0
300
1/2" = 1'-0"
140
0.5
141
12.0
290
     0
  0
SCALE
  5
640
102
{ACAD_REACTORS
330
624
102
}
330
624
100
AcDbScale
 70
     0
300
3/4" = 1'-0"
140
0.75
141
12.0
290
     0
  0
SCALE
  5
641
102
{ACAD_REACTORS
330
624
102
}
330
624
100
AcDbScale
 70
     0
300
1" = 1'-0"
140
1.0
141
12.0
290
     0
  0
SCALE
  5
642
102
{ACAD_REACTORS
330
624
102
}
330
624
100
AcDbScale
 70
     0
300
1-1/2" = 1'-0"
140
1.5
141
12.0
290
     0
  0
SCALE
  5
643
102
{ACAD_REACTORS
330
624
102
}
330
624
100
AcDbScale
 70
     0
300
3" = 1'-0"
140
3.0
141
12.0
290
     0
  0
SCALE
  5
644
102
{ACAD_REACTORS
330
624
102
}
330
624
100
AcDbScale
 70
     0
300
6" = 1'-0"
140
6.0
141
12.0
290
     0
  0
SCALE
  5
645
102
{ACAD_REACTORS
330
624
102
}
330
624
100
AcDbScale
 70
     0
300
1'-0" = 1'-0"
140
12.0
141
12.0
290
     0
  0
DICTIONARYVAR
  5
61A
102
{ACAD_REACTORS
330
619
102
}
330
619
100
DictionaryVariables
280
     0
  1
1
  0
DICTIONARYVAR
  5
61B
102
{ACAD_REACTORS
330
619
102
}
330
619
100
DictionaryVariables
280
     0
  1

  0
ENDSEC
  0
EOF
