  0
SECTION
  2
HEADER
  9
$ACADVER
  1
AC1032
  9
$ACADMAINTVER
 90
        4
  9
$DWGCODEPAGE
  3
ANSI_932
  9
$LASTSAVEDBY
  1
Hiroki Noike
  9
$REQUIREDVERSIONS
160
                 0
  9
$INSBASE
 10
0.0
 20
0.0
 30
0.0
  9
$EXTMIN
 10
21380.96878002376
 20
6513.0713864033
 30
0.0
  9
$EXTMAX
 10
24740.96878002376
 20
8889.0713864033
 30
0.0
  9
$LIMMIN
 10
-210.0
 20
-148.5
  9
$LIMMAX
 10
210.0
 20
148.5
  9
$ORTHOMODE
 70
     0
  9
$REGENMODE
 70
     1
  9
$FILLMODE
 70
     1
  9
$QTEXTMODE
 70
     0
  9
$MIRRTEXT
 70
     1
  9
$LTSCALE
 40
1.0
  9
$ATTMODE
 70
     1
  9
$TEXTSIZE
 40
25.0
  9
$TRACEWID
 40
0.05
  9
$TEXTSTYLE
  7
STANDARD
  9
$CLAYER
  8
図面
  9
$CELTYPE
  6
ByLayer
  9
$CECOLOR
 62
   256
  9
$CELTSCALE
 40
1.0
  9
$DISPSILH
 70
     0
  9
$DIMSCALE
 40
1.0
  9
$DIMASZ
 40
20.0
  9
$DIMEXO
 40
0.0625
  9
$DIMDLI
 40
0.38
  9
$DIMRND
 40
0.0
  9
$DIMDLE
 40
0.0
  9
$DIMEXE
 40
0.5
  9
$DIMTP
 40
0.0
  9
$DIMTM
 40
0.0
  9
$DIMTXT
 40
25.0
  9
$DIMCEN
 40
0.09
  9
$DIMTSZ
 40
0.0
  9
$DIMTOL
 70
     0
  9
$DIMLIM
 70
     0
  9
$DIMTIH
 70
     0
  9
$DIMTOH
 70
     0
  9
$DIMSE1
 70
     0
  9
$DIMSE2
 70
     0
  9
$DIMTAD
 70
     1
  9
$DIMZIN
 70
     0
  9
$DIMBLK
  1

  9
$DIMASO
 70
     1
  9
$DIMSHO
 70
     1
  9
$DIMPOST
  1

  9
$DIMAPOST
  1

  9
$DIMALT
 70
     0
  9
$DIMALTD
 70
     2
  9
$DIMALTF
 40
25.4
  9
$DIMLFAC
 40
1.0
  9
$DIMTOFL
 70
     0
  9
$DIMTVP
 40
0.0
  9
$DIMTIX
 70
     0
  9
$DIMSOXD
 70
     0
  9
$DIMSAH
 70
     0
  9
$DIMBLK1
  1

  9
$DIMBLK2
  1

  9
$DIMSTYLE
  2
Standard
  9
$DIMCLRD
 70
     1
  9
$DIMCLRE
 70
     1
  9
$DIMCLRT
 70
     1
  9
$DIMTFAC
 40
1.0
  9
$DIMGAP
 40
0.5
  9
$DIMJUST
 70
     0
  9
$DIMSD1
 70
     0
  9
$DIMSD2
 70
     0
  9
$DIMTOLJ
 70
     1
  9
$DIMTZIN
 70
     0
  9
$DIMALTZ
 70
     0
  9
$DIMALTTZ
 70
     0
  9
$DIMUPT
 70
     0
  9
$DIMDEC
 70
     0
  9
$DIMTDEC
 70
     0
  9
$DIMALTU
 70
     2
  9
$DIMALTTD
 70
     2
  9
$DIMTXSTY
  7
TextStyle01
  9
$DIMAUNIT
 70
     0
  9
$DIMADEC
 70
     0
  9
$DIMALTRND
 40
0.0
  9
$DIMAZIN
 70
     0
  9
$DIMDSEP
 70
    46
  9
$DIMATFIT
 70
     3
  9
$DIMFRAC
 70
     0
  9
$DIMLDRBLK
  1

  9
$DIMLUNIT
 70
     2
  9
$DIMLWD
 70
    -2
  9
$DIMLWE
 70
    -2
  9
$DIMTMOVE
 70
     2
  9
$DIMFXL
 40
1.0
  9
$DIMFXLON
 70
     0
  9
$DIMJOGANG
 40
0.7853981633974483
  9
$DIMTFILL
 70
     0
  9
$DIMTFILLCLR
 70
     0
  9
$DIMARCSYM
 70
     0
  9
$DIMLTYPE
  6

  9
$DIMLTEX1
  6

  9
$DIMLTEX2
  6

  9
$DIMTXTDIRECTION
 70
     0
  9
$LUNITS
 70
     2
  9
$LUPREC
 70
     4
  9
$SKETCHINC
 40
0.1
  9
$FILLETRAD
 40
10.0
  9
$AUNITS
 70
     0
  9
$AUPREC
 70
     0
  9
$MENU
  1
acad
  9
$ELEVATION
 40
0.0
  9
$PELEVATION
 40
0.0
  9
$THICKNESS
 40
0.0
  9
$LIMCHECK
 70
     0
  9
$CHAMFERA
 40
15.0
  9
$CHAMFERB
 40
15.0
  9
$CHAMFERC
 40
0.0
  9
$CHAMFERD
 40
0.0
  9
$SKPOLY
 70
     0
  9
$TDCREATE
 40
2449944.925517361
  9
$TDUCREATE
 40
2449944.550517361
  9
$TDUPDATE
 40
2459720.593021852
  9
$TDUUPDATE
 40
2459720.218021852
  9
$TDINDWG
 40
1.2120841782
  9
$TDUSRTIMER
 40
0.0001226852
  9
$USRTIMER
 70
     1
  9
$ANGBASE
 50
0.0
  9
$ANGDIR
 70
     0
  9
$PDMODE
 70
     0
  9
$PDSIZE
 40
1.5
  9
$PLINEWID
 40
0.0
  9
$SPLFRAME
 70
     0
  9
$SPLINETYPE
 70
     6
  9
$SPLINESEGS
 70
     8
  9
$HANDSEED
  5
1FFD
  9
$SURFTAB1
 70
     6
  9
$SURFTAB2
 70
     6
  9
$SURFTYPE
 70
     6
  9
$SURFU
 70
     6
  9
$SURFV
 70
     6
  9
$UCSBASE
  2

  9
$UCSNAME
  2

  9
$UCSORG
 10
0.0
 20
0.0
 30
0.0
  9
$UCSXDIR
 10
1.0
 20
0.0
 30
0.0
  9
$UCSYDIR
 10
0.0
 20
1.0
 30
0.0
  9
$UCSORTHOREF
  2

  9
$UCSORTHOVIEW
 70
     0
  9
$UCSORGTOP
 10
0.0
 20
0.0
 30
0.0
  9
$UCSORGBOTTOM
 10
0.0
 20
0.0
 30
0.0
  9
$UCSORGLEFT
 10
0.0
 20
0.0
 30
0.0
  9
$UCSORGRIGHT
 10
0.0
 20
0.0
 30
0.0
  9
$UCSORGFRONT
 10
0.0
 20
0.0
 30
0.0
  9
$UCSORGBACK
 10
0.0
 20
0.0
 30
0.0
  9
$PUCSBASE
  2

  9
$PUCSNAME
  2

  9
$PUCSORG
 10
0.0
 20
0.0
 30
0.0
  9
$PUCSXDIR
 10
1.0
 20
0.0
 30
0.0
  9
$PUCSYDIR
 10
0.0
 20
1.0
 30
0.0
  9
$PUCSORTHOREF
  2

  9
$PUCSORTHOVIEW
 70
     0
  9
$PUCSORGTOP
 10
0.0
 20
0.0
 30
0.0
  9
$PUCSORGBOTTOM
 10
0.0
 20
0.0
 30
0.0
  9
$PUCSORGLEFT
 10
0.0
 20
0.0
 30
0.0
  9
$PUCSORGRIGHT
 10
0.0
 20
0.0
 30
0.0
  9
$PUCSORGFRONT
 10
0.0
 20
0.0
 30
0.0
  9
$PUCSORGBACK
 10
0.0
 20
0.0
 30
0.0
  9
$USERI1
 70
     0
  9
$USERI2
 70
     0
  9
$USERI3
 70
     0
  9
$USERI4
 70
     0
  9
$USERI5
 70
     0
  9
$USERR1
 40
0.0
  9
$USERR2
 40
0.0
  9
$USERR3
 40
0.0
  9
$USERR4
 40
0.0
  9
$USERR5
 40
0.0
  9
$WORLDVIEW
 70
     1
  9
$SHADEDGE
 70
     3
  9
$SHADEDIF
 70
    70
  9
$TILEMODE
 70
     1
  9
$MAXACTVP
 70
    16
  9
$PINSBASE
 10
0.0
 20
0.0
 30
0.0
  9
$PLIMCHECK
 70
     0
  9
$PEXTMIN
 10
1.000000000000000E+20
 20
1.000000000000000E+20
 30
1.000000000000000E+20
  9
$PEXTMAX
 10
-1.000000000000000E+20
 20
-1.000000000000000E+20
 30
-1.000000000000000E+20
  9
$PLIMMIN
 10
0.0
 20
0.0
  9
$PLIMMAX
 10
0.0
 20
0.0
  9
$UNITMODE
 70
     0
  9
$VISRETAIN
 70
     0
  9
$PLINEGEN
 70
     0
  9
$PSLTSCALE
 70
     1
  9
$TREEDEPTH
 70
  3020
  9
$CMLSTYLE
  2
Standard
  9
$CMLJUST
 70
     0
  9
$CMLSCALE
 40
1.0
  9
$PROXYGRAPHICS
 70
     1
  9
$MEASUREMENT
 70
     0
  9
$CELWEIGHT
370
    -1
  9
$ENDCAPS
280
     0
  9
$JOINSTYLE
280
     0
  9
$LWDISPLAY
290
     0
  9
$INSUNITS
 70
     0
  9
$HYPERLINKBASE
  1

  9
$STYLESHEET
  1

  9
$XEDIT
290
     1
  9
$CEPSNTYPE
380
     0
  9
$PSTYLEMODE
290
     1
  9
$FINGERPRINTGUID
  2
{3F05092E-EABE-41D4-925D-E3C07104686B}
  9
$VERSIONGUID
  2
{7DE0D91E-5FBF-4C3E-ABAE-1EDF0341C42B}
  9
$EXTNAMES
290
     1
  9
$PSVPSCALE
 40
0.0
  9
$OLESTARTUP
290
     0
  9
$SORTENTS
280
   127
  9
$INDEXCTL
280
     0
  9
$HIDETEXT
280
     0
  9
$XCLIPFRAME
280
     0
  9
$HALOGAP
280
     0
  9
$OBSCOLOR
 70
   257
  9
$OBSLTYPE
280
     0
  9
$INTERSECTIONDISPLAY
280
     0
  9
$INTERSECTIONCOLOR
 70
   257
  9
$DIMASSOC
280
     1
  9
$PROJECTNAME
  1

  9
$CAMERADISPLAY
290
     0
  9
$LENSLENGTH
 40
50.0
  9
$CAMERAHEIGHT
 40
0.0
  9
$STEPSPERSEC
 40
2.0
  9
$STEPSIZE
 40
6.0
  9
$3DDWFPREC
 40
2.0
  9
$PSOLWIDTH
 40
0.25
  9
$PSOLHEIGHT
 40
4.0
  9
$LOFTANG1
 40
1.570796326794897
  9
$LOFTANG2
 40
1.570796326794897
  9
$LOFTMAG1
 40
0.0
  9
$LOFTMAG2
 40
0.0
  9
$LOFTPARAM
 70
     7
  9
$LOFTNORMALS
280
     1
  9
$LATITUDE
 40
37.795
  9
$LONGITUDE
 40
-122.394
  9
$NORTHDIRECTION
 40
0.0
  9
$TIMEZONE
 70
 -8000
  9
$LIGHTGLYPHDISPLAY
280
     1
  9
$TILEMODELIGHTSYNCH
280
     1
  9
$CMATERIAL
347
1E4F
  9
$SOLIDHIST
280
     1
  9
$SHOWHIST
280
     1
  9
$DWFFRAME
280
     2
  9
$DGNFRAME
280
     0
  9
$REALWORLDSCALE
290
     1
  9
$INTERFERECOLOR
 62
     1
  9
$CSHADOW
280
     0
  9
$SHADOWPLANELOCATION
 40
0.0
  0
ENDSEC
  0
SECTION
  2
CLASSES
  0
CLASS
  1
ACDBDICTIONARYWDFLT
  2
AcDbDictionaryWithDefault
  3
ObjectDBX Classes
 90
        0
 91
        3
280
     0
281
     0
  0
CLASS
  1
ACDBPLACEHOLDER
  2
AcDbPlaceHolder
  3
ObjectDBX Classes
 90
        0
 91
        1
280
     0
281
     0
  0
CLASS
  1
LAYOUT
  2
AcDbLayout
  3
ObjectDBX Classes
 90
        0
 91
        1
280
     0
281
     0
  0
CLASS
  1
MATERIAL
  2
AcDbMaterial
  3
ObjectDBX Classes
 90
     1153
 91
        3
280
     0
281
     0
  0
CLASS
  1
VISUALSTYLE
  2
AcDbVisualStyle
  3
ObjectDBX Classes
 90
     4095
 91
        3
280
     0
281
     0
  0
CLASS
  1
TABLESTYLE
  2
AcDbTableStyle
  3
ObjectDBX Classes
 90
     4095
 91
        3
280
     0
281
     0
  0
CLASS
  1
SCALE
  2
AcDbScale
  3
ObjectDBX Classes
 90
     1153
 91
        3
280
     0
281
     0
  0
CLASS
  1
MLEADERSTYLE
  2
AcDbMLeaderStyle
  3
ACDB_MLEADERSTYLE_CLASS
 90
     4095
 91
        3
280
     0
281
     0
  0
CLASS
  1
CELLSTYLEMAP
  2
AcDbCellStyleMap
  3
ObjectDBX Classes
 90
     1152
 91
        3
280
     0
281
     0
  0
CLASS
  1
DICTIONARYVAR
  2
AcDbDictionaryVar
  3
ObjectDBX Classes
 90
        0
 91
        3
280
     0
281
     0
  0
CLASS
  1
SUN
  2
AcDbSun
  3
SCENEOE
 90
     1153
 91
        3
280
     0
281
     0
  0
ENDSEC
  0
SECTION
  2
TABLES
  0
TABLE
  2
VPORT
  5
8
330
0
100
AcDbSymbolTable
 70
     1
  0
VPORT
  5
1E4D
330
8
100
AcDbSymbolTableRecord
100
AcDbViewportTableRecord
  2
*Active
 70
     0
 10
0.0
 20
0.0
 11
1.0
 21
1.0
 12
23801.66796468782
 22
7702.369628470318
 13
0.0
 23
0.0
 14
1.0
 24
1.0
 15
0.0
 25
0.0
 16
0.0
 26
0.0
 36
1.0
 17
0.0
 27
0.0
 37
0.0
 40
2930.229950438183
 41
2.082079343365253
 42
50.0
 43
0.0
 44
0.0
 50
0.0
 51
0.0
 71
    16
 72
   100
 73
     1
 74
     0
 75
     0
 76
     0
 77
     0
 78
     0
281
     0
 65
     1
110
0.0
120
0.0
130
0.0
111
1.0
121
0.0
131
0.0
112
0.0
122
1.0
132
0.0
 79
     0
146
0.0
348
1E6D
 60
     3
 61
     5
292
     1
282
     1
141
0.0
142
0.0
 63
   250
421
  3355443
361
1FE8
  0
ENDTAB
  0
TABLE
  2
LTYPE
  5
5
330
0
100
AcDbSymbolTable
 70
     9
  0
LTYPE
  5
13
330
5
100
AcDbSymbolTableRecord
100
AcDbLinetypeTableRecord
  2
ByBlock
 70
     0
  3

 72
    65
 73
     0
 40
0.0
  0
LTYPE
  5
14
330
5
100
AcDbSymbolTableRecord
100
AcDbLinetypeTableRecord
  2
ByLayer
 70
     0
  3

 72
    65
 73
     0
 40
0.0
  0
LTYPE
  5
15
330
5
100
AcDbSymbolTableRecord
100
AcDbLinetypeTableRecord
  2
CONTINUOUS
 70
     0
  3
実線
 72
    65
 73
     0
 40
0.0
  0
LTYPE
  5
2D
330
5
100
AcDbSymbolTableRecord
100
AcDbLinetypeTableRecord
  2
DASHED
 70
     0
  3
破線A
 72
    65
 73
     2
 40
7.5
 49
5.0
 74
     0
 49
-2.5
 74
     0
  0
LTYPE
  5
2E
330
5
100
AcDbSymbolTableRecord
100
AcDbLinetypeTableRecord
  2
DASHEDX2
 70
     0
  3
破線B
 72
    65
 73
     2
 40
15.0
 49
10.0
 74
     0
 49
-5.0
 74
     0
  0
LTYPE
  5
2F
330
5
100
AcDbSymbolTableRecord
100
AcDbLinetypeTableRecord
  2
DASHDOT
 70
     0
  3
１点鎖線A
 72
    65
 73
     4
 40
10.0
 49
5.0
 74
     0
 49
-2.5
 74
     0
 49
0.0
 74
     0
 49
-2.5
 74
     0
  0
LTYPE
  5
30
330
5
100
AcDbSymbolTableRecord
100
AcDbLinetypeTableRecord
  2
DASHDOTX2
 70
     0
  3
１点鎖線B
 72
    65
 73
     4
 40
20.0
 49
10.0
 74
     0
 49
-5.0
 74
     0
 49
0.0
 74
     0
 49
-5.0
 74
     0
  0
LTYPE
  5
31
330
5
100
AcDbSymbolTableRecord
100
AcDbLinetypeTableRecord
  2
DIVIDE2
 70
     0
  3
２点鎖線A
 72
    65
 73
     6
 40
6.25
 49
2.5
 74
     0
 49
-1.25
 74
     0
 49
0.0
 74
     0
 49
-1.25
 74
     0
 49
0.0
 74
     0
 49
-1.25
 74
     0
  0
LTYPE
  5
32
330
5
100
AcDbSymbolTableRecord
100
AcDbLinetypeTableRecord
  2
DIVIDE
 70
     0
  3
２点鎖線B
 72
    65
 73
     6
 40
12.5
 49
5.0
 74
     0
 49
-2.5
 74
     0
 49
0.0
 74
     0
 49
-2.5
 74
     0
 49
0.0
 74
     0
 49
-2.5
 74
     0
  0
LTYPE
  5
33
330
5
100
AcDbSymbolTableRecord
100
AcDbLinetypeTableRecord
  2
DOT
 70
     0
  3
点線A
 72
    65
 73
     2
 40
2.5
 49
0.0
 74
     0
 49
-2.5
 74
     0
  0
LTYPE
  5
34
330
5
100
AcDbSymbolTableRecord
100
AcDbLinetypeTableRecord
  2
DOTX2
 70
     0
  3
点線B
 72
    65
 73
     2
 40
5.0
 49
0.0
 74
     0
 49
-5.0
 74
     0
  0
ENDTAB
  0
TABLE
  2
LAYER
  5
2
330
0
100
AcDbSymbolTable
 70
    10
  0
LAYER
  5
10
102
{ACAD_XDICTIONARY
360
1FB3
102
}
330
2
100
AcDbSymbolTableRecord
100
AcDbLayerTableRecord
  2
ﾚｲﾔ1
 70
     0
 62
     7
  6
CONTINUOUS
370
    -3
390
F
347
1E5F
348
0
  0
LAYER
  5
4C
330
2
100
AcDbSymbolTableRecord
100
AcDbLayerTableRecord
  2
0
 70
     0
 62
     7
  6
CONTINUOUS
370
    -3
390
F
347
1E5F
348
0
  0
LAYER
  5
16B
102
{ACAD_XDICTIONARY
360
1FB5
102
}
330
2
100
AcDbSymbolTableRecord
100
AcDbLayerTableRecord
  2
図面
 70
     0
 62
     7
  6
CONTINUOUS
370
    40
390
F
347
1E5F
348
0
  0
LAYER
  5
16C
102
{ACAD_XDICTIONARY
360
1FB7
102
}
330
2
100
AcDbSymbolTableRecord
100
AcDbLayerTableRecord
  2
図面枠
 70
     0
 62
     5
  6
CONTINUOUS
370
    -3
390
F
347
1E5F
348
0
  0
LAYER
  5
1AB
102
{ACAD_XDICTIONARY
360
1FB9
102
}
330
2
100
AcDbSymbolTableRecord
100
AcDbLayerTableRecord
  2
下図
 70
     0
 62
     8
  6
DASHDOT
290
     0
370
    -3
390
F
347
1E5F
348
0
  0
LAYER
  5
1EB
102
{ACAD_XDICTIONARY
360
1FBB
102
}
330
2
100
AcDbSymbolTableRecord
100
AcDbLayerTableRecord
  2
文字
 70
     0
 62
     7
  6
CONTINUOUS
370
    -3
390
F
347
1E5F
348
0
  0
LAYER
  5
375
102
{ACAD_XDICTIONARY
360
1FBD
102
}
330
2
100
AcDbSymbolTableRecord
100
AcDbLayerTableRecord
  2
HOJO_0
 70
     0
 62
     5
  6
DASHDOT
370
    -3
390
F
347
1E5F
348
0
  0
LAYER
  5
16EB
330
2
100
AcDbSymbolTableRecord
100
AcDbLayerTableRecord
  2
Defpoints
 70
     0
 62
     7
  6
CONTINUOUS
290
     0
370
    -3
390
F
347
1E5F
348
0
  0
LAYER
  5
1A35
102
{ACAD_XDICTIONARY
360
1FBF
102
}
330
2
100
AcDbSymbolTableRecord
100
AcDbLayerTableRecord
  2
ﾚｲﾔ9
 70
     0
 62
     8
  6
DASHED
370
    -3
390
F
347
1E5F
348
0
  0
LAYER
  5
1C60
102
{ACAD_XDICTIONARY
360
1FC1
102
}
330
2
100
AcDbSymbolTableRecord
100
AcDbLayerTableRecord
  2
寸法
 70
     0
 62
     1
  6
CONTINUOUS
370
    -3
390
F
347
1E5F
348
0
  0
ENDTAB
  0
TABLE
  2
STYLE
  5
3
330
0
100
AcDbSymbolTable
 70
    13
  0
STYLE
  5
11
330
3
100
AcDbSymbolTableRecord
100
AcDbTextStyleTableRecord
  2
STANDARD
 70
     0
 40
25.0
 41
1.0
 50
0.0
 71
     0
 42
25.0
  3
TXT.shx
  4
BIGFONT.shx
  0
STYLE
  5
22
330
3
100
AcDbSymbolTableRecord
100
AcDbTextStyleTableRecord
  2
TATE
 70
     4
 40
1.0
 41
1.0
 50
0.0
 71
     0
 42
1.0
  3
TXT
  4
BIGFONT
  0
STYLE
  5
23
330
3
100
AcDbSymbolTableRecord
100
AcDbTextStyleTableRecord
  2
TextStyle01
 70
     0
 40
0.0
 41
1.0
 50
0.0
 71
     0
 42
0.0
  3
TXT
  4
BIGFONT
  0
STYLE
  5
24
330
3
100
AcDbSymbolTableRecord
100
AcDbTextStyleTableRecord
  2
TextStyle02
 70
     0
 40
0.0
 41
1.0
 50
0.0
 71
     0
 42
0.0
  3
TXT
  4
BIGFONT
  0
STYLE
  5
25
330
3
100
AcDbSymbolTableRecord
100
AcDbTextStyleTableRecord
  2
TextStyle03
 70
     0
 40
0.0
 41
1.0
 50
0.0
 71
     0
 42
0.0
  3
TXT
  4
BIGFONT
  0
STYLE
  5
26
330
3
100
AcDbSymbolTableRecord
100
AcDbTextStyleTableRecord
  2
TextStyle04
 70
     0
 40
0.0
 41
1.0
 50
0.0
 71
     0
 42
0.0
  3
TXT
  4
BIGFONT
  0
STYLE
  5
27
330
3
100
AcDbSymbolTableRecord
100
AcDbTextStyleTableRecord
  2
TextStyle05
 70
     0
 40
0.0
 41
1.0
 50
0.0
 71
     0
 42
0.0
  3
TXT
  4
BIGFONT
  0
STYLE
  5
28
330
3
100
AcDbSymbolTableRecord
100
AcDbTextStyleTableRecord
  2
TextStyle06
 70
     0
 40
0.0
 41
1.0
 50
0.0
 71
     0
 42
0.0
  3

  4

  0
STYLE
  5
29
330
3
100
AcDbSymbolTableRecord
100
AcDbTextStyleTableRecord
  2
TextStyle07
 70
     0
 40
0.0
 41
1.0
 50
0.0
 71
     0
 42
0.0
  3

  4

  0
STYLE
  5
2A
330
3
100
AcDbSymbolTableRecord
100
AcDbTextStyleTableRecord
  2
TextStyle08
 70
     0
 40
0.0
 41
1.0
 50
0.0
 71
     0
 42
0.0
  3

  4

  0
STYLE
  5
2B
330
3
100
AcDbSymbolTableRecord
100
AcDbTextStyleTableRecord
  2
TextStyle09
 70
     0
 40
0.0
 41
1.0
 50
0.0
 71
     0
 42
0.0
  3

  4

  0
STYLE
  5
2C
330
3
100
AcDbSymbolTableRecord
100
AcDbTextStyleTableRecord
  2
TextStyle10
 70
     0
 40
0.0
 41
1.0
 50
0.0
 71
     0
 42
0.0
  3

  4

  0
STYLE
  5
205
330
3
100
AcDbSymbolTableRecord
100
AcDbTextStyleTableRecord
  2
WMF-ＭＳ Ｐ明朝0
 70
     0
 40
0.0
 41
1.0
 50
0.0
 71
     0
 42
1.0
  3
MS PMincho.ttf
  4

1001
ACAD
1000
MS PMincho
1071
    32768
  0
ENDTAB
  0
TABLE
  2
VIEW
  5
6
330
0
100
AcDbSymbolTable
 70
     0
  0
ENDTAB
  0
TABLE
  2
UCS
  5
7
330
0
100
AcDbSymbolTable
 70
     0
  0
ENDTAB
  0
TABLE
  2
APPID
  5
9
330
0
100
AcDbSymbolTable
 70
     3
  0
APPID
  5
12
330
9
100
AcDbSymbolTableRecord
100
AcDbRegAppTableRecord
  2
ACAD
 70
     0
  0
APPID
  5
1E9E
330
9
100
AcDbSymbolTableRecord
100
AcDbRegAppTableRecord
  2
ACAD_MLEADERVER
 70
     0
  0
APPID
  5
1FF3
330
9
100
AcDbSymbolTableRecord
100
AcDbRegAppTableRecord
  2
PLOTTRANSPARENCY
 70
     0
  0
ENDTAB
  0
TABLE
  2
DIMSTYLE
  5
A
330
0
100
AcDbSymbolTable
 70
     1
100
AcDbDimStyleTable
  0
DIMSTYLE
105
142
102
{ACAD_REACTORS
330
1D0F
330
1D1C
330
1D29
330
1D36
330
1E0F
330
1C5D
330
1C5E
330
1CFD
330
1D01
330
1D04
330
1D06
330
1D08
330
1D09
330
1D0C
330
1D0D
330
1D0E
330
1E40
330
1E47
330
1E48
330
1E49
102
}
330
A
100
AcDbSymbolTableRecord
100
AcDbDimStyleTableRecord
  2
Standard
 70
     0
178
     0
340
11
  0
ENDTAB
  0
TABLE
  2
BLOCK_RECORD
  5
1
330
0
100
AcDbSymbolTable
 70
    11
  0
BLOCK_RECORD
  5
1E
102
{ACAD_XDICTIONARY
360
1FEE
102
}
330
1
100
AcDbSymbolTableRecord
100
AcDbBlockTableRecord
  2
*Model_Space
340
21
 70
     0
280
     1
281
     0
  0
BLOCK_RECORD
  5
1A
330
1
100
AcDbSymbolTableRecord
100
AcDbBlockTableRecord
  2
*Paper_Space
340
1D
 70
     0
280
     1
281
     0
  0
BLOCK_RECORD
  5
1C1
330
1
100
AcDbSymbolTableRecord
100
AcDbBlockTableRecord
  2
_Open30
340
0
 70
     0
280
     1
281
     0
  0
BLOCK_RECORD
  5
370
330
1
100
AcDbSymbolTableRecord
100
AcDbBlockTableRecord
  2
*G1
340
0
 70
     0
280
     1
281
     0
  0
BLOCK_RECORD
  5
16F9
330
1
100
AcDbSymbolTableRecord
100
AcDbBlockTableRecord
  2
*D2
340
0
 70
     0
280
     1
281
     0
  0
BLOCK_RECORD
  5
1706
330
1
100
AcDbSymbolTableRecord
100
AcDbBlockTableRecord
  2
*D3
340
0
 70
     0
280
     1
281
     0
  0
BLOCK_RECORD
  5
1714
330
1
100
AcDbSymbolTableRecord
100
AcDbBlockTableRecord
  2
*D4
340
0
 70
     0
280
     1
281
     0
  0
BLOCK_RECORD
  5
19E7
330
1
100
AcDbSymbolTableRecord
100
AcDbBlockTableRecord
  2
*D5
340
0
 70
     0
280
     1
281
     0
  0
BLOCK_RECORD
  5
1D10
330
1
100
AcDbSymbolTableRecord
100
AcDbBlockTableRecord
  2
*D6
340
0
 70
     0
280
     1
281
     0
  0
BLOCK_RECORD
  5
1D1D
330
1
100
AcDbSymbolTableRecord
100
AcDbBlockTableRecord
  2
*D7
340
0
 70
     0
280
     1
281
     0
  0
BLOCK_RECORD
  5
1D2A
330
1
100
AcDbSymbolTableRecord
100
AcDbBlockTableRecord
  2
*D8
340
0
 70
     0
280
     1
281
     0
  0
BLOCK_RECORD
  5
1D37
330
1
100
AcDbSymbolTableRecord
100
AcDbBlockTableRecord
  2
*D9
340
0
 70
     0
280
     1
281
     0
  0
BLOCK_RECORD
  5
1E10
330
1
100
AcDbSymbolTableRecord
100
AcDbBlockTableRecord
  2
*D10
340
0
 70
     0
280
     1
281
     0
  0
ENDTAB
  0
ENDSEC
  0
SECTION
  2
BLOCKS
  0
BLOCK
  5
4F
330
1E
100
AcDbEntity
  8
0
100
AcDbBlockBegin
  2
*Model_Space
 70
     0
 10
0.0
 20
0.0
 30
0.0
  3
*Model_Space
  1

  0
ENDBLK
  5
50
330
1E
100
AcDbEntity
  8
0
100
AcDbBlockEnd
  0
BLOCK
  5
4D
330
1A
100
AcDbEntity
 67
     1
  8
0
100
AcDbBlockBegin
  2
*Paper_Space
 70
     0
 10
0.0
 20
0.0
 30
0.0
  3
*Paper_Space
  1

  0
ENDBLK
  5
4E
330
1A
100
AcDbEntity
 67
     1
  8
0
100
AcDbBlockEnd
  0
BLOCK
  5
1C5
330
1C1
100
AcDbEntity
  8
0
100
AcDbBlockBegin
  2
_Open30
 70
     0
 10
0.0
 20
0.0
 30
0.0
  3
_Open30
  1

  0
LINE
  5
1C2
330
1C1
100
AcDbEntity
  8
下図
 62
     0
370
    -2
100
AcDbLine
 10
-1.0
 20
0.26794919
 30
0.0
 11
0.0
 21
0.0
 31
0.0
  0
LINE
  5
1C3
330
1C1
100
AcDbEntity
  8
下図
 62
     0
370
    -2
100
AcDbLine
 10
0.0
 20
0.0
 30
0.0
 11
-1.0
 21
-0.26794919
 31
0.0
  0
LINE
  5
1C4
330
1C1
100
AcDbEntity
  8
下図
 62
     0
370
    -2
100
AcDbLine
 10
0.0
 20
0.0
 30
0.0
 11
-1.0
 21
0.0
 31
0.0
  0
ENDBLK
  5
1C6
330
1C1
100
AcDbEntity
  8
0
100
AcDbBlockEnd
  0
BLOCK
  5
371
330
370
100
AcDbEntity
  8
0
100
AcDbBlockBegin
  2
*G1
 70
     1
 10
0.0
 20
0.0
 30
0.0
  3
*G1
  1

  0
LINE
  5
372
330
370
100
AcDbEntity
  8
HOJO_0
100
AcDbLine
 10
3053.595631960323
 20
-663.6040253532628
 30
0.0
 11
2963.595631960323
 21
-663.6040253532628
 31
0.0
  0
LINE
  5
373
330
370
100
AcDbEntity
  8
HOJO_0
100
AcDbLine
 10
3008.595631960323
 20
-708.6040253532628
 30
0.0
 11
3008.595631960323
 21
-618.6040253532628
 31
0.0
  0
ENDBLK
  5
374
330
370
100
AcDbEntity
  8
0
100
AcDbBlockEnd
  0
BLOCK
  5
1703
330
16F9
100
AcDbEntity
  8
0
100
AcDbBlockBegin
  2
*D2
 70
     1
 10
0.0
 20
0.0
 30
0.0
  3
*D2
  1

  0
LINE
  5
16FA
330
16F9
100
AcDbEntity
  8
図面
 62
     1
370
    -2
100
AcDbLine
 10
13535.35473816815
 20
6864.741409317328
 30
0.0
 11
13415.8388484488
 21
6864.741409317328
 31
0.0
  0
LINE
  5
16FB
330
16F9
100
AcDbEntity
  8
図面
 62
     1
370
    -2
100
AcDbLine
 10
13577.85473816815
 20
7824.741409317328
 30
0.0
 11
13415.8388484488
 21
7824.741409317328
 31
0.0
  0
LINE
  5
16FC
330
16F9
100
AcDbEntity
  8
図面
 62
     1
370
    -2
100
AcDbLine
 10
13416.3388484488
 20
6884.741409317328
 30
0.0
 11
13416.3388484488
 21
7804.741409317328
 31
0.0
  0
SOLID
  5
16FD
330
16F9
100
AcDbEntity
  8
図面
 62
     1
100
AcDbTrace
 10
13413.00551511547
 20
6884.741409317328
 30
0.0
 11
13419.67218178214
 21
6884.741409317328
 31
0.0
 12
13416.3388484488
 22
6864.741409317328
 32
0.0
 13
13416.3388484488
 23
6864.741409317328
 33
0.0
  0
SOLID
  5
16FE
330
16F9
100
AcDbEntity
  8
図面
 62
     1
100
AcDbTrace
 10
13413.00551511547
 20
7804.741409317328
 30
0.0
 11
13419.67218178214
 21
7804.741409317328
 31
0.0
 12
13416.3388484488
 22
7824.741409317328
 32
0.0
 13
13416.3388484488
 23
7824.741409317328
 33
0.0
  0
MTEXT
  5
16FF
330
16F9
100
AcDbEntity
  8
図面
 62
     1
100
AcDbMText
 10
13403.3388484488
 20
7344.74140931733
 30
0.0
 40
25.0
 41
0.0
 46
0.0
 71
     5
 72
     1
  1
\A1;960
  7
TextStyle01
 11
6.123031769111886E-17
 21
1.0
 31
0.0
 73
     1
 44
1.0
  0
POINT
  5
1700
330
16F9
100
AcDbEntity
  8
Defpoints
 62
     0
100
AcDbPoint
 10
13535.41723816815
 20
6864.741409317328
 30
0.0
  0
POINT
  5
1701
330
16F9
100
AcDbEntity
  8
Defpoints
 62
     0
100
AcDbPoint
 10
13577.91723816815
 20
7824.741409317328
 30
0.0
  0
POINT
  5
1702
330
16F9
100
AcDbEntity
  8
Defpoints
 62
     0
100
AcDbPoint
 10
13416.3388484488
 20
7824.741409317328
 30
0.0
  0
ENDBLK
  5
1704
330
16F9
100
AcDbEntity
  8
0
100
AcDbBlockEnd
  0
BLOCK
  5
1710
330
1706
100
AcDbEntity
  8
0
100
AcDbBlockBegin
  2
*D3
 70
     1
 10
0.0
 20
0.0
 30
0.0
  3
*D3
  1

  0
LINE
  5
1707
330
1706
100
AcDbEntity
  8
図面
 62
     1
370
    -2
100
AcDbLine
 10
13500.41723816815
 20
6919.678909317328
 30
0.0
 11
13500.41723816815
 21
6773.706353952301
 31
0.0
  0
LINE
  5
1708
330
1706
100
AcDbEntity
  8
図面
 62
     1
370
    -2
100
AcDbLine
 10
14160.41723816815
 20
6919.678909317328
 30
0.0
 11
14160.41723816815
 21
6773.706353952301
 31
0.0
  0
LINE
  5
1709
330
1706
100
AcDbEntity
  8
図面
 62
     1
370
    -2
100
AcDbLine
 10
13520.41723816815
 20
6774.206353952301
 30
0.0
 11
14140.41723816815
 21
6774.206353952301
 31
0.0
  0
SOLID
  5
170A
330
1706
100
AcDbEntity
  8
図面
 62
     1
100
AcDbTrace
 10
13520.41723816815
 20
6777.539687285634
 30
0.0
 11
13520.41723816815
 21
6770.873020618968
 31
0.0
 12
13500.41723816815
 22
6774.206353952301
 32
0.0
 13
13500.41723816815
 23
6774.206353952301
 33
0.0
  0
SOLID
  5
170B
330
1706
100
AcDbEntity
  8
図面
 62
     1
100
AcDbTrace
 10
14140.41723816815
 20
6777.539687285634
 30
0.0
 11
14140.41723816815
 21
6770.873020618968
 31
0.0
 12
14160.41723816815
 22
6774.206353952301
 32
0.0
 13
14160.41723816815
 23
6774.206353952301
 33
0.0
  0
MTEXT
  5
170C
330
1706
100
AcDbEntity
  8
図面
 62
     1
100
AcDbMText
 10
13830.41723816815
 20
6787.206353952301
 30
0.0
 40
25.0
 41
0.0
 46
0.0
 71
     5
 72
     1
  1
\A1;660
  7
TextStyle01
 73
     1
 44
1.0
  0
POINT
  5
170D
330
1706
100
AcDbEntity
  8
Defpoints
 62
     0
100
AcDbPoint
 10
13500.41723816815
 20
6919.741409317328
 30
0.0
  0
POINT
  5
170E
330
1706
100
AcDbEntity
  8
Defpoints
 62
     0
100
AcDbPoint
 10
14160.41723816815
 20
6919.741409317328
 30
0.0
  0
POINT
  5
170F
330
1706
100
AcDbEntity
  8
Defpoints
 62
     0
100
AcDbPoint
 10
14160.41723816815
 20
6774.206353952301
 30
0.0
  0
ENDBLK
  5
1711
330
1706
100
AcDbEntity
  8
0
100
AcDbBlockEnd
  0
BLOCK
  5
171E
330
1714
100
AcDbEntity
  8
0
100
AcDbBlockBegin
  2
*D4
 70
     1
 10
0.0
 20
0.0
 30
0.0
  3
*D4
  1

  0
LINE
  5
1715
330
1714
100
AcDbEntity
  8
図面
 62
     1
370
    -2
100
AcDbLine
 10
14382.91723816815
 20
6950.678909317328
 30
0.0
 11
14382.91723816815
 21
6773.206353952301
 31
0.0
  0
LINE
  5
1716
330
1714
100
AcDbEntity
  8
図面
 62
     1
370
    -2
100
AcDbLine
 10
15367.91723816815
 20
6950.678909317328
 30
0.0
 11
15367.91723816815
 21
6773.206353952301
 31
0.0
  0
LINE
  5
1717
330
1714
100
AcDbEntity
  8
図面
 62
     1
370
    -2
100
AcDbLine
 10
14402.91723816815
 20
6773.706353952301
 30
0.0
 11
15347.91723816815
 21
6773.706353952301
 31
0.0
  0
SOLID
  5
1718
330
1714
100
AcDbEntity
  8
図面
 62
     1
100
AcDbTrace
 10
14402.91723816815
 20
6777.039687285634
 30
0.0
 11
14402.91723816815
 21
6770.373020618968
 31
0.0
 12
14382.91723816815
 22
6773.706353952301
 32
0.0
 13
14382.91723816815
 23
6773.706353952301
 33
0.0
  0
SOLID
  5
1719
330
1714
100
AcDbEntity
  8
図面
 62
     1
100
AcDbTrace
 10
15347.91723816815
 20
6777.039687285634
 30
0.0
 11
15347.91723816815
 21
6770.373020618968
 31
0.0
 12
15367.91723816815
 22
6773.706353952301
 32
0.0
 13
15367.91723816815
 23
6773.706353952301
 33
0.0
  0
MTEXT
  5
171A
330
1714
100
AcDbEntity
  8
図面
 62
     1
100
AcDbMText
 10
14875.41723816815
 20
6786.706353952301
 30
0.0
 40
25.0
 41
0.0
 46
0.0
 71
     5
 72
     1
  1
\A1;985
  7
TextStyle01
 73
     1
 44
1.0
  0
POINT
  5
171B
330
1714
100
AcDbEntity
  8
Defpoints
 62
     0
100
AcDbPoint
 10
14382.91723816815
 20
6950.741409317328
 30
0.0
  0
POINT
  5
171C
330
1714
100
AcDbEntity
  8
Defpoints
 62
     0
100
AcDbPoint
 10
15367.91723816815
 20
6950.741409317328
 30
0.0
  0
POINT
  5
171D
330
1714
100
AcDbEntity
  8
Defpoints
 62
     0
100
AcDbPoint
 10
15367.91723816815
 20
6773.706353952301
 30
0.0
  0
ENDBLK
  5
171F
330
1714
100
AcDbEntity
  8
0
100
AcDbBlockEnd
  0
BLOCK
  5
19F1
330
19E7
100
AcDbEntity
  8
0
100
AcDbBlockBegin
  2
*D5
 70
     1
 10
0.0
 20
0.0
 30
0.0
  3
*D5
  1

  0
LINE
  5
19E8
330
19E7
100
AcDbEntity
  8
図面
 62
     1
370
    -2
100
AcDbLine
 10
13535.29223816815
 20
6864.741409317328
 30
0.0
 11
13353.32924527427
 21
6864.741409317328
 31
0.0
  0
LINE
  5
19E9
330
19E7
100
AcDbEntity
  8
図面
 62
     1
370
    -2
100
AcDbLine
 10
13607.85473816815
 20
7909.741409317328
 30
0.0
 11
13353.32924527427
 21
7909.741409317328
 31
0.0
  0
LINE
  5
19EA
330
19E7
100
AcDbEntity
  8
図面
 62
     1
370
    -2
100
AcDbLine
 10
13353.82924527427
 20
6884.741409317328
 30
0.0
 11
13353.82924527427
 21
7889.741409317328
 31
0.0
  0
SOLID
  5
19EB
330
19E7
100
AcDbEntity
  8
図面
 62
     1
100
AcDbTrace
 10
13350.49591194093
 20
6884.741409317328
 30
0.0
 11
13357.1625786076
 21
6884.741409317328
 31
0.0
 12
13353.82924527427
 22
6864.741409317328
 32
0.0
 13
13353.82924527427
 23
6864.741409317328
 33
0.0
  0
SOLID
  5
19EC
330
19E7
100
AcDbEntity
  8
図面
 62
     1
100
AcDbTrace
 10
13350.49591194093
 20
7889.741409317328
 30
0.0
 11
13357.1625786076
 21
7889.741409317328
 31
0.0
 12
13353.82924527427
 22
7909.741409317328
 32
0.0
 13
13353.82924527427
 23
7909.741409317328
 33
0.0
  0
MTEXT
  5
19ED
330
19E7
100
AcDbEntity
  8
図面
 62
     1
100
AcDbMText
 10
13340.82924527427
 20
7387.24140931733
 30
0.0
 40
25.0
 41
0.0
 46
0.0
 71
     5
 72
     1
  1
\A1;1045
  7
TextStyle01
 11
6.123031769111886E-17
 21
1.0
 31
0.0
 73
     1
 44
1.0
  0
POINT
  5
19EE
330
19E7
100
AcDbEntity
  8
Defpoints
 62
     0
100
AcDbPoint
 10
13535.35473816815
 20
6864.741409317328
 30
0.0
  0
POINT
  5
19EF
330
19E7
100
AcDbEntity
  8
Defpoints
 62
     0
100
AcDbPoint
 10
13607.91723816815
 20
7909.741409317328
 30
0.0
  0
POINT
  5
19F0
330
19E7
100
AcDbEntity
  8
Defpoints
 62
     0
100
AcDbPoint
 10
13353.82924527427
 20
7909.741409317328
 30
0.0
  0
ENDBLK
  5
19F2
330
19E7
100
AcDbEntity
  8
0
100
AcDbBlockEnd
  0
BLOCK
  5
1D1A
330
1D10
100
AcDbEntity
  8
0
100
AcDbBlockBegin
  2
*D6
 70
     1
 10
0.0
 20
0.0
 30
0.0
  3
*D6
  1

  0
LINE
  5
1F62
330
1D10
100
AcDbEntity
  8
図面
 62
     1
370
    -2
100
AcDbLine
 10
23199.67439233952
 20
7774.2779590398
 30
0.0
 11
23199.67439233952
 21
7558.587441043299
 31
0.0
  0
LINE
  5
1F63
330
1D10
100
AcDbEntity
  8
図面
 62
     1
370
    -2
100
AcDbLine
 10
23914.67439233952
 20
7774.2779590398
 30
0.0
 11
23914.67439233952
 21
7558.587441043299
 31
0.0
  0
LINE
  5
1F64
330
1D10
100
AcDbEntity
  8
図面
 62
     1
370
    -2
100
AcDbLine
 10
23219.67439233952
 20
7559.087441043299
 30
0.0
 11
23894.67439233952
 21
7559.087441043299
 31
0.0
  0
SOLID
  5
1F65
330
1D10
100
AcDbEntity
  8
図面
 62
     1
100
AcDbTrace
 10
23219.67439233952
 20
7562.420774376632
 30
0.0
 11
23219.67439233952
 21
7555.754107709966
 31
0.0
 12
23199.67439233952
 22
7559.087441043299
 32
0.0
 13
23199.67439233952
 23
7559.087441043299
 33
0.0
  0
SOLID
  5
1F66
330
1D10
100
AcDbEntity
  8
図面
 62
     1
100
AcDbTrace
 10
23894.67439233952
 20
7562.420774376632
 30
0.0
 11
23894.67439233952
 21
7555.754107709966
 31
0.0
 12
23914.67439233952
 22
7559.087441043299
 32
0.0
 13
23914.67439233952
 23
7559.087441043299
 33
0.0
  0
MTEXT
  5
1F67
330
1D10
100
AcDbEntity
  8
図面
 62
     1
100
AcDbMText
 10
23557.17439233952
 20
7572.087441043299
 30
0.0
 40
25.0
 41
0.0
 46
0.0
 71
     5
 72
     1
  1
\A1;715
  7
TextStyle01
 73
     1
 44
1.0
  0
POINT
  5
1F68
330
1D10
100
AcDbEntity
  8
Defpoints
 62
     0
100
AcDbPoint
 10
23199.67439233952
 20
7774.3404590398
 30
0.0
  0
POINT
  5
1F69
330
1D10
100
AcDbEntity
  8
Defpoints
 62
     0
100
AcDbPoint
 10
23914.67439233952
 20
7774.3404590398
 30
0.0
  0
POINT
  5
1F6A
330
1D10
100
AcDbEntity
  8
Defpoints
 62
     0
100
AcDbPoint
 10
23914.67439233952
 20
7559.087441043299
 30
0.0
  0
ENDBLK
  5
1D1B
330
1D10
100
AcDbEntity
  8
0
100
AcDbBlockEnd
  0
BLOCK
  5
1D27
330
1D1D
100
AcDbEntity
  8
0
100
AcDbBlockBegin
  2
*D7
 70
     1
 10
0.0
 20
0.0
 30
0.0
  3
*D7
  1

  0
LINE
  5
1F6B
330
1D1D
100
AcDbEntity
  8
図面
 62
     1
370
    -2
100
AcDbLine
 10
23050.17439233952
 20
8092.7779590398
 30
0.0
 11
23050.17439233952
 21
7498.362723732514
 31
0.0
  0
LINE
  5
1F6C
330
1D1D
100
AcDbEntity
  8
図面
 62
     1
370
    -2
100
AcDbLine
 10
24044.67439233951
 20
8114.233464388652
 30
0.0
 11
24044.67439233951
 21
7498.362723732514
 31
0.0
  0
LINE
  5
1F6D
330
1D1D
100
AcDbEntity
  8
図面
 62
     1
370
    -2
100
AcDbLine
 10
23070.17439233952
 20
7498.862723732514
 30
0.0
 11
24024.67439233951
 21
7498.862723732514
 31
0.0
  0
SOLID
  5
1F6E
330
1D1D
100
AcDbEntity
  8
図面
 62
     1
100
AcDbTrace
 10
23070.17439233952
 20
7502.196057065848
 30
0.0
 11
23070.17439233952
 21
7495.529390399181
 31
0.0
 12
23050.17439233952
 22
7498.862723732514
 32
0.0
 13
23050.17439233952
 23
7498.862723732514
 33
0.0
  0
SOLID
  5
1F6F
330
1D1D
100
AcDbEntity
  8
図面
 62
     1
100
AcDbTrace
 10
24024.67439233951
 20
7502.196057065848
 30
0.0
 11
24024.67439233951
 21
7495.529390399181
 31
0.0
 12
24044.67439233951
 22
7498.862723732514
 32
0.0
 13
24044.67439233951
 23
7498.862723732514
 33
0.0
  0
MTEXT
  5
1F70
330
1D1D
100
AcDbEntity
  8
図面
 62
     1
100
AcDbMText
 10
23547.42439233951
 20
7511.862723732514
 30
0.0
 40
25.0
 41
0.0
 46
0.0
 71
     5
 72
     1
  1
\A1;995
  7
TextStyle01
 73
     1
 44
1.0
  0
POINT
  5
1F71
330
1D1D
100
AcDbEntity
  8
Defpoints
 62
     0
100
AcDbPoint
 10
23050.17439233952
 20
8092.8404590398
 30
0.0
  0
POINT
  5
1F72
330
1D1D
100
AcDbEntity
  8
Defpoints
 62
     0
100
AcDbPoint
 10
24044.67439233951
 20
8114.295964388652
 30
0.0
  0
POINT
  5
1F73
330
1D1D
100
AcDbEntity
  8
Defpoints
 62
     0
100
AcDbPoint
 10
24044.67439233951
 20
7498.862723732514
 30
0.0
  0
ENDBLK
  5
1D28
330
1D1D
100
AcDbEntity
  8
0
100
AcDbBlockEnd
  0
BLOCK
  5
1D34
330
1D2A
100
AcDbEntity
  8
0
100
AcDbBlockBegin
  2
*D8
 70
     1
 10
0.0
 20
0.0
 30
0.0
  3
*D8
  1

  0
LINE
  5
1F8F
330
1D2A
100
AcDbEntity
  8
図面
 62
     1
370
    -2
100
AcDbLine
 10
22033.34075903826
 20
7774.3404590398
 30
0.0
 11
21949.79849243573
 21
7774.3404590398
 31
0.0
  0
LINE
  5
1F90
330
1D2A
100
AcDbEntity
  8
図面
 62
     1
370
    -2
100
AcDbLine
 10
22043.09075903826
 20
8521.8404590398
 30
0.0
 11
21949.79849243574
 21
8521.8404590398
 31
0.0
  0
LINE
  5
1F91
330
1D2A
100
AcDbEntity
  8
図面
 62
     1
370
    -2
100
AcDbLine
 10
21950.29849243573
 20
7794.3404590398
 30
0.0
 11
21950.29849243574
 21
8501.8404590398
 31
0.0
  0
SOLID
  5
1F92
330
1D2A
100
AcDbEntity
  8
図面
 62
     1
100
AcDbTrace
 10
21946.9651591024
 20
7794.3404590398
 30
0.0
 11
21953.63182576907
 21
7794.3404590398
 31
0.0
 12
21950.29849243573
 22
7774.3404590398
 32
0.0
 13
21950.29849243573
 23
7774.3404590398
 33
0.0
  0
SOLID
  5
1F93
330
1D2A
100
AcDbEntity
  8
図面
 62
     1
100
AcDbTrace
 10
21946.9651591024
 20
8501.8404590398
 30
0.0
 11
21953.63182576907
 21
8501.8404590398
 31
0.0
 12
21950.29849243574
 22
8521.8404590398
 32
0.0
 13
21950.29849243574
 23
8521.8404590398
 33
0.0
  0
MTEXT
  5
1F94
330
1D2A
100
AcDbEntity
  8
図面
 62
     1
100
AcDbMText
 10
21937.29849243573
 20
8148.090459039805
 30
0.0
 40
25.0
 41
0.0
 46
0.0
 71
     5
 72
     1
  1
\A1;748
  7
TextStyle01
 11
6.123233995736766E-17
 21
1.0
 31
0.0
 73
     1
 44
1.0
  0
POINT
  5
1F95
330
1D2A
100
AcDbEntity
  8
Defpoints
 62
     0
100
AcDbPoint
 10
22033.40325903826
 20
7774.3404590398
 30
0.0
  0
POINT
  5
1F96
330
1D2A
100
AcDbEntity
  8
Defpoints
 62
     0
100
AcDbPoint
 10
22043.15325903826
 20
8521.8404590398
 30
0.0
  0
POINT
  5
1F97
330
1D2A
100
AcDbEntity
  8
Defpoints
 62
     0
100
AcDbPoint
 10
21950.29849243574
 20
8521.8404590398
 30
0.0
  0
ENDBLK
  5
1D35
330
1D2A
100
AcDbEntity
  8
0
100
AcDbBlockEnd
  0
BLOCK
  5
1D41
330
1D37
100
AcDbEntity
  8
0
100
AcDbBlockBegin
  2
*D9
 70
     1
 10
0.0
 20
0.0
 30
0.0
  3
*D9
  1

  0
LINE
  5
1F98
330
1D37
100
AcDbEntity
  8
図面
 62
     1
370
    -2
100
AcDbLine
 10
22023.65325903826
 20
8502.4029590398
 30
0.0
 11
22023.65325903826
 21
8600.426193841427
 31
0.0
  0
LINE
  5
1F99
330
1D37
100
AcDbEntity
  8
図面
 62
     1
370
    -2
100
AcDbLine
 10
22647.65325903826
 20
8502.4029590398
 30
0.0
 11
22647.65325903826
 21
8600.426193841427
 31
0.0
  0
LINE
  5
1F9A
330
1D37
100
AcDbEntity
  8
図面
 62
     1
370
    -2
100
AcDbLine
 10
22043.65325903826
 20
8599.926193841427
 30
0.0
 11
22627.65325903826
 21
8599.926193841427
 31
0.0
  0
SOLID
  5
1F9B
330
1D37
100
AcDbEntity
  8
図面
 62
     1
100
AcDbTrace
 10
22043.65325903826
 20
8603.259527174761
 30
0.0
 11
22043.65325903826
 21
8596.592860508094
 31
0.0
 12
22023.65325903826
 22
8599.926193841427
 32
0.0
 13
22023.65325903826
 23
8599.926193841427
 33
0.0
  0
SOLID
  5
1F9C
330
1D37
100
AcDbEntity
  8
図面
 62
     1
100
AcDbTrace
 10
22627.65325903826
 20
8603.259527174761
 30
0.0
 11
22627.65325903826
 21
8596.592860508094
 31
0.0
 12
22647.65325903826
 22
8599.926193841427
 32
0.0
 13
22647.65325903826
 23
8599.926193841427
 33
0.0
  0
MTEXT
  5
1F9D
330
1D37
100
AcDbEntity
  8
図面
 62
     1
100
AcDbMText
 10
22335.65325903826
 20
8612.926193841427
 30
0.0
 40
25.0
 41
0.0
 46
0.0
 71
     5
 72
     1
  1
\A1;624
  7
TextStyle01
 73
     1
 44
1.0
  0
POINT
  5
1F9E
330
1D37
100
AcDbEntity
  8
Defpoints
 62
     0
100
AcDbPoint
 10
22023.65325903826
 20
8502.3404590398
 30
0.0
  0
POINT
  5
1F9F
330
1D37
100
AcDbEntity
  8
Defpoints
 62
     0
100
AcDbPoint
 10
22647.65325903826
 20
8502.3404590398
 30
0.0
  0
POINT
  5
1FA0
330
1D37
100
AcDbEntity
  8
Defpoints
 62
     0
100
AcDbPoint
 10
22647.65325903826
 20
8599.926193841427
 30
0.0
  0
ENDBLK
  5
1D42
330
1D37
100
AcDbEntity
  8
0
100
AcDbBlockEnd
  0
BLOCK
  5
1E1A
330
1E10
100
AcDbEntity
  8
0
100
AcDbBlockBegin
  2
*D10
 70
     1
 10
0.0
 20
0.0
 30
0.0
  3
*D10
  1

  0
LINE
  5
1FA1
330
1E10
100
AcDbEntity
  8
図面
 62
     1
370
    -2
100
AcDbLine
 10
22023.65325903826
 20
8502.2779590398
 30
0.0
 11
22023.65325903826
 21
7497.712723732515
 31
0.0
  0
LINE
  5
1FA2
330
1E10
100
AcDbEntity
  8
図面
 62
     1
370
    -2
100
AcDbLine
 10
22738.65325846221
 20
8099.5642105853
 30
0.0
 11
22738.65325846221
 21
7497.712723732515
 31
0.0
  0
LINE
  5
1FA3
330
1E10
100
AcDbEntity
  8
図面
 62
     1
370
    -2
100
AcDbLine
 10
22043.65325903826
 20
7498.212723732515
 30
0.0
 11
22718.65325846221
 21
7498.212723732515
 31
0.0
  0
SOLID
  5
1FA4
330
1E10
100
AcDbEntity
  8
図面
 62
     1
100
AcDbTrace
 10
22043.65325903826
 20
7501.546057065848
 30
0.0
 11
22043.65325903826
 21
7494.879390399182
 31
0.0
 12
22023.65325903826
 22
7498.212723732515
 32
0.0
 13
22023.65325903826
 23
7498.212723732515
 33
0.0
  0
SOLID
  5
1FA5
330
1E10
100
AcDbEntity
  8
図面
 62
     1
100
AcDbTrace
 10
22718.65325846221
 20
7501.546057065848
 30
0.0
 11
22718.65325846221
 21
7494.879390399182
 31
0.0
 12
22738.65325846221
 22
7498.212723732515
 32
0.0
 13
22738.65325846221
 23
7498.212723732515
 33
0.0
  0
MTEXT
  5
1FA6
330
1E10
100
AcDbEntity
  8
図面
 62
     1
100
AcDbMText
 10
22381.15325875023
 20
7511.212723732515
 30
0.0
 40
25.0
 41
0.0
 46
0.0
 71
     5
 72
     1
  1
\A1;715
  7
TextStyle01
 73
     1
 44
1.0
  0
POINT
  5
1FA7
330
1E10
100
AcDbEntity
  8
Defpoints
 62
     0
100
AcDbPoint
 10
22023.65325903826
 20
8502.3404590398
 30
0.0
  0
POINT
  5
1FA8
330
1E10
100
AcDbEntity
  8
Defpoints
 62
     0
100
AcDbPoint
 10
22738.65325846221
 20
8099.6267105853
 30
0.0
  0
POINT
  5
1FA9
330
1E10
100
AcDbEntity
  8
Defpoints
 62
     0
100
AcDbPoint
 10
22738.65325846221
 20
7498.212723732515
 30
0.0
  0
ENDBLK
  5
1E1B
330
1E10
100
AcDbEntity
  8
0
100
AcDbBlockEnd
  0
ENDSEC
  0
SECTION
  2
ENTITIES
  0
LWPOLYLINE
  5
19FD
330
1E
100
AcDbEntity
  8
図面
100
AcDbPolyline
 90
        4
 70
     1
 43
0.0
 10
23199.67439233952
 20
7813.3404590398
 10
23914.67439233952
 20
7813.3404590398
 10
23914.67439233952
 20
8463.3404590398
 10
23199.67439233952
 20
8463.3404590398
  0
LINE
  5
1A03
330
1E
100
AcDbEntity
  8
図面
100
AcDbLine
 10
23186.67439233952
 20
8502.3404590398
 30
0.0
 11
23206.17439233952
 21
8521.8404590398
 31
0.0
  0
LINE
  5
1A04
330
1E
100
AcDbEntity
  8
図面
100
AcDbLine
 10
23206.17439233952
 20
8521.8404590398
 30
0.0
 11
23908.17439233952
 21
8521.8404590398
 31
0.0
  0
LINE
  5
1A05
330
1E
100
AcDbEntity
  8
図面
100
AcDbLine
 10
23908.17439233952
 20
8521.8404590398
 30
0.0
 11
23927.67439233952
 21
8502.3404590398
 31
0.0
  0
LINE
  5
1A06
330
1E
100
AcDbEntity
  8
図面
100
AcDbLine
 10
23927.67439233952
 20
8502.3404590398
 30
0.0
 11
23186.67439233952
 21
8502.3404590398
 31
0.0
  0
LINE
  5
1A0B
330
1E
100
AcDbEntity
  8
図面
100
AcDbLine
 10
23303.67439233952
 20
8502.3404590398
 30
0.0
 11
23303.67439233952
 21
8463.3404590398
 31
0.0
  0
LINE
  5
1A0C
330
1E
100
AcDbEntity
  8
図面
100
AcDbLine
 10
23810.67439233952
 20
8502.3404590398
 30
0.0
 11
23810.67439233952
 21
8463.3404590398
 31
0.0
  0
CIRCLE
  5
1A18
330
1E
100
AcDbEntity
  8
図面
100
AcDbCircle
 10
23361.87549799459
 20
8242.04156469488
 30
0.0
 40
34.45
  0
LINE
  5
1A19
330
1E
100
AcDbEntity
  8
ﾚｲﾔ1
  6
Continuous
100
AcDbLine
 10
23378.36240038591
 20
8254.2384670862
 30
0.0
 11
23384.01740038592
 21
8264.183467086197
 31
0.0
  0
LINE
  5
1A1A
330
1E
100
AcDbEntity
  8
ﾚｲﾔ1
  6
Continuous
100
AcDbLine
 10
23384.01740038592
 20
8264.183467086197
 30
0.0
 11
23374.07240038591
 21
8258.528467086198
 31
0.0
  0
LINE
  5
1A1B
330
1E
100
AcDbEntity
  8
ﾚｲﾔ1
  6
Continuous
100
AcDbLine
 10
23384.01740038591
 20
8264.183467086197
 30
0.0
 11
23340.33138429312
 21
8220.497450993405
 31
0.0
  0
CIRCLE
  5
1A1C
330
1E
100
AcDbEntity
  8
図面
100
AcDbCircle
 10
23361.87549799459
 20
8242.04156469488
 30
0.0
 40
44.2
  0
CIRCLE
  5
1A1D
330
1E
100
AcDbEntity
  8
図面
100
AcDbCircle
 10
23361.87549799459
 20
8242.04156469488
 30
0.0
 40
35.75
  0
CIRCLE
  5
1A1E
330
1E
100
AcDbEntity
  8
図面
100
AcDbCircle
 10
23361.87549799459
 20
8242.04156469488
 30
0.0
 40
55.25
  0
CIRCLE
  5
1A1F
330
1E
100
AcDbEntity
  8
図面
100
AcDbCircle
 10
23491.87549799459
 20
8242.04156469488
 30
0.0
 40
55.25
  0
CIRCLE
  5
1A20
330
1E
100
AcDbEntity
  8
図面
100
AcDbCircle
 10
23491.87549799459
 20
8242.04156469488
 30
0.0
 40
35.75
  0
CIRCLE
  5
1A21
330
1E
100
AcDbEntity
  8
図面
100
AcDbCircle
 10
23491.87549799459
 20
8242.04156469488
 30
0.0
 40
44.2
  0
LINE
  5
1A22
330
1E
100
AcDbEntity
  8
ﾚｲﾔ1
  6
Continuous
100
AcDbLine
 10
23514.01740038591
 20
8264.183467086197
 30
0.0
 11
23470.33138429312
 21
8220.497450993405
 31
0.0
  0
LINE
  5
1A23
330
1E
100
AcDbEntity
  8
ﾚｲﾔ1
  6
Continuous
100
AcDbLine
 10
23514.01740038592
 20
8264.183467086197
 30
0.0
 11
23504.07240038591
 21
8258.528467086198
 31
0.0
  0
LINE
  5
1A24
330
1E
100
AcDbEntity
  8
ﾚｲﾔ1
  6
Continuous
100
AcDbLine
 10
23508.36240038591
 20
8254.2384670862
 30
0.0
 11
23514.01740038592
 21
8264.183467086197
 31
0.0
  0
CIRCLE
  5
1A25
330
1E
100
AcDbEntity
  8
図面
100
AcDbCircle
 10
23491.87549799459
 20
8242.04156469488
 30
0.0
 40
34.45
  0
CIRCLE
  5
1A26
330
1E
100
AcDbEntity
  8
図面
100
AcDbCircle
 10
23752.17439233952
 20
8242.3404590398
 30
0.0
 40
34.45
  0
LINE
  5
1A27
330
1E
100
AcDbEntity
  8
ﾚｲﾔ1
  6
Continuous
100
AcDbLine
 10
23768.66129473083
 20
8254.53736143112
 30
0.0
 11
23774.31629473083
 21
8264.482361431117
 31
0.0
  0
LINE
  5
1A28
330
1E
100
AcDbEntity
  8
ﾚｲﾔ1
  6
Continuous
100
AcDbLine
 10
23774.31629473083
 20
8264.482361431117
 30
0.0
 11
23764.37129473083
 21
8258.827361431118
 31
0.0
  0
LINE
  5
1A29
330
1E
100
AcDbEntity
  8
ﾚｲﾔ1
  6
Continuous
100
AcDbLine
 10
23774.31629473083
 20
8264.482361431117
 30
0.0
 11
23730.63027863804
 21
8220.796345338325
 31
0.0
  0
CIRCLE
  5
1A2A
330
1E
100
AcDbEntity
  8
図面
100
AcDbCircle
 10
23752.17439233952
 20
8242.3404590398
 30
0.0
 40
44.2
  0
CIRCLE
  5
1A2B
330
1E
100
AcDbEntity
  8
図面
100
AcDbCircle
 10
23752.17439233952
 20
8242.3404590398
 30
0.0
 40
35.75
  0
CIRCLE
  5
1A2C
330
1E
100
AcDbEntity
  8
図面
100
AcDbCircle
 10
23752.17439233952
 20
8242.3404590398
 30
0.0
 40
55.25
  0
CIRCLE
  5
1A2D
330
1E
100
AcDbEntity
  8
図面
100
AcDbCircle
 10
23622.17439233952
 20
8242.3404590398
 30
0.0
 40
55.25
  0
CIRCLE
  5
1A2E
330
1E
100
AcDbEntity
  8
図面
100
AcDbCircle
 10
23622.17439233952
 20
8242.3404590398
 30
0.0
 40
35.75
  0
CIRCLE
  5
1A2F
330
1E
100
AcDbEntity
  8
図面
100
AcDbCircle
 10
23622.17439233952
 20
8242.3404590398
 30
0.0
 40
44.2
  0
LINE
  5
1A30
330
1E
100
AcDbEntity
  8
ﾚｲﾔ1
  6
Continuous
100
AcDbLine
 10
23644.31629473083
 20
8264.482361431117
 30
0.0
 11
23600.63027863804
 21
8220.796345338325
 31
0.0
  0
LINE
  5
1A31
330
1E
100
AcDbEntity
  8
ﾚｲﾔ1
  6
Continuous
100
AcDbLine
 10
23644.31629473083
 20
8264.482361431117
 30
0.0
 11
23634.37129473083
 21
8258.827361431118
 31
0.0
  0
LINE
  5
1A32
330
1E
100
AcDbEntity
  8
ﾚｲﾔ1
  6
Continuous
100
AcDbLine
 10
23638.66129473083
 20
8254.53736143112
 30
0.0
 11
23644.31629473083
 21
8264.482361431117
 31
0.0
  0
CIRCLE
  5
1A33
330
1E
100
AcDbEntity
  8
図面
100
AcDbCircle
 10
23622.17439233952
 20
8242.3404590398
 30
0.0
 40
34.45
  0
CIRCLE
  5
1A7B
330
1E
100
AcDbEntity
  8
図面
100
AcDbCircle
 10
23362.17439233952
 20
8021.3404590398
 30
0.0
 40
10.075
  0
CIRCLE
  5
1A7C
330
1E
100
AcDbEntity
  8
図面
100
AcDbCircle
 10
23362.17439233952
 20
8021.3404590398
 30
0.0
 40
16.25
  0
LWPOLYLINE
  5
1A7E
330
1E
100
AcDbEntity
  8
図面
100
AcDbPolyline
 90
        6
 70
     1
 43
0.0
 10
23358.92439233952
 20
8026.9696241644
 10
23355.67439233952
 20
8021.3404590398
 10
23358.92439233952
 20
8015.711293915203
 10
23365.42439233952
 20
8015.711293915203
 10
23368.67439233952
 20
8021.3404590398
 10
23365.42439233952
 20
8026.9696241644
  0
CIRCLE
  5
1A8F
330
1E
100
AcDbEntity
  8
図面
100
AcDbCircle
 10
23492.17439233952
 20
8118.8404590398
 30
0.0
 40
2.337442467213987
  0
CIRCLE
  5
1A90
330
1E
100
AcDbEntity
  8
図面
100
AcDbCircle
 10
23492.17439233952
 20
8118.8404590398
 30
0.0
 40
18.2
  0
CIRCLE
  5
1A91
330
1E
100
AcDbEntity
  8
図面
100
AcDbCircle
 10
23492.17439233952
 20
8118.8404590398
 30
0.0
 40
18.2
  0
CIRCLE
  5
1A92
330
1E
100
AcDbEntity
  8
図面
100
AcDbCircle
 10
23492.17439233952
 20
8118.8404590398
 30
0.0
 40
15.6
  0
CIRCLE
  5
1A93
330
1E
100
AcDbEntity
  8
図面
100
AcDbCircle
 10
23492.17439233952
 20
8118.8404590398
 30
0.0
 40
8.125
  0
CIRCLE
  5
1A94
330
1E
100
AcDbEntity
  8
図面
100
AcDbCircle
 10
23362.17439233952
 20
8118.8404590398
 30
0.0
 40
8.125
  0
CIRCLE
  5
1A95
330
1E
100
AcDbEntity
  8
図面
100
AcDbCircle
 10
23362.17439233952
 20
8118.8404590398
 30
0.0
 40
15.6
  0
CIRCLE
  5
1A96
330
1E
100
AcDbEntity
  8
図面
100
AcDbCircle
 10
23362.17439233952
 20
8118.8404590398
 30
0.0
 40
18.2
  0
CIRCLE
  5
1A97
330
1E
100
AcDbEntity
  8
図面
100
AcDbCircle
 10
23362.17439233952
 20
8118.8404590398
 30
0.0
 40
18.2
  0
CIRCLE
  5
1A98
330
1E
100
AcDbEntity
  8
図面
100
AcDbCircle
 10
23362.17439233952
 20
8118.8404590398
 30
0.0
 40
2.337442467213987
  0
LWPOLYLINE
  5
1A99
330
1E
100
AcDbEntity
  8
図面
100
AcDbPolyline
 90
        6
 70
     1
 43
0.0
 10
23488.92439233952
 20
8026.9696241644
 10
23485.67439233952
 20
8021.3404590398
 10
23488.92439233952
 20
8015.711293915203
 10
23495.42439233952
 20
8015.711293915203
 10
23498.67439233952
 20
8021.3404590398
 10
23495.42439233952
 20
8026.9696241644
  0
CIRCLE
  5
1A9A
330
1E
100
AcDbEntity
  8
図面
100
AcDbCircle
 10
23492.17439233952
 20
8021.3404590398
 30
0.0
 40
16.25
  0
CIRCLE
  5
1A9B
330
1E
100
AcDbEntity
  8
図面
100
AcDbCircle
 10
23492.17439233952
 20
8021.3404590398
 30
0.0
 40
10.075
  0
CIRCLE
  5
1A9C
330
1E
100
AcDbEntity
  8
図面
100
AcDbCircle
 10
23752.17439233952
 20
8021.3404590398
 30
0.0
 40
10.075
  0
CIRCLE
  5
1A9D
330
1E
100
AcDbEntity
  8
図面
100
AcDbCircle
 10
23752.17439233952
 20
8021.3404590398
 30
0.0
 40
16.25
  0
LWPOLYLINE
  5
1A9E
330
1E
100
AcDbEntity
  8
図面
100
AcDbPolyline
 90
        6
 70
     1
 43
0.0
 10
23748.92439233952
 20
8026.9696241644
 10
23745.67439233952
 20
8021.3404590398
 10
23748.92439233952
 20
8015.711293915203
 10
23755.42439233952
 20
8015.711293915203
 10
23758.67439233952
 20
8021.3404590398
 10
23755.42439233952
 20
8026.9696241644
  0
CIRCLE
  5
1A9F
330
1E
100
AcDbEntity
  8
図面
100
AcDbCircle
 10
23622.17439233952
 20
8118.8404590398
 30
0.0
 40
2.337442467213987
  0
CIRCLE
  5
1AA0
330
1E
100
AcDbEntity
  8
図面
100
AcDbCircle
 10
23622.17439233952
 20
8118.8404590398
 30
0.0
 40
18.2
  0
CIRCLE
  5
1AA1
330
1E
100
AcDbEntity
  8
図面
100
AcDbCircle
 10
23622.17439233952
 20
8118.8404590398
 30
0.0
 40
18.2
  0
CIRCLE
  5
1AA2
330
1E
100
AcDbEntity
  8
図面
100
AcDbCircle
 10
23622.17439233952
 20
8118.8404590398
 30
0.0
 40
15.6
  0
CIRCLE
  5
1AA3
330
1E
100
AcDbEntity
  8
図面
100
AcDbCircle
 10
23622.17439233952
 20
8118.8404590398
 30
0.0
 40
8.125
  0
CIRCLE
  5
1AA4
330
1E
100
AcDbEntity
  8
図面
100
AcDbCircle
 10
23752.17439233952
 20
8118.8404590398
 30
0.0
 40
8.125
  0
CIRCLE
  5
1AA5
330
1E
100
AcDbEntity
  8
図面
100
AcDbCircle
 10
23752.17439233952
 20
8118.8404590398
 30
0.0
 40
15.6
  0
CIRCLE
  5
1AA6
330
1E
100
AcDbEntity
  8
図面
100
AcDbCircle
 10
23752.17439233952
 20
8118.8404590398
 30
0.0
 40
18.2
  0
CIRCLE
  5
1AA7
330
1E
100
AcDbEntity
  8
図面
100
AcDbCircle
 10
23752.17439233952
 20
8118.8404590398
 30
0.0
 40
18.2
  0
CIRCLE
  5
1AA8
330
1E
100
AcDbEntity
  8
図面
100
AcDbCircle
 10
23752.17439233952
 20
8118.8404590398
 30
0.0
 40
2.337442467213987
  0
LWPOLYLINE
  5
1AA9
330
1E
100
AcDbEntity
  8
図面
100
AcDbPolyline
 90
        6
 70
     1
 43
0.0
 10
23618.92439233952
 20
8026.9696241644
 10
23615.67439233952
 20
8021.3404590398
 10
23618.92439233952
 20
8015.711293915203
 10
23625.42439233952
 20
8015.711293915203
 10
23628.67439233952
 20
8021.3404590398
 10
23625.42439233952
 20
8026.9696241644
  0
CIRCLE
  5
1AAA
330
1E
100
AcDbEntity
  8
図面
100
AcDbCircle
 10
23622.17439233952
 20
8021.3404590398
 30
0.0
 40
16.25
  0
CIRCLE
  5
1AAB
330
1E
100
AcDbEntity
  8
図面
100
AcDbCircle
 10
23622.17439233952
 20
8021.3404590398
 30
0.0
 40
10.075
  0
LINE
  5
1AB9
330
1E
100
AcDbEntity
  8
図面
100
AcDbLine
 10
23199.67439233952
 20
7813.3404590398
 30
0.0
 11
23199.67439233952
 21
7774.3404590398
 31
0.0
  0
LINE
  5
1ABA
330
1E
100
AcDbEntity
  8
図面
100
AcDbLine
 10
23199.67439233952
 20
7774.3404590398
 30
0.0
 11
23277.67439233952
 21
7774.3404590398
 31
0.0
  0
LINE
  5
1ABB
330
1E
100
AcDbEntity
  8
図面
100
AcDbLine
 10
23277.67439233952
 20
7774.3404590398
 30
0.0
 11
23277.67439233952
 21
7813.3404590398
 31
0.0
  0
LINE
  5
1ABC
330
1E
100
AcDbEntity
  8
図面
100
AcDbLine
 10
23836.67439233952
 20
7813.3404590398
 30
0.0
 11
23836.67439233952
 21
7774.3404590398
 31
0.0
  0
LINE
  5
1ABD
330
1E
100
AcDbEntity
  8
図面
100
AcDbLine
 10
23836.67439233952
 20
7774.3404590398
 30
0.0
 11
23914.67439233952
 21
7774.3404590398
 31
0.0
  0
LINE
  5
1ABE
330
1E
100
AcDbEntity
  8
図面
100
AcDbLine
 10
23914.67439233952
 20
7774.3404590398
 30
0.0
 11
23914.67439233952
 21
7813.3404590398
 31
0.0
  0
LINE
  5
1ABF
330
1E
100
AcDbEntity
  8
図面
100
AcDbLine
 10
22033.40325903826
 20
8463.3404590398
 30
0.0
 11
22033.40325903826
 21
7813.3404590398
 31
0.0
  0
LINE
  5
1AC0
330
1E
100
AcDbEntity
  8
図面
100
AcDbLine
 10
22033.40325903826
 20
7813.3404590398
 30
0.0
 11
22637.90325903826
 21
7813.3404590398
 31
0.0
  0
LINE
  5
1AC1
330
1E
100
AcDbEntity
  8
図面
100
AcDbLine
 10
22637.90325903826
 20
7813.3404590398
 30
0.0
 11
22637.90325903826
 21
8463.3404590398
 31
0.0
  0
LINE
  5
1AC2
330
1E
100
AcDbEntity
  8
図面
100
AcDbLine
 10
22637.90325903826
 20
8463.3404590398
 30
0.0
 11
22459.15325903826
 21
8463.3404590398
 31
0.0
  0
LINE
  5
1AC3
330
1E
100
AcDbEntity
  8
図面
100
AcDbLine
 10
22033.40325903826
 20
7813.3404590398
 30
0.0
 11
22033.40325903826
 21
7774.3404590398
 31
0.0
  0
LINE
  5
1AC4
330
1E
100
AcDbEntity
  8
図面
100
AcDbLine
 10
22033.40325903826
 20
7774.3404590398
 30
0.0
 11
22637.90325903826
 21
7774.3404590398
 31
0.0
  0
LINE
  5
1AC5
330
1E
100
AcDbEntity
  8
図面
100
AcDbLine
 10
22637.90325903826
 20
7774.3404590398
 30
0.0
 11
22637.90325903826
 21
7813.3404590398
 31
0.0
  0
LINE
  5
1ACF
330
1E
100
AcDbEntity
  8
図面
100
AcDbLine
 10
22023.65325903826
 20
8502.3404590398
 30
0.0
 11
22212.15325903826
 21
8502.3404590398
 31
0.0
  0
LINE
  5
1AD0
330
1E
100
AcDbEntity
  8
図面
100
AcDbLine
 10
22647.65325903826
 20
8502.3404590398
 30
0.0
 11
22647.65325903826
 21
8502.3404590398
 31
0.0
  0
LINE
  5
1AD1
330
1E
100
AcDbEntity
  8
図面
100
AcDbLine
 10
22628.15325903826
 20
8521.8404590398
 30
0.0
 11
22459.15325903826
 21
8521.8404590398
 31
0.0
  0
LINE
  5
1AD2
330
1E
100
AcDbEntity
  8
図面
100
AcDbLine
 10
22023.65325903826
 20
8502.3404590398
 30
0.0
 11
22023.65325903826
 21
8502.3404590398
 31
0.0
  0
LINE
  5
1AD3
330
1E
100
AcDbEntity
  8
図面
100
AcDbLine
 10
22023.65325903826
 20
8502.3404590398
 30
0.0
 11
22043.15325903826
 21
8521.8404590398
 31
0.0
  0
LINE
  5
1AD4
330
1E
100
AcDbEntity
  8
図面
100
AcDbLine
 10
22628.15325903826
 20
8521.8404590398
 30
0.0
 11
22647.65325903826
 21
8502.3404590398
 31
0.0
  0
CIRCLE
  5
1B46
330
1E
100
AcDbEntity
  8
図面
100
AcDbCircle
 10
22449.40325903826
 20
8118.8404590398
 30
0.0
 40
22.75
  0
CIRCLE
  5
1B47
330
1E
100
AcDbEntity
  8
図面
100
AcDbCircle
 10
22449.40325903826
 20
8118.8404590398
 30
0.0
 40
26.0
  0
CIRCLE
  5
1B48
330
1E
100
AcDbEntity
  8
図面
100
AcDbCircle
 10
22449.40325903826
 20
8118.8404590398
 30
0.0
 40
11.05
  0
CIRCLE
  5
1B49
330
1E
100
AcDbEntity
  8
図面
100
AcDbCircle
 10
22449.40325903826
 20
8118.8404590398
 30
0.0
 40
10.4
  0
ARC
  5
1B4A
330
1E
100
AcDbEntity
  8
図面
100
AcDbCircle
 10
24038.17439233952
 20
8123.39596438865
 30
0.0
 40
6.5
100
AcDbArc
 50
359.9999999999804
 51
90.0
  0
ARC
  5
1B4B
330
1E
100
AcDbEntity
  8
図面
100
AcDbCircle
 10
24038.17439233951
 20
8114.295964388652
 30
0.0
 40
6.5
100
AcDbArc
 50
270.0
 51
0.0
  0
LINE
  5
1B4C
330
1E
100
AcDbEntity
  8
図面
100
AcDbLine
 10
24038.17439233951
 20
8107.795964388652
 30
0.0
 11
24012.17439233952
 21
8107.795964388652
 31
0.0
  0
LINE
  5
1B4D
330
1E
100
AcDbEntity
  8
図面
100
AcDbLine
 10
24044.67439233952
 20
8123.39596438865
 30
0.0
 11
24044.67439233951
 21
8114.295964388652
 31
0.0
  0
LINE
  5
1B4E
330
1E
100
AcDbEntity
  8
図面
100
AcDbLine
 10
24012.17439233952
 20
8129.89596438865
 30
0.0
 11
24038.17439233952
 21
8129.89596438865
 31
0.0
  0
LINE
  5
1B4F
330
1E
100
AcDbEntity
  8
図面
100
AcDbLine
 10
23940.67439233952
 20
8103.245963697827
 30
0.0
 11
23925.07439296657
 21
8103.245963697827
 31
0.0
  0
LINE
  5
1B50
330
1E
100
AcDbEntity
  8
図面
100
AcDbLine
 10
23940.67439233952
 20
8134.44596371531
 30
0.0
 11
23940.67439233952
 21
8103.245963697827
 31
0.0
  0
LINE
  5
1B51
330
1E
100
AcDbEntity
  8
図面
100
AcDbLine
 10
23925.07439296657
 20
8134.44596371531
 30
0.0
 11
23940.67439233952
 21
8134.44596371531
 31
0.0
  0
LINE
  5
1B52
330
1E
100
AcDbEntity
  8
ﾚｲﾔ1
100
AcDbLine
 10
23925.07439233952
 20
8103.245964388647
 30
0.0
 11
23920.52439233951
 21
8103.245964388647
 31
0.0
  0
ARC
  5
1B53
330
1E
100
AcDbEntity
  8
ﾚｲﾔ1
100
AcDbCircle
 10
23919.87439295492
 20
8130.545963706561
 30
0.0
 40
6.500000014564273
100
AcDbArc
 50
323.1301023542195
 51
36.86989764598051
  0
LINE
  5
1B54
330
1E
100
AcDbEntity
  8
ﾚｲﾔ1
100
AcDbLine
 10
23925.07439233952
 20
8134.445964388646
 30
0.0
 11
23920.52439233951
 21
8134.445964388646
 31
0.0
  0
LINE
  5
1B55
330
1E
100
AcDbEntity
  8
ﾚｲﾔ1
100
AcDbLine
 10
23925.07439233952
 20
8126.645964388646
 30
0.0
 11
23920.52439233951
 21
8126.645964388646
 31
0.0
  0
LINE
  5
1B56
330
1E
100
AcDbEntity
  8
ﾚｲﾔ1
100
AcDbLine
 10
23925.07439233952
 20
8111.045964388646
 30
0.0
 11
23920.52439233951
 21
8111.045964388646
 31
0.0
  0
LINE
  5
1B57
330
1E
100
AcDbEntity
  8
ﾚｲﾔ1
100
AcDbLine
 10
23926.37439233951
 20
8107.145964388646
 30
0.0
 11
23926.37439233951
 21
8130.545964388646
 31
0.0
  0
ARC
  5
1B58
330
1E
100
AcDbEntity
  8
ﾚｲﾔ1
100
AcDbCircle
 10
23902.32439291555
 20
8118.845963706566
 30
0.0
 40
24.05000005392827
100
AcDbArc
 50
341.0753555840006
 51
18.9246444159993
  0
ARC
  5
1B59
330
1E
100
AcDbEntity
  8
ﾚｲﾔ1
100
AcDbCircle
 10
23919.87439295492
 20
8107.145963706576
 30
0.0
 40
6.500000014564273
100
AcDbArc
 50
323.1301023540196
 51
36.86989764578048
  0
LINE
  5
1B5A
330
1E
100
AcDbEntity
  8
ﾚｲﾔ1
100
AcDbLine
 10
23915.97439233952
 20
8103.245964388647
 30
0.0
 11
23920.52439233951
 21
8103.245964388647
 31
0.0
  0
LINE
  5
1B5B
330
1E
100
AcDbEntity
  8
ﾚｲﾔ1
100
AcDbLine
 10
23915.97439233952
 20
8134.445964388646
 30
0.0
 11
23920.52439233951
 21
8134.445964388646
 31
0.0
  0
LINE
  5
1B5C
330
1E
100
AcDbEntity
  8
ﾚｲﾔ1
100
AcDbLine
 10
23915.97439233952
 20
8126.645964388646
 30
0.0
 11
23920.52439233951
 21
8126.645964388646
 31
0.0
  0
LINE
  5
1B5D
330
1E
100
AcDbEntity
  8
ﾚｲﾔ1
100
AcDbLine
 10
23915.97439233952
 20
8111.045964388646
 30
0.0
 11
23920.52439233951
 21
8111.045964388646
 31
0.0
  0
LINE
  5
1B5E
330
1E
100
AcDbEntity
  8
ﾚｲﾔ1
100
AcDbLine
 10
23914.67439233952
 20
8107.145964388646
 30
0.0
 11
23914.67439233952
 21
8130.545964388646
 31
0.0
  0
ARC
  5
1B5F
330
1E
100
AcDbEntity
  8
ﾚｲﾔ1
100
AcDbCircle
 10
23938.7243929972
 20
8118.845963706566
 30
0.0
 40
24.05000005392827
100
AcDbArc
 50
161.0753555840007
 51
198.9246444159993
  0
ARC
  5
1B60
330
1E
100
AcDbEntity
  8
ﾚｲﾔ1
100
AcDbCircle
 10
23921.17439295783
 20
8130.545963706561
 30
0.0
 40
6.500000014564273
100
AcDbArc
 50
143.1301023540195
 51
216.8698976457805
  0
ARC
  5
1B61
330
1E
100
AcDbEntity
  8
ﾚｲﾔ1
100
AcDbCircle
 10
23921.17439295783
 20
8107.145963706576
 30
0.0
 40
6.500000014564273
100
AcDbArc
 50
143.1301023542195
 51
216.8698976459805
  0
ARC
  5
1B62
330
1E
100
AcDbEntity
  8
ﾚｲﾔ1
100
AcDbCircle
 10
23919.87439172119
 20
8107.145963706576
 30
0.0
 40
6.500000014564273
100
AcDbArc
 50
323.1301023540196
 51
36.86989764578048
  0
ARC
  5
1B63
330
1E
100
AcDbEntity
  8
ﾚｲﾔ1
100
AcDbCircle
 10
23919.87439172119
 20
8130.545963706561
 30
0.0
 40
6.500000014564273
100
AcDbArc
 50
323.1301023542195
 51
36.86989764598051
  0
ARC
  5
1B64
330
1E
100
AcDbEntity
  8
ﾚｲﾔ1
100
AcDbCircle
 10
23902.32439168183
 20
8118.845963706566
 30
0.0
 40
24.05000005392827
100
AcDbArc
 50
341.0753555840006
 51
18.9246444159993
  0
LINE
  5
1B65
330
1E
100
AcDbEntity
  8
ﾚｲﾔ1
100
AcDbLine
 10
23926.37439233951
 20
8107.145964388646
 30
0.0
 11
23926.37439233951
 21
8130.545964388646
 31
0.0
  0
LINE
  5
1B66
330
1E
100
AcDbEntity
  8
ﾚｲﾔ1
100
AcDbLine
 10
23925.07439233952
 20
8111.045964388646
 30
0.0
 11
23920.52439233951
 21
8111.045964388646
 31
0.0
  0
LINE
  5
1B67
330
1E
100
AcDbEntity
  8
ﾚｲﾔ1
100
AcDbLine
 10
23925.07439233952
 20
8126.645964388646
 30
0.0
 11
23920.52439233951
 21
8126.645964388646
 31
0.0
  0
LINE
  5
1B68
330
1E
100
AcDbEntity
  8
ﾚｲﾔ1
100
AcDbLine
 10
23925.07439233952
 20
8134.445964388646
 30
0.0
 11
23920.52439233951
 21
8134.445964388646
 31
0.0
  0
LINE
  5
1B69
330
1E
100
AcDbEntity
  8
ﾚｲﾔ1
100
AcDbLine
 10
23925.07439233952
 20
8103.245964388647
 30
0.0
 11
23920.52439233951
 21
8103.245964388647
 31
0.0
  0
ARC
  5
1B6A
330
1E
100
AcDbEntity
  8
ﾚｲﾔ1
100
AcDbCircle
 10
23921.17439172411
 20
8107.145963706576
 30
0.0
 40
6.500000014564273
100
AcDbArc
 50
143.1301023542195
 51
216.8698976459805
  0
ARC
  5
1B6B
330
1E
100
AcDbEntity
  8
ﾚｲﾔ1
100
AcDbCircle
 10
23938.72439176348
 20
8118.845963706566
 30
0.0
 40
24.05000005392827
100
AcDbArc
 50
161.0753555840007
 51
198.9246444159993
  0
LINE
  5
1B6C
330
1E
100
AcDbEntity
  8
ﾚｲﾔ1
100
AcDbLine
 10
23914.67439233952
 20
8107.145964388646
 30
0.0
 11
23914.67439233952
 21
8130.545964388646
 31
0.0
  0
LINE
  5
1B6D
330
1E
100
AcDbEntity
  8
ﾚｲﾔ1
100
AcDbLine
 10
23915.97439233952
 20
8111.045964388646
 30
0.0
 11
23920.52439233951
 21
8111.045964388646
 31
0.0
  0
LINE
  5
1B6E
330
1E
100
AcDbEntity
  8
ﾚｲﾔ1
100
AcDbLine
 10
23915.97439233952
 20
8126.645964388646
 30
0.0
 11
23920.52439233951
 21
8126.645964388646
 31
0.0
  0
LINE
  5
1B6F
330
1E
100
AcDbEntity
  8
ﾚｲﾔ1
100
AcDbLine
 10
23915.97439233952
 20
8134.445964388646
 30
0.0
 11
23920.52439233951
 21
8134.445964388646
 31
0.0
  0
ARC
  5
1B70
330
1E
100
AcDbEntity
  8
ﾚｲﾔ1
100
AcDbCircle
 10
23921.17439172411
 20
8130.545963706561
 30
0.0
 40
6.500000014564273
100
AcDbArc
 50
143.1301023540195
 51
216.8698976457805
  0
LINE
  5
1B71
330
1E
100
AcDbEntity
  8
ﾚｲﾔ1
100
AcDbLine
 10
23915.97439233952
 20
8103.245964388647
 30
0.0
 11
23920.52439233951
 21
8103.245964388647
 31
0.0
  0
LINE
  5
1B72
330
1E
100
AcDbEntity
  8
ﾚｲﾔ1
100
AcDbLine
 10
23949.12439233951
 20
8103.24596438865
 30
0.0
 11
23953.67439233952
 21
8103.24596438865
 31
0.0
  0
LINE
  5
1B73
330
1E
100
AcDbEntity
  8
ﾚｲﾔ9
100
AcDbLine
 10
23947.82439233952
 20
8127.937839388653
 30
0.0
 11
23940.67439233952
 21
8127.582653388648
 31
0.0
  0
LINE
  5
1B74
330
1E
100
AcDbEntity
  8
ﾚｲﾔ9
100
AcDbLine
 10
23947.82439233952
 20
8109.754089388649
 30
0.0
 11
23940.67439233952
 21
8110.109275388653
 31
0.0
  0
LINE
  5
1B75
330
1E
100
AcDbEntity
  8
ﾚｲﾔ1
100
AcDbLine
 10
23947.95571833951
 20
8129.245967638652
 30
0.0
 11
23940.67439233952
 21
8128.884257263651
 31
0.0
  0
LINE
  5
1B76
330
1E
100
AcDbEntity
  8
ﾚｲﾔ1
100
AcDbLine
 10
23947.95571833951
 20
8108.44596113865
 30
0.0
 11
23940.67439233952
 21
8108.80767151365
 31
0.0
  0
ARC
  5
1B77
330
1E
100
AcDbEntity
  8
ﾚｲﾔ1
100
AcDbCircle
 10
23954.32439172411
 20
8130.545963706567
 30
0.0
 40
6.500000014564273
100
AcDbArc
 50
143.1301023540195
 51
216.8698976457805
  0
LINE
  5
1B78
330
1E
100
AcDbEntity
  8
ﾚｲﾔ1
100
AcDbLine
 10
23949.12439233951
 20
8134.445964388651
 30
0.0
 11
23953.67439233952
 21
8134.445964388651
 31
0.0
  0
LINE
  5
1B79
330
1E
100
AcDbEntity
  8
ﾚｲﾔ1
100
AcDbLine
 10
23949.12439233951
 20
8126.64596438865
 30
0.0
 11
23953.67439233952
 21
8126.64596438865
 31
0.0
  0
LINE
  5
1B7A
330
1E
100
AcDbEntity
  8
ﾚｲﾔ1
100
AcDbLine
 10
23949.12439233951
 20
8111.045964388652
 30
0.0
 11
23953.67439233952
 21
8111.045964388652
 31
0.0
  0
LINE
  5
1B7B
330
1E
100
AcDbEntity
  8
ﾚｲﾔ1
100
AcDbLine
 10
23947.82439233952
 20
8107.14596438865
 30
0.0
 11
23947.82439233952
 21
8130.545964388652
 31
0.0
  0
ARC
  5
1B7C
330
1E
100
AcDbEntity
  8
ﾚｲﾔ1
100
AcDbCircle
 10
23971.87439176347
 20
8118.845963706572
 30
0.0
 40
24.05000005392827
100
AcDbArc
 50
161.0753555840007
 51
198.9246444159993
  0
ARC
  5
1B7D
330
1E
100
AcDbEntity
  8
ﾚｲﾔ1
100
AcDbCircle
 10
23954.32439172411
 20
8107.14596370658
 30
0.0
 40
6.500000014564273
100
AcDbArc
 50
143.1301023542195
 51
216.8698976459805
  0
LINE
  5
1B7E
330
1E
100
AcDbEntity
  8
ﾚｲﾔ1
100
AcDbLine
 10
23958.22439233952
 20
8103.24596438865
 30
0.0
 11
23953.67439233952
 21
8103.24596438865
 31
0.0
  0
LINE
  5
1B7F
330
1E
100
AcDbEntity
  8
ﾚｲﾔ1
100
AcDbLine
 10
23958.22439233952
 20
8134.445964388651
 30
0.0
 11
23953.67439233952
 21
8134.445964388651
 31
0.0
  0
LINE
  5
1B80
330
1E
100
AcDbEntity
  8
ﾚｲﾔ1
100
AcDbLine
 10
23958.22439233952
 20
8126.64596438865
 30
0.0
 11
23953.67439233952
 21
8126.64596438865
 31
0.0
  0
LINE
  5
1B81
330
1E
100
AcDbEntity
  8
ﾚｲﾔ1
100
AcDbLine
 10
23958.22439233952
 20
8111.045964388652
 30
0.0
 11
23953.67439233952
 21
8111.045964388652
 31
0.0
  0
LINE
  5
1B82
330
1E
100
AcDbEntity
  8
ﾚｲﾔ1
100
AcDbLine
 10
23959.52439233951
 20
8107.14596438865
 30
0.0
 11
23959.52439233951
 21
8130.545964388652
 31
0.0
  0
ARC
  5
1B83
330
1E
100
AcDbEntity
  8
ﾚｲﾔ1
100
AcDbCircle
 10
23935.47439168183
 20
8118.845963706572
 30
0.0
 40
24.05000005392827
100
AcDbArc
 50
341.0753555840006
 51
18.9246444159993
  0
ARC
  5
1B84
330
1E
100
AcDbEntity
  8
ﾚｲﾔ1
100
AcDbCircle
 10
23953.0243917212
 20
8130.545963706567
 30
0.0
 40
6.500000014564273
100
AcDbArc
 50
323.1301023542195
 51
36.86989764598051
  0
ARC
  5
1B85
330
1E
100
AcDbEntity
  8
ﾚｲﾔ1
100
AcDbCircle
 10
23953.0243917212
 20
8107.14596370658
 30
0.0
 40
6.500000014564273
100
AcDbArc
 50
323.1301023540196
 51
36.86989764578048
  0
LINE
  5
1B86
330
1E
100
AcDbEntity
  8
ﾚｲﾔ1
100
AcDbLine
 10
23966.67439233952
 20
8144.845964388651
 30
0.0
 11
23966.67439233952
 21
8092.845964388651
 31
0.0
  0
LINE
  5
1B87
330
1E
100
AcDbEntity
  8
ﾚｲﾔ1
100
AcDbLine
 10
23980.97439233952
 20
8144.845964388651
 30
0.0
 11
23966.67439233952
 21
8144.845964388651
 31
0.0
  0
LINE
  5
1B88
330
1E
100
AcDbEntity
  8
ﾚｲﾔ1
100
AcDbLine
 10
23980.97439233952
 20
8103.89596438865
 30
0.0
 11
23980.97439233952
 21
8133.795964388652
 31
0.0
  0
LINE
  5
1B89
330
1E
100
AcDbEntity
  8
ﾚｲﾔ1
100
AcDbLine
 10
23966.67439233952
 20
8092.845964388651
 30
0.0
 11
23980.97439233952
 21
8092.845964388651
 31
0.0
  0
LINE
  5
1B8A
330
1E
100
AcDbEntity
  8
図面
100
AcDbLine
 10
23999.17439233952
 20
8092.845964388651
 30
0.0
 11
23980.97439233952
 21
8092.845964388651
 31
0.0
  0
LINE
  5
1B8B
330
1E
100
AcDbEntity
  8
図面
100
AcDbLine
 10
24012.17439233952
 20
8103.245963697827
 30
0.0
 11
23999.17439233952
 21
8103.245963697827
 31
0.0
  0
LINE
  5
1B8C
330
1E
100
AcDbEntity
  8
図面
100
AcDbLine
 10
24012.17439233952
 20
8107.795964388652
 30
0.0
 11
24012.17439233952
 21
8103.245963697827
 31
0.0
  0
LINE
  5
1B8D
330
1E
100
AcDbEntity
  8
ﾚｲﾔ1
100
AcDbLine
 10
23980.97439233952
 20
8144.845964388651
 30
0.0
 11
23980.97439233952
 21
8092.845964388651
 31
0.0
  0
LINE
  5
1B8E
330
1E
100
AcDbEntity
  8
ﾚｲﾔ1
100
AcDbLine
 10
23999.17439233952
 20
8092.845964388651
 30
0.0
 11
23999.17439233952
 21
8144.845964388651
 31
0.0
  0
LINE
  5
1B8F
330
1E
100
AcDbEntity
  8
図面
100
AcDbLine
 10
24012.17439233952
 20
8134.44596371531
 30
0.0
 11
24012.17439233952
 21
8107.795964388652
 31
0.0
  0
LINE
  5
1B90
330
1E
100
AcDbEntity
  8
図面
100
AcDbLine
 10
23999.17439233952
 20
8134.44596371531
 30
0.0
 11
24012.17439233952
 21
8134.44596371531
 31
0.0
  0
LINE
  5
1B91
330
1E
100
AcDbEntity
  8
図面
100
AcDbLine
 10
23980.97439233952
 20
8144.845964388651
 30
0.0
 11
23999.17439233952
 21
8144.845964388651
 31
0.0
  0
ARC
  5
1B92
330
1E
100
AcDbEntity
  8
ﾚｲﾔ1
100
AcDbCircle
 10
23954.32439295783
 20
8107.14596370658
 30
0.0
 40
6.500000014564273
100
AcDbArc
 50
143.1301023542195
 51
216.8698976459805
  0
ARC
  5
1B93
330
1E
100
AcDbEntity
  8
ﾚｲﾔ1
100
AcDbCircle
 10
23954.32439295783
 20
8130.545963706567
 30
0.0
 40
6.500000014564273
100
AcDbArc
 50
143.1301023540195
 51
216.8698976457805
  0
ARC
  5
1B94
330
1E
100
AcDbEntity
  8
ﾚｲﾔ1
100
AcDbCircle
 10
23971.8743929972
 20
8118.845963706572
 30
0.0
 40
24.05000005392827
100
AcDbArc
 50
161.0753555840007
 51
198.9246444159993
  0
LINE
  5
1B95
330
1E
100
AcDbEntity
  8
ﾚｲﾔ1
100
AcDbLine
 10
23947.82439233952
 20
8107.14596438865
 30
0.0
 11
23947.82439233952
 21
8130.545964388652
 31
0.0
  0
LINE
  5
1B96
330
1E
100
AcDbEntity
  8
ﾚｲﾔ1
100
AcDbLine
 10
23949.12439233951
 20
8111.045964388652
 30
0.0
 11
23953.67439233952
 21
8111.045964388652
 31
0.0
  0
LINE
  5
1B97
330
1E
100
AcDbEntity
  8
ﾚｲﾔ1
100
AcDbLine
 10
23949.12439233951
 20
8126.64596438865
 30
0.0
 11
23953.67439233952
 21
8126.64596438865
 31
0.0
  0
LINE
  5
1B98
330
1E
100
AcDbEntity
  8
ﾚｲﾔ1
100
AcDbLine
 10
23949.12439233951
 20
8134.445964388651
 30
0.0
 11
23953.67439233952
 21
8134.445964388651
 31
0.0
  0
LINE
  5
1B99
330
1E
100
AcDbEntity
  8
ﾚｲﾔ1
100
AcDbLine
 10
23949.12439233951
 20
8103.24596438865
 30
0.0
 11
23953.67439233952
 21
8103.24596438865
 31
0.0
  0
ARC
  5
1B9A
330
1E
100
AcDbEntity
  8
ﾚｲﾔ1
100
AcDbCircle
 10
23953.02439295492
 20
8107.14596370658
 30
0.0
 40
6.500000014564273
100
AcDbArc
 50
323.1301023540196
 51
36.86989764578048
  0
ARC
  5
1B9B
330
1E
100
AcDbEntity
  8
ﾚｲﾔ1
100
AcDbCircle
 10
23935.47439291556
 20
8118.845963706572
 30
0.0
 40
24.05000005392827
100
AcDbArc
 50
341.0753555840006
 51
18.9246444159993
  0
LINE
  5
1B9C
330
1E
100
AcDbEntity
  8
ﾚｲﾔ1
100
AcDbLine
 10
23959.52439233951
 20
8107.14596438865
 30
0.0
 11
23959.52439233951
 21
8130.545964388652
 31
0.0
  0
LINE
  5
1B9D
330
1E
100
AcDbEntity
  8
ﾚｲﾔ1
100
AcDbLine
 10
23958.22439233952
 20
8111.045964388652
 30
0.0
 11
23953.67439233952
 21
8111.045964388652
 31
0.0
  0
LINE
  5
1B9E
330
1E
100
AcDbEntity
  8
ﾚｲﾔ1
100
AcDbLine
 10
23958.22439233952
 20
8126.64596438865
 30
0.0
 11
23953.67439233952
 21
8126.64596438865
 31
0.0
  0
LINE
  5
1B9F
330
1E
100
AcDbEntity
  8
ﾚｲﾔ1
100
AcDbLine
 10
23958.22439233952
 20
8134.445964388651
 30
0.0
 11
23953.67439233952
 21
8134.445964388651
 31
0.0
  0
ARC
  5
1BA0
330
1E
100
AcDbEntity
  8
ﾚｲﾔ1
100
AcDbCircle
 10
23953.02439295492
 20
8130.545963706567
 30
0.0
 40
6.500000014564273
100
AcDbArc
 50
323.1301023542195
 51
36.86989764598051
  0
LINE
  5
1BA1
330
1E
100
AcDbEntity
  8
ﾚｲﾔ1
100
AcDbLine
 10
23959.39306633952
 20
8108.44596113865
 30
0.0
 11
23966.67439233952
 21
8108.80767151365
 31
0.0
  0
LINE
  5
1BA2
330
1E
100
AcDbEntity
  8
ﾚｲﾔ1
100
AcDbLine
 10
23959.39306633952
 20
8129.245967638652
 30
0.0
 11
23966.67439233952
 21
8128.884257263651
 31
0.0
  0
LINE
  5
1BA3
330
1E
100
AcDbEntity
  8
ﾚｲﾔ9
100
AcDbLine
 10
23959.52439233951
 20
8109.754089388649
 30
0.0
 11
23966.67439233952
 21
8110.109275388653
 31
0.0
  0
LINE
  5
1BA4
330
1E
100
AcDbEntity
  8
ﾚｲﾔ9
100
AcDbLine
 10
23959.52439233951
 20
8127.937839388653
 30
0.0
 11
23966.67439233952
 21
8127.582653388648
 31
0.0
  0
LINE
  5
1BA5
330
1E
100
AcDbEntity
  8
ﾚｲﾔ1
100
AcDbLine
 10
23958.22439233952
 20
8103.24596438865
 30
0.0
 11
23953.67439233952
 21
8103.24596438865
 31
0.0
  0
LINE
  5
1BA8
330
1E
100
AcDbEntity
  8
図面
100
AcDbLine
 10
23173.67439233952
 20
8134.456973048837
 30
0.0
 11
23189.27439171246
 21
8134.456973048837
 31
0.0
  0
LINE
  5
1BA9
330
1E
100
AcDbEntity
  8
図面
100
AcDbLine
 10
23173.67439233952
 20
8103.256973031353
 30
0.0
 11
23173.67439233952
 21
8134.456973048837
 31
0.0
  0
LINE
  5
1BAA
330
1E
100
AcDbEntity
  8
図面
100
AcDbLine
 10
23189.27439171246
 20
8103.256973031353
 30
0.0
 11
23173.67439233952
 21
8103.256973031353
 31
0.0
  0
LINE
  5
1BAB
330
1E
100
AcDbEntity
  8
ﾚｲﾔ1
100
AcDbLine
 10
23189.27439233951
 20
8134.456972358017
 30
0.0
 11
23193.82439233952
 21
8134.456972358017
 31
0.0
  0
ARC
  5
1BAC
330
1E
100
AcDbEntity
  8
ﾚｲﾔ1
100
AcDbCircle
 10
23194.47439172411
 20
8107.156973040102
 30
0.0
 40
6.500000014564273
100
AcDbArc
 50
143.1301023542195
 51
216.8698976459805
  0
LINE
  5
1BAD
330
1E
100
AcDbEntity
  8
ﾚｲﾔ1
100
AcDbLine
 10
23189.27439233951
 20
8103.256972358018
 30
0.0
 11
23193.82439233952
 21
8103.256972358018
 31
0.0
  0
LINE
  5
1BAE
330
1E
100
AcDbEntity
  8
ﾚｲﾔ1
100
AcDbLine
 10
23189.27439233951
 20
8111.056972358017
 30
0.0
 11
23193.82439233952
 21
8111.056972358017
 31
0.0
  0
LINE
  5
1BAF
330
1E
100
AcDbEntity
  8
ﾚｲﾔ1
100
AcDbLine
 10
23189.27439233951
 20
8126.656972358018
 30
0.0
 11
23193.82439233952
 21
8126.656972358018
 31
0.0
  0
LINE
  5
1BB0
330
1E
100
AcDbEntity
  8
ﾚｲﾔ1
100
AcDbLine
 10
23187.97439233952
 20
8130.556972358017
 30
0.0
 11
23187.97439233952
 21
8107.156972358018
 31
0.0
  0
ARC
  5
1BB1
330
1E
100
AcDbEntity
  8
ﾚｲﾔ1
100
AcDbCircle
 10
23212.02439176348
 20
8118.856973040098
 30
0.0
 40
24.05000005392827
100
AcDbArc
 50
161.0753555840007
 51
198.9246444159993
  0
ARC
  5
1BB2
330
1E
100
AcDbEntity
  8
ﾚｲﾔ1
100
AcDbCircle
 10
23194.47439172411
 20
8130.556973040088
 30
0.0
 40
6.500000014564273
100
AcDbArc
 50
143.1301023540195
 51
216.8698976457805
  0
LINE
  5
1BB3
330
1E
100
AcDbEntity
  8
ﾚｲﾔ1
100
AcDbLine
 10
23198.37439233951
 20
8134.456972358017
 30
0.0
 11
23193.82439233952
 21
8134.456972358017
 31
0.0
  0
LINE
  5
1BB4
330
1E
100
AcDbEntity
  8
ﾚｲﾔ1
100
AcDbLine
 10
23198.37439233951
 20
8103.256972358018
 30
0.0
 11
23193.82439233952
 21
8103.256972358018
 31
0.0
  0
LINE
  5
1BB5
330
1E
100
AcDbEntity
  8
ﾚｲﾔ1
100
AcDbLine
 10
23198.37439233951
 20
8111.056972358017
 30
0.0
 11
23193.82439233952
 21
8111.056972358017
 31
0.0
  0
LINE
  5
1BB6
330
1E
100
AcDbEntity
  8
ﾚｲﾔ1
100
AcDbLine
 10
23198.37439233951
 20
8126.656972358018
 30
0.0
 11
23193.82439233952
 21
8126.656972358018
 31
0.0
  0
LINE
  5
1BB7
330
1E
100
AcDbEntity
  8
ﾚｲﾔ1
100
AcDbLine
 10
23199.67439233952
 20
8130.556972358017
 30
0.0
 11
23199.67439233952
 21
8107.156972358018
 31
0.0
  0
ARC
  5
1BB8
330
1E
100
AcDbEntity
  8
ﾚｲﾔ1
100
AcDbCircle
 10
23175.62439168183
 20
8118.856973040098
 30
0.0
 40
24.05000005392827
100
AcDbArc
 50
341.0753555840006
 51
18.9246444159993
  0
ARC
  5
1BB9
330
1E
100
AcDbEntity
  8
ﾚｲﾔ1
100
AcDbCircle
 10
23193.1743917212
 20
8107.156973040102
 30
0.0
 40
6.500000014564273
100
AcDbArc
 50
323.1301023540196
 51
36.86989764578048
  0
ARC
  5
1BBA
330
1E
100
AcDbEntity
  8
ﾚｲﾔ1
100
AcDbCircle
 10
23193.1743917212
 20
8130.556973040088
 30
0.0
 40
6.500000014564273
100
AcDbArc
 50
323.1301023542195
 51
36.86989764598051
  0
ARC
  5
1BBB
330
1E
100
AcDbEntity
  8
ﾚｲﾔ1
100
AcDbCircle
 10
23194.47439295784
 20
8130.556973040088
 30
0.0
 40
6.500000014564273
100
AcDbArc
 50
143.1301023540195
 51
216.8698976457805
  0
ARC
  5
1BBC
330
1E
100
AcDbEntity
  8
ﾚｲﾔ1
100
AcDbCircle
 10
23194.47439295784
 20
8107.156973040102
 30
0.0
 40
6.500000014564273
100
AcDbArc
 50
143.1301023542195
 51
216.8698976459805
  0
ARC
  5
1BBD
330
1E
100
AcDbEntity
  8
ﾚｲﾔ1
100
AcDbCircle
 10
23212.0243929972
 20
8118.856973040098
 30
0.0
 40
24.05000005392827
100
AcDbArc
 50
161.0753555840007
 51
198.9246444159993
  0
LINE
  5
1BBE
330
1E
100
AcDbEntity
  8
ﾚｲﾔ1
100
AcDbLine
 10
23187.97439233952
 20
8130.556972358017
 30
0.0
 11
23187.97439233952
 21
8107.156972358018
 31
0.0
  0
LINE
  5
1BBF
330
1E
100
AcDbEntity
  8
ﾚｲﾔ1
100
AcDbLine
 10
23189.27439233951
 20
8126.656972358018
 30
0.0
 11
23193.82439233952
 21
8126.656972358018
 31
0.0
  0
LINE
  5
1BC0
330
1E
100
AcDbEntity
  8
ﾚｲﾔ1
100
AcDbLine
 10
23189.27439233951
 20
8111.056972358017
 30
0.0
 11
23193.82439233952
 21
8111.056972358017
 31
0.0
  0
LINE
  5
1BC1
330
1E
100
AcDbEntity
  8
ﾚｲﾔ1
100
AcDbLine
 10
23189.27439233951
 20
8103.256972358018
 30
0.0
 11
23193.82439233952
 21
8103.256972358018
 31
0.0
  0
LINE
  5
1BC2
330
1E
100
AcDbEntity
  8
ﾚｲﾔ1
100
AcDbLine
 10
23189.27439233951
 20
8134.456972358017
 30
0.0
 11
23193.82439233952
 21
8134.456972358017
 31
0.0
  0
ARC
  5
1BC3
330
1E
100
AcDbEntity
  8
ﾚｲﾔ1
100
AcDbCircle
 10
23193.17439295492
 20
8130.556973040088
 30
0.0
 40
6.500000014564273
100
AcDbArc
 50
323.1301023542195
 51
36.86989764598051
  0
ARC
  5
1BC4
330
1E
100
AcDbEntity
  8
ﾚｲﾔ1
100
AcDbCircle
 10
23175.62439291555
 20
8118.856973040098
 30
0.0
 40
24.05000005392827
100
AcDbArc
 50
341.0753555840006
 51
18.9246444159993
  0
LINE
  5
1BC5
330
1E
100
AcDbEntity
  8
ﾚｲﾔ1
100
AcDbLine
 10
23199.67439233952
 20
8130.556972358017
 30
0.0
 11
23199.67439233952
 21
8107.156972358018
 31
0.0
  0
LINE
  5
1BC6
330
1E
100
AcDbEntity
  8
ﾚｲﾔ1
100
AcDbLine
 10
23198.37439233951
 20
8126.656972358018
 30
0.0
 11
23193.82439233952
 21
8126.656972358018
 31
0.0
  0
LINE
  5
1BC7
330
1E
100
AcDbEntity
  8
ﾚｲﾔ1
100
AcDbLine
 10
23198.37439233951
 20
8111.056972358017
 30
0.0
 11
23193.82439233952
 21
8111.056972358017
 31
0.0
  0
LINE
  5
1BC8
330
1E
100
AcDbEntity
  8
ﾚｲﾔ1
100
AcDbLine
 10
23198.37439233951
 20
8103.256972358018
 30
0.0
 11
23193.82439233952
 21
8103.256972358018
 31
0.0
  0
ARC
  5
1BC9
330
1E
100
AcDbEntity
  8
ﾚｲﾔ1
100
AcDbCircle
 10
23193.17439295492
 20
8107.156973040102
 30
0.0
 40
6.500000014564273
100
AcDbArc
 50
323.1301023540196
 51
36.86989764578048
  0
LINE
  5
1BCA
330
1E
100
AcDbEntity
  8
ﾚｲﾔ1
100
AcDbLine
 10
23198.37439233951
 20
8134.456972358017
 30
0.0
 11
23193.82439233952
 21
8134.456972358017
 31
0.0
  0
LINE
  5
1BCB
330
1E
100
AcDbEntity
  8
ﾚｲﾔ1
100
AcDbLine
 10
23165.22439233952
 20
8134.456972358013
 30
0.0
 11
23160.67439233952
 21
8134.456972358013
 31
0.0
  0
LINE
  5
1BCC
330
1E
100
AcDbEntity
  8
ﾚｲﾔ9
100
AcDbLine
 10
23166.52439233951
 20
8109.765097358011
 30
0.0
 11
23173.67439233952
 21
8110.120283358016
 31
0.0
  0
LINE
  5
1BCD
330
1E
100
AcDbEntity
  8
ﾚｲﾔ9
100
AcDbLine
 10
23166.52439233951
 20
8127.948847358015
 30
0.0
 11
23173.67439233952
 21
8127.593661358011
 31
0.0
  0
LINE
  5
1BCE
330
1E
100
AcDbEntity
  8
ﾚｲﾔ1
100
AcDbLine
 10
23166.39306633952
 20
8108.456969108012
 30
0.0
 11
23173.67439233952
 21
8108.818679483013
 31
0.0
  0
LINE
  5
1BCF
330
1E
100
AcDbEntity
  8
ﾚｲﾔ1
100
AcDbLine
 10
23166.39306633952
 20
8129.256975608014
 30
0.0
 11
23173.67439233952
 21
8128.895265233014
 31
0.0
  0
ARC
  5
1BD0
330
1E
100
AcDbEntity
  8
ﾚｲﾔ1
100
AcDbCircle
 10
23160.02439295492
 20
8107.156973040097
 30
0.0
 40
6.500000014564273
100
AcDbArc
 50
323.1301023540196
 51
36.86989764578048
  0
LINE
  5
1BD1
330
1E
100
AcDbEntity
  8
ﾚｲﾔ1
100
AcDbLine
 10
23165.22439233952
 20
8103.256972358013
 30
0.0
 11
23160.67439233952
 21
8103.256972358013
 31
0.0
  0
LINE
  5
1BD2
330
1E
100
AcDbEntity
  8
ﾚｲﾔ1
100
AcDbLine
 10
23165.22439233952
 20
8111.056972358014
 30
0.0
 11
23160.67439233952
 21
8111.056972358014
 31
0.0
  0
LINE
  5
1BD3
330
1E
100
AcDbEntity
  8
ﾚｲﾔ1
100
AcDbLine
 10
23165.22439233952
 20
8126.656972358012
 30
0.0
 11
23160.67439233952
 21
8126.656972358012
 31
0.0
  0
LINE
  5
1BD4
330
1E
100
AcDbEntity
  8
ﾚｲﾔ1
100
AcDbLine
 10
23166.52439233951
 20
8130.556972358014
 30
0.0
 11
23166.52439233951
 21
8107.156972358012
 31
0.0
  0
ARC
  5
1BD5
330
1E
100
AcDbEntity
  8
ﾚｲﾔ1
100
AcDbCircle
 10
23142.47439291556
 20
8118.856973040092
 30
0.0
 40
24.05000005392827
100
AcDbArc
 50
341.0753555840006
 51
18.9246444159993
  0
ARC
  5
1BD6
330
1E
100
AcDbEntity
  8
ﾚｲﾔ1
100
AcDbCircle
 10
23160.02439295492
 20
8130.556973040084
 30
0.0
 40
6.500000014564273
100
AcDbArc
 50
323.1301023542195
 51
36.86989764598051
  0
LINE
  5
1BD7
330
1E
100
AcDbEntity
  8
ﾚｲﾔ1
100
AcDbLine
 10
23156.12439233951
 20
8134.456972358013
 30
0.0
 11
23160.67439233952
 21
8134.456972358013
 31
0.0
  0
LINE
  5
1BD8
330
1E
100
AcDbEntity
  8
ﾚｲﾔ1
100
AcDbLine
 10
23156.12439233951
 20
8103.256972358013
 30
0.0
 11
23160.67439233952
 21
8103.256972358013
 31
0.0
  0
LINE
  5
1BD9
330
1E
100
AcDbEntity
  8
ﾚｲﾔ1
100
AcDbLine
 10
23156.12439233951
 20
8111.056972358014
 30
0.0
 11
23160.67439233952
 21
8111.056972358014
 31
0.0
  0
LINE
  5
1BDA
330
1E
100
AcDbEntity
  8
ﾚｲﾔ1
100
AcDbLine
 10
23156.12439233951
 20
8126.656972358012
 30
0.0
 11
23160.67439233952
 21
8126.656972358012
 31
0.0
  0
LINE
  5
1BDB
330
1E
100
AcDbEntity
  8
ﾚｲﾔ1
100
AcDbLine
 10
23154.82439233952
 20
8130.556972358014
 30
0.0
 11
23154.82439233952
 21
8107.156972358012
 31
0.0
  0
ARC
  5
1BDC
330
1E
100
AcDbEntity
  8
ﾚｲﾔ1
100
AcDbCircle
 10
23178.8743929972
 20
8118.856973040092
 30
0.0
 40
24.05000005392827
100
AcDbArc
 50
161.0753555840007
 51
198.9246444159993
  0
ARC
  5
1BDD
330
1E
100
AcDbEntity
  8
ﾚｲﾔ1
100
AcDbCircle
 10
23161.32439295783
 20
8107.156973040097
 30
0.0
 40
6.500000014564273
100
AcDbArc
 50
143.1301023542195
 51
216.8698976459805
  0
ARC
  5
1BDE
330
1E
100
AcDbEntity
  8
ﾚｲﾔ1
100
AcDbCircle
 10
23161.32439295783
 20
8130.556973040084
 30
0.0
 40
6.500000014564273
100
AcDbArc
 50
143.1301023540195
 51
216.8698976457805
  0
ARC
  5
1BDF
330
1E
100
AcDbEntity
  8
ﾚｲﾔ1
100
AcDbCircle
 10
23160.0243917212
 20
8130.556973040084
 30
0.0
 40
6.500000014564273
100
AcDbArc
 50
323.1301023542195
 51
36.86989764598051
  0
ARC
  5
1BE0
330
1E
100
AcDbEntity
  8
ﾚｲﾔ1
100
AcDbCircle
 10
23160.0243917212
 20
8107.156973040097
 30
0.0
 40
6.500000014564273
100
AcDbArc
 50
323.1301023540196
 51
36.86989764578048
  0
ARC
  5
1BE1
330
1E
100
AcDbEntity
  8
ﾚｲﾔ1
100
AcDbCircle
 10
23142.47439168183
 20
8118.856973040092
 30
0.0
 40
24.05000005392827
100
AcDbArc
 50
341.0753555840006
 51
18.9246444159993
  0
LINE
  5
1BE2
330
1E
100
AcDbEntity
  8
ﾚｲﾔ1
100
AcDbLine
 10
23166.52439233951
 20
8130.556972358014
 30
0.0
 11
23166.52439233951
 21
8107.156972358012
 31
0.0
  0
LINE
  5
1BE3
330
1E
100
AcDbEntity
  8
ﾚｲﾔ1
100
AcDbLine
 10
23165.22439233952
 20
8126.656972358012
 30
0.0
 11
23160.67439233952
 21
8126.656972358012
 31
0.0
  0
LINE
  5
1BE4
330
1E
100
AcDbEntity
  8
ﾚｲﾔ1
100
AcDbLine
 10
23165.22439233952
 20
8111.056972358014
 30
0.0
 11
23160.67439233952
 21
8111.056972358014
 31
0.0
  0
LINE
  5
1BE5
330
1E
100
AcDbEntity
  8
ﾚｲﾔ1
100
AcDbLine
 10
23165.22439233952
 20
8103.256972358013
 30
0.0
 11
23160.67439233952
 21
8103.256972358013
 31
0.0
  0
LINE
  5
1BE6
330
1E
100
AcDbEntity
  8
ﾚｲﾔ1
100
AcDbLine
 10
23165.22439233952
 20
8134.456972358013
 30
0.0
 11
23160.67439233952
 21
8134.456972358013
 31
0.0
  0
ARC
  5
1BE7
330
1E
100
AcDbEntity
  8
ﾚｲﾔ1
100
AcDbCircle
 10
23161.32439172411
 20
8130.556973040084
 30
0.0
 40
6.500000014564273
100
AcDbArc
 50
143.1301023540195
 51
216.8698976457805
  0
ARC
  5
1BE8
330
1E
100
AcDbEntity
  8
ﾚｲﾔ1
100
AcDbCircle
 10
23178.87439176347
 20
8118.856973040092
 30
0.0
 40
24.05000005392827
100
AcDbArc
 50
161.0753555840007
 51
198.9246444159993
  0
LINE
  5
1BE9
330
1E
100
AcDbEntity
  8
ﾚｲﾔ1
100
AcDbLine
 10
23154.82439233952
 20
8130.556972358014
 30
0.0
 11
23154.82439233952
 21
8107.156972358012
 31
0.0
  0
LINE
  5
1BEA
330
1E
100
AcDbEntity
  8
ﾚｲﾔ1
100
AcDbLine
 10
23156.12439233951
 20
8126.656972358012
 30
0.0
 11
23160.67439233952
 21
8126.656972358012
 31
0.0
  0
LINE
  5
1BEB
330
1E
100
AcDbEntity
  8
ﾚｲﾔ1
100
AcDbLine
 10
23156.12439233951
 20
8111.056972358014
 30
0.0
 11
23160.67439233952
 21
8111.056972358014
 31
0.0
  0
LINE
  5
1BEC
330
1E
100
AcDbEntity
  8
ﾚｲﾔ1
100
AcDbLine
 10
23156.12439233951
 20
8103.256972358013
 30
0.0
 11
23160.67439233952
 21
8103.256972358013
 31
0.0
  0
ARC
  5
1BED
330
1E
100
AcDbEntity
  8
ﾚｲﾔ1
100
AcDbCircle
 10
23161.32439172411
 20
8107.156973040097
 30
0.0
 40
6.500000014564273
100
AcDbArc
 50
143.1301023542195
 51
216.8698976459805
  0
LINE
  5
1BEE
330
1E
100
AcDbEntity
  8
ﾚｲﾔ1
100
AcDbLine
 10
23154.95571833951
 20
8129.256975608014
 30
0.0
 11
23147.67439233952
 21
8128.895265233014
 31
0.0
  0
LINE
  5
1BEF
330
1E
100
AcDbEntity
  8
ﾚｲﾔ1
100
AcDbLine
 10
23154.95571833951
 20
8108.456969108012
 30
0.0
 11
23147.67439233952
 21
8108.818679483013
 31
0.0
  0
LINE
  5
1BF0
330
1E
100
AcDbEntity
  8
ﾚｲﾔ9
100
AcDbLine
 10
23154.82439233952
 20
8127.948847358015
 30
0.0
 11
23147.67439233952
 21
8127.593661358011
 31
0.0
  0
LINE
  5
1BF1
330
1E
100
AcDbEntity
  8
ﾚｲﾔ9
100
AcDbLine
 10
23154.82439233952
 20
8109.765097358011
 30
0.0
 11
23147.67439233952
 21
8110.120283358016
 31
0.0
  0
LINE
  5
1BF2
330
1E
100
AcDbEntity
  8
ﾚｲﾔ1
100
AcDbLine
 10
23156.12439233951
 20
8134.456972358013
 30
0.0
 11
23160.67439233952
 21
8134.456972358013
 31
0.0
  0
LINE
  5
1BF8
330
1E
100
AcDbEntity
  8
図面
100
AcDbLine
 10
23089.17439233952
 20
8135.0904590398
 30
0.0
 11
23147.67439233952
 21
8135.0904590398
 31
0.0
  0
LINE
  5
1BF9
330
1E
100
AcDbEntity
  8
図面
100
AcDbLine
 10
23147.67439233952
 20
8135.0904590398
 30
0.0
 11
23147.67439233952
 21
8102.5904590398
 31
0.0
  0
LINE
  5
1BFA
330
1E
100
AcDbEntity
  8
図面
100
AcDbLine
 10
23147.67439233952
 20
8102.5904590398
 30
0.0
 11
23089.17439233952
 21
8102.5904590398
 31
0.0
  0
LINE
  5
1BFB
330
1E
100
AcDbEntity
  8
図面
100
AcDbLine
 10
23089.17439233952
 20
8102.5904590398
 30
0.0
 11
23089.17439233952
 21
8135.0904590398
 31
0.0
  0
LINE
  5
1C09
330
1E
100
AcDbEntity
  8
図面
100
AcDbLine
 10
23050.17439233952
 20
8092.8404590398
 30
0.0
 11
23050.17439233952
 21
8144.8404590398
 31
0.0
  0
LINE
  5
1C0A
330
1E
100
AcDbEntity
  8
図面
100
AcDbLine
 10
23050.17439233952
 20
8144.8404590398
 30
0.0
 11
23065.77439233951
 21
8144.8404590398
 31
0.0
  0
LINE
  5
1C0B
330
1E
100
AcDbEntity
  8
図面
100
AcDbLine
 10
23065.77439233951
 20
8144.8404590398
 30
0.0
 11
23076.17439233952
 21
8141.5904590398
 31
0.0
  0
LINE
  5
1C0C
330
1E
100
AcDbEntity
  8
図面
100
AcDbLine
 10
23076.17439233952
 20
8141.5904590398
 30
0.0
 11
23089.17439233952
 21
8141.5904590398
 31
0.0
  0
LINE
  5
1C0D
330
1E
100
AcDbEntity
  8
図面
100
AcDbLine
 10
23089.17439233952
 20
8141.5904590398
 30
0.0
 11
23089.17439233952
 21
8096.0904590398
 31
0.0
  0
LINE
  5
1C0E
330
1E
100
AcDbEntity
  8
図面
100
AcDbLine
 10
23089.17439233952
 20
8096.0904590398
 30
0.0
 11
23076.17439233952
 21
8096.0904590398
 31
0.0
  0
LINE
  5
1C0F
330
1E
100
AcDbEntity
  8
図面
100
AcDbLine
 10
23076.17439233952
 20
8096.0904590398
 30
0.0
 11
23065.77439233951
 21
8092.8404590398
 31
0.0
  0
LINE
  5
1C10
330
1E
100
AcDbEntity
  8
図面
100
AcDbLine
 10
23065.77439233951
 20
8092.8404590398
 30
0.0
 11
23050.17439233952
 21
8092.8404590398
 31
0.0
  0
LINE
  5
1C11
330
1E
100
AcDbEntity
  8
図面
100
AcDbLine
 10
23065.77439233951
 20
8144.8404590398
 30
0.0
 11
23065.77439233951
 21
8092.8404590398
 31
0.0
  0
LINE
  5
1C12
330
1E
100
AcDbEntity
  8
図面
100
AcDbLine
 10
23076.17439233952
 20
8141.5904590398
 30
0.0
 11
23076.17439233952
 21
8096.0904590398
 31
0.0
  0
LINE
  5
1C1B
330
1E
100
AcDbEntity
  8
図面
100
AcDbLine
 10
22056.15325903826
 20
8502.3404590398
 30
0.0
 11
22056.15325903826
 21
8463.3404590398
 31
0.0
  0
LINE
  5
1C1C
330
1E
100
AcDbEntity
  8
図面
100
AcDbLine
 10
22615.15325903826
 20
8502.3404590398
 30
0.0
 11
22615.15325903826
 21
8463.3404590398
 31
0.0
  0
LINE
  5
1C21
330
1E
100
AcDbEntity
  8
図面
100
AcDbLine
 10
22072.40325903826
 20
8281.3404590398
 30
0.0
 11
22072.40325903826
 21
8021.3404590398
 31
0.0
  0
LINE
  5
1C22
330
1E
100
AcDbEntity
  8
図面
100
AcDbLine
 10
22072.40325903826
 20
8021.3404590398
 30
0.0
 11
22397.40325903826
 21
8021.3404590398
 31
0.0
  0
LINE
  5
1C23
330
1E
100
AcDbEntity
  8
図面
100
AcDbLine
 10
22397.40325903826
 20
8021.3404590398
 30
0.0
 11
22397.40325903826
 21
8281.3404590398
 31
0.0
  0
LINE
  5
1C24
330
1E
100
AcDbEntity
  8
図面
100
AcDbLine
 10
22397.40325903826
 20
8281.3404590398
 30
0.0
 11
22072.40325903826
 21
8281.3404590398
 31
0.0
  0
CIRCLE
  5
1C2D
330
1E
100
AcDbEntity
  8
図面
100
AcDbCircle
 10
22104.90325903826
 20
8086.3404590398
 30
0.0
 40
13.0
  0
CIRCLE
  5
1C2E
330
1E
100
AcDbEntity
  8
図面
100
AcDbCircle
 10
22169.90325903826
 20
8086.3404590398
 30
0.0
 40
13.0
  0
CIRCLE
  5
1C2F
330
1E
100
AcDbEntity
  8
図面
100
AcDbCircle
 10
22234.90325903826
 20
8086.3404590398
 30
0.0
 40
13.0
  0
CIRCLE
  5
1C30
330
1E
100
AcDbEntity
  8
図面
100
AcDbCircle
 10
22299.90325903826
 20
8086.3404590398
 30
0.0
 40
13.0
  0
CIRCLE
  5
1C31
330
1E
100
AcDbEntity
  8
図面
100
AcDbCircle
 10
22364.90325903826
 20
8086.3404590398
 30
0.0
 40
13.0
  0
CIRCLE
  5
1C36
330
1E
100
AcDbEntity
  8
図面
100
AcDbCircle
 10
22364.90325903826
 20
8151.3404590398
 30
0.0
 40
13.0
  0
CIRCLE
  5
1C37
330
1E
100
AcDbEntity
  8
図面
100
AcDbCircle
 10
22364.90325903826
 20
8190.3404590398
 30
0.0
 40
6.5
  0
CIRCLE
  5
1C38
330
1E
100
AcDbEntity
  8
図面
100
AcDbCircle
 10
22364.90325903826
 20
8229.3404590398
 30
0.0
 40
13.0
  0
CIRCLE
  5
1C39
330
1E
100
AcDbEntity
  8
図面
100
AcDbCircle
 10
22234.90325903826
 20
8151.3404590398
 30
0.0
 40
16.25
  0
MTEXT
  5
1C3A
330
1E
100
AcDbEntity
  8
図面
100
AcDbMText
 10
23284.67827536989
 20
8133.823187902337
 30
0.0
 40
32.5
 41
39.02308268666675
 46
0.0
 71
     1
 72
     5
  1
押
 73
     1
 44
1.0
  0
MTEXT
  5
1C3D
330
1E
100
AcDbEntity
  8
図面
100
AcDbMText
 10
23324.14531653393
 20
8184.818816379004
 30
0.0
 40
32.5
 41
84.57250100157835
 46
0.0
 71
     1
 72
     5
  1
{\fArial|b0|i0|c0|p32;No1}
 73
     1
 44
1.0
  0
MTEXT
  5
1C43
330
1E
100
AcDbEntity
  8
図面
100
AcDbMText
 10
23454.14531653393
 20
8184.818816379004
 30
0.0
 40
32.5
 41
84.57250100157835
 46
0.0
 71
     1
 72
     5
  1
{\fArial|b0|i0|c0|p32;No2}
 73
     1
 44
1.0
  0
MTEXT
  5
1C44
330
1E
100
AcDbEntity
  8
図面
100
AcDbMText
 10
23584.44421087885
 20
8184.818816379004
 30
0.0
 40
32.5
 41
84.57250100157835
 46
0.0
 71
     1
 72
     5
  1
{\fArial|b0|i0|c0|p32;No3}
 73
     1
 44
1.0
  0
MTEXT
  5
1C45
330
1E
100
AcDbEntity
  8
図面
100
AcDbMText
 10
23714.44421087885
 20
8184.818816379004
 30
0.0
 40
32.5
 41
84.57250100157835
 46
0.0
 71
     1
 72
     5
  1
{\fArial|b0|i0|c0|p32;No4}
 73
     1
 44
1.0
  0
CIRCLE
  5
1C4E
330
1E
100
AcDbEntity
  8
図面
100
AcDbCircle
 10
23526.4702347214
 20
7026.391276430191
 30
0.0
 40
30.0
  0
CIRCLE
  5
1C4F
330
1E
100
AcDbEntity
  8
図面
100
AcDbCircle
 10
23766.4702347214
 20
7170.391276430191
 30
0.0
 40
24.0
  0
CIRCLE
  5
1C50
330
1E
100
AcDbEntity
  8
図面
100
AcDbCircle
 10
23766.4702347214
 20
7098.391276430191
 30
0.0
 40
12.0
  0
CIRCLE
  5
1C51
330
1E
100
AcDbEntity
  8
図面
100
AcDbCircle
 10
23766.4702347214
 20
7026.391276430191
 30
0.0
 40
24.0
  0
CIRCLE
  5
1C52
330
1E
100
AcDbEntity
  8
図面
100
AcDbCircle
 10
23766.4702347214
 20
6906.391276430191
 30
0.0
 40
24.0
  0
CIRCLE
  5
1C53
330
1E
100
AcDbEntity
  8
図面
100
AcDbCircle
 10
23646.4702347214
 20
6906.391276430191
 30
0.0
 40
24.0
  0
CIRCLE
  5
1C54
330
1E
100
AcDbEntity
  8
図面
100
AcDbCircle
 10
23526.4702347214
 20
6906.391276430191
 30
0.0
 40
24.0
  0
CIRCLE
  5
1C55
330
1E
100
AcDbEntity
  8
図面
100
AcDbCircle
 10
23406.4702347214
 20
6906.391276430191
 30
0.0
 40
24.0
  0
CIRCLE
  5
1C56
330
1E
100
AcDbEntity
  8
図面
100
AcDbCircle
 10
23286.4702347214
 20
6906.391276430191
 30
0.0
 40
24.0
  0
LINE
  5
1C57
330
1E
100
AcDbEntity
  8
図面
100
AcDbLine
 10
23826.4702347214
 20
7266.391276430191
 30
0.0
 11
23226.4702347214
 21
7266.391276430191
 31
0.0
  0
LINE
  5
1C58
330
1E
100
AcDbEntity
  8
図面
100
AcDbLine
 10
23826.4702347214
 20
6786.391276430191
 30
0.0
 11
23826.4702347214
 21
7266.391276430191
 31
0.0
  0
LINE
  5
1C59
330
1E
100
AcDbEntity
  8
図面
100
AcDbLine
 10
23226.4702347214
 20
6786.391276430191
 30
0.0
 11
23826.4702347214
 21
6786.391276430191
 31
0.0
  0
LINE
  5
1C5A
330
1E
100
AcDbEntity
  8
図面
100
AcDbLine
 10
23226.4702347214
 20
7266.391276430191
 30
0.0
 11
23226.4702347214
 21
6786.391276430191
 31
0.0
  0
MTEXT
  5
1C5B
330
1E
100
AcDbEntity
  8
図面
100
AcDbMText
 10
22053.96550330606
 20
8344.819619853544
 30
0.0
 40
32.5
 41
422.9500038300001
 46
0.0
 71
     1
 72
     5
  1
コネクター接続パネル
 73
     1
 44
1.0
  0
MTEXT
  5
1C5C
102
{ACAD_REACTORS
330
1C5D
102
}
330
1E
100
AcDbEntity
  8
図面
 62
     1
100
AcDbMText
 10
23024.15875659011
 20
8588.095403936792
 30
0.0
 40
32.5
 41
0.0
 46
0.0
 71
     1
 72
     1
  1
ホース接続ポート口（OUT)
  7
TextStyle01
 73
     1
 44
1.0
  0
LEADER
  5
1C5D
330
1E
100
AcDbEntity
  8
図面
100
AcDbLeader
  3
Standard
 73
     0
 74
     0
 40
32.5
 41
495.625
 76
     3
 10
23065.77439233951
 20
8144.8404590398
 30
0.0
 10
22935.0176393082
 20
8571.845403936792
 30
0.0
 10
23005.50623402215
 20
8571.845403936792
 30
0.0
340
1C5C
213
-18.15252256796066
223
-16.25
233
0.0
1001
ACAD
1000
DSTYLE
1002
{
1070
    41
1040
20.0
1070
    44
1040
0.5
1070
    73
1070
     0
1070
    74
1070
     0
1070
    77
1070
     0
1070
   140
1040
25.0
1070
   147
1040
0.5
1070
   176
1070
     1
1070
   177
1070
     1
1070
   178
1070
     1
1070
   271
1070
     0
1070
   272
1070
     0
1070
   279
1070
     2
1070
   340
1005
23
1002
}
  0
LEADER
  5
1C5E
330
1E
100
AcDbEntity
  8
図面
100
AcDbLeader
  3
Standard
 73
     0
 74
     0
 40
32.5
 41
443.495
 76
     3
 10
23999.17439233952
 20
8144.845964388651
 30
0.0
 10
24051.55750631424
 20
8304.662396570566
 30
0.0
 10
24077.70750631424
 20
8304.662396570566
 30
0.0
340
1C5F
213
-18.15252256796066
223
-16.25
233
0.0
1001
ACAD
1000
DSTYLE
1002
{
1070
    41
1040
20.0
1070
    44
1040
0.5
1070
    73
1070
     0
1070
    74
1070
     0
1070
    77
1070
     0
1070
   140
1040
25.0
1070
   147
1040
0.5
1070
   176
1070
     1
1070
   177
1070
     1
1070
   178
1070
     1
1070
   271
1070
     0
1070
   272
1070
     0
1070
   279
1070
     2
1070
   340
1005
23
1002
}
  0
MTEXT
  5
1C5F
102
{ACAD_REACTORS
330
1C5E
102
}
330
1E
100
AcDbEntity
  8
図面
 62
     1
100
AcDbMText
 10
24096.3600288822
 20
8320.912396570566
 30
0.0
 40
32.5
 41
0.0
 46
0.0
 71
     1
 72
     1
  1
ホース接続ポート口（{\fArial|b0|i0|c0|p32;IN})
  7
TextStyle01
 73
     1
 44
1.0
  0
LINE
  5
1CCE
330
1E
100
AcDbEntity
  8
図面
100
AcDbLine
 10
22719.15325846221
 20
8103.5267105853
 30
0.0
 11
22734.75325846222
 21
8103.5267105853
 31
0.0
  0
LINE
  5
1CCF
330
1E
100
AcDbEntity
  8
図面
100
AcDbLine
 10
22704.85325846222
 20
8104.826710585301
 30
0.0
 11
22699.65325846221
 21
8104.826710585301
 31
0.0
  0
LINE
  5
1CD0
330
1E
100
AcDbEntity
  8
図面
100
AcDbLine
 10
22713.95325846221
 20
8104.826710585301
 30
0.0
 11
22704.85325846222
 21
8104.826710585301
 31
0.0
  0
LINE
  5
1CD1
330
1E
100
AcDbEntity
  8
図面
100
AcDbLine
 10
22704.85325846222
 20
8104.826710585301
 30
0.0
 11
22719.14801783721
 21
8104.826710585301
 31
0.0
  0
LINE
  5
1CD2
330
1E
100
AcDbEntity
  8
図面
100
AcDbLine
 10
22699.65325846221
 20
8103.5267105853
 30
0.0
 11
22719.15325846221
 21
8103.5267105853
 31
0.0
  0
LINE
  5
1CD3
330
1E
100
AcDbEntity
  8
図面
100
AcDbLine
 10
22730.85325846222
 20
8114.9017105853
 30
0.0
 11
22730.85325846222
 21
8123.351710585301
 31
0.0
  0
LINE
  5
1CD4
330
1E
100
AcDbEntity
  8
図面
100
AcDbLine
 10
22719.15325846221
 20
8134.726710585301
 30
0.0
 11
22734.75325846222
 21
8134.726710585301
 31
0.0
  0
LINE
  5
1CD5
330
1E
100
AcDbEntity
  8
図面
100
AcDbLine
 10
22713.95325846221
 20
8133.4267105853
 30
0.0
 11
22719.15325846221
 21
8133.4267105853
 31
0.0
  0
ARC
  5
1CD6
330
1E
100
AcDbEntity
  8
図面
100
AcDbCircle
 10
22726.95325924216
 20
8123.351709903223
 30
0.0
 40
3.900000008736606
100
AcDbArc
 50
0.0
 51
90.0
  0
LINE
  5
1CD7
330
1E
100
AcDbEntity
  8
図面
100
AcDbLine
 10
22713.95325846221
 20
8133.4267105853
 30
0.0
 11
22704.85325846222
 21
8133.4267105853
 31
0.0
  0
LINE
  5
1CD8
330
1E
100
AcDbEntity
  8
図面
100
AcDbLine
 10
22713.95325846221
 20
8133.4267105853
 30
0.0
 11
22699.65325846221
 21
8133.4267105853
 31
0.0
  0
LINE
  5
1CD9
330
1E
100
AcDbEntity
  8
図面
100
AcDbLine
 10
22719.15325846221
 20
8134.726710585301
 30
0.0
 11
22699.65325846221
 21
8134.726710585301
 31
0.0
  0
LWPOLYLINE
  5
1CDA
330
1E
100
AcDbEntity
  8
図面
100
AcDbPolyline
 90
        4
 70
     1
 43
0.0
 10
22699.65325846221
 20
8106.1267105853
 10
22704.85325846222
 20
8106.1267105853
 10
22704.85325846222
 20
8132.1267105853
 10
22699.65325846221
 20
8132.1267105853
  0
LWPOLYLINE
  5
1CDB
330
1E
100
AcDbEntity
  8
図面
100
AcDbPolyline
 90
        4
 70
     1
 43
0.0
 10
22704.85325846222
 20
8103.5267105853
 10
22713.95325846221
 20
8103.5267105853
 10
22713.95325846221
 20
8134.726710585301
 10
22704.85325846222
 20
8134.726710585301
  0
ARC
  5
1CDC
330
1E
100
AcDbEntity
  8
図面
100
AcDbCircle
 10
22726.95325924216
 20
8114.901709903223
 30
0.0
 40
3.900000008736606
100
AcDbArc
 50
270.0
 51
0.0
  0
LWPOLYLINE
  5
1CDD
330
1E
100
AcDbEntity
  8
図面
100
AcDbPolyline
 90
        4
 70
     0
 43
0.0
 10
22726.95325846221
 20
8127.2517105853
 10
22713.95325846221
 20
8127.2517105853
 10
22713.95325846221
 20
8111.0017105853
 10
22726.95325846221
 20
8111.0017105853
  0
LWPOLYLINE
  5
1CDE
330
1E
100
AcDbEntity
  8
図面
100
AcDbPolyline
 90
        4
 70
     1
 43
0.0
 10
22699.65325846221
 20
8099.6267105853
 10
22719.15325846221
 20
8099.6267105853
 10
22719.15325846221
 20
8138.6267105853
 10
22699.65325846221
 20
8138.6267105853
  0
LINE
  5
1CDF
330
1E
100
AcDbEntity
  8
図面
100
AcDbLine
 10
22734.75325846222
 20
8134.726710585301
 30
0.0
 11
22734.75325846222
 21
8103.5267105853
 31
0.0
  0
LWPOLYLINE
  5
1CE0
330
1E
100
AcDbEntity
  8
図面
100
AcDbPolyline
 90
        4
 70
     1
 43
0.0
 10
22719.15325846221
 20
8099.6267105853
 10
22738.65325846221
 20
8099.6267105853
 10
22738.65325846221
 20
8138.6267105853
 10
22719.15325846221
 20
8138.6267105853
  0
ARC
  5
1CE1
330
1E
100
AcDbEntity
  8
図面
100
AcDbCircle
 10
22653.50325907762
 20
8107.426709903228
 30
0.0
 40
6.500000014564273
100
AcDbArc
 50
323.1301023541089
 51
36.8698976458537
  0
LINE
  5
1CE2
330
1E
100
AcDbEntity
  8
図面
100
AcDbLine
 10
22658.70325846221
 20
8103.5267105853
 30
0.0
 11
22654.15325846221
 21
8103.5267105853
 31
0.0
  0
LINE
  5
1CE3
330
1E
100
AcDbEntity
  8
図面
100
AcDbLine
 10
22658.70325846221
 20
8111.326710585301
 30
0.0
 11
22654.15325846221
 21
8111.326710585301
 31
0.0
  0
LINE
  5
1CE4
330
1E
100
AcDbEntity
  8
図面
100
AcDbLine
 10
22659.87193246221
 20
8108.7267073353
 30
0.0
 11
22667.15325846221
 21
8109.0884177103
 31
0.0
  0
LINE
  5
1CE5
330
1E
100
AcDbEntity
  8
図面
100
AcDbLine
 10
22660.00325846222
 20
8110.034835585298
 30
0.0
 11
22667.15325846221
 21
8110.390021585299
 31
0.0
  0
LINE
  5
1CE6
330
1E
100
AcDbEntity
  8
図面
100
AcDbLine
 10
22658.70325846221
 20
8126.9267105853
 30
0.0
 11
22654.15325846221
 21
8126.9267105853
 31
0.0
  0
LINE
  5
1CE7
330
1E
100
AcDbEntity
  8
図面
100
AcDbLine
 10
22658.70325846221
 20
8134.726710585301
 30
0.0
 11
22654.15325846221
 21
8134.726710585301
 31
0.0
  0
LINE
  5
1CE8
330
1E
100
AcDbEntity
  8
図面
100
AcDbLine
 10
22659.87193246221
 20
8129.526713835299
 30
0.0
 11
22667.15325846221
 21
8129.165003460301
 31
0.0
  0
LINE
  5
1CE9
330
1E
100
AcDbEntity
  8
図面
100
AcDbLine
 10
22660.00325846222
 20
8128.2185855853
 30
0.0
 11
22667.15325846221
 21
8127.863399585298
 31
0.0
  0
ARC
  5
1CEA
330
1E
100
AcDbEntity
  8
図面
100
AcDbCircle
 10
22653.50325907762
 20
8130.826709903216
 30
0.0
 40
6.500000014564273
100
AcDbArc
 50
323.1301023541463
 51
36.86989764589106
  0
ARC
  5
1CEB
330
1E
100
AcDbEntity
  8
図面
100
AcDbCircle
 10
22635.95325903826
 20
8119.126709903221
 30
0.0
 40
24.05000005392827
100
AcDbArc
 50
341.0753555839801
 51
18.92464441601992
  0
LINE
  5
1CEC
330
1E
100
AcDbEntity
  8
図面
100
AcDbLine
 10
22660.00325846222
 20
8107.4267105853
 30
0.0
 11
22660.00325846222
 21
8130.826710585301
 31
0.0
  0
LWPOLYLINE
  5
1CED
330
1E
100
AcDbEntity
  8
図面
100
AcDbPolyline
 90
        4
 70
     1
 43
0.0
 10
22667.15325846221
 20
8104.1767105853
 10
22681.45325846221
 20
8104.1767105853
 10
22681.45325846221
 20
8134.076710585301
 10
22667.15325846221
 20
8134.076710585301
  0
ARC
  5
1CEE
330
1E
100
AcDbEntity
  8
図面
100
AcDbCircle
 10
22654.80325908054
 20
8107.426709903228
 30
0.0
 40
6.500000014564273
100
AcDbArc
 50
143.1301023541463
 51
216.8698976458911
  0
LINE
  5
1CEF
330
1E
100
AcDbEntity
  8
図面
100
AcDbLine
 10
22648.43458446221
 20
8108.7267073353
 30
0.0
 11
22637.90325903826
 21
8109.249865662889
 31
0.0
  0
LINE
  5
1CF0
330
1E
100
AcDbEntity
  8
図面
100
AcDbLine
 10
22648.30325846221
 20
8110.034835585298
 30
0.0
 11
22637.90325903826
 21
8110.551468976038
 31
0.0
  0
LINE
  5
1CF1
330
1E
100
AcDbEntity
  8
図面
100
AcDbLine
 10
22648.87214983722
 20
8113.9267105853
 30
0.0
 11
22637.90325903826
 21
8113.9267105853
 31
0.0
  0
LINE
  5
1CF2
330
1E
100
AcDbEntity
  8
図面
100
AcDbLine
 10
22648.87214983722
 20
8124.326710585301
 30
0.0
 11
22637.90325903826
 21
8124.326710585301
 31
0.0
  0
LINE
  5
1CF3
330
1E
100
AcDbEntity
  8
図面
100
AcDbLine
 10
22648.43458446221
 20
8129.526713835299
 30
0.0
 11
22637.90325903826
 21
8129.003555507712
 31
0.0
  0
LINE
  5
1CF4
330
1E
100
AcDbEntity
  8
図面
100
AcDbLine
 10
22648.30325846221
 20
8128.2185855853
 30
0.0
 11
22637.90325903826
 21
8127.70195219456
 31
0.0
  0
ARC
  5
1CF5
330
1E
100
AcDbEntity
  8
図面
100
AcDbCircle
 10
22654.80325908054
 20
8130.826709903216
 30
0.0
 40
6.500000014564273
100
AcDbArc
 50
143.1301023541089
 51
216.8698976458537
  0
ARC
  5
1CF6
330
1E
100
AcDbEntity
  8
図面
100
AcDbCircle
 10
22672.3532591199
 20
8119.126709903221
 30
0.0
 40
24.05000005392827
100
AcDbArc
 50
161.0753555839801
 51
198.9246444160199
  0
LINE
  5
1CF7
330
1E
100
AcDbEntity
  8
図面
100
AcDbLine
 10
22648.30325846221
 20
8107.4267105853
 30
0.0
 11
22648.30325846221
 21
8130.826710585301
 31
0.0
  0
LINE
  5
1CF8
330
1E
100
AcDbEntity
  8
図面
100
AcDbLine
 10
22649.60325846222
 20
8103.5267105853
 30
0.0
 11
22654.15325846221
 21
8103.5267105853
 31
0.0
  0
LINE
  5
1CF9
330
1E
100
AcDbEntity
  8
図面
100
AcDbLine
 10
22649.60325846222
 20
8111.326710585301
 30
0.0
 11
22654.15325846221
 21
8111.326710585301
 31
0.0
  0
LINE
  5
1CFA
330
1E
100
AcDbEntity
  8
図面
100
AcDbLine
 10
22649.60325846222
 20
8126.9267105853
 30
0.0
 11
22654.15325846221
 21
8126.9267105853
 31
0.0
  0
LINE
  5
1CFB
330
1E
100
AcDbEntity
  8
図面
100
AcDbLine
 10
22649.60325846222
 20
8134.726710585301
 30
0.0
 11
22654.15325846221
 21
8134.726710585301
 31
0.0
  0
LWPOLYLINE
  5
1CFC
330
1E
100
AcDbEntity
  8
図面
100
AcDbPolyline
 90
        4
 70
     1
 43
0.0
 10
22681.45325846221
 20
8100.9267105853
 10
22699.65325846221
 20
8100.9267105853
 10
22699.65325846221
 20
8137.326710585301
 10
22681.45325846221
 20
8137.326710585301
  0
LEADER
  5
1CFD
330
1E
100
AcDbEntity
  8
図面
100
AcDbLeader
  3
Standard
 73
     0
 74
     0
 40
32.5
 41
369.9583333333333
 76
     3
 10
23362.17439233952
 20
8100.640459039801
 30
0.0
 10
23474.72469613474
 20
7680.455145735343
 30
0.0
 10
23589.35549399704
 20
7680.455145735343
 30
0.0
340
1CFE
213
0.0
223
-16.25
233
0.0
1001
ACAD
1000
DSTYLE
1002
{
1070
    41
1040
20.0
1070
    44
1040
0.5
1070
    73
1070
     0
1070
    74
1070
     0
1070
    77
1070
     0
1070
   140
1040
25.0
1070
   147
1040
0.5
1070
   176
1070
     1
1070
   177
1070
     1
1070
   178
1070
     1
1070
   271
1070
     0
1070
   272
1070
     0
1070
   279
1070
     2
1070
   340
1005
23
1002
}
  0
MTEXT
  5
1CFE
102
{ACAD_REACTORS
330
1CFD
102
}
330
1E
100
AcDbEntity
  8
図面
 62
     1
100
AcDbMText
 10
23589.85549399704
 20
7696.705145735343
 30
0.0
 40
32.5
 41
0.0
 46
0.0
 71
     1
 72
     1
  1
ジャッキ接続ポート口
  7
TextStyle01
 73
     1
 44
1.0
  0
MTEXT
  5
1D00
330
1E
100
AcDbEntity
  8
図面
 62
     1
100
AcDbMText
 10
23532.3039714117
 20
6916.884719251888
 30
0.0
 40
25.0
 41
0.0
 46
0.0
 71
     9
 72
     1
  1
\A1;
  7
TextStyle01
 73
     1
 44
1.0
  0
LEADER
  5
1D01
330
1E
100
AcDbEntity
  8
図面
100
AcDbLeader
  3
Standard
 73
     0
 74
     0
 76
     3
 10
23492.17439233952
 20
8100.640459039801
 30
0.0
 10
23474.72469613474
 20
7680.455145735343
 30
0.0
 10
23515.35072739452
 20
7680.455145735343
 30
0.0
340
1D02
213
39.13501135033584
223
-16.25
233
0.0
1001
ACAD
1000
DSTYLE
1002
{
1070
    41
1040
20.0
1070
    44
1040
0.5
1070
    73
1070
     0
1070
    74
1070
     0
1070
    77
1070
     0
1070
   140
1040
25.0
1070
   147
1040
0.5
1070
   176
1070
     1
1070
   177
1070
     1
1070
   178
1070
     1
1070
   271
1070
     0
1070
   272
1070
     0
1070
   279
1070
     2
1070
   340
1005
23
1002
}
  0
MTEXT
  5
1D02
102
{ACAD_REACTORS
330
1D01
102
}
330
1E
100
AcDbEntity
  8
図面
 62
     1
100
AcDbMText
 10
23570.02093977929
 20
6941.884719251888
 30
0.0
 40
25.0
 41
0.0
 46
0.0
 71
     1
 72
     1
  1
\A1;
  7
TextStyle01
 73
     1
 44
1.0
  0
LEADER
  5
1D04
330
1E
100
AcDbEntity
  8
図面
100
AcDbLeader
  3
Standard
 73
     0
 74
     0
 76
     3
 10
23622.17439233952
 20
8100.640459039801
 30
0.0
 10
23474.72469613474
 20
7680.455145735343
 30
0.0
 10
23515.35072739452
 20
7680.455145735343
 30
0.0
340
1D05
213
39.13501135033584
223
-16.25
233
0.0
1001
ACAD
1000
DSTYLE
1002
{
1070
    41
1040
20.0
1070
    44
1040
0.5
1070
    73
1070
     0
1070
    74
1070
     0
1070
    77
1070
     0
1070
   140
1040
25.0
1070
   147
1040
0.5
1070
   176
1070
     1
1070
   177
1070
     1
1070
   178
1070
     1
1070
   271
1070
     0
1070
   272
1070
     0
1070
   279
1070
     2
1070
   340
1005
23
1002
}
  0
MTEXT
  5
1D05
102
{ACAD_REACTORS
330
1D04
102
}
330
1E
100
AcDbEntity
  8
図面
 62
     1
100
AcDbMText
 10
23570.02093977929
 20
6941.884719251888
 30
0.0
 40
25.0
 41
0.0
 46
0.0
 71
     1
 72
     1
  1
\A1;
  7
TextStyle01
 73
     1
 44
1.0
  0
LEADER
  5
1D06
330
1E
100
AcDbEntity
  8
図面
100
AcDbLeader
  3
Standard
 73
     0
 74
     0
 76
     3
 10
23752.17439233952
 20
8100.640459039801
 30
0.0
 10
23474.72469613474
 20
7680.455145735343
 30
0.0
 10
23515.35072739452
 20
7680.455145735343
 30
0.0
340
1D07
213
39.13501135033584
223
-16.25
233
0.0
1001
ACAD
1000
DSTYLE
1002
{
1070
    41
1040
20.0
1070
    44
1040
0.5
1070
    73
1070
     0
1070
    74
1070
     0
1070
    77
1070
     0
1070
   140
1040
25.0
1070
   147
1040
0.5
1070
   176
1070
     1
1070
   177
1070
     1
1070
   178
1070
     1
1070
   271
1070
     0
1070
   272
1070
     0
1070
   279
1070
     2
1070
   340
1005
23
1002
}
  0
MTEXT
  5
1D07
102
{ACAD_REACTORS
330
1D06
102
}
330
1E
100
AcDbEntity
  8
図面
 62
     1
100
AcDbMText
 10
23570.02093977929
 20
6941.884719251888
 30
0.0
 40
25.0
 41
0.0
 46
0.0
 71
     1
 72
     1
  1
\A1;
  7
TextStyle01
 73
     1
 44
1.0
  0
LEADER
  5
1D08
330
1E
100
AcDbEntity
  8
図面
100
AcDbLeader
  3
Standard
 76
     3
 10
22460.54446041203
 20
8142.332449844094
 30
0.0
 10
22893.24650600694
 20
8571.845403936792
 30
0.0
 10
22963.58510072088
 20
8571.845403936792
 30
0.0
1001
ACAD
1000
DSTYLE
1002
{
1070
    41
1040
20.0
1070
    44
1040
0.5
1070
    73
1070
     0
1070
    74
1070
     0
1070
    77
1070
     0
1070
   140
1040
25.0
1070
   147
1040
0.5
1070
   176
1070
     1
1070
   177
1070
     1
1070
   178
1070
     1
1070
   271
1070
     0
1070
   272
1070
     0
1070
   279
1070
     2
1070
   340
1005
23
1002
}
  0
LEADER
  5
1D09
330
1E
100
AcDbEntity
  8
図面
100
AcDbLeader
  3
Standard
 73
     0
 74
     0
 40
32.5
 41
105.625
 76
     3
 10
23363.81662970169
 20
8297.25745468767
 30
0.0
 10
23600.48704447085
 20
8552.594558536344
 30
0.0
 10
23626.63704447086
 20
8552.594558536344
 30
0.0
340
1D0A
213
0.0
223
-16.25
233
0.0
1001
ACAD
1000
DSTYLE
1002
{
1070
    41
1040
20.0
1070
    44
1040
0.5
1070
    73
1070
     0
1070
    74
1070
     0
1070
    77
1070
     0
1070
   140
1040
25.0
1070
   147
1040
0.5
1070
   176
1070
     1
1070
   177
1070
     1
1070
   178
1070
     1
1070
   271
1070
     0
1070
   272
1070
     0
1070
   279
1070
     2
1070
   340
1005
23
1002
}
  0
MTEXT
  5
1D0A
102
{ACAD_REACTORS
330
1D09
102
}
330
1E
100
AcDbEntity
  8
図面
 62
     1
100
AcDbMText
 10
23627.13704447086
 20
8568.844558536344
 30
0.0
 40
32.5
 41
0.0
 46
0.0
 71
     1
 72
     1
  1
圧力計
  7
TextStyle01
 73
     1
 44
1.0
  0
LEADER
  5
1D0C
330
1E
100
AcDbEntity
  8
図面
100
AcDbLeader
  3
Standard
 76
     3
 10
23493.81662970169
 20
8297.25745468767
 30
0.0
 10
23600.48704447085
 20
8552.594558536344
 30
0.0
 10
23626.48704447085
 20
8552.594558536344
 30
0.0
1001
ACAD
1000
DSTYLE
1002
{
1070
    41
1040
20.0
1070
    44
1040
0.5
1070
    73
1070
     0
1070
    74
1070
     0
1070
    77
1070
     0
1070
   140
1040
25.0
1070
   147
1040
0.5
1070
   176
1070
     1
1070
   177
1070
     1
1070
   178
1070
     1
1070
   271
1070
     0
1070
   272
1070
     0
1070
   279
1070
     2
1070
   340
1005
23
1002
}
  0
LEADER
  5
1D0D
330
1E
100
AcDbEntity
  8
図面
100
AcDbLeader
  3
Standard
 76
     3
 10
23628.23129658278
 20
8297.25745468767
 30
0.0
 10
23600.48704447085
 20
8552.594558536344
 30
0.0
 10
23626.48704447085
 20
8552.594558536344
 30
0.0
1001
ACAD
1000
DSTYLE
1002
{
1070
    41
1040
20.0
1070
    44
1040
0.5
1070
    73
1070
     0
1070
    74
1070
     0
1070
    77
1070
     0
1070
   140
1040
25.0
1070
   147
1040
0.5
1070
   176
1070
     1
1070
   177
1070
     1
1070
   178
1070
     1
1070
   271
1070
     0
1070
   272
1070
     0
1070
   279
1070
     2
1070
   340
1005
23
1002
}
  0
LEADER
  5
1D0E
330
1E
100
AcDbEntity
  8
図面
100
AcDbLeader
  3
Standard
 76
     3
 10
23746.11748809625
 20
8297.25745468767
 30
0.0
 10
23600.48704447085
 20
8552.594558536344
 30
0.0
 10
23626.48704447085
 20
8552.594558536344
 30
0.0
1001
ACAD
1000
DSTYLE
1002
{
1070
    41
1040
20.0
1070
    44
1040
0.5
1070
    73
1070
     0
1070
    74
1070
     0
1070
    77
1070
     0
1070
   140
1040
25.0
1070
   147
1040
0.5
1070
   176
1070
     1
1070
   177
1070
     1
1070
   178
1070
     1
1070
   271
1070
     0
1070
   272
1070
     0
1070
   279
1070
     2
1070
   340
1005
23
1002
}
  0
DIMENSION
  5
1D0F
330
1E
100
AcDbEntity
  8
図面
100
AcDbDimension
280
     0
  2
*D6
 10
23914.67439233952
 20
7559.087441043299
 30
0.0
 11
23557.17439233952
 21
7572.087441043299
 31
0.0
 70
    32
 71
     5
 42
715.0
 73
     0
 74
     0
 75
     0
  3
Standard
100
AcDbAlignedDimension
 13
23199.67439233952
 23
7774.3404590398
 33
0.0
 14
23914.67439233952
 24
7774.3404590398
 34
0.0
100
AcDbRotatedDimension
1001
ACAD
1000
DSTYLE
1002
{
1070
    41
1040
20.0
1070
    44
1040
0.5
1070
    73
1070
     0
1070
    74
1070
     0
1070
    77
1070
     1
1070
   140
1040
25.0
1070
   147
1040
0.5
1070
   176
1070
     1
1070
   177
1070
     1
1070
   178
1070
     1
1070
   271
1070
     0
1070
   272
1070
     0
1070
   279
1070
     2
1070
   340
1005
23
1002
}
  0
DIMENSION
  5
1D1C
330
1E
100
AcDbEntity
  8
図面
100
AcDbDimension
280
     0
  2
*D7
 10
24044.67439233951
 20
7498.862723732514
 30
0.0
 11
23547.42439233951
 21
7511.862723732514
 31
0.0
 70
    32
 71
     5
 42
994.4999999999927
 73
     0
 74
     0
 75
     0
  3
Standard
100
AcDbAlignedDimension
 13
23050.17439233952
 23
8092.8404590398
 33
0.0
 14
24044.67439233951
 24
8114.295964388652
 34
0.0
100
AcDbRotatedDimension
1001
ACAD
1000
DSTYLE
1002
{
1070
    41
1040
20.0
1070
    44
1040
0.5
1070
    73
1070
     0
1070
    74
1070
     0
1070
    77
1070
     1
1070
   140
1040
25.0
1070
   147
1040
0.5
1070
   176
1070
     1
1070
   177
1070
     1
1070
   178
1070
     1
1070
   271
1070
     0
1070
   272
1070
     0
1070
   279
1070
     2
1070
   340
1005
23
1002
}
  0
DIMENSION
  5
1D29
330
1E
100
AcDbEntity
  8
図面
100
AcDbDimension
280
     0
  2
*D8
 10
21950.29849243574
 20
8521.8404590398
 30
0.0
 11
21937.29849243573
 21
8148.090459039805
 31
0.0
 70
    32
 71
     5
 42
747.5000000000009
 73
     0
 74
     0
 75
     0
  3
Standard
100
AcDbAlignedDimension
 13
22033.40325903826
 23
7774.3404590398
 33
0.0
 14
22043.15325903826
 24
8521.8404590398
 34
0.0
 50
90.0
100
AcDbRotatedDimension
1001
ACAD
1000
DSTYLE
1002
{
1070
    41
1040
20.0
1070
    44
1040
0.5
1070
    73
1070
     0
1070
    74
1070
     0
1070
    77
1070
     1
1070
   140
1040
25.0
1070
   147
1040
0.5
1070
   176
1070
     1
1070
   177
1070
     1
1070
   178
1070
     1
1070
   271
1070
     0
1070
   272
1070
     0
1070
   279
1070
     2
1070
   340
1005
23
1002
}
  0
DIMENSION
  5
1D36
330
1E
100
AcDbEntity
  8
図面
100
AcDbDimension
280
     0
  2
*D9
 10
22647.65325903826
 20
8599.926193841427
 30
0.0
 11
22335.65325903826
 21
8612.926193841427
 31
0.0
 70
    32
 71
     5
 42
624.0
 73
     0
 74
     0
 75
     0
  3
Standard
100
AcDbAlignedDimension
 13
22023.65325903826
 23
8502.3404590398
 33
0.0
 14
22647.65325903826
 24
8502.3404590398
 34
0.0
100
AcDbRotatedDimension
1001
ACAD
1000
DSTYLE
1002
{
1070
    41
1040
20.0
1070
    44
1040
0.5
1070
    73
1070
     0
1070
    74
1070
     0
1070
    77
1070
     1
1070
   140
1040
25.0
1070
   147
1040
0.5
1070
   176
1070
     1
1070
   177
1070
     1
1070
   178
1070
     1
1070
   271
1070
     0
1070
   272
1070
     0
1070
   279
1070
     2
1070
   340
1005
23
1002
}
  0
MTEXT
  5
1D50
330
1E
100
AcDbEntity
  8
図面
100
AcDbMText
 10
23445.23619088882
 20
7346.541579412615
 30
0.0
 40
20.0
 41
167.6768978322041
 46
0.0
 71
     1
 72
     5
  1
コネクター接続　パネル詳細
 73
     1
 44
1.0
  0
MTEXT
  5
1D54
330
1E
100
AcDbEntity
  8
図面
100
AcDbMText
 10
23705.87201576403
 20
7223.651385166191
 30
0.0
 40
20.0
 41
118.3950730210287
 46
0.0
 71
     1
 72
     5
  1
100Ｖ電源
 73
     1
 44
1.0
  0
MTEXT
  5
1D55
330
1E
100
AcDbEntity
  8
図面
100
AcDbMText
 10
23707.00744361525
 20
7137.207377866823
 30
0.0
 40
20.0
 41
118.7142781095114
 46
0.0
 71
     1
 72
     5
  1
電源ランプ
 73
     1
 44
1.0
  0
MTEXT
  5
1D5A
330
1E
100
AcDbEntity
  8
図面
100
AcDbMText
 10
23790.82192027871
 20
7066.831538102035
 30
0.0
 40
20.0
 41
174.5292957045313
 46
0.0
 71
     1
 72
     5
  1
{\fArial|b0|i0|c0|p32;LAN}コネクター
 73
     1
 44
1.0
  0
MTEXT
  5
1D5B
330
1E
100
AcDbEntity
  8
図面
100
AcDbMText
 10
23790.82192027871
 20
6946.831538102035
 30
0.0
 40
20.0
 41
175.0205735055381
 46
0.0
 71
     1
 72
     5
  1
{\fArial|b0|i0|c0|p32;LAN}コネクター
 73
     1
 44
1.0
  0
MTEXT
  5
1D61
330
1E
100
AcDbEntity
  8
図面
100
AcDbMText
 10
23231.70619129108
 20
6972.244873378301
 30
0.0
 40
20.0
 41
103.1088699264627
 46
0.0
 71
     1
 72
     5
  1
ＥＮＣ1
 73
     1
 44
1.0
  0
MTEXT
  5
1D62
330
1E
100
AcDbEntity
  8
図面
100
AcDbMText
 10
23351.70619129108
 20
6971.568006134549
 30
0.0
 40
20.0
 41
103.0964216667169
 46
0.0
 71
     1
 72
     5
  1
ＥＮＣ2　
 73
     1
 44
1.0
  0
MTEXT
  5
1D64
330
1E
100
AcDbEntity
  8
図面
100
AcDbMText
 10
23471.70619129108
 20
6971.217877854614
 30
0.0
 40
20.0
 41
106.9053294480138
 46
0.0
 71
     1
 72
     5
  1
ＥＮＣ3
 73
     1
 44
1.0
  0
MTEXT
  5
1D65
330
1E
100
AcDbEntity
  8
図面
100
AcDbMText
 10
23591.70619129108
 20
6971.217877854614
 30
0.0
 40
20.0
 41
106.9053294480138
 46
0.0
 71
     1
 72
     5
  1
ＥＮＣ4
 73
     1
 44
1.0
  0
LWPOLYLINE
  5
1D66
330
1E
100
AcDbEntity
  8
図面枠
  6
Continuous
 62
   254
100
AcDbPolyline
 90
        4
 70
     1
 43
0.0
 10
21380.96878002376
 20
6513.0713864033
 10
24740.96878002376
 20
6513.0713864033
 10
24740.96878002376
 20
8889.0713864033
 10
21380.96878002376
 20
8889.0713864033
  0
LINE
  5
1D67
330
1E
100
AcDbEntity
  8
図面枠
  6
Continuous
100
AcDbLine
 10
24620.96878002376
 20
6633.0713864033
 30
0.0
 11
21540.96878002376
 21
6633.0713864033
 31
0.0
  0
LINE
  5
1D68
330
1E
100
AcDbEntity
  8
図面枠
  6
Continuous
100
AcDbLine
 10
24620.96878002376
 20
8809.071386403299
 30
0.0
 11
24620.96878002376
 21
6633.0713864033
 31
0.0
  0
LINE
  5
1D69
330
1E
100
AcDbEntity
  8
図面枠
  6
Continuous
100
AcDbLine
 10
23676.96878002376
 20
6657.0713864033
 30
0.0
 11
23756.96878002376
 21
6657.0713864033
 31
0.0
  0
LINE
  5
1D6A
330
1E
100
AcDbEntity
  8
図面枠
  6
Continuous
100
AcDbLine
 10
23756.96878002376
 20
6657.0713864033
 30
0.0
 11
23836.96878002376
 21
6657.0713864033
 31
0.0
  0
LINE
  5
1D6B
330
1E
100
AcDbEntity
  8
図面枠
  6
Continuous
100
AcDbLine
 10
23836.96878002376
 20
6657.0713864033
 30
0.0
 11
23916.96878002376
 21
6657.0713864033
 31
0.0
  0
LINE
  5
1D6C
330
1E
100
AcDbEntity
  8
図面枠
  6
Continuous
100
AcDbLine
 10
23916.96878002376
 20
6657.0713864033
 30
0.0
 11
24028.96878002376
 21
6657.0713864033
 31
0.0
  0
LINE
  5
1D6D
330
1E
100
AcDbEntity
  8
図面枠
  6
Continuous
100
AcDbLine
 10
24028.96878002376
 20
6657.0713864033
 30
0.0
 11
24140.96878002376
 21
6657.0713864033
 31
0.0
  0
LINE
  5
1D6E
330
1E
100
AcDbEntity
  8
図面枠
  6
Continuous
100
AcDbLine
 10
24140.96878002376
 20
6657.0713864033
 30
0.0
 11
24228.96878002376
 21
6657.0713864033
 31
0.0
  0
LINE
  5
1D6F
330
1E
100
AcDbEntity
  8
図面枠
  6
Continuous
100
AcDbLine
 10
24228.96878002376
 20
6657.0713864033
 30
0.0
 11
24260.96878002376
 21
6657.0713864033
 31
0.0
  0
LINE
  5
1D70
330
1E
100
AcDbEntity
  8
図面枠
  6
Continuous
100
AcDbLine
 10
24260.96878002376
 20
6657.0713864033
 30
0.0
 11
24596.96878002376
 21
6657.0713864033
 31
0.0
  0
LINE
  5
1D71
330
1E
100
AcDbEntity
  8
図面枠
  6
Continuous
100
AcDbLine
 10
24596.96878002376
 20
6657.0713864033
 30
0.0
 11
24596.96878002376
 21
6737.0713864033
 31
0.0
  0
LINE
  5
1D72
330
1E
100
AcDbEntity
  8
図面枠
  6
Continuous
100
AcDbLine
 10
24596.96878002376
 20
6857.0713864033
 30
0.0
 11
24596.96878002376
 21
6737.0713864033
 31
0.0
  0
LINE
  5
1D73
330
1E
100
AcDbEntity
  8
図面枠
  6
Continuous
100
AcDbLine
 10
24596.96878002376
 20
8785.071386403299
 30
0.0
 11
24596.96878002376
 21
6657.0713864033
 31
0.0
  0
LINE
  5
1D74
330
1E
100
AcDbEntity
  8
図面枠
  6
Continuous
100
AcDbLine
 10
24596.96878002376
 20
6657.0713864033
 30
0.0
 11
21564.96878002376
 21
6657.0713864033
 31
0.0
  0
MTEXT
  5
1D75
330
1E
100
AcDbEntity
  8
図面枠
370
    30
100
AcDbMText
 10
24074.19366183777
 20
6626.65856826979
 30
0.0
 40
35.2
 41
580.9542169133633
 46
0.0
 71
     1
 72
     5
  1
株式会社　関東油機サービス
 73
     1
 44
1.0
  0
MTEXT
  5
1D76
330
1E
100
AcDbEntity
  8
図面
100
AcDbMText
 10
22347.35148601252
 20
7100.003648346519
 30
0.0
 40
26.0
 41
531.9916053680463
 46
26.0
 71
     1
 72
     5
  1
{AIU-BR4}
 73
     1
 44
1.0
  0
MTEXT
  5
1D77
330
1E
100
AcDbEntity
  8
図面
100
AcDbMText
 10
22347.35148601252
 20
7152.591044303714
 30
0.0
 40
26.0
 41
531.9916053680463
 46
26.0
 71
     1
 72
     5
  1
{自動制御油圧ユニット}
 73
     1
 44
1.0
  0
LINE
  5
1D78
330
1E
100
AcDbEntity
  8
0
100
AcDbLine
 10
22063.87292788024
 20
7068.86579758952
 30
0.0
 11
22872.2181074042
 21
7068.86579758952
 31
0.0
  0
MTEXT
  5
1D79
330
1E
100
AcDbEntity
  8
文字
100
AcDbMText
 10
22063.87292788024
 20
7104.40603445196
 30
0.0
 40
26.0
 41
276.7098203721774
 46
0.0
 71
     1
 72
     5
  1
形　　　　式　　：　　
 73
     1
 44
1.0
  0
LINE
  5
1D7A
330
1E
100
AcDbEntity
  8
0
100
AcDbLine
 10
22063.87292788024
 20
7121.453193546715
 30
0.0
 11
22872.2181074042
 21
7121.453193546715
 31
0.0
  0
MTEXT
  5
1D7B
330
1E
100
AcDbEntity
  8
文字
100
AcDbMText
 10
22063.87292788024
 20
7156.993430409157
 30
0.0
 40
26.0
 41
276.7098203721774
 46
0.0
 71
     1
 72
     5
  1
名　　　　称　　：　　
 73
     1
 44
1.0
  0
LINE
  5
1D7C
330
1E
100
AcDbEntity
  8
0
100
AcDbLine
 10
22063.87292788024
 20
7016.278401632328
 30
0.0
 11
22872.2181074042
 21
7016.278401632328
 31
0.0
  0
LINE
  5
1D7E
330
1E
100
AcDbEntity
  8
0
100
AcDbLine
 10
22063.87292788024
 20
6963.691005675137
 30
0.0
 11
22872.2181074042
 21
6963.691005675137
 31
0.0
  0
LINE
  5
1D7F
330
1E
100
AcDbEntity
  8
0
100
AcDbLine
 10
22063.87292788024
 20
6911.103609717944
 30
0.0
 11
22872.2181074042
 21
6911.103609717944
 31
0.0
  0
LINE
  5
1D80
330
1E
100
AcDbEntity
  8
0
100
AcDbLine
 10
22063.87292788024
 20
6858.516213760749
 30
0.0
 11
22872.2181074042
 21
6858.516213760749
 31
0.0
  0
LINE
  5
1D81
330
1E
100
AcDbEntity
  8
0
100
AcDbLine
 10
22063.87292788024
 20
6805.928817803557
 30
0.0
 11
22872.2181074042
 21
6805.928817803557
 31
0.0
  0
MTEXT
  5
1D84
330
1E
100
AcDbEntity
  8
文字
100
AcDbMText
 10
22015.69054688259
 20
7217.439574655689
 30
0.0
 40
36.4
 41
164.0105257972732
 46
0.0
 71
     1
 72
     5
  1
仕　様
 73
     1
 44
1.0
  0
MTEXT
  5
1D85
330
1E
100
AcDbEntity
  8
文字
100
AcDbMText
 10
22063.87292788024
 20
7051.818638494769
 30
0.0
 40
26.0
 41
276.7098203721774
 46
0.0
 71
     1
 72
     5
  1
使　用　圧　力　：　　
 73
     1
 44
1.0
  0
MTEXT
  5
1D89
330
1E
100
AcDbEntity
  8
図面
100
AcDbMText
 10
22347.35148601252
 20
7047.416252389328
 30
0.0
 40
26.0
 41
531.9916053680463
 46
34.66666666666666
 71
     1
 72
     5
  1
{70Mpa}
 73
     1
 44
1.0
  0
MTEXT
  5
1D8D
330
1E
100
AcDbEntity
  8
文字
100
AcDbMText
 10
22063.87292788024
 20
6999.231242537579
 30
0.0
 40
26.0
 41
276.7098203721774
 46
0.0
 71
     1
 72
     5
  1
定　格　電　力　：　　
 73
     1
 44
1.0
  0
MTEXT
  5
1D8E
330
1E
100
AcDbEntity
  8
文字
100
AcDbMText
 10
22063.87292788024
 20
6946.643846580386
 30
0.0
 40
26.0
 41
276.7098203721774
 46
0.0
 71
     1
 72
     5
  1
全 負 荷 電 流　：　　
 73
     1
 44
1.0
  0
MTEXT
  5
1D8F
330
1E
100
AcDbEntity
  8
文字
100
AcDbMText
 10
22063.87292788024
 20
6894.056450623193
 30
0.0
 40
26.0
 41
276.7098203721774
 46
0.0
 71
     1
 72
     5
  1
制　御　系　統 ：　　
 73
     1
 44
1.0
  0
MTEXT
  5
1D90
330
1E
100
AcDbEntity
  8
文字
100
AcDbMText
 10
22063.87292788024
 20
6841.469054666
 30
0.0
 40
26.0
 41
276.7098203721774
 46
0.0
 71
     1
 72
     5
  1
重　　　　量　　：　　
 73
     1
 44
1.0
  0
MTEXT
  5
1D91
330
1E
100
AcDbEntity
  8
図面
100
AcDbMText
 10
22347.35148601252
 20
6994.828856432137
 30
0.0
 40
26.0
 41
531.9916053680463
 46
30.33333333333333
 71
     1
 72
     5
  1
{100V,50/60Hz}
 73
     1
 44
1.0
  0
MTEXT
  5
1D92
330
1E
100
AcDbEntity
  8
図面
100
AcDbMText
 10
22347.35148601252
 20
6942.241460474943
 30
0.0
 40
26.0
 41
531.9916053680463
 46
26.0
 71
     1
 72
     5
  1
{8A}
 73
     1
 44
1.0
  0
MTEXT
  5
1D93
330
1E
100
AcDbEntity
  8
図面
100
AcDbMText
 10
22347.35148601252
 20
6889.65406451775
 30
0.0
 40
26.0
 41
531.9916053680463
 46
26.0
 71
     1
 72
     5
  1
{4系統}
 73
     1
 44
1.0
  0
MTEXT
  5
1D94
330
1E
100
AcDbEntity
  8
図面
100
AcDbMText
 10
22347.35148601252
 20
6837.066668560556
 30
0.0
 40
26.0
 41
531.991605368045
 46
0.0
 71
     1
 72
     5
  1
90Kg
 73
     1
 44
1.0
  0
LINE
  5
1D95
330
1E
100
AcDbEntity
  8
図面枠
  6
Continuous
100
AcDbLine
 10
24620.96878002376
 20
8809.071386403299
 30
0.0
 11
21540.96878002376
 21
8809.071386403299
 31
0.0
  0
LINE
  5
1D96
330
1E
100
AcDbEntity
  8
図面枠
  6
Continuous
100
AcDbLine
 10
21564.96878002376
 20
8785.071386403299
 30
0.0
 11
24596.96878002376
 21
8785.071386403299
 31
0.0
  0
LINE
  5
1D97
330
1E
100
AcDbEntity
  8
図面枠
  6
Continuous
100
AcDbLine
 10
21540.96878002376
 20
8809.071386403299
 30
0.0
 11
21540.96878002376
 21
6633.0713864033
 31
0.0
  0
LINE
  5
1D98
330
1E
100
AcDbEntity
  8
図面枠
  6
Continuous
100
AcDbLine
 10
21564.96878002376
 20
6657.0713864033
 30
0.0
 11
21564.96878002376
 21
8785.071386403299
 31
0.0
  0
MTEXT
  5
1D9F
330
1E
100
AcDbEntity
  8
図面
100
AcDbMText
 10
24180.29121054775
 20
6700.569554426242
 30
0.0
 40
32.0
 41
502.4000000000015
 46
32.0
 71
     1
 72
     5
  1
{AIU-BR4}
 73
     1
 44
1.0
  0
MTEXT
  5
1DA0
330
1E
100
AcDbEntity
  8
図面
100
AcDbMText
 10
24185.69048384636
 20
6752.522298647637
 30
0.0
 40
32.0
 41
504.0
 46
32.0
 71
     1
 72
     5
  1
{自動制御油圧ユニット}
 73
     1
 44
1.0
  0
TEXT
  5
1DA1
330
1E
100
AcDbEntity
  8
図面枠
100
AcDbText
 10
23933.14583064937
 20
6676.581299016299
 30
0.0
 40
24.0
  1
１：8
100
AcDbText
  0
TEXT
  5
1DA2
330
1E
100
AcDbEntity
  8
図面枠
100
AcDbText
 10
24031.60522218408
 20
6761.569397932735
 30
0.0
 40
32.0
  1
名 称
 50
270.0
100
AcDbText
  0
TEXT
  5
1DA3
330
1E
100
AcDbEntity
  8
図面枠
100
AcDbText
 10
23931.12344326424
 20
6715.947956477092
 30
0.0
 40
32.0
  1
尺度
 41
1.125
100
AcDbText
  0
LINE
  5
1DA4
330
1E
100
AcDbEntity
  8
図面枠
  6
Continuous
100
AcDbLine
 10
24092.96878002376
 20
6712.271386403299
 30
0.0
 11
24571.36878002376
 21
6712.271386403299
 31
0.0
  0
LINE
  5
1DA5
330
1E
100
AcDbEntity
  8
図面枠
  6
Continuous
100
AcDbLine
 10
23916.96878002376
 20
6712.271386403299
 30
0.0
 11
24028.96878002376
 21
6712.271386403299
 31
0.0
  0
LINE
  5
1DA6
330
1E
100
AcDbEntity
  8
図面枠
  6
Continuous
100
AcDbLine
 10
24596.96878002376
 20
6777.0713864033
 30
0.0
 11
23916.96878002376
 21
6777.0713864033
 31
0.0
  0
LINE
  5
1DA7
330
1E
100
AcDbEntity
  8
図面枠
  6
Continuous
100
AcDbLine
 10
24068.96878002376
 20
6777.0713864033
 30
0.0
 11
24596.96878002376
 21
6777.0713864033
 31
0.0
  0
LINE
  5
1DA8
330
1E
100
AcDbEntity
  8
図面枠
  6
Continuous
100
AcDbLine
 10
24068.96878002376
 20
6657.0713864033
 30
0.0
 11
24068.96878002376
 21
6777.0713864033
 31
0.0
  0
LINE
  5
1DA9
330
1E
100
AcDbEntity
  8
図面枠
  6
Continuous
100
AcDbLine
 10
24068.96878002376
 20
6777.0713864033
 30
0.0
 11
24028.96878002376
 21
6777.0713864033
 31
0.0
  0
LINE
  5
1DAA
330
1E
100
AcDbEntity
  8
図面枠
  6
Continuous
100
AcDbLine
 10
24068.96878002376
 20
6657.0713864033
 30
0.0
 11
24068.96878002376
 21
6777.0713864033
 31
0.0
  0
LINE
  5
1DAB
330
1E
100
AcDbEntity
  8
図面枠
  6
Continuous
100
AcDbLine
 10
24028.96878002376
 20
6777.0713864033
 30
0.0
 11
24028.96878002376
 21
6657.0713864033
 31
0.0
  0
LINE
  5
1DAC
330
1E
100
AcDbEntity
  8
図面枠
  6
Continuous
100
AcDbLine
 10
24028.96878002376
 20
6777.0713864033
 30
0.0
 11
24028.96878002376
 21
6737.0713864033
 31
0.0
  0
LINE
  5
1DAD
330
1E
100
AcDbEntity
  8
図面枠
  6
Continuous
100
AcDbLine
 10
24028.96878002376
 20
6737.0713864033
 30
0.0
 11
24028.96878002376
 21
6697.0713864033
 31
0.0
  0
LINE
  5
1DAE
330
1E
100
AcDbEntity
  8
図面枠
  6
Continuous
100
AcDbLine
 10
24028.96878002376
 20
6697.0713864033
 30
0.0
 11
24028.96878002376
 21
6657.0713864033
 31
0.0
  0
LINE
  5
1DAF
330
1E
100
AcDbEntity
  8
図面枠
  6
Continuous
100
AcDbLine
 10
24028.96878002376
 20
6777.0713864033
 30
0.0
 11
24028.96878002376
 21
6697.0713864033
 31
0.0
  0
LINE
  5
1DB0
330
1E
100
AcDbEntity
  8
図面枠
  6
Continuous
100
AcDbLine
 10
24028.96878002376
 20
6697.0713864033
 30
0.0
 11
24028.96878002376
 21
6777.0713864033
 31
0.0
  0
LINE
  5
1DB1
330
1E
100
AcDbEntity
  8
図面枠
  6
Continuous
100
AcDbLine
 10
23916.96878002376
 20
6777.0713864033
 30
0.0
 11
23916.96878002376
 21
6657.0713864033
 31
0.0
  0
LINE
  5
1DB2
330
1E
100
AcDbEntity
  8
図面枠
  6
Continuous
100
AcDbLine
 10
23916.96878002376
 20
6672.271386403299
 30
0.0
 11
23916.96878002376
 21
6752.271386403299
 31
0.0
  0
DIMENSION
  5
1E0F
330
1E
100
AcDbEntity
  8
図面
100
AcDbDimension
280
     0
  2
*D10
 10
22738.65325846221
 20
7498.212723732515
 30
0.0
 11
22381.15325875023
 21
7511.212723732515
 31
0.0
 70
    32
 71
     5
 42
714.9999994239552
 73
     0
 74
     0
 75
     0
  3
Standard
100
AcDbAlignedDimension
 13
22023.65325903826
 23
8502.3404590398
 33
0.0
 14
22738.65325846221
 24
8099.6267105853
 34
0.0
100
AcDbRotatedDimension
1001
ACAD
1000
DSTYLE
1002
{
1070
    41
1040
20.0
1070
    44
1040
0.5
1070
    73
1070
     0
1070
    74
1070
     0
1070
    77
1070
     1
1070
   140
1040
25.0
1070
   147
1040
0.5
1070
   176
1070
     1
1070
   177
1070
     1
1070
   178
1070
     1
1070
   271
1070
     0
1070
   272
1070
     0
1070
   279
1070
     2
1070
   340
1005
23
1002
}
  0
LINE
  5
1E27
330
1E
100
AcDbEntity
  8
図面
100
AcDbLine
 10
22212.15325903826
 20
8391.8404590398
 30
0.0
 11
22212.15325903826
 21
8541.3404590398
 31
0.0
  0
LINE
  5
1E28
330
1E
100
AcDbEntity
  8
図面
100
AcDbLine
 10
22225.15325903826
 20
8554.3404590398
 30
0.0
 11
22446.15325903826
 21
8554.3404590398
 31
0.0
  0
LINE
  5
1E29
330
1E
100
AcDbEntity
  8
図面
100
AcDbLine
 10
22459.15325903826
 20
8541.3404590398
 30
0.0
 11
22459.15325903826
 21
8391.8404590398
 31
0.0
  0
LINE
  5
1E2A
330
1E
100
AcDbEntity
  8
図面
100
AcDbLine
 10
22459.15325903826
 20
8391.8404590398
 30
0.0
 11
22443.55325903826
 21
8391.8404590398
 31
0.0
  0
LINE
  5
1E2B
330
1E
100
AcDbEntity
  8
図面
100
AcDbLine
 10
22443.55325903826
 20
8391.8404590398
 30
0.0
 11
22443.55325903826
 21
8525.7404590398
 31
0.0
  0
LINE
  5
1E2C
330
1E
100
AcDbEntity
  8
図面
100
AcDbLine
 10
22430.55325903826
 20
8538.7404590398
 30
0.0
 11
22240.75325903825
 21
8538.7404590398
 31
0.0
  0
LINE
  5
1E2D
330
1E
100
AcDbEntity
  8
図面
100
AcDbLine
 10
22227.75325903825
 20
8525.7404590398
 30
0.0
 11
22227.75325903825
 21
8391.8404590398
 31
0.0
  0
LINE
  5
1E2E
330
1E
100
AcDbEntity
  8
図面
100
AcDbLine
 10
22227.75325903825
 20
8391.8404590398
 30
0.0
 11
22212.15325903826
 21
8391.8404590398
 31
0.0
  0
ARC
  5
1E30
330
1E
100
AcDbEntity
  8
図面
100
AcDbCircle
 10
22225.15325903826
 20
8541.3404590398
 30
0.0
 40
13.0
100
AcDbArc
 50
90.0
 51
180.0
  0
ARC
  5
1E33
330
1E
100
AcDbEntity
  8
図面
100
AcDbCircle
 10
22446.15325903826
 20
8541.3404590398
 30
0.0
 40
13.0
100
AcDbArc
 50
0.0
 51
90.0
  0
ARC
  5
1E34
330
1E
100
AcDbEntity
  8
図面
100
AcDbCircle
 10
22430.55325903826
 20
8525.7404590398
 30
0.0
 40
13.0
100
AcDbArc
 50
0.0
 51
90.0
  0
ARC
  5
1E35
330
1E
100
AcDbEntity
  8
図面
100
AcDbCircle
 10
22240.75325903825
 20
8525.7404590398
 30
0.0
 40
13.0
100
AcDbArc
 50
90.0
 51
180.0
  0
LINE
  5
1E36
330
1E
100
AcDbEntity
  8
図面
100
AcDbLine
 10
22443.55325903826
 20
8521.840459039799
 30
0.0
 11
22227.75325903825
 21
8521.840459039799
 31
0.0
  0
LINE
  5
1E37
330
1E
100
AcDbEntity
  8
図面
100
AcDbLine
 10
22459.15325903826
 20
8502.3404590398
 30
0.0
 11
22647.65325903826
 21
8502.3404590398
 31
0.0
  0
LINE
  5
1E38
330
1E
100
AcDbEntity
  8
図面
100
AcDbLine
 10
22443.55325903825
 20
8463.3404590398
 30
0.0
 11
22227.75325903825
 21
8463.340459039802
 31
0.0
  0
LINE
  5
1E39
330
1E
100
AcDbEntity
  8
図面
100
AcDbLine
 10
22212.15325903826
 20
8521.840459039799
 30
0.0
 11
22043.15325903826
 21
8521.8404590398
 31
0.0
  0
LINE
  5
1E3A
330
1E
100
AcDbEntity
  8
図面
100
AcDbLine
 10
22227.75325903825
 20
8502.340459039799
 30
0.0
 11
22443.55325903825
 21
8502.3404590398
 31
0.0
  0
LINE
  5
1E3B
330
1E
100
AcDbEntity
  8
図面
100
AcDbLine
 10
22212.15325903825
 20
8463.3404590398
 30
0.0
 11
22033.40325903826
 21
8463.3404590398
 31
0.0
  0
MTEXT
  5
1E3F
330
1E
100
AcDbEntity
  8
図面
100
AcDbMText
 10
23459.7565268726
 20
7092.979305889817
 30
0.0
 40
20.0
 41
139.5527635339415
 46
0.0
 71
     1
 72
     5
  1
沈下計データ
 73
     1
 44
1.0
  0
LEADER
  5
1E40
330
1E
100
AcDbEntity
  8
図面
100
AcDbLeader
  3
Standard
 73
     0
 74
     0
 40
20.0
 41
301.0
 76
     3
 10
23302.20498027436
 20
6888.268975737848
 30
0.0
 10
23419.54743027336
 20
6722.315332810614
 30
0.0
 10
23438.70046563616
 20
6722.315332810614
 30
0.0
340
1E41
213
-19.2530353628099
223
-10.0
233
0.0
1001
ACAD
1000
DSTYLE
1002
{
1070
    41
1040
20.0
1070
    44
1040
0.5
1070
    73
1070
     0
1070
    74
1070
     0
1070
    77
1070
     0
1070
   140
1040
25.0
1070
   147
1040
0.5
1070
   176
1070
     1
1070
   177
1070
     1
1070
   178
1070
     1
1070
   271
1070
     0
1070
   272
1070
     0
1070
   279
1070
     2
1070
   340
1005
23
1002
}
  0
MTEXT
  5
1E41
102
{ACAD_REACTORS
330
1E40
102
}
330
1E
100
AcDbEntity
  8
図面
 62
     1
100
AcDbMText
 10
23458.45350099897
 20
6732.315332810614
 30
0.0
 40
20.0
 41
0.0
 46
0.0
 71
     1
 72
     1
  1
ワイヤー式変位計コネクター
  7
TextStyle01
 73
     1
 44
1.0
  0
LEADER
  5
1E47
330
1E
100
AcDbEntity
  8
図面
100
AcDbLeader
  3
Standard
 76
     3
 10
23422.20498027436
 20
6888.268975737849
 30
0.0
 10
23419.54743027336
 20
6722.315332810614
 30
0.0
 10
23438.80046563617
 20
6722.315332810614
 30
0.0
1001
ACAD
1000
DSTYLE
1002
{
1070
    41
1040
20.0
1070
    44
1040
0.5
1070
    73
1070
     0
1070
    74
1070
     0
1070
    77
1070
     0
1070
   140
1040
25.0
1070
   147
1040
0.5
1070
   176
1070
     1
1070
   177
1070
     1
1070
   178
1070
     1
1070
   271
1070
     0
1070
   272
1070
     0
1070
   279
1070
     2
1070
   340
1005
23
1002
}
  0
LEADER
  5
1E48
330
1E
100
AcDbEntity
  8
図面
100
AcDbLeader
  3
Standard
 76
     3
 10
23510.73548916844
 20
6888.268975737849
 30
0.0
 10
23419.54743027336
 20
6722.315332810614
 30
0.0
 10
23438.80046563617
 20
6722.315332810614
 30
0.0
1001
ACAD
1000
DSTYLE
1002
{
1070
    41
1040
20.0
1070
    44
1040
0.5
1070
    73
1070
     0
1070
    74
1070
     0
1070
    77
1070
     0
1070
   140
1040
25.0
1070
   147
1040
0.5
1070
   176
1070
     1
1070
   177
1070
     1
1070
   178
1070
     1
1070
   271
1070
     0
1070
   272
1070
     0
1070
   279
1070
     2
1070
   340
1005
23
1002
}
  0
LEADER
  5
1E49
330
1E
100
AcDbEntity
  8
図面
100
AcDbLeader
  3
Standard
 76
     3
 10
23630.73548916844
 20
6888.268975737849
 30
0.0
 10
23419.54743027336
 20
6722.315332810614
 30
0.0
 10
23438.80046563617
 20
6722.315332810614
 30
0.0
1001
ACAD
1000
DSTYLE
1002
{
1070
    41
1040
20.0
1070
    44
1040
0.5
1070
    73
1070
     0
1070
    74
1070
     0
1070
    77
1070
     0
1070
   140
1040
25.0
1070
   147
1040
0.5
1070
   176
1070
     1
1070
   177
1070
     1
1070
   178
1070
     1
1070
   271
1070
     0
1070
   272
1070
     0
1070
   279
1070
     2
1070
   340
1005
23
1002
}
  0
ENDSEC
  0
SECTION
  2
OBJECTS
  0
DICTIONARY
  5
C
330
0
100
AcDbDictionary
281
     1
  3
ACAD_COLOR
350
1F9
  3
ACAD_DETAILVIEWSTYLE
350
1FEC
  3
ACAD_GROUP
350
D
  3
ACAD_LAYOUT
350
19
  3
ACAD_MATERIAL
350
1F8
  3
ACAD_MLEADERSTYLE
350
1E9C
  3
ACAD_MLINESTYLE
350
16
  3
ACAD_PLOTSETTINGS
350
18
  3
ACAD_PLOTSTYLENAME
350
E
  3
ACAD_SCALELIST
350
1E7A
  3
ACAD_SECTIONVIEWSTYLE
350
1FED
  3
ACAD_TABLESTYLE
350
1E78
  3
ACAD_VISUALSTYLE
350
1E67
  3
AcadDim
350
1E42
  3
ACDB_RECOMPOSE_DATA
350
1FFC
  3
AcDbVariableDictionary
350
1FD7
  3
APPDATA
350
1FE7
  0
SUN
  5
1FE8
330
1E4D
100
AcDbSun
 90
        1
290
     0
 63
     7
421
 16777215
 40
1.0
291
     1
 91
  2455826
 92
 54000000
292
     0
 70
     2
 71
   256
280
     1
  0
DICTIONARY
  5
1FB3
330
10
100
AcDbDictionary
280
     1
281
     1
  3
ADSK_XREC_LAYER_RECONCILED
360
1FB4
  0
DICTIONARY
  5
1FB5
330
16B
100
AcDbDictionary
280
     1
281
     1
  3
ADSK_XREC_LAYER_RECONCILED
360
1FB6
  0
DICTIONARY
  5
1FB7
330
16C
100
AcDbDictionary
280
     1
281
     1
  3
ADSK_XREC_LAYER_RECONCILED
360
1FB8
  0
DICTIONARY
  5
1FB9
330
1AB
100
AcDbDictionary
280
     1
281
     1
  3
ADSK_XREC_LAYER_RECONCILED
360
1FBA
  0
DICTIONARY
  5
1FBB
330
1EB
100
AcDbDictionary
280
     1
281
     1
  3
ADSK_XREC_LAYER_RECONCILED
360
1FBC
  0
DICTIONARY
  5
1FBD
330
375
100
AcDbDictionary
280
     1
281
     1
  3
ADSK_XREC_LAYER_RECONCILED
360
1FBE
  0
DICTIONARY
  5
1FBF
330
1A35
100
AcDbDictionary
280
     1
281
     1
  3
ADSK_XREC_LAYER_RECONCILED
360
1FC0
  0
DICTIONARY
  5
1FC1
330
1C60
100
AcDbDictionary
280
     1
281
     1
  3
ADSK_XREC_LAYER_RECONCILED
360
1FC2
  0
DICTIONARY
  5
1FEE
330
1E
100
AcDbDictionary
280
     1
281
     1
  3
DIM_BOUNDING_BOXES_V1
360
1FEF
  0
DICTIONARY
  5
1F9
102
{ACAD_REACTORS
330
C
102
}
330
C
100
AcDbDictionary
281
     1
  0
DICTIONARY
  5
1FEC
102
{ACAD_REACTORS
330
C
102
}
330
C
100
AcDbDictionary
281
     1
  0
DICTIONARY
  5
D
102
{ACAD_REACTORS
330
C
102
}
330
C
100
AcDbDictionary
281
     1
  0
DICTIONARY
  5
19
102
{ACAD_REACTORS
330
C
102
}
330
C
100
AcDbDictionary
281
     1
  3
Model
350
21
  3
ﾚｲｱｳﾄ1
350
1D
  0
DICTIONARY
  5
1F8
102
{ACAD_REACTORS
330
C
102
}
330
C
100
AcDbDictionary
281
     1
  3
ByBlock
350
1E57
  3
ByLayer
350
1E4F
  3
Global
350
1E5F
  0
DICTIONARY
  5
1E9C
102
{ACAD_REACTORS
330
C
102
}
330
C
100
AcDbDictionary
281
     1
  3
Standard
350
1E9D
  0
DICTIONARY
  5
16
102
{ACAD_REACTORS
330
C
102
}
330
C
100
AcDbDictionary
281
     1
  3
Standard
350
17
  0
DICTIONARY
  5
18
102
{ACAD_REACTORS
330
C
102
}
330
C
100
AcDbDictionary
281
     1
  0
ACDBDICTIONARYWDFLT
  5
E
102
{ACAD_REACTORS
330
C
102
}
330
C
100
AcDbDictionary
281
     1
  3
Normal
350
F
100
AcDbDictionaryWithDefault
340
F
  0
DICTIONARY
  5
1E7A
102
{ACAD_REACTORS
330
C
102
}
330
C
100
AcDbDictionary
281
     1
  3
A0
350
1E7B
  3
A1
350
1E7C
  3
A2
350
1E7D
  3
A3
350
1E7E
  3
A4
350
1E7F
  3
A5
350
1E80
  3
A6
350
1E81
  3
A7
350
1E82
  3
A8
350
1E83
  3
A9
350
1E84
  3
B0
350
1E85
  3
B1
350
1E86
  3
B2
350
1E87
  3
B3
350
1E88
  3
B4
350
1E89
  3
B5
350
1E8A
  3
B6
350
1E8B
  3
B7
350
1E8C
  3
B8
350
1E8D
  3
B9
350
1E8E
  3
C0
350
1E8F
  3
C1
350
1E90
  3
C2
350
1E91
  3
C3
350
1E92
  3
C4
350
1E93
  3
C5
350
1E94
  3
C6
350
1E95
  3
C7
350
1E96
  3
C8
350
1E97
  3
C9
350
1E98
  3
D0
350
1E99
  3
D1
350
1E9A
  3
D2
350
1E9B
  0
DICTIONARY
  5
1FED
102
{ACAD_REACTORS
330
C
102
}
330
C
100
AcDbDictionary
281
     1
  0
DICTIONARY
  5
1E78
102
{ACAD_REACTORS
330
C
102
}
330
C
100
AcDbDictionary
281
     1
  3
Standard
350
1E79
  0
DICTIONARY
  5
1E67
102
{ACAD_REACTORS
330
C
102
}
330
C
100
AcDbDictionary
281
     1
  3
2dWireframe
350
1E6D
  3
3D Hidden
350
1E6F
  3
3dWireframe
350
1E6E
  3
Basic
350
1E6C
  3
Brighten
350
1E73
  3
ColorChange
350
1E77
  3
Conceptual
350
1E70
  3
Dim
350
1E72
  3
EdgeColorOff
350
1FE1
  3
Facepattern
350
1E76
  3
Flat
350
1E68
  3
FlatWithEdges
350
1E69
  3
Gouraud
350
1E6A
  3
GouraudWithEdges
350
1E6B
  3
Hidden
350
1FDE
  3
JitterOff
350
1FDF
  3
Linepattern
350
1E75
  3
OverhangOff
350
1FE0
  3
Realistic
350
1E71
  3
Shaded
350
1FE6
  3
Shaded with edges
350
1FE5
  3
Shades of Gray
350
1FE2
  3
Sketchy
350
1FE3
  3
Thicken
350
1E74
  3
Wireframe
350
1FDD
  3
X-Ray
350
1FE4
  0
XRECORD
  5
1E42
102
{ACAD_REACTORS
330
C
102
}
330
C
100
AcDbXrecord
280
     1
 90
   990106
  3

 60
     0
 61
     0
 62
     1
 63
     3
 64
     0
 65
     0
 66
     0
 67
     3
 68
     1
 69
     0
 70
     0
 71
     0
 72
     0
 40
0.0
170
     0
340
1E41
  0
XRECORD
  5
1FFC
102
{ACAD_REACTORS
330
C
102
}
330
C
100
AcDbXrecord
280
     1
 90
        1
330
1E79
  0
DICTIONARY
  5
1FD7
102
{ACAD_REACTORS
330
C
102
}
330
C
100
AcDbDictionary
281
     1
  3
CANNOSCALE
350
1FDB
  3
CMLEADERSTYLE
350
1FD9
  3
CTABLESTYLE
350
1FD8
  3
LIGHTINGUNITS
350
1FDC
  3
MSLTSCALE
350
1FDA
  3
XCLIPFRAME
350
1FEB
  0
DICTIONARY
  5
1FE7
102
{ACAD_REACTORS
330
C
102
}
330
C
100
AcDbDictionary
281
     1
  0
XRECORD
  5
1FB4
102
{ACAD_REACTORS
330
1FB3
102
}
330
1FB3
100
AcDbXrecord
280
     1
290
     1
  0
XRECORD
  5
1FB6
102
{ACAD_REACTORS
330
1FB5
102
}
330
1FB5
100
AcDbXrecord
280
     1
290
     1
  0
XRECORD
  5
1FB8
102
{ACAD_REACTORS
330
1FB7
102
}
330
1FB7
100
AcDbXrecord
280
     1
290
     1
  0
XRECORD
  5
1FBA
102
{ACAD_REACTORS
330
1FB9
102
}
330
1FB9
100
AcDbXrecord
280
     1
290
     1
  0
XRECORD
  5
1FBC
102
{ACAD_REACTORS
330
1FBB
102
}
330
1FBB
100
AcDbXrecord
280
     1
290
     1
  0
XRECORD
  5
1FBE
102
{ACAD_REACTORS
330
1FBD
102
}
330
1FBD
100
AcDbXrecord
280
     1
290
     1
  0
XRECORD
  5
1FC0
102
{ACAD_REACTORS
330
1FBF
102
}
330
1FBF
100
AcDbXrecord
280
     1
290
     1
  0
XRECORD
  5
1FC2
102
{ACAD_REACTORS
330
1FC1
102
}
330
1FC1
100
AcDbXrecord
280
     1
290
     1
  0
DICTIONARY
  5
1FEF
102
{ACAD_REACTORS
330
1FEE
102
}
330
1FEE
100
AcDbDictionary
281
     1
  0
LAYOUT
  5
21
102
{ACAD_REACTORS
330
19
102
}
330
19
100
AcDbPlotSettings
  1

  2
倉庫ﾌﾟﾘﾝﾀ.pc3
  4
A3
  6

 40
5.873749732971191
 41
5.873747825622559
 42
5.873748779296875
 43
5.873748779296875
 44
296.9259948730469
 45
419.9466552734375
 46
-5.92
 47
-5.91
 48
-210.0
 49
-148.5
140
210.0
141
148.5
142
1.0
143
1.0
 70
 11940
 72
     1
 73
     1
 74
     1
  7

 75
     0
 76
     0
 77
     2
 78
   300
147
1.0
148
210.0064041928747
149
148.5045286792472
100
AcDbLayout
  1
Model
 70
     1
 71
     0
 10
0.0
 20
0.0
 11
12.0
 21
9.0
 12
0.0
 22
0.0
 32
0.0
 14
21380.96878002376
 24
6513.0713864033
 34
0.0
 15
24740.96878002376
 25
8889.0713864033
 35
0.0
146
0.0
 13
0.0
 23
0.0
 33
0.0
 16
1.0
 26
0.0
 36
0.0
 17
0.0
 27
1.0
 37
0.0
 76
     0
330
1E
331
1E4D
  0
LAYOUT
  5
1D
102
{ACAD_REACTORS
330
19
102
}
330
19
100
AcDbPlotSettings
  1

  2
なし
  4

  6

 40
0.0
 41
0.0
 42
0.0
 43
0.0
 44
0.0
 45
0.0
 46
0.0
 47
0.0
 48
0.0
 49
0.0
140
0.0
141
0.0
142
1.0
143
1.0
 70
   688
 72
     0
 73
     0
 74
     5
  7

 75
    16
 76
     0
 77
     2
 78
   300
147
1.0
148
0.0
149
0.0
100
AcDbLayout
  1
ﾚｲｱｳﾄ1
 70
     1
 71
     1
 10
0.0
 20
0.0
 11
12.0
 21
9.0
 12
0.0
 22
0.0
 32
0.0
 14
1.000000000000000E+20
 24
1.000000000000000E+20
 34
1.000000000000000E+20
 15
-1.000000000000000E+20
 25
-1.000000000000000E+20
 35
-1.000000000000000E+20
146
0.0
 13
0.0
 23
0.0
 33
0.0
 16
1.0
 26
0.0
 36
0.0
 17
0.0
 27
1.0
 37
0.0
 76
     0
330
1A
  0
MATERIAL
  5
1E57
102
{ACAD_REACTORS
330
1F8
102
}
330
1F8
100
AcDbMaterial
  1
ByBlock
 72
     0
 73
     2
 43
0.0208333333333333
 43
0.0
 43
0.0
 43
0.0
 43
0.0
 43
0.0208333333333333
 43
0.0
 43
0.0
 43
0.0
 43
0.0
 43
1.0
 43
0.0
 43
0.0
 43
0.0
 43
0.0
 43
1.0
 77
     0
 78
     2
 47
0.0208333333333333
 47
0.0
 47
0.0
 47
0.0
 47
0.0
 47
0.0208333333333333
 47
0.0
 47
0.0
 47
0.0
 47
0.0
 47
1.0
 47
0.0
 47
0.0
 47
0.0
 47
0.0
 47
1.0
171
     0
172
     2
 49
0.0208333333333333
 49
0.0
 49
0.0
 49
0.0
 49
0.0
 49
0.0208333333333333
 49
0.0
 49
0.0
 49
0.0
 49
0.0
 49
1.0
 49
0.0
 49
0.0
 49
0.0
 49
0.0
 49
1.0
175
     0
176
     2
142
0.0208333333333333
142
0.0
142
0.0
142
0.0
142
0.0
142
0.0208333333333333
142
0.0
142
0.0
142
0.0
142
0.0
142
1.0
142
0.0
142
0.0
142
0.0
142
0.0
142
1.0
179
     0
270
     2
144
0.0208333333333333
144
0.0
144
0.0
144
0.0
144
0.0
144
0.0208333333333333
144
0.0
144
0.0
144
0.0
144
0.0
144
1.0
144
0.0
144
0.0
144
0.0
144
0.0
144
1.0
274
     2
147
0.0208333333333333
147
0.0
147
0.0
147
0.0
147
0.0
147
0.0208333333333333
147
0.0
147
0.0
147
0.0
147
0.0
147
1.0
147
0.0
147
0.0
147
0.0
147
0.0
147
1.0
 94
      127
  0
MATERIAL
  5
1E4F
102
{ACAD_REACTORS
330
1F8
102
}
330
1F8
100
AcDbMaterial
  1
ByLayer
 72
     0
 73
     2
 43
0.0208333333333333
 43
0.0
 43
0.0
 43
0.0
 43
0.0
 43
0.0208333333333333
 43
0.0
 43
0.0
 43
0.0
 43
0.0
 43
1.0
 43
0.0
 43
0.0
 43
0.0
 43
0.0
 43
1.0
 77
     0
 78
     2
 47
0.0208333333333333
 47
0.0
 47
0.0
 47
0.0
 47
0.0
 47
0.0208333333333333
 47
0.0
 47
0.0
 47
0.0
 47
0.0
 47
1.0
 47
0.0
 47
0.0
 47
0.0
 47
0.0
 47
1.0
171
     0
172
     2
 49
0.0208333333333333
 49
0.0
 49
0.0
 49
0.0
 49
0.0
 49
0.0208333333333333
 49
0.0
 49
0.0
 49
0.0
 49
0.0
 49
1.0
 49
0.0
 49
0.0
 49
0.0
 49
0.0
 49
1.0
175
     0
176
     2
142
0.0208333333333333
142
0.0
142
0.0
142
0.0
142
0.0
142
0.0208333333333333
142
0.0
142
0.0
142
0.0
142
0.0
142
1.0
142
0.0
142
0.0
142
0.0
142
0.0
142
1.0
179
     0
270
     2
144
0.0208333333333333
144
0.0
144
0.0
144
0.0
144
0.0
144
0.0208333333333333
144
0.0
144
0.0
144
0.0
144
0.0
144
1.0
144
0.0
144
0.0
144
0.0
144
0.0
144
1.0
274
     2
147
0.0208333333333333
147
0.0
147
0.0
147
0.0
147
0.0
147
0.0208333333333333
147
0.0
147
0.0
147
0.0
147
0.0
147
1.0
147
0.0
147
0.0
147
0.0
147
0.0
147
1.0
 94
      127
  0
MATERIAL
  5
1E5F
102
{ACAD_REACTORS
330
1F8
102
}
330
1F8
100
AcDbMaterial
  1
Global
 72
     0
 73
     2
 43
0.0208333333333333
 43
0.0
 43
0.0
 43
0.0
 43
0.0
 43
0.0208333333333333
 43
0.0
 43
0.0
 43
0.0
 43
0.0
 43
1.0
 43
0.0
 43
0.0
 43
0.0
 43
0.0
 43
1.0
 77
     0
 78
     2
 47
0.0208333333333333
 47
0.0
 47
0.0
 47
0.0
 47
0.0
 47
0.0208333333333333
 47
0.0
 47
0.0
 47
0.0
 47
0.0
 47
1.0
 47
0.0
 47
0.0
 47
0.0
 47
0.0
 47
1.0
171
     0
172
     2
 49
0.0208333333333333
 49
0.0
 49
0.0
 49
0.0
 49
0.0
 49
0.0208333333333333
 49
0.0
 49
0.0
 49
0.0
 49
0.0
 49
1.0
 49
0.0
 49
0.0
 49
0.0
 49
0.0
 49
1.0
175
     0
176
     2
142
0.0208333333333333
142
0.0
142
0.0
142
0.0
142
0.0
142
0.0208333333333333
142
0.0
142
0.0
142
0.0
142
0.0
142
1.0
142
0.0
142
0.0
142
0.0
142
0.0
142
1.0
179
     0
270
     2
144
0.0208333333333333
144
0.0
144
0.0
144
0.0
144
0.0
144
0.0208333333333333
144
0.0
144
0.0
144
0.0
144
0.0
144
1.0
144
0.0
144
0.0
144
0.0
144
0.0
144
1.0
274
     2
147
0.0208333333333333
147
0.0
147
0.0
147
0.0
147
0.0
147
0.0208333333333333
147
0.0
147
0.0
147
0.0
147
0.0
147
1.0
147
0.0
147
0.0
147
0.0
147
0.0
147
1.0
 94
      127
  0
MLEADERSTYLE
  5
1E9D
102
{ACAD_REACTORS
330
1E9C
102
}
330
1E9C
100
AcDbMLeaderStyle
179
     2
170
     2
171
     1
172
     0
 90
        2
 40
0.0
 41
0.0
173
     1
 91
-1056964608
340
13
 92
       -2
290
     1
 42
0.09
291
     1
 43
0.36
  3
Standard
341
0
 44
0.18
300

342
11
174
     1
178
     6
175
     1
176
     0
 93
-1056964608
 45
0.18
292
     0
297
     0
 46
0.18
343
0
 94
-1056964608
 47
1.0
 49
1.0
140
1.0
293
     1
141
0.0
294
     1
177
     0
142
1.0
295
     1
296
     0
143
0.125
271
     0
272
     9
273
     9
298
     0
  0
MLINESTYLE
  5
17
102
{ACAD_REACTORS
330
16
102
}
330
16
100
AcDbMlineStyle
  2
STANDARD
 70
     0
  3

 62
   256
 51
90.0
 52
90.0
 71
     2
 49
0.5
 62
   256
  6
BYLAYER
 49
-0.5
 62
   256
  6
BYLAYER
  0
ACDBPLACEHOLDER
  5
F
102
{ACAD_REACTORS
330
E
102
}
330
E
  0
SCALE
  5
1E7B
102
{ACAD_REACTORS
330
1E7A
102
}
330
1E7A
100
AcDbScale
 70
     0
300
1:1
140
1.0
141
1.0
290
     1
  0
SCALE
  5
1E7C
102
{ACAD_REACTORS
330
1E7A
102
}
330
1E7A
100
AcDbScale
 70
     0
300
1:2
140
1.0
141
2.0
290
     0
  0
SCALE
  5
1E7D
102
{ACAD_REACTORS
330
1E7A
102
}
330
1E7A
100
AcDbScale
 70
     0
300
1:4
140
1.0
141
4.0
290
     0
  0
SCALE
  5
1E7E
102
{ACAD_REACTORS
330
1E7A
102
}
330
1E7A
100
AcDbScale
 70
     0
300
1:5
140
1.0
141
5.0
290
     0
  0
SCALE
  5
1E7F
102
{ACAD_REACTORS
330
1E7A
102
}
330
1E7A
100
AcDbScale
 70
     0
300
1:8
140
1.0
141
8.0
290
     0
  0
SCALE
  5
1E80
102
{ACAD_REACTORS
330
1E7A
102
}
330
1E7A
100
AcDbScale
 70
     0
300
1:10
140
1.0
141
10.0
290
     0
  0
SCALE
  5
1E81
102
{ACAD_REACTORS
330
1E7A
102
}
330
1E7A
100
AcDbScale
 70
     0
300
1:16
140
1.0
141
16.0
290
     0
  0
SCALE
  5
1E82
102
{ACAD_REACTORS
330
1E7A
102
}
330
1E7A
100
AcDbScale
 70
     0
300
1:20
140
1.0
141
20.0
290
     0
  0
SCALE
  5
1E83
102
{ACAD_REACTORS
330
1E7A
102
}
330
1E7A
100
AcDbScale
 70
     0
300
1:30
140
1.0
141
30.0
290
     0
  0
SCALE
  5
1E84
102
{ACAD_REACTORS
330
1E7A
102
}
330
1E7A
100
AcDbScale
 70
     0
300
1:40
140
1.0
141
40.0
290
     0
  0
SCALE
  5
1E85
102
{ACAD_REACTORS
330
1E7A
102
}
330
1E7A
100
AcDbScale
 70
     0
300
1:50
140
1.0
141
50.0
290
     0
  0
SCALE
  5
1E86
102
{ACAD_REACTORS
330
1E7A
102
}
330
1E7A
100
AcDbScale
 70
     0
300
1:100
140
1.0
141
100.0
290
     0
  0
SCALE
  5
1E87
102
{ACAD_REACTORS
330
1E7A
102
}
330
1E7A
100
AcDbScale
 70
     0
300
2:1
140
2.0
141
1.0
290
     0
  0
SCALE
  5
1E88
102
{ACAD_REACTORS
330
1E7A
102
}
330
1E7A
100
AcDbScale
 70
     0
300
4:1
140
4.0
141
1.0
290
     0
  0
SCALE
  5
1E89
102
{ACAD_REACTORS
330
1E7A
102
}
330
1E7A
100
AcDbScale
 70
     0
300
8:1
140
8.0
141
1.0
290
     0
  0
SCALE
  5
1E8A
102
{ACAD_REACTORS
330
1E7A
102
}
330
1E7A
100
AcDbScale
 70
     0
300
10:1
140
10.0
141
1.0
290
     0
  0
SCALE
  5
1E8B
102
{ACAD_REACTORS
330
1E7A
102
}
330
1E7A
100
AcDbScale
 70
     0
300
100:1
140
100.0
141
1.0
290
     0
  0
SCALE
  5
1E8C
102
{ACAD_REACTORS
330
1E7A
102
}
330
1E7A
100
AcDbScale
 70
     0
300
1/128" = 1'-0"
140
0.0078125
141
12.0
290
     0
  0
SCALE
  5
1E8D
102
{ACAD_REACTORS
330
1E7A
102
}
330
1E7A
100
AcDbScale
 70
     0
300
1/64" = 1'-0"
140
0.015625
141
12.0
290
     0
  0
SCALE
  5
1E8E
102
{ACAD_REACTORS
330
1E7A
102
}
330
1E7A
100
AcDbScale
 70
     0
300
1/32" = 1'-0"
140
0.03125
141
12.0
290
     0
  0
SCALE
  5
1E8F
102
{ACAD_REACTORS
330
1E7A
102
}
330
1E7A
100
AcDbScale
 70
     0
300
1/16" = 1'-0"
140
0.0625
141
12.0
290
     0
  0
SCALE
  5
1E90
102
{ACAD_REACTORS
330
1E7A
102
}
330
1E7A
100
AcDbScale
 70
     0
300
3/32" = 1'-0"
140
0.09375
141
12.0
290
     0
  0
SCALE
  5
1E91
102
{ACAD_REACTORS
330
1E7A
102
}
330
1E7A
100
AcDbScale
 70
     0
300
1/8" = 1'-0"
140
0.125
141
12.0
290
     0
  0
SCALE
  5
1E92
102
{ACAD_REACTORS
330
1E7A
102
}
330
1E7A
100
AcDbScale
 70
     0
300
3/16" = 1'-0"
140
0.1875
141
12.0
290
     0
  0
SCALE
  5
1E93
102
{ACAD_REACTORS
330
1E7A
102
}
330
1E7A
100
AcDbScale
 70
     0
300
1/4" = 1'-0"
140
0.25
141
12.0
290
     0
  0
SCALE
  5
1E94
102
{ACAD_REACTORS
330
1E7A
102
}
330
1E7A
100
AcDbScale
 70
     0
300
3/8" = 1'-0"
140
0.375
141
12.0
290
     0
  0
SCALE
  5
1E95
102
{ACAD_REACTORS
330
1E7A
102
}
330
1E7A
100
AcDbScale
 70
     0
300
1/2" = 1'-0"
140
0.5
141
12.0
290
     0
  0
SCALE
  5
1E96
102
{ACAD_REACTORS
330
1E7A
102
}
330
1E7A
100
AcDbScale
 70
     0
300
3/4" = 1'-0"
140
0.75
141
12.0
290
     0
  0
SCALE
  5
1E97
102
{ACAD_REACTORS
330
1E7A
102
}
330
1E7A
100
AcDbScale
 70
     0
300
1" = 1'-0"
140
1.0
141
12.0
290
     0
  0
SCALE
  5
1E98
102
{ACAD_REACTORS
330
1E7A
102
}
330
1E7A
100
AcDbScale
 70
     0
300
1-1/2" = 1'-0"
140
1.5
141
12.0
290
     0
  0
SCALE
  5
1E99
102
{ACAD_REACTORS
330
1E7A
102
}
330
1E7A
100
AcDbScale
 70
     0
300
3" = 1'-0"
140
3.0
141
12.0
290
     0
  0
SCALE
  5
1E9A
102
{ACAD_REACTORS
330
1E7A
102
}
330
1E7A
100
AcDbScale
 70
     0
300
6" = 1'-0"
140
6.0
141
12.0
290
     0
  0
SCALE
  5
1E9B
102
{ACAD_REACTORS
330
1E7A
102
}
330
1E7A
100
AcDbScale
 70
     0
300
1'-0" = 1'-0"
140
12.0
141
12.0
290
     0
  0
TABLESTYLE
  5
1E79
102
{ACAD_REACTORS
330
1E78
102
}
102
{ACAD_XDICTIONARY
360
1FFA
102
}
330
1E78
100
AcDbTableStyle
  3
Standard
 70
     0
 71
     0
 40
0.06
 41
0.06
280
     0
281
     0
  7
STANDARD
140
0.18
170
     2
 62
     0
 63
   257
283
     0
 90
      512
 91
        0
  1

274
    -2
284
     1
 64
     0
275
    -2
285
     1
 65
     0
276
    -2
286
     1
 66
     0
277
    -2
287
     1
 67
     0
278
    -2
288
     1
 68
     0
279
    -2
289
     1
 69
     0
  7
STANDARD
140
0.25
170
     5
 62
     0
 63
   257
283
     0
 90
      512
 91
        0
  1

274
    -2
284
     1
 64
     0
275
    -2
285
     1
 65
     0
276
    -2
286
     1
 66
     0
277
    -2
287
     1
 67
     0
278
    -2
288
     1
 68
     0
279
    -2
289
     1
 69
     0
  7
STANDARD
140
0.18
170
     5
 62
     0
 63
   257
283
     0
 90
      512
 91
        0
  1

274
    -2
284
     1
 64
     0
275
    -2
285
     1
 65
     0
276
    -2
286
     1
 66
     0
277
    -2
287
     1
 67
     0
278
    -2
288
     1
 68
     0
279
    -2
289
     1
 69
     0
  0
VISUALSTYLE
  5
1E6D
102
{ACAD_REACTORS
330
1E67
102
}
330
1E67
100
AcDbVisualStyle
  2
2dWireframe
 70
     4
177
     3
291
     0
 70
    58
 90
        0
176
     1
 90
        2
176
     1
 90
        0
176
     1
 90
        0
176
     1
 40
-0.6
176
     1
 40
-30.0
176
     1
 62
     7
420
 16777215
176
     1
 90
        1
176
     1
 90
        4
176
     1
 62
     7
176
     1
 62
   257
176
     1
 90
        1
176
     1
 90
        1
176
     1
 40
1.0
176
     1
 90
        0
176
     1
 62
   257
176
     1
 40
1.0
176
     1
 90
        1
176
     1
 90
        6
176
     1
 90
        2
176
     1
 62
     7
176
     1
 90
        5
176
     1
 90
        0
176
     1
 90
        0
176
     1
290
     0
176
     1
 90
        1
176
     1
 40
0.0
176
     1
 90
        0
176
     1
290
     1
176
     1
290
     1
176
     1
290
     0
176
     1
290
     0
176
     1
290
     0
176
     1
290
     0
176
     1
290
     0
176
     1
290
     0
176
     1
290
     0
176
     1
 90
       50
176
     1
 40
0.0
176
     1
 40
1.0
176
     1
 90
        0
176
     1
 62
    18
420
        0
176
     1
 90
       50
176
     1
 90
        3
176
     1
 62
     5
420
      255
176
     1
290
     0
176
     1
 90
       50
176
     1
 90
       50
176
     1
 90
       50
176
     1
290
     0
176
     1
 90
       50
176
     1
 62
   256
176
     0
 40
1.0
176
     0
 90
        2
176
     1
  1
strokes_ogs.tif
176
     1
290
     0
176
     1
 40
1.0
176
     1
 40
1.0
176
     1
  0
VISUALSTYLE
  5
1E6F
102
{ACAD_REACTORS
330
1E67
102
}
330
1E67
100
AcDbVisualStyle
  2
3D Hidden
 70
     6
177
     3
291
     0
 70
    58
 90
        1
176
     1
 90
        2
176
     1
 90
        2
176
     1
 90
        0
176
     1
 40
-0.6
176
     1
 40
-30.0
176
     1
 62
     7
420
 16777215
176
     1
 90
        2
176
     1
 90
        2
176
     1
 62
     7
176
     1
 62
   257
176
     1
 90
        2
176
     1
 90
        1
176
     1
 40
40.0
176
     1
 90
        0
176
     1
 62
   257
176
     1
 40
1.0
176
     1
 90
        1
176
     1
 90
        6
176
     1
 90
        2
176
     1
 62
     7
176
     1
 90
        3
176
     1
 90
        0
176
     1
 90
        0
176
     1
290
     0
176
     1
 90
        1
176
     1
 40
0.0
176
     1
 90
        0
176
     1
290
     0
176
     1
290
     1
176
     1
290
     1
176
     1
290
     0
176
     1
290
     0
176
     1
290
     0
176
     1
290
     0
176
     1
290
     0
176
     1
290
     0
176
     1
 90
       50
176
     1
 40
0.0
176
     1
 40
1.0
176
     1
 90
        0
176
     1
 62
    18
420
        0
176
     1
 90
       50
176
     1
 90
        3
176
     1
 62
     5
420
      255
176
     1
290
     0
176
     1
 90
       50
176
     1
 90
       50
176
     1
 90
       50
176
     1
290
     0
176
     1
 90
       50
176
     1
 62
   256
176
     0
 40
1.0
176
     0
 90
        2
176
     1
  1
strokes_ogs.tif
176
     1
290
     0
176
     1
 40
1.0
176
     1
 40
1.0
176
     1
  0
VISUALSTYLE
  5
1E6E
102
{ACAD_REACTORS
330
1E67
102
}
330
1E67
100
AcDbVisualStyle
  2
3dWireframe
 70
     5
177
     3
291
     0
 70
    58
 90
        0
176
     1
 90
        2
176
     1
 90
        0
176
     1
 90
        0
176
     1
 40
-0.6
176
     1
 40
-30.0
176
     1
 62
     7
420
 16777215
176
     1
 90
        1
176
     1
 90
        4
176
     1
 62
     7
176
     1
 62
   257
176
     1
 90
        1
176
     1
 90
        1
176
     1
 40
1.0
176
     1
 90
        0
176
     1
 62
   257
176
     1
 40
1.0
176
     1
 90
        1
176
     1
 90
        6
176
     1
 90
        2
176
     1
 62
     7
176
     1
 90
        5
176
     1
 90
        0
176
     1
 90
        0
176
     1
290
     0
176
     1
 90
        1
176
     1
 40
0.0
176
     1
 90
        0
176
     1
290
     0
176
     1
290
     1
176
     1
290
     1
176
     1
290
     0
176
     1
290
     0
176
     1
290
     0
176
     1
290
     0
176
     1
290
     0
176
     1
290
     0
176
     1
 90
       50
176
     1
 40
0.0
176
     1
 40
1.0
176
     1
 90
        0
176
     1
 62
    18
420
        0
176
     1
 90
       50
176
     1
 90
        3
176
     1
 62
     5
420
      255
176
     1
290
     0
176
     1
 90
       50
176
     1
 90
       50
176
     1
 90
       50
176
     1
290
     0
176
     1
 90
       50
176
     1
 62
   256
176
     0
 40
1.0
176
     0
 90
        2
176
     1
  1
strokes_ogs.tif
176
     1
290
     0
176
     1
 40
1.0
176
     1
 40
1.0
176
     1
  0
VISUALSTYLE
  5
1E6C
102
{ACAD_REACTORS
330
1E67
102
}
330
1E67
100
AcDbVisualStyle
  2
Basic
 70
     7
177
     3
291
     1
 70
    58
 90
        1
176
     1
 90
        0
176
     1
 90
        1
176
     1
 90
        0
176
     1
 40
-0.6
176
     1
 40
-30.0
176
     1
 62
     7
420
 16777215
176
     1
 90
        0
176
     1
 90
        4
176
     1
 62
     7
176
     1
 62
   257
176
     1
 90
        1
176
     1
 90
        1
176
     1
 40
1.0
176
     1
 90
        8
176
     1
 62
     7
176
     1
 40
1.0
176
     1
 90
        1
176
     1
 90
        6
176
     1
 90
        2
176
     1
 62
     7
176
     1
 90
        5
176
     1
 90
        0
176
     1
 90
        0
176
     1
290
     0
176
     1
 90
        1
176
     1
 40
0.0
176
     1
 90
        0
176
     1
290
     0
176
     1
290
     1
176
     1
290
     1
176
     1
290
     0
176
     1
290
     0
176
     1
290
     0
176
     1
290
     0
176
     1
290
     0
176
     1
290
     0
176
     1
 90
       50
176
     1
 40
0.0
176
     1
 40
1.0
176
     1
 90
        0
176
     1
 62
    18
420
        0
176
     1
 90
       50
176
     1
 90
        3
176
     1
 62
     5
420
      255
176
     1
290
     0
176
     1
 90
       50
176
     1
 90
       50
176
     1
 90
       50
176
     1
290
     0
176
     1
 90
       50
176
     1
 62
   256
176
     0
 40
1.0
176
     0
 90
        2
176
     1
  1
strokes_ogs.tif
176
     1
290
     0
176
     1
 40
1.0
176
     1
 40
1.0
176
     1
  0
VISUALSTYLE
  5
1E73
102
{ACAD_REACTORS
330
1E67
102
}
330
1E67
100
AcDbVisualStyle
  2
Brighten
 70
    12
177
     3
291
     1
 70
    58
 90
        2
176
     1
 90
        2
176
     1
 90
        0
176
     1
 90
        0
176
     1
 40
-0.6
176
     1
 40
-30.0
176
     1
 62
     7
420
 16777215
176
     1
 90
        1
176
     1
 90
        4
176
     1
 62
     7
176
     1
 62
   257
176
     1
 90
        1
176
     1
 90
        1
176
     1
 40
1.0
176
     1
 90
        8
176
     1
 62
     7
176
     1
 40
1.0
176
     1
 90
        1
176
     1
 90
        6
176
     1
 90
        2
176
     1
 62
     7
176
     1
 90
        5
176
     1
 90
        0
176
     1
 90
        0
176
     1
290
     0
176
     1
 90
        1
176
     1
 40
50.0
176
     1
 90
        0
176
     1
290
     0
176
     1
290
     1
176
     1
290
     1
176
     1
290
     0
176
     1
290
     0
176
     1
290
     0
176
     1
290
     0
176
     1
290
     0
176
     1
290
     0
176
     1
 90
       50
176
     1
 40
0.0
176
     1
 40
1.0
176
     1
 90
        0
176
     1
 62
    18
420
        0
176
     1
 90
       50
176
     1
 90
        3
176
     1
 62
     5
420
      255
176
     1
290
     0
176
     1
 90
       50
176
     1
 90
       50
176
     1
 90
       50
176
     1
290
     0
176
     1
 90
       50
176
     1
 62
   256
176
     0
 40
1.0
176
     0
 90
        2
176
     1
  1
strokes_ogs.tif
176
     1
290
     0
176
     1
 40
1.0
176
     1
 40
1.0
176
     1
  0
VISUALSTYLE
  5
1E77
102
{ACAD_REACTORS
330
1E67
102
}
330
1E67
100
AcDbVisualStyle
  2
ColorChange
 70
    16
177
     3
291
     1
 70
    58
 90
        2
176
     1
 90
        2
176
     1
 90
        3
176
     1
 90
        0
176
     1
 40
-0.6
176
     1
 40
-30.0
176
     1
 62
     8
420
  8421504
176
     1
 90
        1
176
     1
 90
        4
176
     1
 62
     7
176
     1
 62
   257
176
     1
 90
        1
176
     1
 90
        1
176
     1
 40
1.0
176
     1
 90
        8
176
     1
 62
     8
420
  8421504
176
     1
 40
1.0
176
     1
 90
        1
176
     1
 90
        6
176
     1
 90
        2
176
     1
 62
     7
176
     1
 90
        5
176
     1
 90
        0
176
     1
 90
        0
176
     1
290
     0
176
     1
 90
        1
176
     1
 40
0.0
176
     1
 90
        0
176
     1
290
     0
176
     1
290
     1
176
     1
290
     1
176
     1
290
     0
176
     1
290
     0
176
     1
290
     0
176
     1
290
     0
176
     1
290
     0
176
     1
290
     0
176
     1
 90
       50
176
     1
 40
0.0
176
     1
 40
1.0
176
     1
 90
        0
176
     1
 62
    18
420
        0
176
     1
 90
       50
176
     1
 90
        3
176
     1
 62
     5
420
      255
176
     1
290
     0
176
     1
 90
       50
176
     1
 90
       50
176
     1
 90
       50
176
     1
290
     0
176
     1
 90
       50
176
     1
 62
   256
176
     0
 40
1.0
176
     0
 90
        2
176
     1
  1
strokes_ogs.tif
176
     1
290
     0
176
     1
 40
1.0
176
     1
 40
1.0
176
     1
  0
VISUALSTYLE
  5
1E70
102
{ACAD_REACTORS
330
1E67
102
}
330
1E67
100
AcDbVisualStyle
  2
Conceptual
 70
     9
177
     3
291
     0
 70
    58
 90
        3
176
     1
 90
        2
176
     1
 90
        0
176
     1
 90
        0
176
     1
 40
-0.6
176
     1
 40
-30.0
176
     1
 62
     7
420
 16777215
176
     1
 90
        2
176
     1
 90
        2
176
     1
 62
     7
176
     1
 62
   257
176
     1
 90
        1
176
     1
 90
        1
176
     1
 40
40.0
176
     1
 90
        8
176
     1
 62
     7
176
     1
 40
1.0
176
     1
 90
        1
176
     1
 90
        6
176
     1
 90
        2
176
     1
 62
     7
176
     1
 90
        3
176
     1
 90
        0
176
     1
 90
        0
176
     1
290
     0
176
     1
 90
        1
176
     1
 40
0.0
176
     1
 90
        0
176
     1
290
     0
176
     1
290
     1
176
     1
290
     1
176
     1
290
     0
176
     1
290
     0
176
     1
290
     0
176
     1
290
     0
176
     1
290
     0
176
     1
290
     0
176
     1
 90
       50
176
     1
 40
0.0
176
     1
 40
1.0
176
     1
 90
        0
176
     1
 62
    18
420
        0
176
     1
 90
       50
176
     1
 90
        3
176
     1
 62
     5
420
      255
176
     1
290
     0
176
     1
 90
       50
176
     1
 90
       50
176
     1
 90
       50
176
     1
290
     0
176
     1
 90
       50
176
     1
 62
   256
176
     0
 40
1.0
176
     0
 90
        2
176
     1
  1
strokes_ogs.tif
176
     1
290
     0
176
     1
 40
1.0
176
     1
 40
1.0
176
     1
  0
VISUALSTYLE
  5
1E72
102
{ACAD_REACTORS
330
1E67
102
}
330
1E67
100
AcDbVisualStyle
  2
Dim
 70
    11
177
     3
291
     1
 70
    58
 90
        2
176
     1
 90
        2
176
     1
 90
        0
176
     1
 90
        0
176
     1
 40
-0.6
176
     1
 40
-30.0
176
     1
 62
     7
420
 16777215
176
     1
 90
        1
176
     1
 90
        4
176
     1
 62
     7
176
     1
 62
   257
176
     1
 90
        1
176
     1
 90
        1
176
     1
 40
1.0
176
     1
 90
        8
176
     1
 62
     7
176
     1
 40
1.0
176
     1
 90
        1
176
     1
 90
        6
176
     1
 90
        2
176
     1
 62
     7
176
     1
 90
        5
176
     1
 90
        0
176
     1
 90
        0
176
     1
290
     0
176
     1
 90
        1
176
     1
 40
-50.0
176
     1
 90
        0
176
     1
290
     0
176
     1
290
     1
176
     1
290
     1
176
     1
290
     0
176
     1
290
     0
176
     1
290
     0
176
     1
290
     0
176
     1
290
     0
176
     1
290
     0
176
     1
 90
       50
176
     1
 40
0.0
176
     1
 40
1.0
176
     1
 90
        0
176
     1
 62
    18
420
        0
176
     1
 90
       50
176
     1
 90
        3
176
     1
 62
     5
420
      255
176
     1
290
     0
176
     1
 90
       50
176
     1
 90
       50
176
     1
 90
       50
176
     1
290
     0
176
     1
 90
       50
176
     1
 62
   256
176
     0
 40
1.0
176
     0
 90
        2
176
     1
  1
strokes_ogs.tif
176
     1
290
     0
176
     1
 40
1.0
176
     1
 40
1.0
176
     1
  0
VISUALSTYLE
  5
1FE1
102
{ACAD_REACTORS
330
1E67
102
}
330
1E67
100
AcDbVisualStyle
  2
EdgeColorOff
 70
    22
177
     3
291
     1
 70
    58
 90
        2
176
     0
 90
        2
176
     0
 90
        0
176
     0
 90
        0
176
     0
 40
0.6
176
     0
 40
30.0
176
     0
 62
     7
420
 16777215
176
     0
 90
        1
176
     0
 90
        4
176
     0
 62
     7
176
     0
 62
   257
176
     0
 90
        1
176
     0
 90
        1
176
     0
 40
1.0
176
     0
 90
        8
176
     2
 62
     7
176
     0
 40
1.0
176
     0
 90
        1
176
     0
 90
        6
176
     0
 90
        2
176
     0
 62
     7
176
     0
 90
        5
176
     0
 90
        0
176
     0
 90
        0
176
     0
290
     0
176
     0
 90
        1
176
     0
 40
0.0
176
     0
 90
        0
176
     0
290
     0
176
     0
290
     1
176
     0
290
     1
176
     0
290
     0
176
     0
290
     0
176
     0
290
     0
176
     0
290
     0
176
     0
290
     0
176
     0
290
     0
176
     0
 90
       50
176
     0
 40
0.0
176
     0
 40
1.0
176
     0
 90
        0
176
     0
 62
    18
420
        0
176
     0
 90
       50
176
     0
 90
        3
176
     0
 62
     5
420
      255
176
     0
290
     0
176
     0
 90
       50
176
     0
 90
       50
176
     0
 90
       50
176
     0
290
     0
176
     0
 90
       50
176
     0
 62
   256
176
     0
 40
1.0
176
     0
 90
        2
176
     0
  1
strokes_ogs.tif
176
     0
290
     0
176
     0
 40
1.0
176
     0
 40
1.0
176
     0
  0
VISUALSTYLE
  5
1E76
102
{ACAD_REACTORS
330
1E67
102
}
330
1E67
100
AcDbVisualStyle
  2
Facepattern
 70
    15
177
     3
291
     1
 70
    58
 90
        2
176
     1
 90
        2
176
     1
 90
        0
176
     1
 90
        0
176
     1
 40
-0.6
176
     1
 40
-30.0
176
     1
 62
     7
420
 16777215
176
     1
 90
        1
176
     1
 90
        4
176
     1
 62
     7
176
     1
 62
   257
176
     1
 90
        1
176
     1
 90
        1
176
     1
 40
1.0
176
     1
 90
        8
176
     1
 62
     7
176
     1
 40
1.0
176
     1
 90
        1
176
     1
 90
        6
176
     1
 90
        2
176
     1
 62
     7
176
     1
 90
        5
176
     1
 90
        0
176
     1
 90
        0
176
     1
290
     0
176
     1
 90
        1
176
     1
 40
0.0
176
     1
 90
        0
176
     1
290
     0
176
     1
290
     1
176
     1
290
     1
176
     1
290
     0
176
     1
290
     0
176
     1
290
     0
176
     1
290
     0
176
     1
290
     0
176
     1
290
     0
176
     1
 90
       50
176
     1
 40
0.0
176
     1
 40
1.0
176
     1
 90
        0
176
     1
 62
    18
420
        0
176
     1
 90
       50
176
     1
 90
        3
176
     1
 62
     5
420
      255
176
     1
290
     0
176
     1
 90
       50
176
     1
 90
       50
176
     1
 90
       50
176
     1
290
     0
176
     1
 90
       50
176
     1
 62
   256
176
     0
 40
1.0
176
     0
 90
        2
176
     1
  1
strokes_ogs.tif
176
     1
290
     0
176
     1
 40
1.0
176
     1
 40
1.0
176
     1
  0
VISUALSTYLE
  5
1E68
102
{ACAD_REACTORS
330
1E67
102
}
330
1E67
100
AcDbVisualStyle
  2
Flat
 70
     0
177
     3
291
     1
 70
    58
 90
        2
176
     1
 90
        1
176
     1
 90
        1
176
     1
 90
        2
176
     1
 40
-0.6
176
     1
 40
30.0
176
     1
 62
     7
420
 16777215
176
     1
 90
        0
176
     1
 90
        4
176
     1
 62
     7
176
     1
 62
   257
176
     1
 90
        1
176
     1
 90
        1
176
     1
 40
1.0
176
     1
 90
        8
176
     1
 62
     7
176
     1
 40
1.0
176
     1
 90
        1
176
     1
 90
        6
176
     1
 90
        2
176
     1
 62
     7
176
     1
 90
        5
176
     1
 90
        0
176
     1
 90
        0
176
     1
290
     0
176
     1
 90
       13
176
     1
 40
0.0
176
     1
 90
        0
176
     1
290
     0
176
     1
290
     1
176
     1
290
     1
176
     1
290
     0
176
     1
290
     0
176
     1
290
     0
176
     1
290
     0
176
     1
290
     0
176
     1
290
     0
176
     1
 90
       50
176
     1
 40
0.0
176
     1
 40
1.0
176
     1
 90
        0
176
     1
 62
    18
420
        0
176
     1
 90
       50
176
     1
 90
        3
176
     1
 62
     5
420
      255
176
     1
290
     0
176
     1
 90
       50
176
     1
 90
       50
176
     1
 90
       50
176
     1
290
     0
176
     1
 90
       50
176
     1
 62
   256
176
     0
 40
1.0
176
     0
 90
        2
176
     1
  1
strokes_ogs.tif
176
     1
290
     0
176
     1
 40
1.0
176
     1
 40
1.0
176
     1
  0
VISUALSTYLE
  5
1E69
102
{ACAD_REACTORS
330
1E67
102
}
330
1E67
100
AcDbVisualStyle
  2
FlatWithEdges
 70
     1
177
     3
291
     1
 70
    58
 90
        2
176
     1
 90
        1
176
     1
 90
        1
176
     1
 90
        2
176
     1
 40
-0.6
176
     1
 40
30.0
176
     1
 62
     7
420
 16777215
176
     1
 90
        1
176
     1
 90
        4
176
     1
 62
     7
176
     1
 62
   257
176
     1
 90
        1
176
     1
 90
        1
176
     1
 40
1.0
176
     1
 90
        0
176
     1
 62
   257
176
     1
 40
1.0
176
     1
 90
        1
176
     1
 90
        6
176
     1
 90
        2
176
     1
 62
     7
176
     1
 90
        5
176
     1
 90
        0
176
     1
 90
        0
176
     1
290
     0
176
     1
 90
       13
176
     1
 40
0.0
176
     1
 90
        0
176
     1
290
     0
176
     1
290
     1
176
     1
290
     1
176
     1
290
     0
176
     1
290
     0
176
     1
290
     0
176
     1
290
     0
176
     1
290
     0
176
     1
290
     0
176
     1
 90
       50
176
     1
 40
0.0
176
     1
 40
1.0
176
     1
 90
        0
176
     1
 62
    18
420
        0
176
     1
 90
       50
176
     1
 90
        3
176
     1
 62
     5
420
      255
176
     1
290
     0
176
     1
 90
       50
176
     1
 90
       50
176
     1
 90
       50
176
     1
290
     0
176
     1
 90
       50
176
     1
 62
   256
176
     0
 40
1.0
176
     0
 90
        2
176
     1
  1
strokes_ogs.tif
176
     1
290
     0
176
     1
 40
1.0
176
     1
 40
1.0
176
     1
  0
VISUALSTYLE
  5
1E6A
102
{ACAD_REACTORS
330
1E67
102
}
330
1E67
100
AcDbVisualStyle
  2
Gouraud
 70
     2
177
     3
291
     1
 70
    58
 90
        2
176
     1
 90
        2
176
     1
 90
        1
176
     1
 90
        2
176
     1
 40
-0.6
176
     1
 40
30.0
176
     1
 62
     7
420
 16777215
176
     1
 90
        0
176
     1
 90
        4
176
     1
 62
     7
176
     1
 62
   257
176
     1
 90
        1
176
     1
 90
        1
176
     1
 40
1.0
176
     1
 90
        0
176
     1
 62
     7
176
     1
 40
1.0
176
     1
 90
        1
176
     1
 90
        6
176
     1
 90
        2
176
     1
 62
     7
176
     1
 90
        5
176
     1
 90
        0
176
     1
 90
        0
176
     1
290
     0
176
     1
 90
       13
176
     1
 40
0.0
176
     1
 90
        0
176
     1
290
     0
176
     1
290
     1
176
     1
290
     1
176
     1
290
     0
176
     1
290
     0
176
     1
290
     0
176
     1
290
     0
176
     1
290
     0
176
     1
290
     0
176
     1
 90
       50
176
     1
 40
0.0
176
     1
 40
1.0
176
     1
 90
        0
176
     1
 62
    18
420
        0
176
     1
 90
       50
176
     1
 90
        3
176
     1
 62
     5
420
      255
176
     1
290
     0
176
     1
 90
       50
176
     1
 90
       50
176
     1
 90
       50
176
     1
290
     0
176
     1
 90
       50
176
     1
 62
   256
176
     0
 40
1.0
176
     0
 90
        2
176
     1
  1
strokes_ogs.tif
176
     1
290
     0
176
     1
 40
1.0
176
     1
 40
1.0
176
     1
  0
VISUALSTYLE
  5
1E6B
102
{ACAD_REACTORS
330
1E67
102
}
330
1E67
100
AcDbVisualStyle
  2
GouraudWithEdges
 70
     3
177
     3
291
     1
 70
    58
 90
        2
176
     1
 90
        2
176
     1
 90
        1
176
     1
 90
        2
176
     1
 40
-0.6
176
     1
 40
30.0
176
     1
 62
     7
420
 16777215
176
     1
 90
        1
176
     1
 90
        4
176
     1
 62
     7
176
     1
 62
   257
176
     1
 90
        1
176
     1
 90
        1
176
     1
 40
1.0
176
     1
 90
        0
176
     1
 62
   257
176
     1
 40
1.0
176
     1
 90
        1
176
     1
 90
        6
176
     1
 90
        2
176
     1
 62
     7
176
     1
 90
        5
176
     1
 90
        0
176
     1
 90
        0
176
     1
290
     0
176
     1
 90
       13
176
     1
 40
0.0
176
     1
 90
        0
176
     1
290
     0
176
     1
290
     1
176
     1
290
     1
176
     1
290
     0
176
     1
290
     0
176
     1
290
     0
176
     1
290
     0
176
     1
290
     0
176
     1
290
     0
176
     1
 90
       50
176
     1
 40
0.0
176
     1
 40
1.0
176
     1
 90
        0
176
     1
 62
    18
420
        0
176
     1
 90
       50
176
     1
 90
        3
176
     1
 62
     5
420
      255
176
     1
290
     0
176
     1
 90
       50
176
     1
 90
       50
176
     1
 90
       50
176
     1
290
     0
176
     1
 90
       50
176
     1
 62
   256
176
     0
 40
1.0
176
     0
 90
        2
176
     1
  1
strokes_ogs.tif
176
     1
290
     0
176
     1
 40
1.0
176
     1
 40
1.0
176
     1
  0
VISUALSTYLE
  5
1FDE
102
{ACAD_REACTORS
330
1E67
102
}
330
1E67
100
AcDbVisualStyle
  2
Hidden
 70
     6
177
     3
291
     0
 70
    58
 90
        1
176
     1
 90
        2
176
     1
 90
        2
176
     1
 90
        0
176
     1
 40
0.6
176
     1
 40
30.0
176
     1
 62
     7
420
 16777215
176
     1
 90
        2
176
     1
 90
        2
176
     1
 62
     7
176
     1
 62
   257
176
     1
 90
        2
176
     1
 90
        1
176
     1
 40
40.0
176
     1
 90
        0
176
     1
 62
   257
176
     1
 40
1.0
176
     1
 90
        1
176
     1
 90
        6
176
     1
 90
        2
176
     1
 62
     7
176
     1
 90
        3
176
     1
 90
        0
176
     1
 90
        0
176
     1
290
     0
176
     1
 90
        1
176
     1
 40
0.0
176
     1
 90
        0
176
     1
290
     0
176
     1
290
     1
176
     1
290
     1
176
     1
290
     0
176
     1
290
     0
176
     1
290
     0
176
     1
290
     0
176
     1
290
     0
176
     1
290
     0
176
     1
 90
       50
176
     1
 40
0.0
176
     1
 40
1.0
176
     1
 90
        0
176
     1
 62
    18
420
        0
176
     1
 90
       50
176
     1
 90
        3
176
     1
 62
     5
420
      255
176
     1
290
     0
176
     1
 90
       50
176
     1
 90
       50
176
     1
 90
       50
176
     1
290
     0
176
     1
 90
       50
176
     1
 62
   256
176
     0
 40
1.0
176
     0
 90
        2
176
     1
  1
strokes_ogs.tif
176
     1
290
     0
176
     1
 40
1.0
176
     1
 40
1.0
176
     1
  0
VISUALSTYLE
  5
1FDF
102
{ACAD_REACTORS
330
1E67
102
}
330
1E67
100
AcDbVisualStyle
  2
JitterOff
 70
    20
177
     3
291
     1
 70
    58
 90
        2
176
     0
 90
        2
176
     0
 90
        0
176
     0
 90
        0
176
     0
 40
0.6
176
     0
 40
30.0
176
     0
 62
     7
420
 16777215
176
     0
 90
        1
176
     0
 90
        4
176
     0
 62
     7
176
     0
 62
   257
176
     0
 90
        1
176
     0
 90
        1
176
     0
 40
1.0
176
     0
 90
       10
176
     2
 62
     7
176
     0
 40
1.0
176
     0
 90
        1
176
     0
 90
        6
176
     0
 90
        2
176
     0
 62
     7
176
     0
 90
        5
176
     0
 90
        0
176
     0
 90
        0
176
     0
290
     0
176
     0
 90
        1
176
     0
 40
0.0
176
     0
 90
        0
176
     0
290
     0
176
     0
290
     1
176
     0
290
     1
176
     0
290
     0
176
     0
290
     0
176
     0
290
     0
176
     0
290
     0
176
     0
290
     0
176
     0
290
     0
176
     0
 90
       50
176
     0
 40
0.0
176
     0
 40
1.0
176
     0
 90
        0
176
     0
 62
    18
420
        0
176
     0
 90
       50
176
     0
 90
        3
176
     0
 62
     5
420
      255
176
     0
290
     0
176
     0
 90
       50
176
     0
 90
       50
176
     0
 90
       50
176
     0
290
     0
176
     0
 90
       50
176
     0
 62
   256
176
     0
 40
1.0
176
     0
 90
        2
176
     0
  1
strokes_ogs.tif
176
     0
290
     0
176
     0
 40
1.0
176
     0
 40
1.0
176
     0
  0
VISUALSTYLE
  5
1E75
102
{ACAD_REACTORS
330
1E67
102
}
330
1E67
100
AcDbVisualStyle
  2
Linepattern
 70
    14
177
     3
291
     1
 70
    58
 90
        2
176
     1
 90
        2
176
     1
 90
        0
176
     1
 90
        0
176
     1
 40
-0.6
176
     1
 40
-30.0
176
     1
 62
     7
420
 16777215
176
     1
 90
        1
176
     1
 90
        4
176
     1
 62
     7
176
     1
 62
   257
176
     1
 90
        7
176
     1
 90
        7
176
     1
 40
1.0
176
     1
 90
        8
176
     1
 62
     7
176
     1
 40
1.0
176
     1
 90
        1
176
     1
 90
        6
176
     1
 90
        2
176
     1
 62
     7
176
     1
 90
        5
176
     1
 90
        0
176
     1
 90
        0
176
     1
290
     0
176
     1
 90
        1
176
     1
 40
0.0
176
     1
 90
        0
176
     1
290
     0
176
     1
290
     1
176
     1
290
     1
176
     1
290
     0
176
     1
290
     0
176
     1
290
     0
176
     1
290
     0
176
     1
290
     0
176
     1
290
     0
176
     1
 90
       50
176
     1
 40
0.0
176
     1
 40
1.0
176
     1
 90
        0
176
     1
 62
    18
420
        0
176
     1
 90
       50
176
     1
 90
        3
176
     1
 62
     5
420
      255
176
     1
290
     0
176
     1
 90
       50
176
     1
 90
       50
176
     1
 90
       50
176
     1
290
     0
176
     1
 90
       50
176
     1
 62
   256
176
     0
 40
1.0
176
     0
 90
        2
176
     1
  1
strokes_ogs.tif
176
     1
290
     0
176
     1
 40
1.0
176
     1
 40
1.0
176
     1
  0
VISUALSTYLE
  5
1FE0
102
{ACAD_REACTORS
330
1E67
102
}
330
1E67
100
AcDbVisualStyle
  2
OverhangOff
 70
    21
177
     3
291
     1
 70
    58
 90
        2
176
     0
 90
        2
176
     0
 90
        0
176
     0
 90
        0
176
     0
 40
0.6
176
     0
 40
30.0
176
     0
 62
     7
420
 16777215
176
     0
 90
        1
176
     0
 90
        4
176
     0
 62
     7
176
     0
 62
   257
176
     0
 90
        1
176
     0
 90
        1
176
     0
 40
1.0
176
     0
 90
        9
176
     2
 62
     7
176
     0
 40
1.0
176
     0
 90
        1
176
     0
 90
        6
176
     0
 90
        2
176
     0
 62
     7
176
     0
 90
        5
176
     0
 90
        0
176
     0
 90
        0
176
     0
290
     0
176
     0
 90
        1
176
     0
 40
0.0
176
     0
 90
        0
176
     0
290
     0
176
     0
290
     1
176
     0
290
     1
176
     0
290
     0
176
     0
290
     0
176
     0
290
     0
176
     0
290
     0
176
     0
290
     0
176
     0
290
     0
176
     0
 90
       50
176
     0
 40
0.0
176
     0
 40
1.0
176
     0
 90
        0
176
     0
 62
    18
420
        0
176
     0
 90
       50
176
     0
 90
        3
176
     0
 62
     5
420
      255
176
     0
290
     0
176
     0
 90
       50
176
     0
 90
       50
176
     0
 90
       50
176
     0
290
     0
176
     0
 90
       50
176
     0
 62
   256
176
     0
 40
1.0
176
     0
 90
        2
176
     0
  1
strokes_ogs.tif
176
     0
290
     0
176
     0
 40
1.0
176
     0
 40
1.0
176
     0
  0
VISUALSTYLE
  5
1E71
102
{ACAD_REACTORS
330
1E67
102
}
330
1E67
100
AcDbVisualStyle
  2
Realistic
 70
     8
177
     3
291
     0
 70
    58
 90
        2
176
     1
 90
        2
176
     1
 90
        0
176
     1
 90
        0
176
     1
 40
-0.6
176
     1
 40
-30.0
176
     1
 62
     7
420
 16777215
176
     1
 90
        1
176
     1
 90
        0
176
     1
 62
     7
176
     1
 62
   257
176
     1
 90
        1
176
     1
 90
        1
176
     1
 40
1.0
176
     1
 90
        8
176
     1
 62
     8
420
  7895160
176
     1
 40
1.0
176
     1
 90
        1
176
     1
 90
        6
176
     1
 90
        2
176
     1
 62
     7
176
     1
 90
        5
176
     1
 90
        0
176
     1
 90
        0
176
     1
290
     0
176
     1
 90
       13
176
     1
 40
0.0
176
     1
 90
        0
176
     1
290
     0
176
     1
290
     1
176
     1
290
     1
176
     1
290
     0
176
     1
290
     0
176
     1
290
     0
176
     1
290
     0
176
     1
290
     0
176
     1
290
     0
176
     1
 90
       50
176
     1
 40
0.0
176
     1
 40
1.0
176
     1
 90
        0
176
     1
 62
    18
420
        0
176
     1
 90
       50
176
     1
 90
        3
176
     1
 62
     5
420
      255
176
     1
290
     0
176
     1
 90
       50
176
     1
 90
       50
176
     1
 90
       50
176
     1
290
     0
176
     1
 90
       50
176
     1
 62
   256
176
     0
 40
1.0
176
     0
 90
        2
176
     1
  1
strokes_ogs.tif
176
     1
290
     0
176
     1
 40
1.0
176
     1
 40
1.0
176
     1
  0
VISUALSTYLE
  5
1FE6
102
{ACAD_REACTORS
330
1E67
102
}
330
1E67
100
AcDbVisualStyle
  2
Shaded
 70
    27
177
     3
291
     0
 70
    58
 90
        2
176
     1
 90
        2
176
     1
 90
        1
176
     1
 90
        2
176
     1
 40
0.6
176
     1
 40
30.0
176
     1
 62
     7
420
 16777215
176
     1
 90
        0
176
     1
 90
        4
176
     1
 62
     7
176
     1
 62
   257
176
     1
 90
        1
176
     1
 90
        1
176
     1
 40
1.0
176
     1
 90
        8
176
     1
 62
   257
176
     1
 40
1.0
176
     1
 90
        1
176
     1
 90
        6
176
     1
 90
        2
176
     1
 62
     8
420
  7895160
176
     1
 90
        3
176
     1
 90
        0
176
     1
 90
        0
176
     1
290
     0
176
     1
 90
        5
176
     1
 40
0.0
176
     1
 90
        0
176
     1
290
     0
176
     1
290
     1
176
     1
290
     1
176
     1
290
     0
176
     1
290
     0
176
     1
290
     0
176
     1
290
     0
176
     1
290
     0
176
     1
290
     0
176
     1
 90
       50
176
     1
 40
0.0
176
     1
 40
1.0
176
     1
 90
        0
176
     1
 62
    18
420
        0
176
     1
 90
       50
176
     1
 90
        3
176
     1
 62
     5
420
      255
176
     1
290
     0
176
     1
 90
       50
176
     1
 90
       50
176
     1
 90
       50
176
     1
290
     0
176
     1
 90
       50
176
     1
 62
   256
176
     0
 40
1.0
176
     0
 90
        2
176
     1
  1
strokes_ogs.tif
176
     1
290
     0
176
     1
 40
1.0
176
     1
 40
1.0
176
     1
  0
VISUALSTYLE
  5
1FE5
102
{ACAD_REACTORS
330
1E67
102
}
330
1E67
100
AcDbVisualStyle
  2
Shaded with edges
 70
    26
177
     3
291
     0
 70
    58
 90
        2
176
     1
 90
        2
176
     1
 90
        1
176
     1
 90
        2
176
     1
 40
0.6
176
     1
 40
30.0
176
     1
 62
     7
420
 16777215
176
     1
 90
        1
176
     1
 90
       10
176
     1
 62
     7
176
     1
 62
   257
176
     1
 90
        2
176
     1
 90
        1
176
     1
 40
1.0
176
     1
 90
        8
176
     1
 62
   257
176
     1
 40
1.0
176
     1
 90
        1
176
     1
 90
        6
176
     1
 90
        2
176
     1
 62
     7
176
     1
 90
        3
176
     1
 90
        0
176
     1
 90
        0
176
     1
290
     0
176
     1
 90
        5
176
     1
 40
0.0
176
     1
 90
        0
176
     1
290
     0
176
     1
290
     1
176
     1
290
     1
176
     1
290
     0
176
     1
290
     0
176
     1
290
     0
176
     1
290
     0
176
     1
290
     0
176
     1
290
     0
176
     1
 90
       50
176
     1
 40
0.0
176
     1
 40
1.0
176
     1
 90
        0
176
     1
 62
    18
420
        0
176
     1
 90
       50
176
     1
 90
        3
176
     1
 62
     5
420
      255
176
     1
290
     0
176
     1
 90
       50
176
     1
 90
       50
176
     1
 90
       50
176
     1
290
     0
176
     1
 90
       50
176
     1
 62
   256
176
     0
 40
1.0
176
     0
 90
        2
176
     1
  1
strokes_ogs.tif
176
     1
290
     0
176
     1
 40
1.0
176
     1
 40
1.0
176
     1
  0
VISUALSTYLE
  5
1FE2
102
{ACAD_REACTORS
330
1E67
102
}
330
1E67
100
AcDbVisualStyle
  2
Shades of Gray
 70
    23
177
     3
291
     0
 70
    58
 90
        2
176
     1
 90
        2
176
     1
 90
        3
176
     1
 90
        0
176
     1
 40
0.6
176
     1
 40
30.0
176
     1
 62
     7
420
 16777215
176
     1
 90
        2
176
     1
 90
        2
176
     1
 62
     7
176
     1
 62
     7
176
     1
 90
        1
176
     1
 90
        1
176
     1
 40
40.0
176
     1
 90
        8
176
     1
 62
     7
176
     1
 40
1.0
176
     1
 90
        1
176
     1
 90
        6
176
     1
 90
        2
176
     1
 62
     7
176
     1
 90
        3
176
     1
 90
        0
176
     1
 90
        0
176
     1
290
     0
176
     1
 90
        1
176
     1
 40
0.0
176
     1
 90
        0
176
     1
290
     0
176
     1
290
     1
176
     1
290
     1
176
     1
290
     0
176
     1
290
     0
176
     1
290
     0
176
     1
290
     0
176
     1
290
     0
176
     1
290
     0
176
     1
 90
       50
176
     1
 40
0.0
176
     1
 40
1.0
176
     1
 90
        0
176
     1
 62
    18
420
        0
176
     1
 90
       50
176
     1
 90
        3
176
     1
 62
     5
420
      255
176
     1
290
     0
176
     1
 90
       50
176
     1
 90
       50
176
     1
 90
       50
176
     1
290
     0
176
     1
 90
       50
176
     1
 62
   256
176
     0
 40
1.0
176
     0
 90
        2
176
     1
  1
strokes_ogs.tif
176
     1
290
     0
176
     1
 40
1.0
176
     1
 40
1.0
176
     1
  0
VISUALSTYLE
  5
1FE3
102
{ACAD_REACTORS
330
1E67
102
}
330
1E67
100
AcDbVisualStyle
  2
Sketchy
 70
    24
177
     3
291
     0
 70
    58
 90
        1
176
     1
 90
        2
176
     1
 90
        2
176
     1
 90
        0
176
     1
 40
0.6
176
     1
 40
30.0
176
     1
 62
     7
420
 16777215
176
     1
 90
        2
176
     1
 90
        2
176
     1
 62
     7
176
     1
 62
     7
176
     1
 90
        1
176
     1
 90
        1
176
     1
 40
40.0
176
     1
 90
       11
176
     1
 62
     7
176
     1
 40
1.0
176
     1
 90
        1
176
     1
 90
        6
176
     1
 90
        2
176
     1
 62
     7
176
     1
 90
        6
176
     1
 90
        0
176
     1
 90
        0
176
     1
290
     0
176
     1
 90
        1
176
     1
 40
0.0
176
     1
 90
        0
176
     1
290
     0
176
     1
290
     1
176
     1
290
     1
176
     1
290
     0
176
     1
290
     0
176
     1
290
     0
176
     1
290
     0
176
     1
290
     0
176
     1
290
     0
176
     1
 90
       50
176
     1
 40
0.0
176
     1
 40
1.0
176
     1
 90
        0
176
     1
 62
    18
420
        0
176
     1
 90
       50
176
     1
 90
        3
176
     1
 62
     5
420
      255
176
     1
290
     0
176
     1
 90
       50
176
     1
 90
       50
176
     1
 90
       50
176
     1
290
     0
176
     1
 90
       50
176
     1
 62
   256
176
     0
 40
1.0
176
     0
 90
        2
176
     1
  1
strokes_ogs.tif
176
     1
290
     0
176
     1
 40
1.0
176
     1
 40
1.0
176
     1
  0
VISUALSTYLE
  5
1E74
102
{ACAD_REACTORS
330
1E67
102
}
330
1E67
100
AcDbVisualStyle
  2
Thicken
 70
    13
177
     3
291
     1
 70
    58
 90
        2
176
     1
 90
        2
176
     1
 90
        0
176
     1
 90
        0
176
     1
 40
-0.6
176
     1
 40
-30.0
176
     1
 62
     7
420
 16777215
176
     1
 90
        1
176
     1
 90
        4
176
     1
 62
     7
176
     1
 62
   257
176
     1
 90
        1
176
     1
 90
        1
176
     1
 40
1.0
176
     1
 90
       12
176
     1
 62
     7
176
     1
 40
1.0
176
     1
 90
        1
176
     1
 90
        6
176
     1
 90
        2
176
     1
 62
     7
176
     1
 90
        5
176
     1
 90
        0
176
     1
 90
        0
176
     1
290
     0
176
     1
 90
        1
176
     1
 40
0.0
176
     1
 90
        0
176
     1
290
     0
176
     1
290
     1
176
     1
290
     1
176
     1
290
     0
176
     1
290
     0
176
     1
290
     0
176
     1
290
     0
176
     1
290
     0
176
     1
290
     0
176
     1
 90
       50
176
     1
 40
0.0
176
     1
 40
1.0
176
     1
 90
        0
176
     1
 62
    18
420
        0
176
     1
 90
       50
176
     1
 90
        3
176
     1
 62
     5
420
      255
176
     1
290
     0
176
     1
 90
       50
176
     1
 90
       50
176
     1
 90
       50
176
     1
290
     0
176
     1
 90
       50
176
     1
 62
   256
176
     0
 40
1.0
176
     0
 90
        2
176
     1
  1
strokes_ogs.tif
176
     1
290
     0
176
     1
 40
1.0
176
     1
 40
1.0
176
     1
  0
VISUALSTYLE
  5
1FDD
102
{ACAD_REACTORS
330
1E67
102
}
330
1E67
100
AcDbVisualStyle
  2
Wireframe
 70
     5
177
     3
291
     0
 70
    58
 90
        0
176
     1
 90
        2
176
     1
 90
        0
176
     1
 90
        0
176
     1
 40
0.6
176
     1
 40
30.0
176
     1
 62
     7
420
 16777215
176
     1
 90
        1
176
     1
 90
        4
176
     1
 62
     7
176
     1
 62
   257
176
     1
 90
        1
176
     1
 90
        1
176
     1
 40
1.0
176
     1
 90
        0
176
     1
 62
   257
176
     1
 40
1.0
176
     1
 90
        1
176
     1
 90
        6
176
     1
 90
        2
176
     1
 62
     7
176
     1
 90
        3
176
     1
 90
        0
176
     1
 90
        0
176
     1
290
     0
176
     1
 90
        1
176
     1
 40
0.0
176
     1
 90
        0
176
     1
290
     0
176
     1
290
     1
176
     1
290
     1
176
     1
290
     0
176
     1
290
     0
176
     1
290
     0
176
     1
290
     0
176
     1
290
     0
176
     1
290
     0
176
     1
 90
       50
176
     1
 40
0.0
176
     1
 40
1.0
176
     1
 90
        0
176
     1
 62
    18
420
        0
176
     1
 90
       50
176
     1
 90
        3
176
     1
 62
     5
420
      255
176
     1
290
     0
176
     1
 90
       50
176
     1
 90
       50
176
     1
 90
       50
176
     1
290
     0
176
     1
 90
       50
176
     1
 62
   256
176
     0
 40
1.0
176
     0
 90
        2
176
     1
  1
strokes_ogs.tif
176
     1
290
     0
176
     1
 40
1.0
176
     1
 40
1.0
176
     1
  0
VISUALSTYLE
  5
1FE4
102
{ACAD_REACTORS
330
1E67
102
}
330
1E67
100
AcDbVisualStyle
  2
X-Ray
 70
    25
177
     3
291
     0
 70
    58
 90
        2
176
     1
 90
        2
176
     1
 90
        1
176
     1
 90
        1
176
     1
 40
0.5
176
     1
 40
30.0
176
     1
 62
     7
420
 16777215
176
     1
 90
        1
176
     1
 90
        0
176
     1
 62
     7
176
     1
 62
   257
176
     1
 90
        1
176
     1
 90
        1
176
     1
 40
1.0
176
     1
 90
        8
176
     1
 62
     7
176
     1
 40
1.0
176
     1
 90
        1
176
     1
 90
        6
176
     1
 90
        2
176
     1
 62
     7
176
     1
 90
        3
176
     1
 90
        0
176
     1
 90
        0
176
     1
290
     0
176
     1
 90
       13
176
     1
 40
0.0
176
     1
 90
        0
176
     1
290
     0
176
     1
290
     1
176
     1
290
     1
176
     1
290
     0
176
     1
290
     0
176
     1
290
     0
176
     1
290
     0
176
     1
290
     0
176
     1
290
     0
176
     1
 90
       50
176
     1
 40
0.0
176
     1
 40
1.0
176
     1
 90
        0
176
     1
 62
    18
420
        0
176
     1
 90
       50
176
     1
 90
        3
176
     1
 62
     5
420
      255
176
     1
290
     0
176
     1
 90
       50
176
     1
 90
       50
176
     1
 90
       50
176
     1
290
     0
176
     1
 90
       50
176
     1
 62
   256
176
     0
 40
1.0
176
     0
 90
        2
176
     1
  1
strokes_ogs.tif
176
     1
290
     0
176
     1
 40
1.0
176
     1
 40
1.0
176
     1
  0
DICTIONARYVAR
  5
1FDB
102
{ACAD_REACTORS
330
1FD7
102
}
330
1FD7
100
DictionaryVariables
280
     0
  1
1:1
  0
DICTIONARYVAR
  5
1FD9
102
{ACAD_REACTORS
330
1FD7
102
}
330
1FD7
100
DictionaryVariables
280
     0
  1
Standard
  0
DICTIONARYVAR
  5
1FD8
102
{ACAD_REACTORS
330
1FD7
102
}
330
1FD7
100
DictionaryVariables
280
     0
  1
Standard
  0
DICTIONARYVAR
  5
1FDC
102
{ACAD_REACTORS
330
1FD7
102
}
330
1FD7
100
DictionaryVariables
280
     0
  1
0
  0
DICTIONARYVAR
  5
1FDA
102
{ACAD_REACTORS
330
1FD7
102
}
330
1FD7
100
DictionaryVariables
280
     0
  1
0
  0
DICTIONARYVAR
  5
1FEB
102
{ACAD_REACTORS
330
1FD7
102
}
330
1FD7
100
DictionaryVariables
280
     0
  1
0
  0
DICTIONARY
  5
1FFA
330
1E79
100
AcDbDictionary
280
     1
281
     1
  3
ACAD_ROUNDTRIP_2008_TABLESTYLE_CELLSTYLEMAP
360
1FFB
  0
CELLSTYLEMAP
  5
1FFB
102
{ACAD_REACTORS
330
1FFA
102
}
330
1FFA
100
AcDbCellStyleMap
 90
        3
300
CELLSTYLE
  1
TABLEFORMAT_BEGIN
 90
        5
170
     1
 91
        0
 92
    32768
 62
   257
 93
        1
300
CONTENTFORMAT
  1
CONTENTFORMAT_BEGIN
 90
        0
 91
        0
 92
      512
 93
        0
300

 40
0.0
140
1.0
 94
        5
 62
     0
340
11
144
0.25
309
CONTENTFORMAT_END
171
     0
 94
        0
309
TABLEFORMAT_END
  1
CELLSTYLE_BEGIN
 90
        1
 91
        1
300
_TITLE
309
CELLSTYLE_END
300
CELLSTYLE
  1
TABLEFORMAT_BEGIN
 90
        5
170
     1
 91
        0
 92
        0
 62
   257
 93
        1
300
CONTENTFORMAT
  1
CONTENTFORMAT_BEGIN
 90
        0
 91
        0
 92
      512
 93
        0
300

 40
0.0
140
1.0
 94
        5
 62
     0
340
11
144
0.18
309
CONTENTFORMAT_END
171
     0
 94
        0
309
TABLEFORMAT_END
  1
CELLSTYLE_BEGIN
 90
        2
 91
        1
300
_HEADER
309
CELLSTYLE_END
300
CELLSTYLE
  1
TABLEFORMAT_BEGIN
 90
        5
170
     1
 91
        0
 92
        0
 62
   257
 93
        1
300
CONTENTFORMAT
  1
CONTENTFORMAT_BEGIN
 90
        0
 91
        0
 92
      512
 93
        0
300

 40
0.0
140
1.0
 94
        2
 62
     0
340
11
144
0.18
309
CONTENTFORMAT_END
171
     0
 94
        0
309
TABLEFORMAT_END
  1
CELLSTYLE_BEGIN
 90
        3
 91
        2
300
_DATA
309
CELLSTYLE_END
  0
ENDSEC
  0
EOF
