  0
SECTION
  2
HEADER
  9
$ACADVER
  1
AC1032
  9
$ACADMAINTVER
 90
        4
  9
$DWGCODEPAGE
  3
ANSI_932
  9
$LASTSAVEDBY
  1
Hiroki Noike
  9
$REQUIREDVERSIONS
160
                 0
  9
$INSBASE
 10
0.0
 20
0.0
 30
0.0
  9
$EXTMIN
 10
12779.99925775742
 20
6281.884452965809
 30
0.0
  9
$EXTMAX
 10
16979.99925775742
 20
9251.884452965809
 30
0.0
  9
$LIMMIN
 10
-210.0
 20
-148.5
  9
$LIMMAX
 10
210.0
 20
148.5
  9
$ORTHOMODE
 70
     0
  9
$REGENMODE
 70
     1
  9
$FILLMODE
 70
     1
  9
$QTEXTMODE
 70
     0
  9
$MIRRTEXT
 70
     1
  9
$LTSCALE
 40
1.0
  9
$ATTMODE
 70
     1
  9
$TEXTSIZE
 40
25.0
  9
$TRACEWID
 40
0.05
  9
$TEXTSTYLE
  7
STANDARD
  9
$CLAYER
  8
図面
  9
$CELTYPE
  6
ByLayer
  9
$CECOLOR
 62
   256
  9
$CELTSCALE
 40
1.0
  9
$DISPSILH
 70
     0
  9
$DIMSCALE
 40
1.0
  9
$DIMASZ
 40
20.0
  9
$DIMEXO
 40
0.0625
  9
$DIMDLI
 40
0.38
  9
$DIMRND
 40
0.0
  9
$DIMDLE
 40
0.0
  9
$DIMEXE
 40
0.5
  9
$DIMTP
 40
0.0
  9
$DIMTM
 40
0.0
  9
$DIMTXT
 40
25.0
  9
$DIMCEN
 40
0.09
  9
$DIMTSZ
 40
0.0
  9
$DIMTOL
 70
     0
  9
$DIMLIM
 70
     0
  9
$DIMTIH
 70
     0
  9
$DIMTOH
 70
     0
  9
$DIMSE1
 70
     0
  9
$DIMSE2
 70
     0
  9
$DIMTAD
 70
     1
  9
$DIMZIN
 70
     0
  9
$DIMBLK
  1

  9
$DIMASO
 70
     1
  9
$DIMSHO
 70
     1
  9
$DIMPOST
  1

  9
$DIMAPOST
  1

  9
$DIMALT
 70
     0
  9
$DIMALTD
 70
     2
  9
$DIMALTF
 40
25.4
  9
$DIMLFAC
 40
1.0
  9
$DIMTOFL
 70
     0
  9
$DIMTVP
 40
0.0
  9
$DIMTIX
 70
     0
  9
$DIMSOXD
 70
     0
  9
$DIMSAH
 70
     0
  9
$DIMBLK1
  1

  9
$DIMBLK2
  1

  9
$DIMSTYLE
  2
Standard
  9
$DIMCLRD
 70
     1
  9
$DIMCLRE
 70
     1
  9
$DIMCLRT
 70
     1
  9
$DIMTFAC
 40
1.0
  9
$DIMGAP
 40
0.5
  9
$DIMJUST
 70
     0
  9
$DIMSD1
 70
     0
  9
$DIMSD2
 70
     0
  9
$DIMTOLJ
 70
     1
  9
$DIMTZIN
 70
     0
  9
$DIMALTZ
 70
     0
  9
$DIMALTTZ
 70
     0
  9
$DIMUPT
 70
     0
  9
$DIMDEC
 70
     0
  9
$DIMTDEC
 70
     0
  9
$DIMALTU
 70
     2
  9
$DIMALTTD
 70
     2
  9
$DIMTXSTY
  7
TextStyle01
  9
$DIMAUNIT
 70
     0
  9
$DIMADEC
 70
     0
  9
$DIMALTRND
 40
0.0
  9
$DIMAZIN
 70
     0
  9
$DIMDSEP
 70
    46
  9
$DIMATFIT
 70
     3
  9
$DIMFRAC
 70
     0
  9
$DIMLDRBLK
  1

  9
$DIMLUNIT
 70
     2
  9
$DIMLWD
 70
    -2
  9
$DIMLWE
 70
    -2
  9
$DIMTMOVE
 70
     2
  9
$DIMFXL
 40
1.0
  9
$DIMFXLON
 70
     0
  9
$DIMJOGANG
 40
0.7853981633974483
  9
$DIMTFILL
 70
     0
  9
$DIMTFILLCLR
 70
     0
  9
$DIMARCSYM
 70
     0
  9
$DIMLTYPE
  6

  9
$DIMLTEX1
  6

  9
$DIMLTEX2
  6

  9
$DIMTXTDIRECTION
 70
     0
  9
$LUNITS
 70
     2
  9
$LUPREC
 70
     4
  9
$SKETCHINC
 40
0.1
  9
$FILLETRAD
 40
10.0
  9
$AUNITS
 70
     0
  9
$AUPREC
 70
     0
  9
$MENU
  1
acad
  9
$ELEVATION
 40
0.0
  9
$PELEVATION
 40
0.0
  9
$THICKNESS
 40
0.0
  9
$LIMCHECK
 70
     0
  9
$CHAMFERA
 40
15.0
  9
$CHAMFERB
 40
15.0
  9
$CHAMFERC
 40
0.0
  9
$CHAMFERD
 40
0.0
  9
$SKPOLY
 70
     0
  9
$TDCREATE
 40
2449944.925517361
  9
$TDUCREATE
 40
2449944.550517361
  9
$TDUPDATE
 40
2459720.61321941
  9
$TDUUPDATE
 40
2459720.23821941
  9
$TDINDWG
 40
1.2161143171
  9
$TDUSRTIMER
 40
0.0200378356
  9
$USRTIMER
 70
     1
  9
$ANGBASE
 50
0.0
  9
$ANGDIR
 70
     0
  9
$PDMODE
 70
     0
  9
$PDSIZE
 40
1.5
  9
$PLINEWID
 40
0.0
  9
$SPLFRAME
 70
     0
  9
$SPLINETYPE
 70
     6
  9
$SPLINESEGS
 70
     8
  9
$HANDSEED
  5
2003
  9
$SURFTAB1
 70
     6
  9
$SURFTAB2
 70
     6
  9
$SURFTYPE
 70
     6
  9
$SURFU
 70
     6
  9
$SURFV
 70
     6
  9
$UCSBASE
  2

  9
$UCSNAME
  2

  9
$UCSORG
 10
0.0
 20
0.0
 30
0.0
  9
$UCSXDIR
 10
1.0
 20
0.0
 30
0.0
  9
$UCSYDIR
 10
0.0
 20
1.0
 30
0.0
  9
$UCSORTHOREF
  2

  9
$UCSORTHOVIEW
 70
     0
  9
$UCSORGTOP
 10
0.0
 20
0.0
 30
0.0
  9
$UCSORGBOTTOM
 10
0.0
 20
0.0
 30
0.0
  9
$UCSORGLEFT
 10
0.0
 20
0.0
 30
0.0
  9
$UCSORGRIGHT
 10
0.0
 20
0.0
 30
0.0
  9
$UCSORGFRONT
 10
0.0
 20
0.0
 30
0.0
  9
$UCSORGBACK
 10
0.0
 20
0.0
 30
0.0
  9
$PUCSBASE
  2

  9
$PUCSNAME
  2

  9
$PUCSORG
 10
0.0
 20
0.0
 30
0.0
  9
$PUCSXDIR
 10
1.0
 20
0.0
 30
0.0
  9
$PUCSYDIR
 10
0.0
 20
1.0
 30
0.0
  9
$PUCSORTHOREF
  2

  9
$PUCSORTHOVIEW
 70
     0
  9
$PUCSORGTOP
 10
0.0
 20
0.0
 30
0.0
  9
$PUCSORGBOTTOM
 10
0.0
 20
0.0
 30
0.0
  9
$PUCSORGLEFT
 10
0.0
 20
0.0
 30
0.0
  9
$PUCSORGRIGHT
 10
0.0
 20
0.0
 30
0.0
  9
$PUCSORGFRONT
 10
0.0
 20
0.0
 30
0.0
  9
$PUCSORGBACK
 10
0.0
 20
0.0
 30
0.0
  9
$USERI1
 70
     0
  9
$USERI2
 70
     0
  9
$USERI3
 70
     0
  9
$USERI4
 70
     0
  9
$USERI5
 70
     0
  9
$USERR1
 40
0.0
  9
$USERR2
 40
0.0
  9
$USERR3
 40
0.0
  9
$USERR4
 40
0.0
  9
$USERR5
 40
0.0
  9
$WORLDVIEW
 70
     1
  9
$SHADEDGE
 70
     3
  9
$SHADEDIF
 70
    70
  9
$TILEMODE
 70
     1
  9
$MAXACTVP
 70
    16
  9
$PINSBASE
 10
0.0
 20
0.0
 30
0.0
  9
$PLIMCHECK
 70
     0
  9
$PEXTMIN
 10
1.000000000000000E+20
 20
1.000000000000000E+20
 30
1.000000000000000E+20
  9
$PEXTMAX
 10
-1.000000000000000E+20
 20
-1.000000000000000E+20
 30
-1.000000000000000E+20
  9
$PLIMMIN
 10
0.0
 20
0.0
  9
$PLIMMAX
 10
0.0
 20
0.0
  9
$UNITMODE
 70
     0
  9
$VISRETAIN
 70
     0
  9
$PLINEGEN
 70
     0
  9
$PSLTSCALE
 70
     1
  9
$TREEDEPTH
 70
  3020
  9
$CMLSTYLE
  2
Standard
  9
$CMLJUST
 70
     0
  9
$CMLSCALE
 40
1.0
  9
$PROXYGRAPHICS
 70
     1
  9
$MEASUREMENT
 70
     0
  9
$CELWEIGHT
370
    -1
  9
$ENDCAPS
280
     0
  9
$JOINSTYLE
280
     0
  9
$LWDISPLAY
290
     0
  9
$INSUNITS
 70
     0
  9
$HYPERLINKBASE
  1

  9
$STYLESHEET
  1

  9
$XEDIT
290
     1
  9
$CEPSNTYPE
380
     0
  9
$PSTYLEMODE
290
     1
  9
$FINGERPRINTGUID
  2
{3F05092E-EABE-41D4-925D-E3C07104686B}
  9
$VERSIONGUID
  2
{7DE0D91E-5FBF-4C3E-ABAE-1EDF0341C42B}
  9
$EXTNAMES
290
     1
  9
$PSVPSCALE
 40
0.0
  9
$OLESTARTUP
290
     0
  9
$SORTENTS
280
   127
  9
$INDEXCTL
280
     0
  9
$HIDETEXT
280
     0
  9
$XCLIPFRAME
280
     0
  9
$HALOGAP
280
     0
  9
$OBSCOLOR
 70
   257
  9
$OBSLTYPE
280
     0
  9
$INTERSECTIONDISPLAY
280
     0
  9
$INTERSECTIONCOLOR
 70
   257
  9
$DIMASSOC
280
     1
  9
$PROJECTNAME
  1

  9
$CAMERADISPLAY
290
     0
  9
$LENSLENGTH
 40
50.0
  9
$CAMERAHEIGHT
 40
0.0
  9
$STEPSPERSEC
 40
2.0
  9
$STEPSIZE
 40
6.0
  9
$3DDWFPREC
 40
2.0
  9
$PSOLWIDTH
 40
0.25
  9
$PSOLHEIGHT
 40
4.0
  9
$LOFTANG1
 40
1.570796326794897
  9
$LOFTANG2
 40
1.570796326794897
  9
$LOFTMAG1
 40
0.0
  9
$LOFTMAG2
 40
0.0
  9
$LOFTPARAM
 70
     7
  9
$LOFTNORMALS
280
     1
  9
$LATITUDE
 40
37.795
  9
$LONGITUDE
 40
-122.394
  9
$NORTHDIRECTION
 40
0.0
  9
$TIMEZONE
 70
 -8000
  9
$LIGHTGLYPHDISPLAY
280
     1
  9
$TILEMODELIGHTSYNCH
280
     1
  9
$CMATERIAL
347
1E4F
  9
$SOLIDHIST
280
     1
  9
$SHOWHIST
280
     1
  9
$DWFFRAME
280
     2
  9
$DGNFRAME
280
     0
  9
$REALWORLDSCALE
290
     1
  9
$INTERFERECOLOR
 62
     1
  9
$CSHADOW
280
     0
  9
$SHADOWPLANELOCATION
 40
0.0
  0
ENDSEC
  0
SECTION
  2
CLASSES
  0
CLASS
  1
ACDBDICTIONARYWDFLT
  2
AcDbDictionaryWithDefault
  3
ObjectDBX Classes
 90
        0
 91
        3
280
     0
281
     0
  0
CLASS
  1
ACDBPLACEHOLDER
  2
AcDbPlaceHolder
  3
ObjectDBX Classes
 90
        0
 91
        1
280
     0
281
     0
  0
CLASS
  1
LAYOUT
  2
AcDbLayout
  3
ObjectDBX Classes
 90
        0
 91
        1
280
     0
281
     0
  0
CLASS
  1
MATERIAL
  2
AcDbMaterial
  3
ObjectDBX Classes
 90
     1153
 91
        3
280
     0
281
     0
  0
CLASS
  1
VISUALSTYLE
  2
AcDbVisualStyle
  3
ObjectDBX Classes
 90
     4095
 91
        3
280
     0
281
     0
  0
CLASS
  1
TABLESTYLE
  2
AcDbTableStyle
  3
ObjectDBX Classes
 90
     4095
 91
        3
280
     0
281
     0
  0
CLASS
  1
SCALE
  2
AcDbScale
  3
ObjectDBX Classes
 90
     1153
 91
        3
280
     0
281
     0
  0
CLASS
  1
MLEADERSTYLE
  2
AcDbMLeaderStyle
  3
ACDB_MLEADERSTYLE_CLASS
 90
     4095
 91
        3
280
     0
281
     0
  0
CLASS
  1
CELLSTYLEMAP
  2
AcDbCellStyleMap
  3
ObjectDBX Classes
 90
     1152
 91
        3
280
     0
281
     0
  0
CLASS
  1
DICTIONARYVAR
  2
AcDbDictionaryVar
  3
ObjectDBX Classes
 90
        0
 91
        3
280
     0
281
     0
  0
CLASS
  1
SUN
  2
AcDbSun
  3
SCENEOE
 90
     1153
 91
        3
280
     0
281
     0
  0
ENDSEC
  0
SECTION
  2
TABLES
  0
TABLE
  2
VPORT
  5
8
330
0
100
AcDbSymbolTable
 70
     1
  0
VPORT
  5
1E4D
330
8
100
AcDbSymbolTableRecord
100
AcDbViewportTableRecord
  2
*Active
 70
     0
 10
0.0
 20
0.0
 11
1.0
 21
1.0
 12
16042.80727242722
 22
7856.590704029561
 13
0.0
 23
0.0
 14
1.0
 24
1.0
 15
0.0
 25
0.0
 16
0.0
 26
0.0
 36
1.0
 17
0.0
 27
0.0
 37
0.0
 40
3662.78743804773
 41
2.082079343365253
 42
50.0
 43
0.0
 44
0.0
 50
0.0
 51
0.0
 71
    16
 72
   100
 73
     1
 74
     0
 75
     0
 76
     0
 77
     0
 78
     0
281
     0
 65
     1
110
0.0
120
0.0
130
0.0
111
1.0
121
0.0
131
0.0
112
0.0
122
1.0
132
0.0
 79
     0
146
0.0
348
1E6D
 60
     3
 61
     5
292
     1
282
     1
141
0.0
142
0.0
 63
   250
421
  3355443
361
1FE8
  0
ENDTAB
  0
TABLE
  2
LTYPE
  5
5
330
0
100
AcDbSymbolTable
 70
     9
  0
LTYPE
  5
13
330
5
100
AcDbSymbolTableRecord
100
AcDbLinetypeTableRecord
  2
ByBlock
 70
     0
  3

 72
    65
 73
     0
 40
0.0
  0
LTYPE
  5
14
330
5
100
AcDbSymbolTableRecord
100
AcDbLinetypeTableRecord
  2
ByLayer
 70
     0
  3

 72
    65
 73
     0
 40
0.0
  0
LTYPE
  5
15
330
5
100
AcDbSymbolTableRecord
100
AcDbLinetypeTableRecord
  2
CONTINUOUS
 70
     0
  3
実線
 72
    65
 73
     0
 40
0.0
  0
LTYPE
  5
2D
330
5
100
AcDbSymbolTableRecord
100
AcDbLinetypeTableRecord
  2
DASHED
 70
     0
  3
破線A
 72
    65
 73
     2
 40
7.5
 49
5.0
 74
     0
 49
-2.5
 74
     0
  0
LTYPE
  5
2E
330
5
100
AcDbSymbolTableRecord
100
AcDbLinetypeTableRecord
  2
DASHEDX2
 70
     0
  3
破線B
 72
    65
 73
     2
 40
15.0
 49
10.0
 74
     0
 49
-5.0
 74
     0
  0
LTYPE
  5
2F
330
5
100
AcDbSymbolTableRecord
100
AcDbLinetypeTableRecord
  2
DASHDOT
 70
     0
  3
１点鎖線A
 72
    65
 73
     4
 40
10.0
 49
5.0
 74
     0
 49
-2.5
 74
     0
 49
0.0
 74
     0
 49
-2.5
 74
     0
  0
LTYPE
  5
30
330
5
100
AcDbSymbolTableRecord
100
AcDbLinetypeTableRecord
  2
DASHDOTX2
 70
     0
  3
１点鎖線B
 72
    65
 73
     4
 40
20.0
 49
10.0
 74
     0
 49
-5.0
 74
     0
 49
0.0
 74
     0
 49
-5.0
 74
     0
  0
LTYPE
  5
31
330
5
100
AcDbSymbolTableRecord
100
AcDbLinetypeTableRecord
  2
DIVIDE2
 70
     0
  3
２点鎖線A
 72
    65
 73
     6
 40
6.25
 49
2.5
 74
     0
 49
-1.25
 74
     0
 49
0.0
 74
     0
 49
-1.25
 74
     0
 49
0.0
 74
     0
 49
-1.25
 74
     0
  0
LTYPE
  5
32
330
5
100
AcDbSymbolTableRecord
100
AcDbLinetypeTableRecord
  2
DIVIDE
 70
     0
  3
２点鎖線B
 72
    65
 73
     6
 40
12.5
 49
5.0
 74
     0
 49
-2.5
 74
     0
 49
0.0
 74
     0
 49
-2.5
 74
     0
 49
0.0
 74
     0
 49
-2.5
 74
     0
  0
LTYPE
  5
33
330
5
100
AcDbSymbolTableRecord
100
AcDbLinetypeTableRecord
  2
DOT
 70
     0
  3
点線A
 72
    65
 73
     2
 40
2.5
 49
0.0
 74
     0
 49
-2.5
 74
     0
  0
LTYPE
  5
34
330
5
100
AcDbSymbolTableRecord
100
AcDbLinetypeTableRecord
  2
DOTX2
 70
     0
  3
点線B
 72
    65
 73
     2
 40
5.0
 49
0.0
 74
     0
 49
-5.0
 74
     0
  0
ENDTAB
  0
TABLE
  2
LAYER
  5
2
330
0
100
AcDbSymbolTable
 70
    10
  0
LAYER
  5
10
102
{ACAD_XDICTIONARY
360
1FB3
102
}
330
2
100
AcDbSymbolTableRecord
100
AcDbLayerTableRecord
  2
ﾚｲﾔ1
 70
     0
 62
     7
  6
CONTINUOUS
370
    -3
390
F
347
1E5F
348
0
  0
LAYER
  5
4C
330
2
100
AcDbSymbolTableRecord
100
AcDbLayerTableRecord
  2
0
 70
     0
 62
     7
  6
CONTINUOUS
370
    -3
390
F
347
1E5F
348
0
  0
LAYER
  5
16B
102
{ACAD_XDICTIONARY
360
1FB5
102
}
330
2
100
AcDbSymbolTableRecord
100
AcDbLayerTableRecord
  2
図面
 70
     0
 62
     7
  6
CONTINUOUS
370
    40
390
F
347
1E5F
348
0
  0
LAYER
  5
16C
102
{ACAD_XDICTIONARY
360
1FB7
102
}
330
2
100
AcDbSymbolTableRecord
100
AcDbLayerTableRecord
  2
図面枠
 70
     0
 62
     5
  6
CONTINUOUS
370
    -3
390
F
347
1E5F
348
0
  0
LAYER
  5
1AB
102
{ACAD_XDICTIONARY
360
1FB9
102
}
330
2
100
AcDbSymbolTableRecord
100
AcDbLayerTableRecord
  2
下図
 70
     0
 62
     8
  6
DASHDOT
290
     0
370
    -3
390
F
347
1E5F
348
0
  0
LAYER
  5
1EB
102
{ACAD_XDICTIONARY
360
1FBB
102
}
330
2
100
AcDbSymbolTableRecord
100
AcDbLayerTableRecord
  2
文字
 70
     0
 62
     7
  6
CONTINUOUS
370
    -3
390
F
347
1E5F
348
0
  0
LAYER
  5
375
102
{ACAD_XDICTIONARY
360
1FBD
102
}
330
2
100
AcDbSymbolTableRecord
100
AcDbLayerTableRecord
  2
HOJO_0
 70
     0
 62
     5
  6
DASHDOT
370
    -3
390
F
347
1E5F
348
0
  0
LAYER
  5
16EB
330
2
100
AcDbSymbolTableRecord
100
AcDbLayerTableRecord
  2
Defpoints
 70
     0
 62
     7
  6
CONTINUOUS
290
     0
370
    -3
390
F
347
1E5F
348
0
  0
LAYER
  5
1A35
102
{ACAD_XDICTIONARY
360
1FBF
102
}
330
2
100
AcDbSymbolTableRecord
100
AcDbLayerTableRecord
  2
ﾚｲﾔ9
 70
     0
 62
     8
  6
DASHED
370
    -3
390
F
347
1E5F
348
0
  0
LAYER
  5
1C60
102
{ACAD_XDICTIONARY
360
1FC1
102
}
330
2
100
AcDbSymbolTableRecord
100
AcDbLayerTableRecord
  2
寸法
 70
     0
 62
     1
  6
CONTINUOUS
370
    -3
390
F
347
1E5F
348
0
  0
ENDTAB
  0
TABLE
  2
STYLE
  5
3
330
0
100
AcDbSymbolTable
 70
    13
  0
STYLE
  5
11
330
3
100
AcDbSymbolTableRecord
100
AcDbTextStyleTableRecord
  2
STANDARD
 70
     0
 40
25.0
 41
1.0
 50
0.0
 71
     0
 42
25.0
  3
TXT.shx
  4
BIGFONT.shx
  0
STYLE
  5
22
330
3
100
AcDbSymbolTableRecord
100
AcDbTextStyleTableRecord
  2
TATE
 70
     4
 40
1.0
 41
1.0
 50
0.0
 71
     0
 42
1.0
  3
TXT
  4
BIGFONT
  0
STYLE
  5
23
330
3
100
AcDbSymbolTableRecord
100
AcDbTextStyleTableRecord
  2
TextStyle01
 70
     0
 40
0.0
 41
1.0
 50
0.0
 71
     0
 42
0.0
  3
TXT
  4
BIGFONT
  0
STYLE
  5
24
330
3
100
AcDbSymbolTableRecord
100
AcDbTextStyleTableRecord
  2
TextStyle02
 70
     0
 40
0.0
 41
1.0
 50
0.0
 71
     0
 42
0.0
  3
TXT
  4
BIGFONT
  0
STYLE
  5
25
330
3
100
AcDbSymbolTableRecord
100
AcDbTextStyleTableRecord
  2
TextStyle03
 70
     0
 40
0.0
 41
1.0
 50
0.0
 71
     0
 42
0.0
  3
TXT
  4
BIGFONT
  0
STYLE
  5
26
330
3
100
AcDbSymbolTableRecord
100
AcDbTextStyleTableRecord
  2
TextStyle04
 70
     0
 40
0.0
 41
1.0
 50
0.0
 71
     0
 42
0.0
  3
TXT
  4
BIGFONT
  0
STYLE
  5
27
330
3
100
AcDbSymbolTableRecord
100
AcDbTextStyleTableRecord
  2
TextStyle05
 70
     0
 40
0.0
 41
1.0
 50
0.0
 71
     0
 42
0.0
  3
TXT
  4
BIGFONT
  0
STYLE
  5
28
330
3
100
AcDbSymbolTableRecord
100
AcDbTextStyleTableRecord
  2
TextStyle06
 70
     0
 40
0.0
 41
1.0
 50
0.0
 71
     0
 42
0.0
  3

  4

  0
STYLE
  5
29
330
3
100
AcDbSymbolTableRecord
100
AcDbTextStyleTableRecord
  2
TextStyle07
 70
     0
 40
0.0
 41
1.0
 50
0.0
 71
     0
 42
0.0
  3

  4

  0
STYLE
  5
2A
330
3
100
AcDbSymbolTableRecord
100
AcDbTextStyleTableRecord
  2
TextStyle08
 70
     0
 40
0.0
 41
1.0
 50
0.0
 71
     0
 42
0.0
  3

  4

  0
STYLE
  5
2B
330
3
100
AcDbSymbolTableRecord
100
AcDbTextStyleTableRecord
  2
TextStyle09
 70
     0
 40
0.0
 41
1.0
 50
0.0
 71
     0
 42
0.0
  3

  4

  0
STYLE
  5
2C
330
3
100
AcDbSymbolTableRecord
100
AcDbTextStyleTableRecord
  2
TextStyle10
 70
     0
 40
0.0
 41
1.0
 50
0.0
 71
     0
 42
0.0
  3

  4

  0
STYLE
  5
205
330
3
100
AcDbSymbolTableRecord
100
AcDbTextStyleTableRecord
  2
WMF-ＭＳ Ｐ明朝0
 70
     0
 40
0.0
 41
1.0
 50
0.0
 71
     0
 42
1.0
  3
MS PMincho.ttf
  4

1001
ACAD
1000
MS PMincho
1071
    32768
  0
ENDTAB
  0
TABLE
  2
VIEW
  5
6
330
0
100
AcDbSymbolTable
 70
     0
  0
ENDTAB
  0
TABLE
  2
UCS
  5
7
330
0
100
AcDbSymbolTable
 70
     0
  0
ENDTAB
  0
TABLE
  2
APPID
  5
9
330
0
100
AcDbSymbolTable
 70
     3
  0
APPID
  5
12
330
9
100
AcDbSymbolTableRecord
100
AcDbRegAppTableRecord
  2
ACAD
 70
     0
  0
APPID
  5
1E9E
330
9
100
AcDbSymbolTableRecord
100
AcDbRegAppTableRecord
  2
ACAD_MLEADERVER
 70
     0
  0
APPID
  5
1FF3
330
9
100
AcDbSymbolTableRecord
100
AcDbRegAppTableRecord
  2
PLOTTRANSPARENCY
 70
     0
  0
ENDTAB
  0
TABLE
  2
DIMSTYLE
  5
A
330
0
100
AcDbSymbolTable
 70
     1
100
AcDbDimStyleTable
  0
DIMSTYLE
105
142
102
{ACAD_REACTORS
330
16F8
330
1705
330
1713
330
19E6
330
1978
330
197D
330
197E
330
1980
330
1983
330
19E4
102
}
330
A
100
AcDbSymbolTableRecord
100
AcDbDimStyleTableRecord
  2
Standard
 70
     0
178
     0
340
11
  0
ENDTAB
  0
TABLE
  2
BLOCK_RECORD
  5
1
330
0
100
AcDbSymbolTable
 70
    11
  0
BLOCK_RECORD
  5
1E
102
{ACAD_XDICTIONARY
360
1FEE
102
}
330
1
100
AcDbSymbolTableRecord
100
AcDbBlockTableRecord
  2
*Model_Space
340
21
 70
     0
280
     1
281
     0
  0
BLOCK_RECORD
  5
1A
330
1
100
AcDbSymbolTableRecord
100
AcDbBlockTableRecord
  2
*Paper_Space
340
1D
 70
     0
280
     1
281
     0
  0
BLOCK_RECORD
  5
1C1
330
1
100
AcDbSymbolTableRecord
100
AcDbBlockTableRecord
  2
_Open30
340
0
 70
     0
280
     1
281
     0
  0
BLOCK_RECORD
  5
370
330
1
100
AcDbSymbolTableRecord
100
AcDbBlockTableRecord
  2
*G1
340
0
102
{BLKREFS
331
37F
102
}
 70
     0
280
     1
281
     0
  0
BLOCK_RECORD
  5
16F9
330
1
100
AcDbSymbolTableRecord
100
AcDbBlockTableRecord
  2
*D2
340
0
 70
     0
280
     1
281
     0
  0
BLOCK_RECORD
  5
1706
330
1
100
AcDbSymbolTableRecord
100
AcDbBlockTableRecord
  2
*D3
340
0
 70
     0
280
     1
281
     0
  0
BLOCK_RECORD
  5
1714
330
1
100
AcDbSymbolTableRecord
100
AcDbBlockTableRecord
  2
*D4
340
0
 70
     0
280
     1
281
     0
  0
BLOCK_RECORD
  5
19E7
330
1
100
AcDbSymbolTableRecord
100
AcDbBlockTableRecord
  2
*D5
340
0
 70
     0
280
     1
281
     0
  0
BLOCK_RECORD
  5
1D10
330
1
100
AcDbSymbolTableRecord
100
AcDbBlockTableRecord
  2
*D6
340
0
 70
     0
280
     1
281
     0
  0
BLOCK_RECORD
  5
1D1D
330
1
100
AcDbSymbolTableRecord
100
AcDbBlockTableRecord
  2
*D7
340
0
 70
     0
280
     1
281
     0
  0
BLOCK_RECORD
  5
1D2A
330
1
100
AcDbSymbolTableRecord
100
AcDbBlockTableRecord
  2
*D8
340
0
 70
     0
280
     1
281
     0
  0
BLOCK_RECORD
  5
1D37
330
1
100
AcDbSymbolTableRecord
100
AcDbBlockTableRecord
  2
*D9
340
0
 70
     0
280
     1
281
     0
  0
BLOCK_RECORD
  5
1E10
330
1
100
AcDbSymbolTableRecord
100
AcDbBlockTableRecord
  2
*D10
340
0
 70
     0
280
     1
281
     0
  0
ENDTAB
  0
ENDSEC
  0
SECTION
  2
BLOCKS
  0
BLOCK
  5
4F
330
1E
100
AcDbEntity
  8
0
100
AcDbBlockBegin
  2
*Model_Space
 70
     0
 10
0.0
 20
0.0
 30
0.0
  3
*Model_Space
  1

  0
ENDBLK
  5
50
330
1E
100
AcDbEntity
  8
0
100
AcDbBlockEnd
  0
BLOCK
  5
4D
330
1A
100
AcDbEntity
 67
     1
  8
0
100
AcDbBlockBegin
  2
*Paper_Space
 70
     0
 10
0.0
 20
0.0
 30
0.0
  3
*Paper_Space
  1

  0
ENDBLK
  5
4E
330
1A
100
AcDbEntity
 67
     1
  8
0
100
AcDbBlockEnd
  0
BLOCK
  5
1C5
330
1C1
100
AcDbEntity
  8
0
100
AcDbBlockBegin
  2
_Open30
 70
     0
 10
0.0
 20
0.0
 30
0.0
  3
_Open30
  1

  0
LINE
  5
1C2
330
1C1
100
AcDbEntity
  8
下図
 62
     0
370
    -2
100
AcDbLine
 10
-1.0
 20
0.26794919
 30
0.0
 11
0.0
 21
0.0
 31
0.0
  0
LINE
  5
1C3
330
1C1
100
AcDbEntity
  8
下図
 62
     0
370
    -2
100
AcDbLine
 10
0.0
 20
0.0
 30
0.0
 11
-1.0
 21
-0.26794919
 31
0.0
  0
LINE
  5
1C4
330
1C1
100
AcDbEntity
  8
下図
 62
     0
370
    -2
100
AcDbLine
 10
0.0
 20
0.0
 30
0.0
 11
-1.0
 21
0.0
 31
0.0
  0
ENDBLK
  5
1C6
330
1C1
100
AcDbEntity
  8
0
100
AcDbBlockEnd
  0
BLOCK
  5
371
330
370
100
AcDbEntity
  8
0
100
AcDbBlockBegin
  2
*G1
 70
     1
 10
0.0
 20
0.0
 30
0.0
  3
*G1
  1

  0
LINE
  5
372
330
370
100
AcDbEntity
  8
HOJO_0
100
AcDbLine
 10
3053.595631960323
 20
-663.6040253532628
 30
0.0
 11
2963.595631960323
 21
-663.6040253532628
 31
0.0
  0
LINE
  5
373
330
370
100
AcDbEntity
  8
HOJO_0
100
AcDbLine
 10
3008.595631960323
 20
-708.6040253532628
 30
0.0
 11
3008.595631960323
 21
-618.6040253532628
 31
0.0
  0
ENDBLK
  5
374
330
370
100
AcDbEntity
  8
0
100
AcDbBlockEnd
  0
BLOCK
  5
1703
330
16F9
100
AcDbEntity
  8
0
100
AcDbBlockBegin
  2
*D2
 70
     1
 10
0.0
 20
0.0
 30
0.0
  3
*D2
  1

  0
LINE
  5
16FA
330
16F9
100
AcDbEntity
  8
図面
 62
     1
370
    -2
100
AcDbLine
 10
13535.35473816815
 20
6864.741409317328
 30
0.0
 11
13415.8388484488
 21
6864.741409317328
 31
0.0
  0
LINE
  5
16FB
330
16F9
100
AcDbEntity
  8
図面
 62
     1
370
    -2
100
AcDbLine
 10
13577.85473816815
 20
7824.741409317328
 30
0.0
 11
13415.8388484488
 21
7824.741409317328
 31
0.0
  0
LINE
  5
16FC
330
16F9
100
AcDbEntity
  8
図面
 62
     1
370
    -2
100
AcDbLine
 10
13416.3388484488
 20
6884.741409317328
 30
0.0
 11
13416.3388484488
 21
7804.741409317328
 31
0.0
  0
SOLID
  5
16FD
330
16F9
100
AcDbEntity
  8
図面
 62
     1
100
AcDbTrace
 10
13413.00551511547
 20
6884.741409317328
 30
0.0
 11
13419.67218178214
 21
6884.741409317328
 31
0.0
 12
13416.3388484488
 22
6864.741409317328
 32
0.0
 13
13416.3388484488
 23
6864.741409317328
 33
0.0
  0
SOLID
  5
16FE
330
16F9
100
AcDbEntity
  8
図面
 62
     1
100
AcDbTrace
 10
13413.00551511547
 20
7804.741409317328
 30
0.0
 11
13419.67218178214
 21
7804.741409317328
 31
0.0
 12
13416.3388484488
 22
7824.741409317328
 32
0.0
 13
13416.3388484488
 23
7824.741409317328
 33
0.0
  0
MTEXT
  5
16FF
330
16F9
100
AcDbEntity
  8
図面
 62
     1
100
AcDbMText
 10
13403.3388484488
 20
7344.74140931733
 30
0.0
 40
25.0
 41
0.0
 46
0.0
 71
     5
 72
     1
  1
\A1;960
  7
TextStyle01
 11
6.123031769111886E-17
 21
1.0
 31
0.0
 73
     1
 44
1.0
  0
POINT
  5
1700
330
16F9
100
AcDbEntity
  8
Defpoints
 62
     0
100
AcDbPoint
 10
13535.41723816815
 20
6864.741409317328
 30
0.0
  0
POINT
  5
1701
330
16F9
100
AcDbEntity
  8
Defpoints
 62
     0
100
AcDbPoint
 10
13577.91723816815
 20
7824.741409317328
 30
0.0
  0
POINT
  5
1702
330
16F9
100
AcDbEntity
  8
Defpoints
 62
     0
100
AcDbPoint
 10
13416.3388484488
 20
7824.741409317328
 30
0.0
  0
ENDBLK
  5
1704
330
16F9
100
AcDbEntity
  8
0
100
AcDbBlockEnd
  0
BLOCK
  5
1710
330
1706
100
AcDbEntity
  8
0
100
AcDbBlockBegin
  2
*D3
 70
     1
 10
0.0
 20
0.0
 30
0.0
  3
*D3
  1

  0
LINE
  5
1707
330
1706
100
AcDbEntity
  8
図面
 62
     1
370
    -2
100
AcDbLine
 10
13500.41723816815
 20
6919.678909317328
 30
0.0
 11
13500.41723816815
 21
6773.706353952301
 31
0.0
  0
LINE
  5
1708
330
1706
100
AcDbEntity
  8
図面
 62
     1
370
    -2
100
AcDbLine
 10
14160.41723816815
 20
6919.678909317328
 30
0.0
 11
14160.41723816815
 21
6773.706353952301
 31
0.0
  0
LINE
  5
1709
330
1706
100
AcDbEntity
  8
図面
 62
     1
370
    -2
100
AcDbLine
 10
13520.41723816815
 20
6774.206353952301
 30
0.0
 11
14140.41723816815
 21
6774.206353952301
 31
0.0
  0
SOLID
  5
170A
330
1706
100
AcDbEntity
  8
図面
 62
     1
100
AcDbTrace
 10
13520.41723816815
 20
6777.539687285634
 30
0.0
 11
13520.41723816815
 21
6770.873020618968
 31
0.0
 12
13500.41723816815
 22
6774.206353952301
 32
0.0
 13
13500.41723816815
 23
6774.206353952301
 33
0.0
  0
SOLID
  5
170B
330
1706
100
AcDbEntity
  8
図面
 62
     1
100
AcDbTrace
 10
14140.41723816815
 20
6777.539687285634
 30
0.0
 11
14140.41723816815
 21
6770.873020618968
 31
0.0
 12
14160.41723816815
 22
6774.206353952301
 32
0.0
 13
14160.41723816815
 23
6774.206353952301
 33
0.0
  0
MTEXT
  5
170C
330
1706
100
AcDbEntity
  8
図面
 62
     1
100
AcDbMText
 10
13830.41723816815
 20
6787.206353952301
 30
0.0
 40
25.0
 41
0.0
 46
0.0
 71
     5
 72
     1
  1
\A1;660
  7
TextStyle01
 73
     1
 44
1.0
  0
POINT
  5
170D
330
1706
100
AcDbEntity
  8
Defpoints
 62
     0
100
AcDbPoint
 10
13500.41723816815
 20
6919.741409317328
 30
0.0
  0
POINT
  5
170E
330
1706
100
AcDbEntity
  8
Defpoints
 62
     0
100
AcDbPoint
 10
14160.41723816815
 20
6919.741409317328
 30
0.0
  0
POINT
  5
170F
330
1706
100
AcDbEntity
  8
Defpoints
 62
     0
100
AcDbPoint
 10
14160.41723816815
 20
6774.206353952301
 30
0.0
  0
ENDBLK
  5
1711
330
1706
100
AcDbEntity
  8
0
100
AcDbBlockEnd
  0
BLOCK
  5
171E
330
1714
100
AcDbEntity
  8
0
100
AcDbBlockBegin
  2
*D4
 70
     1
 10
0.0
 20
0.0
 30
0.0
  3
*D4
  1

  0
LINE
  5
1715
330
1714
100
AcDbEntity
  8
図面
 62
     1
370
    -2
100
AcDbLine
 10
14382.91723816815
 20
6950.678909317328
 30
0.0
 11
14382.91723816815
 21
6773.206353952301
 31
0.0
  0
LINE
  5
1716
330
1714
100
AcDbEntity
  8
図面
 62
     1
370
    -2
100
AcDbLine
 10
15367.91723816815
 20
6950.678909317328
 30
0.0
 11
15367.91723816815
 21
6773.206353952301
 31
0.0
  0
LINE
  5
1717
330
1714
100
AcDbEntity
  8
図面
 62
     1
370
    -2
100
AcDbLine
 10
14402.91723816815
 20
6773.706353952301
 30
0.0
 11
15347.91723816815
 21
6773.706353952301
 31
0.0
  0
SOLID
  5
1718
330
1714
100
AcDbEntity
  8
図面
 62
     1
100
AcDbTrace
 10
14402.91723816815
 20
6777.039687285634
 30
0.0
 11
14402.91723816815
 21
6770.373020618968
 31
0.0
 12
14382.91723816815
 22
6773.706353952301
 32
0.0
 13
14382.91723816815
 23
6773.706353952301
 33
0.0
  0
SOLID
  5
1719
330
1714
100
AcDbEntity
  8
図面
 62
     1
100
AcDbTrace
 10
15347.91723816815
 20
6777.039687285634
 30
0.0
 11
15347.91723816815
 21
6770.373020618968
 31
0.0
 12
15367.91723816815
 22
6773.706353952301
 32
0.0
 13
15367.91723816815
 23
6773.706353952301
 33
0.0
  0
MTEXT
  5
171A
330
1714
100
AcDbEntity
  8
図面
 62
     1
100
AcDbMText
 10
14875.41723816815
 20
6786.706353952301
 30
0.0
 40
25.0
 41
0.0
 46
0.0
 71
     5
 72
     1
  1
\A1;985
  7
TextStyle01
 73
     1
 44
1.0
  0
POINT
  5
171B
330
1714
100
AcDbEntity
  8
Defpoints
 62
     0
100
AcDbPoint
 10
14382.91723816815
 20
6950.741409317328
 30
0.0
  0
POINT
  5
171C
330
1714
100
AcDbEntity
  8
Defpoints
 62
     0
100
AcDbPoint
 10
15367.91723816815
 20
6950.741409317328
 30
0.0
  0
POINT
  5
171D
330
1714
100
AcDbEntity
  8
Defpoints
 62
     0
100
AcDbPoint
 10
15367.91723816815
 20
6773.706353952301
 30
0.0
  0
ENDBLK
  5
171F
330
1714
100
AcDbEntity
  8
0
100
AcDbBlockEnd
  0
BLOCK
  5
19F1
330
19E7
100
AcDbEntity
  8
0
100
AcDbBlockBegin
  2
*D5
 70
     1
 10
0.0
 20
0.0
 30
0.0
  3
*D5
  1

  0
LINE
  5
19E8
330
19E7
100
AcDbEntity
  8
図面
 62
     1
370
    -2
100
AcDbLine
 10
13535.29223816815
 20
6864.741409317328
 30
0.0
 11
13353.32924527427
 21
6864.741409317328
 31
0.0
  0
LINE
  5
19E9
330
19E7
100
AcDbEntity
  8
図面
 62
     1
370
    -2
100
AcDbLine
 10
13607.85473816815
 20
7909.741409317328
 30
0.0
 11
13353.32924527427
 21
7909.741409317328
 31
0.0
  0
LINE
  5
19EA
330
19E7
100
AcDbEntity
  8
図面
 62
     1
370
    -2
100
AcDbLine
 10
13353.82924527427
 20
6884.741409317328
 30
0.0
 11
13353.82924527427
 21
7889.741409317328
 31
0.0
  0
SOLID
  5
19EB
330
19E7
100
AcDbEntity
  8
図面
 62
     1
100
AcDbTrace
 10
13350.49591194093
 20
6884.741409317328
 30
0.0
 11
13357.1625786076
 21
6884.741409317328
 31
0.0
 12
13353.82924527427
 22
6864.741409317328
 32
0.0
 13
13353.82924527427
 23
6864.741409317328
 33
0.0
  0
SOLID
  5
19EC
330
19E7
100
AcDbEntity
  8
図面
 62
     1
100
AcDbTrace
 10
13350.49591194093
 20
7889.741409317328
 30
0.0
 11
13357.1625786076
 21
7889.741409317328
 31
0.0
 12
13353.82924527427
 22
7909.741409317328
 32
0.0
 13
13353.82924527427
 23
7909.741409317328
 33
0.0
  0
MTEXT
  5
19ED
330
19E7
100
AcDbEntity
  8
図面
 62
     1
100
AcDbMText
 10
13340.82924527427
 20
7387.24140931733
 30
0.0
 40
25.0
 41
0.0
 46
0.0
 71
     5
 72
     1
  1
\A1;1045
  7
TextStyle01
 11
6.123031769111886E-17
 21
1.0
 31
0.0
 73
     1
 44
1.0
  0
POINT
  5
19EE
330
19E7
100
AcDbEntity
  8
Defpoints
 62
     0
100
AcDbPoint
 10
13535.35473816815
 20
6864.741409317328
 30
0.0
  0
POINT
  5
19EF
330
19E7
100
AcDbEntity
  8
Defpoints
 62
     0
100
AcDbPoint
 10
13607.91723816815
 20
7909.741409317328
 30
0.0
  0
POINT
  5
19F0
330
19E7
100
AcDbEntity
  8
Defpoints
 62
     0
100
AcDbPoint
 10
13353.82924527427
 20
7909.741409317328
 30
0.0
  0
ENDBLK
  5
19F2
330
19E7
100
AcDbEntity
  8
0
100
AcDbBlockEnd
  0
BLOCK
  5
1D1A
330
1D10
100
AcDbEntity
  8
0
100
AcDbBlockBegin
  2
*D6
 70
     1
 10
0.0
 20
0.0
 30
0.0
  3
*D6
  1

  0
LINE
  5
1F62
330
1D10
100
AcDbEntity
  8
図面
 62
     1
370
    -2
100
AcDbLine
 10
23199.67439233952
 20
7774.2779590398
 30
0.0
 11
23199.67439233952
 21
7558.587441043299
 31
0.0
  0
LINE
  5
1F63
330
1D10
100
AcDbEntity
  8
図面
 62
     1
370
    -2
100
AcDbLine
 10
23914.67439233952
 20
7774.2779590398
 30
0.0
 11
23914.67439233952
 21
7558.587441043299
 31
0.0
  0
LINE
  5
1F64
330
1D10
100
AcDbEntity
  8
図面
 62
     1
370
    -2
100
AcDbLine
 10
23219.67439233952
 20
7559.087441043299
 30
0.0
 11
23894.67439233952
 21
7559.087441043299
 31
0.0
  0
SOLID
  5
1F65
330
1D10
100
AcDbEntity
  8
図面
 62
     1
100
AcDbTrace
 10
23219.67439233952
 20
7562.420774376632
 30
0.0
 11
23219.67439233952
 21
7555.754107709966
 31
0.0
 12
23199.67439233952
 22
7559.087441043299
 32
0.0
 13
23199.67439233952
 23
7559.087441043299
 33
0.0
  0
SOLID
  5
1F66
330
1D10
100
AcDbEntity
  8
図面
 62
     1
100
AcDbTrace
 10
23894.67439233952
 20
7562.420774376632
 30
0.0
 11
23894.67439233952
 21
7555.754107709966
 31
0.0
 12
23914.67439233952
 22
7559.087441043299
 32
0.0
 13
23914.67439233952
 23
7559.087441043299
 33
0.0
  0
MTEXT
  5
1F67
330
1D10
100
AcDbEntity
  8
図面
 62
     1
100
AcDbMText
 10
23557.17439233952
 20
7572.087441043299
 30
0.0
 40
25.0
 41
0.0
 46
0.0
 71
     5
 72
     1
  1
\A1;715
  7
TextStyle01
 73
     1
 44
1.0
  0
POINT
  5
1F68
330
1D10
100
AcDbEntity
  8
Defpoints
 62
     0
100
AcDbPoint
 10
23199.67439233952
 20
7774.3404590398
 30
0.0
  0
POINT
  5
1F69
330
1D10
100
AcDbEntity
  8
Defpoints
 62
     0
100
AcDbPoint
 10
23914.67439233952
 20
7774.3404590398
 30
0.0
  0
POINT
  5
1F6A
330
1D10
100
AcDbEntity
  8
Defpoints
 62
     0
100
AcDbPoint
 10
23914.67439233952
 20
7559.087441043299
 30
0.0
  0
ENDBLK
  5
1D1B
330
1D10
100
AcDbEntity
  8
0
100
AcDbBlockEnd
  0
BLOCK
  5
1D27
330
1D1D
100
AcDbEntity
  8
0
100
AcDbBlockBegin
  2
*D7
 70
     1
 10
0.0
 20
0.0
 30
0.0
  3
*D7
  1

  0
LINE
  5
1F6B
330
1D1D
100
AcDbEntity
  8
図面
 62
     1
370
    -2
100
AcDbLine
 10
23050.17439233952
 20
8092.7779590398
 30
0.0
 11
23050.17439233952
 21
7498.362723732514
 31
0.0
  0
LINE
  5
1F6C
330
1D1D
100
AcDbEntity
  8
図面
 62
     1
370
    -2
100
AcDbLine
 10
24044.67439233951
 20
8114.233464388652
 30
0.0
 11
24044.67439233951
 21
7498.362723732514
 31
0.0
  0
LINE
  5
1F6D
330
1D1D
100
AcDbEntity
  8
図面
 62
     1
370
    -2
100
AcDbLine
 10
23070.17439233952
 20
7498.862723732514
 30
0.0
 11
24024.67439233951
 21
7498.862723732514
 31
0.0
  0
SOLID
  5
1F6E
330
1D1D
100
AcDbEntity
  8
図面
 62
     1
100
AcDbTrace
 10
23070.17439233952
 20
7502.196057065848
 30
0.0
 11
23070.17439233952
 21
7495.529390399181
 31
0.0
 12
23050.17439233952
 22
7498.862723732514
 32
0.0
 13
23050.17439233952
 23
7498.862723732514
 33
0.0
  0
SOLID
  5
1F6F
330
1D1D
100
AcDbEntity
  8
図面
 62
     1
100
AcDbTrace
 10
24024.67439233951
 20
7502.196057065848
 30
0.0
 11
24024.67439233951
 21
7495.529390399181
 31
0.0
 12
24044.67439233951
 22
7498.862723732514
 32
0.0
 13
24044.67439233951
 23
7498.862723732514
 33
0.0
  0
MTEXT
  5
1F70
330
1D1D
100
AcDbEntity
  8
図面
 62
     1
100
AcDbMText
 10
23547.42439233951
 20
7511.862723732514
 30
0.0
 40
25.0
 41
0.0
 46
0.0
 71
     5
 72
     1
  1
\A1;995
  7
TextStyle01
 73
     1
 44
1.0
  0
POINT
  5
1F71
330
1D1D
100
AcDbEntity
  8
Defpoints
 62
     0
100
AcDbPoint
 10
23050.17439233952
 20
8092.8404590398
 30
0.0
  0
POINT
  5
1F72
330
1D1D
100
AcDbEntity
  8
Defpoints
 62
     0
100
AcDbPoint
 10
24044.67439233951
 20
8114.295964388652
 30
0.0
  0
POINT
  5
1F73
330
1D1D
100
AcDbEntity
  8
Defpoints
 62
     0
100
AcDbPoint
 10
24044.67439233951
 20
7498.862723732514
 30
0.0
  0
ENDBLK
  5
1D28
330
1D1D
100
AcDbEntity
  8
0
100
AcDbBlockEnd
  0
BLOCK
  5
1D34
330
1D2A
100
AcDbEntity
  8
0
100
AcDbBlockBegin
  2
*D8
 70
     1
 10
0.0
 20
0.0
 30
0.0
  3
*D8
  1

  0
LINE
  5
1F8F
330
1D2A
100
AcDbEntity
  8
図面
 62
     1
370
    -2
100
AcDbLine
 10
22033.34075903826
 20
7774.3404590398
 30
0.0
 11
21949.79849243573
 21
7774.3404590398
 31
0.0
  0
LINE
  5
1F90
330
1D2A
100
AcDbEntity
  8
図面
 62
     1
370
    -2
100
AcDbLine
 10
22043.09075903826
 20
8521.8404590398
 30
0.0
 11
21949.79849243574
 21
8521.8404590398
 31
0.0
  0
LINE
  5
1F91
330
1D2A
100
AcDbEntity
  8
図面
 62
     1
370
    -2
100
AcDbLine
 10
21950.29849243573
 20
7794.3404590398
 30
0.0
 11
21950.29849243574
 21
8501.8404590398
 31
0.0
  0
SOLID
  5
1F92
330
1D2A
100
AcDbEntity
  8
図面
 62
     1
100
AcDbTrace
 10
21946.9651591024
 20
7794.3404590398
 30
0.0
 11
21953.63182576907
 21
7794.3404590398
 31
0.0
 12
21950.29849243573
 22
7774.3404590398
 32
0.0
 13
21950.29849243573
 23
7774.3404590398
 33
0.0
  0
SOLID
  5
1F93
330
1D2A
100
AcDbEntity
  8
図面
 62
     1
100
AcDbTrace
 10
21946.9651591024
 20
8501.8404590398
 30
0.0
 11
21953.63182576907
 21
8501.8404590398
 31
0.0
 12
21950.29849243574
 22
8521.8404590398
 32
0.0
 13
21950.29849243574
 23
8521.8404590398
 33
0.0
  0
MTEXT
  5
1F94
330
1D2A
100
AcDbEntity
  8
図面
 62
     1
100
AcDbMText
 10
21937.29849243573
 20
8148.090459039805
 30
0.0
 40
25.0
 41
0.0
 46
0.0
 71
     5
 72
     1
  1
\A1;748
  7
TextStyle01
 11
6.123233995736766E-17
 21
1.0
 31
0.0
 73
     1
 44
1.0
  0
POINT
  5
1F95
330
1D2A
100
AcDbEntity
  8
Defpoints
 62
     0
100
AcDbPoint
 10
22033.40325903826
 20
7774.3404590398
 30
0.0
  0
POINT
  5
1F96
330
1D2A
100
AcDbEntity
  8
Defpoints
 62
     0
100
AcDbPoint
 10
22043.15325903826
 20
8521.8404590398
 30
0.0
  0
POINT
  5
1F97
330
1D2A
100
AcDbEntity
  8
Defpoints
 62
     0
100
AcDbPoint
 10
21950.29849243574
 20
8521.8404590398
 30
0.0
  0
ENDBLK
  5
1D35
330
1D2A
100
AcDbEntity
  8
0
100
AcDbBlockEnd
  0
BLOCK
  5
1D41
330
1D37
100
AcDbEntity
  8
0
100
AcDbBlockBegin
  2
*D9
 70
     1
 10
0.0
 20
0.0
 30
0.0
  3
*D9
  1

  0
LINE
  5
1F98
330
1D37
100
AcDbEntity
  8
図面
 62
     1
370
    -2
100
AcDbLine
 10
22023.65325903826
 20
8502.4029590398
 30
0.0
 11
22023.65325903826
 21
8600.426193841427
 31
0.0
  0
LINE
  5
1F99
330
1D37
100
AcDbEntity
  8
図面
 62
     1
370
    -2
100
AcDbLine
 10
22647.65325903826
 20
8502.4029590398
 30
0.0
 11
22647.65325903826
 21
8600.426193841427
 31
0.0
  0
LINE
  5
1F9A
330
1D37
100
AcDbEntity
  8
図面
 62
     1
370
    -2
100
AcDbLine
 10
22043.65325903826
 20
8599.926193841427
 30
0.0
 11
22627.65325903826
 21
8599.926193841427
 31
0.0
  0
SOLID
  5
1F9B
330
1D37
100
AcDbEntity
  8
図面
 62
     1
100
AcDbTrace
 10
22043.65325903826
 20
8603.259527174761
 30
0.0
 11
22043.65325903826
 21
8596.592860508094
 31
0.0
 12
22023.65325903826
 22
8599.926193841427
 32
0.0
 13
22023.65325903826
 23
8599.926193841427
 33
0.0
  0
SOLID
  5
1F9C
330
1D37
100
AcDbEntity
  8
図面
 62
     1
100
AcDbTrace
 10
22627.65325903826
 20
8603.259527174761
 30
0.0
 11
22627.65325903826
 21
8596.592860508094
 31
0.0
 12
22647.65325903826
 22
8599.926193841427
 32
0.0
 13
22647.65325903826
 23
8599.926193841427
 33
0.0
  0
MTEXT
  5
1F9D
330
1D37
100
AcDbEntity
  8
図面
 62
     1
100
AcDbMText
 10
22335.65325903826
 20
8612.926193841427
 30
0.0
 40
25.0
 41
0.0
 46
0.0
 71
     5
 72
     1
  1
\A1;624
  7
TextStyle01
 73
     1
 44
1.0
  0
POINT
  5
1F9E
330
1D37
100
AcDbEntity
  8
Defpoints
 62
     0
100
AcDbPoint
 10
22023.65325903826
 20
8502.3404590398
 30
0.0
  0
POINT
  5
1F9F
330
1D37
100
AcDbEntity
  8
Defpoints
 62
     0
100
AcDbPoint
 10
22647.65325903826
 20
8502.3404590398
 30
0.0
  0
POINT
  5
1FA0
330
1D37
100
AcDbEntity
  8
Defpoints
 62
     0
100
AcDbPoint
 10
22647.65325903826
 20
8599.926193841427
 30
0.0
  0
ENDBLK
  5
1D42
330
1D37
100
AcDbEntity
  8
0
100
AcDbBlockEnd
  0
BLOCK
  5
1E1A
330
1E10
100
AcDbEntity
  8
0
100
AcDbBlockBegin
  2
*D10
 70
     1
 10
0.0
 20
0.0
 30
0.0
  3
*D10
  1

  0
LINE
  5
1FA1
330
1E10
100
AcDbEntity
  8
図面
 62
     1
370
    -2
100
AcDbLine
 10
22023.65325903826
 20
8502.2779590398
 30
0.0
 11
22023.65325903826
 21
7497.712723732515
 31
0.0
  0
LINE
  5
1FA2
330
1E10
100
AcDbEntity
  8
図面
 62
     1
370
    -2
100
AcDbLine
 10
22738.65325846221
 20
8099.5642105853
 30
0.0
 11
22738.65325846221
 21
7497.712723732515
 31
0.0
  0
LINE
  5
1FA3
330
1E10
100
AcDbEntity
  8
図面
 62
     1
370
    -2
100
AcDbLine
 10
22043.65325903826
 20
7498.212723732515
 30
0.0
 11
22718.65325846221
 21
7498.212723732515
 31
0.0
  0
SOLID
  5
1FA4
330
1E10
100
AcDbEntity
  8
図面
 62
     1
100
AcDbTrace
 10
22043.65325903826
 20
7501.546057065848
 30
0.0
 11
22043.65325903826
 21
7494.879390399182
 31
0.0
 12
22023.65325903826
 22
7498.212723732515
 32
0.0
 13
22023.65325903826
 23
7498.212723732515
 33
0.0
  0
SOLID
  5
1FA5
330
1E10
100
AcDbEntity
  8
図面
 62
     1
100
AcDbTrace
 10
22718.65325846221
 20
7501.546057065848
 30
0.0
 11
22718.65325846221
 21
7494.879390399182
 31
0.0
 12
22738.65325846221
 22
7498.212723732515
 32
0.0
 13
22738.65325846221
 23
7498.212723732515
 33
0.0
  0
MTEXT
  5
1FA6
330
1E10
100
AcDbEntity
  8
図面
 62
     1
100
AcDbMText
 10
22381.15325875023
 20
7511.212723732515
 30
0.0
 40
25.0
 41
0.0
 46
0.0
 71
     5
 72
     1
  1
\A1;715
  7
TextStyle01
 73
     1
 44
1.0
  0
POINT
  5
1FA7
330
1E10
100
AcDbEntity
  8
Defpoints
 62
     0
100
AcDbPoint
 10
22023.65325903826
 20
8502.3404590398
 30
0.0
  0
POINT
  5
1FA8
330
1E10
100
AcDbEntity
  8
Defpoints
 62
     0
100
AcDbPoint
 10
22738.65325846221
 20
8099.6267105853
 30
0.0
  0
POINT
  5
1FA9
330
1E10
100
AcDbEntity
  8
Defpoints
 62
     0
100
AcDbPoint
 10
22738.65325846221
 20
7498.212723732515
 30
0.0
  0
ENDBLK
  5
1E1B
330
1E10
100
AcDbEntity
  8
0
100
AcDbBlockEnd
  0
ENDSEC
  0
SECTION
  2
ENTITIES
  0
LINE
  5
6B
330
1E
100
AcDbEntity
  8
図面枠
  6
Continuous
100
AcDbLine
 10
15949.99925775742
 20
6480.884452965809
 30
0.0
 11
15949.99925775742
 21
6580.884452965809
 31
0.0
  0
LINE
  5
6D
330
1E
100
AcDbEntity
  8
図面枠
  6
Continuous
100
AcDbLine
 10
15949.99925775742
 20
6611.884452965809
 30
0.0
 11
15949.99925775742
 21
6461.884452965809
 31
0.0
  0
LINE
  5
6F
330
1E
100
AcDbEntity
  8
図面枠
  6
Continuous
100
AcDbLine
 10
16089.99925775742
 20
6511.884452965809
 30
0.0
 11
16089.99925775742
 21
6611.884452965809
 31
0.0
  0
LINE
  5
71
330
1E
100
AcDbEntity
  8
図面枠
  6
Continuous
100
AcDbLine
 10
16089.99925775742
 20
6611.884452965809
 30
0.0
 11
16089.99925775742
 21
6511.884452965809
 31
0.0
  0
LINE
  5
7F
330
1E
100
AcDbEntity
  8
図面枠
  6
Continuous
100
AcDbLine
 10
16089.99925775742
 20
6511.884452965809
 30
0.0
 11
16089.99925775742
 21
6461.884452965809
 31
0.0
  0
LINE
  5
83
330
1E
100
AcDbEntity
  8
図面枠
  6
Continuous
100
AcDbLine
 10
16089.99925775742
 20
6561.884452965809
 30
0.0
 11
16089.99925775742
 21
6511.884452965809
 31
0.0
  0
LINE
  5
87
330
1E
100
AcDbEntity
  8
図面枠
  6
Continuous
100
AcDbLine
 10
16089.99925775742
 20
6611.884452965809
 30
0.0
 11
16089.99925775742
 21
6561.884452965809
 31
0.0
  0
LINE
  5
89
330
1E
100
AcDbEntity
  8
図面枠
  6
Continuous
100
AcDbLine
 10
16089.99925775742
 20
6611.884452965809
 30
0.0
 11
16089.99925775742
 21
6461.884452965809
 31
0.0
  0
LINE
  5
8B
330
1E
100
AcDbEntity
  8
図面枠
  6
Continuous
100
AcDbLine
 10
16139.99925775742
 20
6461.884452965809
 30
0.0
 11
16139.99925775742
 21
6611.884452965809
 31
0.0
  0
LINE
  5
8C
330
1E
100
AcDbEntity
  8
図面枠
  6
Continuous
100
AcDbLine
 10
16139.99925775742
 20
6611.884452965809
 30
0.0
 11
16089.99925775742
 21
6611.884452965809
 31
0.0
  0
LINE
  5
8D
330
1E
100
AcDbEntity
  8
図面枠
  6
Continuous
100
AcDbLine
 10
16139.99925775742
 20
6461.884452965809
 30
0.0
 11
16139.99925775742
 21
6611.884452965809
 31
0.0
  0
LINE
  5
8E
330
1E
100
AcDbEntity
  8
図面枠
  6
Continuous
100
AcDbLine
 10
16139.99925775742
 20
6611.884452965809
 30
0.0
 11
16799.99925775742
 21
6611.884452965809
 31
0.0
  0
LINE
  5
94
330
1E
100
AcDbEntity
  8
図面枠
  6
Continuous
100
AcDbLine
 10
16799.99925775742
 20
6611.884452965809
 30
0.0
 11
15949.99925775742
 21
6611.884452965809
 31
0.0
  0
LINE
  5
A4
330
1E
100
AcDbEntity
  8
図面枠
  6
Continuous
100
AcDbLine
 10
15949.99925775742
 20
6530.884452965809
 30
0.0
 11
16089.99925775742
 21
6530.884452965809
 31
0.0
  0
LINE
  5
A5
330
1E
100
AcDbEntity
  8
図面枠
  6
Continuous
100
AcDbLine
 10
16169.99925775742
 20
6530.884452965809
 30
0.0
 11
16767.99925775742
 21
6530.884452965809
 31
0.0
  0
TEXT
  5
130
330
1E
100
AcDbEntity
  8
図面枠
100
AcDbText
 10
15967.69258680802
 20
6535.48016555805
 30
0.0
 40
40.0
  1
尺度
 41
1.125
100
AcDbText
  0
TEXT
  5
131
330
1E
100
AcDbEntity
  8
図面枠
100
AcDbText
 10
16093.29481045782
 20
6592.506967377604
 30
0.0
 40
40.0
  1
名 称
 50
270.0
100
AcDbText
  0
TEXT
  5
150
330
1E
100
AcDbEntity
  8
図面枠
100
AcDbText
 10
15958.17610425453
 20
6486.271843732058
 30
0.0
 40
30.0
  1
１：１0
100
AcDbText
  0
LINE
  5
366
330
1E
100
AcDbEntity
  8
図面
100
AcDbLine
 10
14382.91723816815
 20
8124.741409317328
 30
0.0
 11
15367.91723816815
 21
8124.741409317328
 31
0.0
  0
LINE
  5
369
330
1E
100
AcDbEntity
  8
図面
100
AcDbLine
 10
15367.91723816815
 20
8629.741409317328
 30
0.0
 11
14382.91723816815
 21
8629.741409317328
 31
0.0
  0
LINE
  5
36A
330
1E
100
AcDbEntity
  8
図面
100
AcDbLine
 10
14382.91723816815
 20
8629.741409317328
 30
0.0
 11
14382.91723816815
 21
8124.741409317328
 31
0.0
  0
CIRCLE
  5
37D
330
1E
100
AcDbEntity
  8
0
100
AcDbCircle
 10
15259.91723816815
 20
8569.741409317328
 30
0.0
 40
40.0000125
  0
LWPOLYLINE
  5
37E
330
1E
100
AcDbEntity
  8
0
100
AcDbPolyline
 90
        8
 70
     1
 43
0.0
 10
15259.91723816815
 20
8604.63152181733
 10
15284.58826316815
 20
8594.412434317328
 10
15294.80735066815
 20
8569.741409317328
 10
15284.58826316815
 20
8545.070346817329
 10
15259.91723816815
 20
8534.85129681733
 10
15235.24617566815
 20
8545.070346817329
 10
15225.02712566815
 20
8569.741409317328
 10
15235.24617566815
 20
8594.412434317328
  0
INSERT
  5
37F
330
1E
100
AcDbEntity
  8
HOJO_0
100
AcDbBlockReference
  2
*G1
 10
12251.32160620783
 20
9233.345434670591
 30
0.0
  0
LINE
  5
388
330
1E
100
AcDbEntity
  8
図面
100
AcDbLine
 10
15367.91723816815
 20
8629.741409317328
 30
0.0
 11
15367.91723816815
 21
8124.741409317328
 31
0.0
  0
LINE
  5
389
330
1E
100
AcDbEntity
  8
図面
100
AcDbLine
 10
14382.91723816815
 20
7824.741409317328
 30
0.0
 11
14382.91723816815
 21
7270.741409317328
 31
0.0
  0
LINE
  5
38A
330
1E
100
AcDbEntity
  8
図面
100
AcDbLine
 10
14382.91723816815
 20
7270.741409317328
 30
0.0
 11
15367.91723816815
 21
7270.741409317328
 31
0.0
  0
LINE
  5
38B
330
1E
100
AcDbEntity
  8
図面
100
AcDbLine
 10
15367.91723816815
 20
7270.741409317328
 30
0.0
 11
15367.91723816815
 21
7824.741409317328
 31
0.0
  0
LINE
  5
38C
330
1E
100
AcDbEntity
  8
図面
100
AcDbLine
 10
15367.91723816815
 20
7824.741409317328
 30
0.0
 11
14382.91723816815
 21
7824.741409317328
 31
0.0
  0
LINE
  5
38D
330
1E
100
AcDbEntity
  8
図面
100
AcDbLine
 10
15367.91723816815
 20
7270.741409317328
 30
0.0
 11
15367.91723816815
 21
6950.741409317328
 31
0.0
  0
LINE
  5
38E
330
1E
100
AcDbEntity
  8
図面
100
AcDbLine
 10
15367.91723816815
 20
6950.741409317328
 30
0.0
 11
15344.76382255242
 21
6950.741409317328
 31
0.0
  0
LINE
  5
38F
330
1E
100
AcDbEntity
  8
図面
100
AcDbLine
 10
14382.91723816815
 20
6950.741409317328
 30
0.0
 11
14382.91723816815
 21
7270.741409317328
 31
0.0
  0
LINE
  5
397
330
1E
100
AcDbEntity
  8
図面
100
AcDbLine
 10
14437.91723816815
 20
7764.741409317328
 30
0.0
 11
14437.91723816815
 21
7324.741409317328
 31
0.0
  0
LINE
  5
398
330
1E
100
AcDbEntity
  8
図面
100
AcDbLine
 10
14437.91723816815
 20
7324.741409317328
 30
0.0
 11
14897.91723816815
 21
7324.741409317328
 31
0.0
  0
LINE
  5
399
330
1E
100
AcDbEntity
  8
図面
100
AcDbLine
 10
14897.91723816815
 20
7324.741409317328
 30
0.0
 11
14897.91723816815
 21
7764.741409317328
 31
0.0
  0
LINE
  5
39A
330
1E
100
AcDbEntity
  8
図面
100
AcDbLine
 10
14897.91723816815
 20
7764.741409317328
 30
0.0
 11
14437.91723816815
 21
7764.741409317328
 31
0.0
  0
LINE
  5
39C
330
1E
100
AcDbEntity
  8
図面
100
AcDbLine
 10
14442.91723816815
 20
7329.741409317328
 30
0.0
 11
14892.91723816815
 21
7329.741409317328
 31
0.0
  0
LINE
  5
39D
330
1E
100
AcDbEntity
  8
図面
100
AcDbLine
 10
14892.91723816815
 20
7329.741409317328
 30
0.0
 11
14892.91723816815
 21
7759.741409317328
 31
0.0
  0
LINE
  5
39E
330
1E
100
AcDbEntity
  8
図面
100
AcDbLine
 10
14892.91723816815
 20
7759.741409317328
 30
0.0
 11
14442.91723816815
 21
7759.741409317328
 31
0.0
  0
LINE
  5
39F
330
1E
100
AcDbEntity
  8
図面
100
AcDbLine
 10
14442.91723816815
 20
7759.741409317328
 30
0.0
 11
14442.91723816815
 21
7329.741409317328
 31
0.0
  0
LINE
  5
3A2
330
1E
100
AcDbEntity
  8
図面
100
AcDbLine
 10
14922.91723816815
 20
7824.741409317328
 30
0.0
 11
14922.91723816815
 21
7270.741409317328
 31
0.0
  0
LINE
  5
3AD
330
1E
100
AcDbEntity
  8
図面
100
AcDbLine
 10
14617.91723816815
 20
7260.741409317328
 30
0.0
 11
14617.91723816815
 21
6960.741409317328
 31
0.0
  0
LINE
  5
3AE
330
1E
100
AcDbEntity
  8
図面
100
AcDbLine
 10
14617.91723816815
 20
6960.741409317328
 30
0.0
 11
15236.81951588169
 21
6960.741409317327
 31
0.0
  0
LINE
  5
3B0
330
1E
100
AcDbEntity
  8
図面
100
AcDbLine
 10
15267.91723816815
 20
7260.741409317328
 30
0.0
 11
14617.91723816815
 21
7260.741409317328
 31
0.0
  0
LINE
  5
486
330
1E
100
AcDbEntity
  8
0
100
AcDbLine
 10
15251.41726316814
 20
7899.741396817328
 30
0.0
 11
15268.29226316814
 21
7899.741396817328
 31
0.0
  0
LINE
  5
487
330
1E
100
AcDbEntity
  8
0
100
AcDbLine
 10
15291.29225066815
 20
7899.741396817328
 30
0.0
 11
15299.91725066815
 21
7899.741396817328
 31
0.0
  0
LINE
  5
488
330
1E
100
AcDbEntity
  8
0
100
AcDbLine
 10
15299.91725066815
 20
7899.741396817328
 30
0.0
 11
15289.91723816815
 21
7909.741409317328
 31
0.0
  0
LINE
  5
489
330
1E
100
AcDbEntity
  8
0
100
AcDbLine
 10
15299.91725066815
 20
7899.741396817328
 30
0.0
 11
15299.91725066815
 21
7870.241421817327
 31
0.0
  0
LINE
  5
48A
330
1E
100
AcDbEntity
  8
0
100
AcDbLine
 10
15300.91726316814
 20
7870.241421817327
 30
0.0
 11
15300.91726316814
 21
7868.241396817328
 31
0.0
  0
LINE
  5
48B
330
1E
100
AcDbEntity
  8
0
100
AcDbLine
 10
15303.91724441815
 20
7824.741409317328
 30
0.0
 11
15303.91724441815
 21
7826.74139681733
 31
0.0
  0
LINE
  5
48C
330
1E
100
AcDbEntity
  8
0
100
AcDbLine
 10
15251.91725066815
 20
7897.741409317328
 30
0.0
 11
15251.91725066815
 21
7882.741409317328
 31
0.0
  0
LINE
  5
48D
330
1E
100
AcDbEntity
  8
0
100
AcDbLine
 10
15284.54225066815
 20
7899.741396817328
 30
0.0
 11
15277.54223816815
 21
7899.741396817328
 31
0.0
  0
LINE
  5
48E
330
1E
100
AcDbEntity
  8
0
100
AcDbLine
 10
15291.91726316814
 20
7897.741409317328
 30
0.0
 11
15291.91726316814
 21
7882.741409317328
 31
0.0
  0
LINE
  5
48F
330
1E
100
AcDbEntity
  8
0
100
AcDbLine
 10
15283.91723816815
 20
7897.741409317328
 30
0.0
 11
15283.91723816815
 21
7882.741409317328
 31
0.0
  0
LINE
  5
490
330
1E
100
AcDbEntity
  8
0
100
AcDbLine
 10
15277.91723816815
 20
7897.741409317328
 30
0.0
 11
15277.91723816815
 21
7882.741409317328
 31
0.0
  0
LINE
  5
491
330
1E
100
AcDbEntity
  8
0
100
AcDbLine
 10
15267.91726316814
 20
7897.741409317328
 30
0.0
 11
15267.91726316814
 21
7882.741409317328
 31
0.0
  0
LINE
  5
492
330
1E
100
AcDbEntity
  8
0
100
AcDbLine
 10
15289.91723816815
 20
7826.74139681733
 30
0.0
 11
15289.91723816815
 21
7868.241396817328
 31
0.0
  0
ARC
  5
493
330
1E
100
AcDbEntity
  8
0
100
AcDbCircle
 10
15272.9172671125
 20
7882.741415033885
 30
0.0
 40
5.000000000000005
100
AcDbArc
 50
180.0
 51
0.0
  0
ARC
  5
494
330
1E
100
AcDbEntity
  8
0
100
AcDbCircle
 10
15272.9172671125
 20
7897.741415017217
 30
0.0
 40
5.000000000000005
100
AcDbArc
 50
0.0
 51
180.0
  0
ARC
  5
495
330
1E
100
AcDbEntity
  8
0
100
AcDbCircle
 10
15287.9172671125
 20
7897.741415017217
 30
0.0
 40
4.000000000000004
100
AcDbArc
 50
0.0
 51
180.0
  0
ARC
  5
496
330
1E
100
AcDbEntity
  8
0
100
AcDbCircle
 10
15287.9172671125
 20
7882.741415033885
 30
0.0
 40
4.000000000000004
100
AcDbArc
 50
180.0
 51
0.0
  0
LINE
  5
497
330
1E
100
AcDbEntity
  8
HOJO_0
100
AcDbLine
 10
15259.91723816815
 20
7909.741409317328
 30
0.0
 11
15259.91723816815
 21
7858.241421817327
 31
0.0
  0
LINE
  5
498
330
1E
100
AcDbEntity
  8
0
100
AcDbLine
 10
15219.91726316814
 20
7899.741396817328
 30
0.0
 11
15228.41723816815
 21
7899.741396817328
 31
0.0
  0
LINE
  5
499
330
1E
100
AcDbEntity
  8
0
100
AcDbLine
 10
15235.29226316814
 20
7899.741396817328
 30
0.0
 11
15242.29223816815
 21
7899.741396817328
 31
0.0
  0
LINE
  5
49A
330
1E
100
AcDbEntity
  8
0
100
AcDbLine
 10
15219.91726316814
 20
7899.741396817328
 30
0.0
 11
15229.91723816815
 21
7909.741409317328
 31
0.0
  0
LINE
  5
49B
330
1E
100
AcDbEntity
  8
0
100
AcDbLine
 10
15219.91726316814
 20
7899.741396817328
 30
0.0
 11
15219.91726316814
 21
7870.241421817327
 31
0.0
  0
LINE
  5
49C
330
1E
100
AcDbEntity
  8
0
100
AcDbLine
 10
15218.91725066815
 20
7870.241421817327
 30
0.0
 11
15218.91725066815
 21
7868.241396817328
 31
0.0
  0
LINE
  5
49D
330
1E
100
AcDbEntity
  8
0
100
AcDbLine
 10
15215.91723191815
 20
7824.741409317328
 30
0.0
 11
15215.91723191815
 21
7826.74139681733
 31
0.0
  0
LINE
  5
49E
330
1E
100
AcDbEntity
  8
0
100
AcDbLine
 10
15229.91723816815
 20
7826.74139681733
 30
0.0
 11
15229.91723816815
 21
7868.241396817328
 31
0.0
  0
LINE
  5
49F
330
1E
100
AcDbEntity
  8
0
100
AcDbLine
 10
15227.91725066815
 20
7897.741409317328
 30
0.0
 11
15227.91725066815
 21
7882.741409317328
 31
0.0
  0
LINE
  5
4A0
330
1E
100
AcDbEntity
  8
0
100
AcDbLine
 10
15235.91723816815
 20
7897.741409317328
 30
0.0
 11
15235.91723816815
 21
7882.741409317328
 31
0.0
  0
LINE
  5
4A1
330
1E
100
AcDbEntity
  8
0
100
AcDbLine
 10
15241.91723816815
 20
7897.741409317328
 30
0.0
 11
15241.91723816815
 21
7882.741409317328
 31
0.0
  0
ARC
  5
4A2
330
1E
100
AcDbEntity
  8
0
100
AcDbCircle
 10
15231.9172671125
 20
7897.741415017217
 30
0.0
 40
4.000000000000004
100
AcDbArc
 50
0.0
 51
180.0
  0
ARC
  5
4A3
330
1E
100
AcDbEntity
  8
0
100
AcDbCircle
 10
15231.9172671125
 20
7882.741415033885
 30
0.0
 40
4.000000000000004
100
AcDbArc
 50
180.0
 51
0.0
  0
LINE
  5
4A4
330
1E
100
AcDbEntity
  8
0
100
AcDbLine
 10
15215.91723191815
 20
7824.741409317328
 30
0.0
 11
15303.91724441815
 21
7824.741409317328
 31
0.0
  0
LINE
  5
4A5
330
1E
100
AcDbEntity
  8
0
100
AcDbLine
 10
15229.91723816815
 20
7909.741409317328
 30
0.0
 11
15289.91723816815
 21
7909.741409317328
 31
0.0
  0
LINE
  5
4A6
330
1E
100
AcDbEntity
  8
0
100
AcDbLine
 10
15218.91725066815
 20
7870.241421817327
 30
0.0
 11
15300.91726316814
 21
7870.241421817327
 31
0.0
  0
LINE
  5
4A7
330
1E
100
AcDbEntity
  8
0
100
AcDbLine
 10
15218.91725066815
 20
7868.241396817328
 30
0.0
 11
15300.91726316814
 21
7868.241396817328
 31
0.0
  0
LINE
  5
4A8
330
1E
100
AcDbEntity
  8
0
100
AcDbLine
 10
15215.91723191815
 20
7826.74139681733
 30
0.0
 11
15303.91724441815
 21
7826.74139681733
 31
0.0
  0
ARC
  5
4A9
330
1E
100
AcDbEntity
  8
0
100
AcDbCircle
 10
15246.9172671125
 20
7897.741415017217
 30
0.0
 40
5.000000000000005
100
AcDbArc
 50
0.0
 51
180.0
  0
ARC
  5
4AA
330
1E
100
AcDbEntity
  8
0
100
AcDbCircle
 10
15246.9172671125
 20
7882.741415033885
 30
0.0
 40
5.000000000000005
100
AcDbArc
 50
180.0
 51
0.0
  0
ARC
  5
4B3
330
1E
100
AcDbEntity
  8
0
100
AcDbCircle
 10
15257.91719980608
 20
7450.741392075946
 30
0.0
 40
20.0
100
AcDbArc
 50
0.0
 51
90.0
  0
ARC
  5
4B4
330
1E
100
AcDbEntity
  8
0
100
AcDbCircle
 10
15147.91721230608
 20
7450.741392075946
 30
0.0
 40
20.0
100
AcDbArc
 50
90.0
 51
180.0
  0
LINE
  5
4B5
330
1E
100
AcDbEntity
  8
0
100
AcDbLine
 10
15127.91723816815
 20
7450.741409317328
 30
0.0
 11
15277.91723816815
 21
7450.741409317328
 31
0.0
  0
LINE
  5
4B6
330
1E
100
AcDbEntity
  8
0
100
AcDbLine
 10
15127.91723816815
 20
7405.741409317328
 30
0.0
 11
15277.91723816815
 21
7405.741409317328
 31
0.0
  0
ARC
  5
4B7
330
1E
100
AcDbEntity
  8
0
100
AcDbCircle
 10
15147.91721230608
 20
7405.741392075946
 30
0.0
 40
20.0
100
AcDbArc
 50
90.0
 51
180.0
  0
LINE
  5
4B8
330
1E
100
AcDbEntity
  8
0
100
AcDbLine
 10
15127.91723816815
 20
7450.741409317328
 30
0.0
 11
15127.91723816815
 21
7450.741409317328
 31
0.0
  0
LINE
  5
4B9
330
1E
100
AcDbEntity
  8
0
100
AcDbLine
 10
15127.91723816815
 20
7405.741409317328
 30
0.0
 11
15127.91723816815
 21
7405.741409317328
 31
0.0
  0
LINE
  5
4BA
330
1E
100
AcDbEntity
  8
0
100
AcDbLine
 10
15147.91722566815
 20
7425.741396817328
 30
0.0
 11
15257.91721316815
 21
7425.741396817328
 31
0.0
  0
LINE
  5
4BB
330
1E
100
AcDbEntity
  8
0
100
AcDbLine
 10
15277.91723816815
 20
7450.741409317328
 30
0.0
 11
15277.91723816815
 21
7450.741409317328
 31
0.0
  0
ARC
  5
4BC
330
1E
100
AcDbEntity
  8
0
100
AcDbCircle
 10
15257.91719980608
 20
7405.741392075946
 30
0.0
 40
20.0
100
AcDbArc
 50
0.0
 51
90.0
  0
LINE
  5
4BD
330
1E
100
AcDbEntity
  8
0
100
AcDbLine
 10
15277.91723816815
 20
7405.741409317328
 30
0.0
 11
15277.91723816815
 21
7405.741409317328
 31
0.0
  0
ARC
  5
4BE
330
1E
100
AcDbEntity
  8
0
100
AcDbCircle
 10
15257.91719980608
 20
7630.741392075946
 30
0.0
 40
20.0
100
AcDbArc
 50
0.0
 51
90.0
  0
ARC
  5
4BF
330
1E
100
AcDbEntity
  8
0
100
AcDbCircle
 10
15147.91721230608
 20
7630.741392075946
 30
0.0
 40
20.0
100
AcDbArc
 50
90.0
 51
180.0
  0
LINE
  5
4C0
330
1E
100
AcDbEntity
  8
0
100
AcDbLine
 10
15127.91723816815
 20
7630.741409317328
 30
0.0
 11
15277.91723816815
 21
7630.741409317328
 31
0.0
  0
LINE
  5
4C1
330
1E
100
AcDbEntity
  8
0
100
AcDbLine
 10
15127.91723816815
 20
7585.741409317328
 30
0.0
 11
15277.91723816815
 21
7585.741409317328
 31
0.0
  0
ARC
  5
4C2
330
1E
100
AcDbEntity
  8
0
100
AcDbCircle
 10
15147.91721230608
 20
7585.741392075946
 30
0.0
 40
20.0
100
AcDbArc
 50
90.0
 51
180.0
  0
LINE
  5
4C3
330
1E
100
AcDbEntity
  8
0
100
AcDbLine
 10
15127.91723816815
 20
7540.741409317328
 30
0.0
 11
15277.91723816815
 21
7540.741409317328
 31
0.0
  0
ARC
  5
4C4
330
1E
100
AcDbEntity
  8
0
100
AcDbCircle
 10
15147.91721230608
 20
7540.741392075946
 30
0.0
 40
20.0
100
AcDbArc
 50
90.0
 51
180.0
  0
LINE
  5
4C5
330
1E
100
AcDbEntity
  8
0
100
AcDbLine
 10
15127.91723816815
 20
7495.741409317328
 30
0.0
 11
15277.91723816815
 21
7495.741409317328
 31
0.0
  0
ARC
  5
4C6
330
1E
100
AcDbEntity
  8
0
100
AcDbCircle
 10
15147.91721230608
 20
7495.741392075946
 30
0.0
 40
20.0
100
AcDbArc
 50
90.0
 51
180.0
  0
LINE
  5
4C7
330
1E
100
AcDbEntity
  8
0
100
AcDbLine
 10
15127.91723816815
 20
7540.741409317328
 30
0.0
 11
15127.91723816815
 21
7540.741409317328
 31
0.0
  0
LINE
  5
4C8
330
1E
100
AcDbEntity
  8
0
100
AcDbLine
 10
15127.91723816815
 20
7495.741409317328
 30
0.0
 11
15127.91723816815
 21
7495.741409317328
 31
0.0
  0
LINE
  5
4C9
330
1E
100
AcDbEntity
  8
0
100
AcDbLine
 10
15127.91723816815
 20
7630.741409317328
 30
0.0
 11
15127.91723816815
 21
7630.741409317328
 31
0.0
  0
LINE
  5
4CA
330
1E
100
AcDbEntity
  8
0
100
AcDbLine
 10
15127.91723816815
 20
7585.741409317328
 30
0.0
 11
15127.91723816815
 21
7585.741409317328
 31
0.0
  0
ARC
  5
4CB
330
1E
100
AcDbEntity
  8
0
100
AcDbCircle
 10
15257.91719980608
 20
7540.741392075946
 30
0.0
 40
20.0
100
AcDbArc
 50
0.0
 51
90.0
  0
LINE
  5
4CC
330
1E
100
AcDbEntity
  8
0
100
AcDbLine
 10
15147.91722566815
 20
7515.741396817328
 30
0.0
 11
15257.91721316815
 21
7515.741396817328
 31
0.0
  0
LINE
  5
4CD
330
1E
100
AcDbEntity
  8
0
100
AcDbLine
 10
15147.91722566815
 20
7470.741396817328
 30
0.0
 11
15257.91721316815
 21
7470.741396817328
 31
0.0
  0
LINE
  5
4CE
330
1E
100
AcDbEntity
  8
0
100
AcDbLine
 10
15277.91723816815
 20
7540.741409317328
 30
0.0
 11
15277.91723816815
 21
7540.741409317328
 31
0.0
  0
ARC
  5
4CF
330
1E
100
AcDbEntity
  8
0
100
AcDbCircle
 10
15257.91719980608
 20
7495.741392075946
 30
0.0
 40
20.0
100
AcDbArc
 50
0.0
 51
90.0
  0
LINE
  5
4D0
330
1E
100
AcDbEntity
  8
0
100
AcDbLine
 10
15277.91723816815
 20
7495.741409317328
 30
0.0
 11
15277.91723816815
 21
7495.741409317328
 31
0.0
  0
LINE
  5
4D1
330
1E
100
AcDbEntity
  8
0
100
AcDbLine
 10
15147.91722566815
 20
7605.741396817328
 30
0.0
 11
15257.91721316815
 21
7605.741396817328
 31
0.0
  0
LINE
  5
4D2
330
1E
100
AcDbEntity
  8
0
100
AcDbLine
 10
15147.91722566815
 20
7560.741396817328
 30
0.0
 11
15257.91721316815
 21
7560.741396817328
 31
0.0
  0
LINE
  5
4D3
330
1E
100
AcDbEntity
  8
0
100
AcDbLine
 10
15277.91723816815
 20
7630.741409317328
 30
0.0
 11
15277.91723816815
 21
7630.741409317328
 31
0.0
  0
ARC
  5
4D4
330
1E
100
AcDbEntity
  8
0
100
AcDbCircle
 10
15257.91719980608
 20
7585.741392075946
 30
0.0
 40
20.0
100
AcDbArc
 50
0.0
 51
90.0
  0
LINE
  5
4D5
330
1E
100
AcDbEntity
  8
0
100
AcDbLine
 10
15277.91723816815
 20
7585.741409317328
 30
0.0
 11
15277.91723816815
 21
7585.741409317328
 31
0.0
  0
LINE
  5
4D6
330
1E
100
AcDbEntity
  8
0
100
AcDbLine
 10
15127.91723816815
 20
7720.741409317328
 30
0.0
 11
15277.91723816815
 21
7720.741409317328
 31
0.0
  0
ARC
  5
4D7
330
1E
100
AcDbEntity
  8
0
100
AcDbCircle
 10
15147.91721230608
 20
7720.741392075946
 30
0.0
 40
20.0
100
AcDbArc
 50
90.0
 51
180.0
  0
LINE
  5
4D8
330
1E
100
AcDbEntity
  8
0
100
AcDbLine
 10
15127.91723816815
 20
7675.741409317328
 30
0.0
 11
15277.91723816815
 21
7675.741409317328
 31
0.0
  0
ARC
  5
4D9
330
1E
100
AcDbEntity
  8
0
100
AcDbCircle
 10
15147.91721230608
 20
7675.741392075946
 30
0.0
 40
20.0
100
AcDbArc
 50
90.0
 51
180.0
  0
LINE
  5
4DA
330
1E
100
AcDbEntity
  8
0
100
AcDbLine
 10
15127.91723816815
 20
7720.741409317328
 30
0.0
 11
15127.91723816815
 21
7720.741409317328
 31
0.0
  0
LINE
  5
4DB
330
1E
100
AcDbEntity
  8
0
100
AcDbLine
 10
15127.91723816815
 20
7675.741409317328
 30
0.0
 11
15127.91723816815
 21
7675.741409317328
 31
0.0
  0
ARC
  5
4DC
330
1E
100
AcDbEntity
  8
0
100
AcDbCircle
 10
15257.91719980608
 20
7720.741392075946
 30
0.0
 40
20.0
100
AcDbArc
 50
0.0
 51
90.0
  0
LINE
  5
4DD
330
1E
100
AcDbEntity
  8
0
100
AcDbLine
 10
15147.91722566815
 20
7695.741396817328
 30
0.0
 11
15257.91721316815
 21
7695.741396817328
 31
0.0
  0
LINE
  5
4DE
330
1E
100
AcDbEntity
  8
0
100
AcDbLine
 10
15147.91722566815
 20
7650.741396817328
 30
0.0
 11
15257.91721316815
 21
7650.741396817328
 31
0.0
  0
LINE
  5
4DF
330
1E
100
AcDbEntity
  8
0
100
AcDbLine
 10
15277.91723816815
 20
7720.741409317328
 30
0.0
 11
15277.91723816815
 21
7720.741409317328
 31
0.0
  0
ARC
  5
4E0
330
1E
100
AcDbEntity
  8
0
100
AcDbCircle
 10
15257.91719980608
 20
7675.741392075946
 30
0.0
 40
20.0
100
AcDbArc
 50
0.0
 51
90.0
  0
LINE
  5
4E1
330
1E
100
AcDbEntity
  8
0
100
AcDbLine
 10
15277.91723816815
 20
7675.741409317328
 30
0.0
 11
15277.91723816815
 21
7675.741409317328
 31
0.0
  0
LINE
  5
4E2
330
1E
100
AcDbEntity
  8
0
100
AcDbLine
 10
15147.91722566815
 20
7740.741396817328
 30
0.0
 11
15257.91721316815
 21
7740.741396817328
 31
0.0
  0
LINE
  5
4E9
330
1E
100
AcDbEntity
  8
0
100
AcDbLine
 10
14972.91723816815
 20
7740.74141405871
 30
0.0
 11
15082.91722566815
 21
7740.74141405871
 31
0.0
  0
LINE
  5
4EA
330
1E
100
AcDbEntity
  8
0
100
AcDbLine
 10
15102.91725066815
 20
7675.74142655871
 30
0.0
 11
15102.91725066815
 21
7675.74142655871
 31
0.0
  0
ARC
  5
4EB
330
1E
100
AcDbEntity
  8
0
100
AcDbCircle
 10
15082.91721230608
 20
7675.741409317328
 30
0.0
 40
20.0
100
AcDbArc
 50
0.0
 51
90.0
  0
LINE
  5
4EC
330
1E
100
AcDbEntity
  8
0
100
AcDbLine
 10
15102.91725066815
 20
7720.74142655871
 30
0.0
 11
15102.91725066815
 21
7720.74142655871
 31
0.0
  0
LINE
  5
4ED
330
1E
100
AcDbEntity
  8
0
100
AcDbLine
 10
14972.91723816815
 20
7650.74141405871
 30
0.0
 11
15082.91722566815
 21
7650.74141405871
 31
0.0
  0
LINE
  5
4EE
330
1E
100
AcDbEntity
  8
0
100
AcDbLine
 10
14972.91723816815
 20
7695.74141405871
 30
0.0
 11
15082.91722566815
 21
7695.74141405871
 31
0.0
  0
ARC
  5
4EF
330
1E
100
AcDbEntity
  8
0
100
AcDbCircle
 10
15082.91721230608
 20
7720.741409317328
 30
0.0
 40
20.0
100
AcDbArc
 50
0.0
 51
90.0
  0
LINE
  5
4F0
330
1E
100
AcDbEntity
  8
0
100
AcDbLine
 10
14952.91725066815
 20
7675.74142655871
 30
0.0
 11
14952.91725066815
 21
7675.74142655871
 31
0.0
  0
LINE
  5
4F1
330
1E
100
AcDbEntity
  8
0
100
AcDbLine
 10
14952.91725066815
 20
7720.74142655871
 30
0.0
 11
14952.91725066815
 21
7720.74142655871
 31
0.0
  0
ARC
  5
4F2
330
1E
100
AcDbEntity
  8
0
100
AcDbCircle
 10
14972.91722480608
 20
7675.741409317328
 30
0.0
 40
20.0
100
AcDbArc
 50
90.0
 51
180.0
  0
LINE
  5
4F3
330
1E
100
AcDbEntity
  8
0
100
AcDbLine
 10
14952.91725066815
 20
7675.74142655871
 30
0.0
 11
15102.91725066815
 21
7675.74142655871
 31
0.0
  0
ARC
  5
4F4
330
1E
100
AcDbEntity
  8
0
100
AcDbCircle
 10
14972.91722480608
 20
7720.741409317328
 30
0.0
 40
20.0
100
AcDbArc
 50
90.0
 51
180.0
  0
LINE
  5
4F5
330
1E
100
AcDbEntity
  8
0
100
AcDbLine
 10
14952.91725066815
 20
7720.74142655871
 30
0.0
 11
15102.91725066815
 21
7720.74142655871
 31
0.0
  0
LINE
  5
4F6
330
1E
100
AcDbEntity
  8
0
100
AcDbLine
 10
15102.91725066815
 20
7585.74142655871
 30
0.0
 11
15102.91725066815
 21
7585.74142655871
 31
0.0
  0
ARC
  5
4F7
330
1E
100
AcDbEntity
  8
0
100
AcDbCircle
 10
15082.91721230608
 20
7585.741409317328
 30
0.0
 40
20.0
100
AcDbArc
 50
0.0
 51
90.0
  0
LINE
  5
4F8
330
1E
100
AcDbEntity
  8
0
100
AcDbLine
 10
15102.91725066815
 20
7630.74142655871
 30
0.0
 11
15102.91725066815
 21
7630.74142655871
 31
0.0
  0
LINE
  5
4F9
330
1E
100
AcDbEntity
  8
0
100
AcDbLine
 10
14972.91723816815
 20
7560.74141405871
 30
0.0
 11
15082.91722566815
 21
7560.74141405871
 31
0.0
  0
LINE
  5
4FA
330
1E
100
AcDbEntity
  8
0
100
AcDbLine
 10
14972.91723816815
 20
7605.74141405871
 30
0.0
 11
15082.91722566815
 21
7605.74141405871
 31
0.0
  0
LINE
  5
4FB
330
1E
100
AcDbEntity
  8
0
100
AcDbLine
 10
15102.91725066815
 20
7495.74142655871
 30
0.0
 11
15102.91725066815
 21
7495.74142655871
 31
0.0
  0
ARC
  5
4FC
330
1E
100
AcDbEntity
  8
0
100
AcDbCircle
 10
15082.91721230608
 20
7495.741409317328
 30
0.0
 40
20.0
100
AcDbArc
 50
0.0
 51
90.0
  0
LINE
  5
4FD
330
1E
100
AcDbEntity
  8
0
100
AcDbLine
 10
15102.91725066815
 20
7540.74142655871
 30
0.0
 11
15102.91725066815
 21
7540.74142655871
 31
0.0
  0
LINE
  5
4FE
330
1E
100
AcDbEntity
  8
0
100
AcDbLine
 10
14972.91723816815
 20
7470.74141405871
 30
0.0
 11
15082.91722566815
 21
7470.74141405871
 31
0.0
  0
LINE
  5
4FF
330
1E
100
AcDbEntity
  8
0
100
AcDbLine
 10
14972.91723816815
 20
7515.74141405871
 30
0.0
 11
15082.91722566815
 21
7515.74141405871
 31
0.0
  0
ARC
  5
500
330
1E
100
AcDbEntity
  8
0
100
AcDbCircle
 10
15082.91721230608
 20
7540.741409317328
 30
0.0
 40
20.0
100
AcDbArc
 50
0.0
 51
90.0
  0
LINE
  5
501
330
1E
100
AcDbEntity
  8
0
100
AcDbLine
 10
14952.91725066815
 20
7585.74142655871
 30
0.0
 11
14952.91725066815
 21
7585.74142655871
 31
0.0
  0
LINE
  5
502
330
1E
100
AcDbEntity
  8
0
100
AcDbLine
 10
14952.91725066815
 20
7630.74142655871
 30
0.0
 11
14952.91725066815
 21
7630.74142655871
 31
0.0
  0
LINE
  5
503
330
1E
100
AcDbEntity
  8
0
100
AcDbLine
 10
14952.91725066815
 20
7495.74142655871
 30
0.0
 11
14952.91725066815
 21
7495.74142655871
 31
0.0
  0
LINE
  5
504
330
1E
100
AcDbEntity
  8
0
100
AcDbLine
 10
14952.91725066815
 20
7540.74142655871
 30
0.0
 11
14952.91725066815
 21
7540.74142655871
 31
0.0
  0
ARC
  5
505
330
1E
100
AcDbEntity
  8
0
100
AcDbCircle
 10
14972.91722480608
 20
7495.741409317328
 30
0.0
 40
20.0
100
AcDbArc
 50
90.0
 51
180.0
  0
LINE
  5
506
330
1E
100
AcDbEntity
  8
0
100
AcDbLine
 10
14952.91725066815
 20
7495.74142655871
 30
0.0
 11
15102.91725066815
 21
7495.74142655871
 31
0.0
  0
ARC
  5
507
330
1E
100
AcDbEntity
  8
0
100
AcDbCircle
 10
14972.91722480608
 20
7540.741409317328
 30
0.0
 40
20.0
100
AcDbArc
 50
90.0
 51
180.0
  0
LINE
  5
508
330
1E
100
AcDbEntity
  8
0
100
AcDbLine
 10
14952.91725066815
 20
7540.74142655871
 30
0.0
 11
15102.91725066815
 21
7540.74142655871
 31
0.0
  0
ARC
  5
509
330
1E
100
AcDbEntity
  8
0
100
AcDbCircle
 10
14972.91722480608
 20
7585.741409317328
 30
0.0
 40
20.0
100
AcDbArc
 50
90.0
 51
180.0
  0
LINE
  5
50A
330
1E
100
AcDbEntity
  8
0
100
AcDbLine
 10
14952.91725066815
 20
7585.74142655871
 30
0.0
 11
15102.91725066815
 21
7585.74142655871
 31
0.0
  0
LINE
  5
50B
330
1E
100
AcDbEntity
  8
0
100
AcDbLine
 10
14952.91725066815
 20
7630.74142655871
 30
0.0
 11
15102.91725066815
 21
7630.74142655871
 31
0.0
  0
ARC
  5
50C
330
1E
100
AcDbEntity
  8
0
100
AcDbCircle
 10
14972.91722480608
 20
7630.741409317328
 30
0.0
 40
20.0
100
AcDbArc
 50
90.0
 51
180.0
  0
ARC
  5
50D
330
1E
100
AcDbEntity
  8
0
100
AcDbCircle
 10
15082.91721230608
 20
7630.741409317328
 30
0.0
 40
20.0
100
AcDbArc
 50
0.0
 51
90.0
  0
LINE
  5
50E
330
1E
100
AcDbEntity
  8
0
100
AcDbLine
 10
15102.91725066815
 20
7405.74142655871
 30
0.0
 11
15102.91725066815
 21
7405.74142655871
 31
0.0
  0
ARC
  5
50F
330
1E
100
AcDbEntity
  8
0
100
AcDbCircle
 10
15082.91721230608
 20
7405.741409317328
 30
0.0
 40
20.0
100
AcDbArc
 50
0.0
 51
90.0
  0
LINE
  5
510
330
1E
100
AcDbEntity
  8
0
100
AcDbLine
 10
15102.91725066815
 20
7450.74142655871
 30
0.0
 11
15102.91725066815
 21
7450.74142655871
 31
0.0
  0
LINE
  5
511
330
1E
100
AcDbEntity
  8
0
100
AcDbLine
 10
14972.91723816815
 20
7425.74141405871
 30
0.0
 11
15082.91722566815
 21
7425.74141405871
 31
0.0
  0
LINE
  5
512
330
1E
100
AcDbEntity
  8
0
100
AcDbLine
 10
14952.91725066815
 20
7405.74142655871
 30
0.0
 11
14952.91725066815
 21
7405.74142655871
 31
0.0
  0
LINE
  5
513
330
1E
100
AcDbEntity
  8
0
100
AcDbLine
 10
14952.91725066815
 20
7450.74142655871
 30
0.0
 11
14952.91725066815
 21
7450.74142655871
 31
0.0
  0
ARC
  5
514
330
1E
100
AcDbEntity
  8
0
100
AcDbCircle
 10
14972.91722480608
 20
7405.741409317328
 30
0.0
 40
20.0
100
AcDbArc
 50
90.0
 51
180.0
  0
LINE
  5
515
330
1E
100
AcDbEntity
  8
0
100
AcDbLine
 10
14952.91725066815
 20
7405.74142655871
 30
0.0
 11
15102.91725066815
 21
7405.74142655871
 31
0.0
  0
LINE
  5
516
330
1E
100
AcDbEntity
  8
0
100
AcDbLine
 10
14952.91725066815
 20
7450.74142655871
 30
0.0
 11
15102.91725066815
 21
7450.74142655871
 31
0.0
  0
ARC
  5
517
330
1E
100
AcDbEntity
  8
0
100
AcDbCircle
 10
14972.91722480608
 20
7450.741409317328
 30
0.0
 40
20.0
100
AcDbArc
 50
90.0
 51
180.0
  0
ARC
  5
518
330
1E
100
AcDbEntity
  8
0
100
AcDbCircle
 10
15082.91721230608
 20
7450.741409317328
 30
0.0
 40
20.0
100
AcDbArc
 50
0.0
 51
90.0
  0
LINE
  5
521
330
1E
100
AcDbEntity
  8
図面
100
AcDbLine
 10
14470.41723816815
 20
7250.741409317328
 30
0.0
 11
14470.41723816815
 21
7070.741409317328
 31
0.0
  0
LINE
  5
522
330
1E
100
AcDbEntity
  8
図面
100
AcDbLine
 10
14470.41723816815
 20
7070.741409317328
 30
0.0
 11
14495.41723816815
 21
7070.741409317328
 31
0.0
  0
LINE
  5
523
330
1E
100
AcDbEntity
  8
図面
100
AcDbLine
 10
14495.41723816815
 20
7070.741409317328
 30
0.0
 11
14495.41723816815
 21
7250.741409317328
 31
0.0
  0
LINE
  5
524
330
1E
100
AcDbEntity
  8
図面
100
AcDbLine
 10
14495.41723816815
 20
7250.741409317328
 30
0.0
 11
14470.41723816815
 21
7250.741409317328
 31
0.0
  0
LINE
  5
52A
330
1E
100
AcDbEntity
  8
図面
100
AcDbLine
 10
14456.41723816815
 20
7250.741409317328
 30
0.0
 11
14456.41723816815
 21
7070.741409317328
 31
0.0
  0
LINE
  5
52B
330
1E
100
AcDbEntity
  8
図面
100
AcDbLine
 10
14456.41723816815
 20
7070.741409317328
 30
0.0
 11
14460.41723816815
 21
7070.741409317328
 31
0.0
  0
LINE
  5
52C
330
1E
100
AcDbEntity
  8
図面
100
AcDbLine
 10
14460.41723816815
 20
7070.741409317328
 30
0.0
 11
14460.41723816815
 21
7250.741409317328
 31
0.0
  0
LINE
  5
52D
330
1E
100
AcDbEntity
  8
図面
100
AcDbLine
 10
14460.41723816815
 20
7250.741409317328
 30
0.0
 11
14456.41723816815
 21
7250.741409317328
 31
0.0
  0
LINE
  5
52E
330
1E
100
AcDbEntity
  8
図面
100
AcDbLine
 10
14505.41723816815
 20
7250.741409317328
 30
0.0
 11
14505.41723816815
 21
7070.741409317328
 31
0.0
  0
LINE
  5
52F
330
1E
100
AcDbEntity
  8
図面
100
AcDbLine
 10
14505.41723816815
 20
7070.741409317328
 30
0.0
 11
14509.41723816815
 21
7070.741409317328
 31
0.0
  0
LINE
  5
530
330
1E
100
AcDbEntity
  8
図面
100
AcDbLine
 10
14509.41723816815
 20
7070.741409317328
 30
0.0
 11
14509.41723816815
 21
7250.741409317328
 31
0.0
  0
LINE
  5
531
330
1E
100
AcDbEntity
  8
図面
100
AcDbLine
 10
14509.41723816815
 20
7250.741409317328
 30
0.0
 11
14505.41723816815
 21
7250.741409317328
 31
0.0
  0
LINE
  5
539
330
1E
100
AcDbEntity
  8
図面
100
AcDbLine
 10
13577.91723816815
 20
7824.741409317328
 30
0.0
 11
13577.91723816815
 21
7270.741409317328
 31
0.0
  0
LINE
  5
53A
330
1E
100
AcDbEntity
  8
図面
100
AcDbLine
 10
13577.91723816815
 20
7270.741409317328
 30
0.0
 11
14082.91723816815
 21
7270.741409317328
 31
0.0
  0
LINE
  5
53B
330
1E
100
AcDbEntity
  8
図面
100
AcDbLine
 10
14082.91723816815
 20
7270.741409317328
 30
0.0
 11
14082.91723816815
 21
7824.741409317328
 31
0.0
  0
LINE
  5
53C
330
1E
100
AcDbEntity
  8
図面
100
AcDbLine
 10
14082.91723816815
 20
7824.741409317328
 30
0.0
 11
13577.91723816815
 21
7824.741409317328
 31
0.0
  0
LINE
  5
53F
330
1E
100
AcDbEntity
  8
図面
100
AcDbLine
 10
13582.91723816815
 20
7270.741409317328
 30
0.0
 11
13582.91723816815
 21
6950.741409317328
 31
0.0
  0
LINE
  5
540
330
1E
100
AcDbEntity
  8
図面
100
AcDbLine
 10
14077.91723816815
 20
7270.741409317328
 30
0.0
 11
14077.91723816815
 21
6950.741409317328
 31
0.0
  0
LINE
  5
541
330
1E
100
AcDbEntity
  8
図面
100
AcDbLine
 10
13582.91723816815
 20
6950.741409317328
 30
0.0
 11
14077.91723816815
 21
6950.741409317328
 31
0.0
  0
LINE
  5
549
330
1E
100
AcDbEntity
  8
図面
100
AcDbLine
 10
14037.91723816815
 20
6950.741409317328
 30
0.0
 11
14037.91723816815
 21
6910.741409317328
 31
0.0
  0
LINE
  5
54A
330
1E
100
AcDbEntity
  8
図面
100
AcDbLine
 10
14037.91723816815
 20
6910.741409317328
 30
0.0
 11
14077.91723816815
 21
6910.741409317328
 31
0.0
  0
LINE
  5
54B
330
1E
100
AcDbEntity
  8
図面
100
AcDbLine
 10
14077.91723816815
 20
6910.741409317328
 30
0.0
 11
14077.91723816815
 21
6950.741409317328
 31
0.0
  0
LINE
  5
556
330
1E
100
AcDbEntity
  8
図面
100
AcDbLine
 10
14100.41723816815
 20
6950.741409317328
 30
0.0
 11
14105.41723816815
 21
6994.741409317328
 31
0.0
  0
LINE
  5
557
330
1E
100
AcDbEntity
  8
図面
100
AcDbLine
 10
14105.41723816815
 20
6994.741409317328
 30
0.0
 11
14145.41723816815
 21
6994.741409317328
 31
0.0
  0
LINE
  5
558
330
1E
100
AcDbEntity
  8
図面
100
AcDbLine
 10
14145.41723816815
 20
6994.741409317328
 30
0.0
 11
14150.41723816815
 21
6950.741409317328
 31
0.0
  0
LINE
  5
559
330
1E
100
AcDbEntity
  8
図面
100
AcDbLine
 10
14150.41723816815
 20
6950.741409317328
 30
0.0
 11
14150.41723816815
 21
6910.741409317328
 31
0.0
  0
LINE
  5
55A
330
1E
100
AcDbEntity
  8
図面
100
AcDbLine
 10
14150.41723816815
 20
6910.741409317328
 30
0.0
 11
14145.41723816815
 21
6864.741409317328
 31
0.0
  0
LINE
  5
55B
330
1E
100
AcDbEntity
  8
図面
100
AcDbLine
 10
14145.41723816815
 20
6864.741409317328
 30
0.0
 11
14105.41723816815
 21
6864.741409317328
 31
0.0
  0
LINE
  5
55C
330
1E
100
AcDbEntity
  8
図面
100
AcDbLine
 10
14105.41723816815
 20
6864.741409317328
 30
0.0
 11
14100.41723816815
 21
6910.741409317328
 31
0.0
  0
LINE
  5
55D
330
1E
100
AcDbEntity
  8
図面
100
AcDbLine
 10
14100.41723816815
 20
6910.741409317328
 30
0.0
 11
14100.41723816815
 21
6950.741409317328
 31
0.0
  0
LINE
  5
561
330
1E
100
AcDbEntity
  8
図面
100
AcDbLine
 10
14077.91723816815
 20
6941.741409317328
 30
0.0
 11
14100.41723816815
 21
6941.741409317328
 31
0.0
  0
LINE
  5
562
330
1E
100
AcDbEntity
  8
図面
100
AcDbLine
 10
14077.91723816815
 20
6919.741409317328
 30
0.0
 11
14100.41723816815
 21
6919.741409317328
 31
0.0
  0
LINE
  5
563
330
1E
100
AcDbEntity
  8
図面
100
AcDbLine
 10
14150.41723816815
 20
6941.741409317328
 30
0.0
 11
14160.41723816815
 21
6941.741409317328
 31
0.0
  0
LINE
  5
564
330
1E
100
AcDbEntity
  8
図面
100
AcDbLine
 10
14160.41723816815
 20
6941.741409317328
 30
0.0
 11
14160.41723816815
 21
6919.741409317328
 31
0.0
  0
LINE
  5
565
330
1E
100
AcDbEntity
  8
図面
100
AcDbLine
 10
14160.41723816815
 20
6919.741409317328
 30
0.0
 11
14150.41723816815
 21
6919.741409317328
 31
0.0
  0
LINE
  5
567
330
1E
100
AcDbEntity
  8
図面
100
AcDbLine
 10
13500.41723816815
 20
6919.741409317328
 30
0.0
 11
13510.41723816815
 21
6919.741409317328
 31
0.0
  0
LINE
  5
568
330
1E
100
AcDbEntity
  8
図面
100
AcDbLine
 10
13500.41723816815
 20
6941.741409317328
 30
0.0
 11
13500.41723816815
 21
6919.741409317328
 31
0.0
  0
LINE
  5
569
330
1E
100
AcDbEntity
  8
図面
100
AcDbLine
 10
13510.41723816815
 20
6941.741409317328
 30
0.0
 11
13500.41723816815
 21
6941.741409317328
 31
0.0
  0
LINE
  5
56A
330
1E
100
AcDbEntity
  8
図面
100
AcDbLine
 10
13582.91723816815
 20
6919.741409317328
 30
0.0
 11
13560.41723816815
 21
6919.741409317328
 31
0.0
  0
LINE
  5
56B
330
1E
100
AcDbEntity
  8
図面
100
AcDbLine
 10
13582.91723816815
 20
6941.741409317328
 30
0.0
 11
13560.41723816815
 21
6941.741409317328
 31
0.0
  0
LINE
  5
56C
330
1E
100
AcDbEntity
  8
図面
100
AcDbLine
 10
13560.41723816815
 20
6910.741409317328
 30
0.0
 11
13560.41723816815
 21
6950.741409317328
 31
0.0
  0
LINE
  5
56D
330
1E
100
AcDbEntity
  8
図面
100
AcDbLine
 10
13555.41723816815
 20
6864.741409317328
 30
0.0
 11
13560.41723816815
 21
6910.741409317328
 31
0.0
  0
LINE
  5
56E
330
1E
100
AcDbEntity
  8
図面
100
AcDbLine
 10
13515.41723816815
 20
6864.741409317328
 30
0.0
 11
13555.41723816815
 21
6864.741409317328
 31
0.0
  0
LINE
  5
56F
330
1E
100
AcDbEntity
  8
図面
100
AcDbLine
 10
13510.41723816815
 20
6910.741409317328
 30
0.0
 11
13515.41723816815
 21
6864.741409317328
 31
0.0
  0
LINE
  5
570
330
1E
100
AcDbEntity
  8
図面
100
AcDbLine
 10
13510.41723816815
 20
6950.741409317328
 30
0.0
 11
13510.41723816815
 21
6910.741409317328
 31
0.0
  0
LINE
  5
571
330
1E
100
AcDbEntity
  8
図面
100
AcDbLine
 10
13515.41723816815
 20
6994.741409317328
 30
0.0
 11
13510.41723816815
 21
6950.741409317328
 31
0.0
  0
LINE
  5
572
330
1E
100
AcDbEntity
  8
図面
100
AcDbLine
 10
13555.41723816815
 20
6994.741409317328
 30
0.0
 11
13515.41723816815
 21
6994.741409317328
 31
0.0
  0
LINE
  5
573
330
1E
100
AcDbEntity
  8
図面
100
AcDbLine
 10
13560.41723816815
 20
6950.741409317328
 30
0.0
 11
13555.41723816815
 21
6994.741409317328
 31
0.0
  0
LINE
  5
574
330
1E
100
AcDbEntity
  8
図面
100
AcDbLine
 10
13582.91723816815
 20
6910.741409317328
 30
0.0
 11
13582.91723816815
 21
6950.741409317328
 31
0.0
  0
LINE
  5
575
330
1E
100
AcDbEntity
  8
図面
100
AcDbLine
 10
13622.91723816815
 20
6910.741409317328
 30
0.0
 11
13582.91723816815
 21
6910.741409317328
 31
0.0
  0
LINE
  5
576
330
1E
100
AcDbEntity
  8
図面
100
AcDbLine
 10
13622.91723816815
 20
6950.741409317328
 30
0.0
 11
13622.91723816815
 21
6910.741409317328
 31
0.0
  0
LINE
  5
579
330
1E
100
AcDbEntity
  8
図面
100
AcDbLine
 10
13622.91723816815
 20
6941.741409317328
 30
0.0
 11
14037.91723816815
 21
6941.741409317328
 31
0.0
  0
LINE
  5
57A
330
1E
100
AcDbEntity
  8
図面
100
AcDbLine
 10
13622.91723816815
 20
6919.741409317328
 30
0.0
 11
14037.91723816815
 21
6919.741409317328
 31
0.0
  0
CIRCLE
  5
581
330
1E
100
AcDbEntity
  8
図面
100
AcDbCircle
 10
13661.91723816815
 20
7740.741409317328
 30
0.0
 40
17.5
  0
CIRCLE
  5
582
330
1E
100
AcDbEntity
  8
図面
100
AcDbCircle
 10
13661.91723816815
 20
7740.741409317328
 30
0.0
 40
22.5
  0
CIRCLE
  5
583
330
1E
100
AcDbEntity
  8
図面
100
AcDbCircle
 10
13661.91723816815
 20
7740.741409317328
 30
0.0
 40
19.0
  0
LINE
  5
58B
330
1E
100
AcDbEntity
  8
図面
100
AcDbLine
 10
13612.91723816815
 20
7654.741409317328
 30
0.0
 11
13612.91723816815
 21
7389.741409317328
 31
0.0
  0
LINE
  5
58C
330
1E
100
AcDbEntity
  8
図面
100
AcDbLine
 10
13612.91723816815
 20
7389.741409317328
 30
0.0
 11
13782.91723816815
 21
7389.741409317328
 31
0.0
  0
LINE
  5
58D
330
1E
100
AcDbEntity
  8
図面
100
AcDbLine
 10
13782.91723816815
 20
7389.741409317328
 30
0.0
 11
13782.91723816815
 21
7654.741409317328
 31
0.0
  0
LINE
  5
58E
330
1E
100
AcDbEntity
  8
図面
100
AcDbLine
 10
13782.91723816815
 20
7654.741409317328
 30
0.0
 11
13612.91723816815
 21
7654.741409317328
 31
0.0
  0
LINE
  5
58F
330
1E
100
AcDbEntity
  8
図面
100
AcDbLine
 10
13617.91723816815
 20
7649.741409317328
 30
0.0
 11
13617.91723816815
 21
7394.741409317328
 31
0.0
  0
LINE
  5
590
330
1E
100
AcDbEntity
  8
図面
100
AcDbLine
 10
13777.91723816815
 20
7649.741409317328
 30
0.0
 11
13617.91723816815
 21
7649.741409317328
 31
0.0
  0
LINE
  5
591
330
1E
100
AcDbEntity
  8
図面
100
AcDbLine
 10
13777.91723816815
 20
7394.741409317328
 30
0.0
 11
13777.91723816815
 21
7649.741409317328
 31
0.0
  0
LINE
  5
592
330
1E
100
AcDbEntity
  8
図面
100
AcDbLine
 10
13617.91723816815
 20
7394.741409317328
 30
0.0
 11
13777.91723816815
 21
7394.741409317328
 31
0.0
  0
CIRCLE
  5
59D
330
1E
100
AcDbEntity
  8
図面
100
AcDbCircle
 10
14467.91723816815
 20
6930.741409317328
 30
0.0
 40
65.0
  0
CIRCLE
  5
59E
330
1E
100
AcDbEntity
  8
図面
100
AcDbCircle
 10
14467.91723816815
 20
6930.741409317328
 30
0.0
 40
55.0
  0
CIRCLE
  5
59F
330
1E
100
AcDbEntity
  8
図面
100
AcDbCircle
 10
14467.91723816815
 20
6930.741409317328
 30
0.0
 40
11.0
  0
CIRCLE
  5
5A0
330
1E
100
AcDbEntity
  8
図面
100
AcDbCircle
 10
14467.91723816815
 20
6930.741409317328
 30
0.0
 40
25.0
  0
LINE
  5
5A1
330
1E
100
AcDbEntity
  8
図面
100
AcDbLine
 10
14406.07065378389
 20
6950.741409317328
 30
0.0
 11
14382.91723816815
 21
6950.741409317328
 31
0.0
  0
CIRCLE
  5
5A3
330
1E
100
AcDbEntity
  8
図面
100
AcDbCircle
 10
15282.91723816815
 20
6930.741409317328
 30
0.0
 40
55.0
  0
CIRCLE
  5
5A4
330
1E
100
AcDbEntity
  8
図面
100
AcDbCircle
 10
15282.91723816815
 20
6930.741409317328
 30
0.0
 40
65.0
  0
CIRCLE
  5
5A5
330
1E
100
AcDbEntity
  8
図面
100
AcDbCircle
 10
15282.91723816815
 20
6930.741409317328
 30
0.0
 40
25.0
  0
CIRCLE
  5
5A6
330
1E
100
AcDbEntity
  8
図面
100
AcDbCircle
 10
15282.91723816815
 20
6930.741409317328
 30
0.0
 40
11.0
  0
LINE
  5
5A7
330
1E
100
AcDbEntity
  8
図面
100
AcDbLine
 10
15221.07065378389
 20
6950.741409317329
 30
0.0
 11
14529.76382255241
 21
6950.741409317328
 31
0.0
  0
CIRCLE
  5
5AD
330
1E
100
AcDbEntity
  8
図面
100
AcDbCircle
 10
13857.91723816815
 20
7699.741409317328
 30
0.0
 40
42.5
  0
CIRCLE
  5
5AE
330
1E
100
AcDbEntity
  8
図面
100
AcDbCircle
 10
13857.91723816815
 20
7699.741409317328
 30
0.0
 40
27.5
  0
CIRCLE
  5
5AF
330
1E
100
AcDbEntity
  8
図面
100
AcDbCircle
 10
13857.91723816815
 20
7699.741409317328
 30
0.0
 40
34.0
  0
LINE
  5
7AC
330
1E
100
AcDbEntity
  8
ﾚｲﾔ1
  6
Continuous
100
AcDbLine
 10
13874.94947077685
 20
7716.773641926032
 30
0.0
 11
13841.34484301317
 21
7683.169014162349
 31
0.0
  0
LINE
  5
7AD
330
1E
100
AcDbEntity
  8
ﾚｲﾔ1
  6
Continuous
100
AcDbLine
 10
13874.94947077686
 20
7716.773641926034
 30
0.0
 11
13867.29947077686
 21
7712.423641926033
 31
0.0
  0
LINE
  5
7AE
330
1E
100
AcDbEntity
  8
ﾚｲﾔ1
  6
Continuous
100
AcDbLine
 10
13870.59947077686
 20
7709.123641926034
 30
0.0
 11
13874.94947077686
 21
7716.773641926034
 31
0.0
  0
CIRCLE
  5
9A4
330
1E
100
AcDbEntity
  8
図面
100
AcDbCircle
 10
13857.91723816815
 20
7699.741409317328
 30
0.0
 40
26.5
  0
CIRCLE
  5
9B3
330
1E
100
AcDbEntity
  8
図面
100
AcDbCircle
 10
13997.91723816815
 20
7739.741409317328
 30
0.0
 40
5.0
  0
CIRCLE
  5
9B4
330
1E
100
AcDbEntity
  8
図面
100
AcDbCircle
 10
13997.91723816815
 20
7689.741409317328
 30
0.0
 40
12.5
  0
CIRCLE
  5
9B5
330
1E
100
AcDbEntity
  8
図面
100
AcDbCircle
 10
13997.91723816815
 20
7639.741409317328
 30
0.0
 40
12.5
  0
CIRCLE
  5
9B6
330
1E
100
AcDbEntity
  8
図面
100
AcDbCircle
 10
13997.91723816815
 20
7589.741409317328
 30
0.0
 40
12.5
  0
CIRCLE
  5
9B7
330
1E
100
AcDbEntity
  8
図面
100
AcDbCircle
 10
13997.91723816815
 20
7539.741409317328
 30
0.0
 40
12.5
  0
LINE
  5
9BC
330
1E
100
AcDbEntity
  8
図面
100
AcDbLine
 10
15707.91723816815
 20
6919.741409317328
 30
0.0
 11
16122.91723816815
 21
6919.741409317328
 31
0.0
  0
LINE
  5
9BD
330
1E
100
AcDbEntity
  8
図面
100
AcDbLine
 10
15707.91723816815
 20
6941.741409317328
 30
0.0
 11
16122.91723816815
 21
6941.741409317328
 31
0.0
  0
LINE
  5
9BE
330
1E
100
AcDbEntity
  8
図面
100
AcDbLine
 10
15707.91723816815
 20
6950.741409317328
 30
0.0
 11
15707.91723816815
 21
6910.741409317328
 31
0.0
  0
LINE
  5
9BF
330
1E
100
AcDbEntity
  8
図面
100
AcDbLine
 10
15707.91723816815
 20
6910.741409317328
 30
0.0
 11
15667.91723816815
 21
6910.741409317328
 31
0.0
  0
LINE
  5
9C0
330
1E
100
AcDbEntity
  8
図面
100
AcDbLine
 10
15667.91723816815
 20
6910.741409317328
 30
0.0
 11
15667.91723816815
 21
6950.741409317328
 31
0.0
  0
LINE
  5
9C1
330
1E
100
AcDbEntity
  8
図面
100
AcDbLine
 10
15645.41723816815
 20
6950.741409317328
 30
0.0
 11
15640.41723816815
 21
6994.741409317328
 31
0.0
  0
LINE
  5
9C2
330
1E
100
AcDbEntity
  8
図面
100
AcDbLine
 10
15640.41723816815
 20
6994.741409317328
 30
0.0
 11
15600.41723816815
 21
6994.741409317328
 31
0.0
  0
LINE
  5
9C3
330
1E
100
AcDbEntity
  8
図面
100
AcDbLine
 10
15600.41723816815
 20
6994.741409317328
 30
0.0
 11
15595.41723816815
 21
6950.741409317328
 31
0.0
  0
LINE
  5
9C4
330
1E
100
AcDbEntity
  8
図面
100
AcDbLine
 10
15595.41723816815
 20
6950.741409317328
 30
0.0
 11
15595.41723816815
 21
6910.741409317328
 31
0.0
  0
LINE
  5
9C5
330
1E
100
AcDbEntity
  8
図面
100
AcDbLine
 10
15595.41723816815
 20
6910.741409317328
 30
0.0
 11
15600.41723816815
 21
6864.741409317328
 31
0.0
  0
LINE
  5
9C6
330
1E
100
AcDbEntity
  8
図面
100
AcDbLine
 10
15600.41723816815
 20
6864.741409317328
 30
0.0
 11
15640.41723816815
 21
6864.741409317328
 31
0.0
  0
LINE
  5
9C7
330
1E
100
AcDbEntity
  8
図面
100
AcDbLine
 10
15640.41723816815
 20
6864.741409317328
 30
0.0
 11
15645.41723816815
 21
6910.741409317328
 31
0.0
  0
LINE
  5
9C8
330
1E
100
AcDbEntity
  8
図面
100
AcDbLine
 10
15645.41723816815
 20
6910.741409317328
 30
0.0
 11
15645.41723816815
 21
6950.741409317328
 31
0.0
  0
LINE
  5
9C9
330
1E
100
AcDbEntity
  8
図面
100
AcDbLine
 10
15667.91723816815
 20
6941.741409317328
 30
0.0
 11
15645.41723816815
 21
6941.741409317328
 31
0.0
  0
LINE
  5
9CA
330
1E
100
AcDbEntity
  8
図面
100
AcDbLine
 10
15667.91723816815
 20
6919.741409317328
 30
0.0
 11
15645.41723816815
 21
6919.741409317328
 31
0.0
  0
LINE
  5
9CB
330
1E
100
AcDbEntity
  8
図面
100
AcDbLine
 10
15595.41723816815
 20
6941.741409317328
 30
0.0
 11
15585.41723816815
 21
6941.741409317328
 31
0.0
  0
LINE
  5
9CC
330
1E
100
AcDbEntity
  8
図面
100
AcDbLine
 10
15585.41723816815
 20
6941.741409317328
 30
0.0
 11
15585.41723816815
 21
6919.741409317328
 31
0.0
  0
LINE
  5
9CD
330
1E
100
AcDbEntity
  8
図面
100
AcDbLine
 10
15585.41723816815
 20
6919.741409317328
 30
0.0
 11
15595.41723816815
 21
6919.741409317328
 31
0.0
  0
LINE
  5
9CE
330
1E
100
AcDbEntity
  8
図面
100
AcDbLine
 10
16245.41723816815
 20
6919.741409317328
 30
0.0
 11
16235.41723816815
 21
6919.741409317328
 31
0.0
  0
LINE
  5
9CF
330
1E
100
AcDbEntity
  8
図面
100
AcDbLine
 10
16245.41723816815
 20
6941.741409317328
 30
0.0
 11
16245.41723816815
 21
6919.741409317328
 31
0.0
  0
LINE
  5
9D0
330
1E
100
AcDbEntity
  8
図面
100
AcDbLine
 10
16235.41723816815
 20
6941.741409317328
 30
0.0
 11
16245.41723816815
 21
6941.741409317328
 31
0.0
  0
LINE
  5
9D1
330
1E
100
AcDbEntity
  8
図面
100
AcDbLine
 10
16162.91723816815
 20
6919.741409317328
 30
0.0
 11
16185.41723816815
 21
6919.741409317328
 31
0.0
  0
LINE
  5
9D2
330
1E
100
AcDbEntity
  8
図面
100
AcDbLine
 10
16162.91723816815
 20
6941.741409317328
 30
0.0
 11
16185.41723816815
 21
6941.741409317328
 31
0.0
  0
LINE
  5
9D3
330
1E
100
AcDbEntity
  8
図面
100
AcDbLine
 10
16185.41723816815
 20
6910.741409317328
 30
0.0
 11
16185.41723816815
 21
6950.741409317328
 31
0.0
  0
LINE
  5
9D4
330
1E
100
AcDbEntity
  8
図面
100
AcDbLine
 10
16190.41723816815
 20
6864.741409317328
 30
0.0
 11
16185.41723816815
 21
6910.741409317328
 31
0.0
  0
LINE
  5
9D5
330
1E
100
AcDbEntity
  8
図面
100
AcDbLine
 10
16230.41723816815
 20
6864.741409317328
 30
0.0
 11
16190.41723816815
 21
6864.741409317328
 31
0.0
  0
LINE
  5
9D6
330
1E
100
AcDbEntity
  8
図面
100
AcDbLine
 10
16235.41723816815
 20
6910.741409317328
 30
0.0
 11
16230.41723816815
 21
6864.741409317328
 31
0.0
  0
LINE
  5
9D7
330
1E
100
AcDbEntity
  8
図面
100
AcDbLine
 10
16235.41723816815
 20
6950.741409317328
 30
0.0
 11
16235.41723816815
 21
6910.741409317328
 31
0.0
  0
LINE
  5
9D8
330
1E
100
AcDbEntity
  8
図面
100
AcDbLine
 10
16230.41723816815
 20
6994.741409317328
 30
0.0
 11
16235.41723816815
 21
6950.741409317328
 31
0.0
  0
LINE
  5
9D9
330
1E
100
AcDbEntity
  8
図面
100
AcDbLine
 10
16190.41723816815
 20
6994.741409317328
 30
0.0
 11
16230.41723816815
 21
6994.741409317328
 31
0.0
  0
LINE
  5
9DA
330
1E
100
AcDbEntity
  8
図面
100
AcDbLine
 10
16185.41723816815
 20
6950.741409317328
 30
0.0
 11
16190.41723816815
 21
6994.741409317328
 31
0.0
  0
LINE
  5
9DB
330
1E
100
AcDbEntity
  8
図面
100
AcDbLine
 10
16162.91723816815
 20
6910.741409317328
 30
0.0
 11
16162.91723816815
 21
6950.741409317328
 31
0.0
  0
LINE
  5
9DC
330
1E
100
AcDbEntity
  8
図面
100
AcDbLine
 10
16122.91723816815
 20
6910.741409317328
 30
0.0
 11
16162.91723816815
 21
6910.741409317328
 31
0.0
  0
LINE
  5
9DD
330
1E
100
AcDbEntity
  8
図面
100
AcDbLine
 10
16122.91723816815
 20
6950.741409317328
 30
0.0
 11
16122.91723816815
 21
6910.741409317328
 31
0.0
  0
LINE
  5
9DE
330
1E
100
AcDbEntity
  8
図面
100
AcDbLine
 10
15667.91723816815
 20
6950.741409317328
 30
0.0
 11
16162.91723816815
 21
6950.741409317328
 31
0.0
  0
LINE
  5
9DF
330
1E
100
AcDbEntity
  8
図面
100
AcDbLine
 10
16162.91723816815
 20
7270.741409317328
 30
0.0
 11
16162.91723816815
 21
6950.741409317328
 31
0.0
  0
LINE
  5
9E0
330
1E
100
AcDbEntity
  8
図面
100
AcDbLine
 10
15667.91723816815
 20
7270.741409317328
 30
0.0
 11
15667.91723816815
 21
6950.741409317328
 31
0.0
  0
LINE
  5
9E1
330
1E
100
AcDbEntity
  8
図面
100
AcDbLine
 10
16167.91723816815
 20
7824.741409317328
 30
0.0
 11
15662.91723816815
 21
7824.741409317328
 31
0.0
  0
LINE
  5
9E2
330
1E
100
AcDbEntity
  8
図面
100
AcDbLine
 10
16167.91723816815
 20
7270.741409317328
 30
0.0
 11
16167.91723816815
 21
7824.741409317328
 31
0.0
  0
LINE
  5
9E3
330
1E
100
AcDbEntity
  8
図面
100
AcDbLine
 10
15662.91723816815
 20
7270.741409317328
 30
0.0
 11
16167.91723816815
 21
7270.741409317328
 31
0.0
  0
LINE
  5
9E4
330
1E
100
AcDbEntity
  8
図面
100
AcDbLine
 10
15662.91723816815
 20
7824.741409317328
 30
0.0
 11
15662.91723816815
 21
7270.741409317328
 31
0.0
  0
LINE
  5
9EC
330
1E
100
AcDbEntity
  8
図面
100
AcDbLine
 10
15727.91723816815
 20
7759.741409317328
 30
0.0
 11
15727.91723816815
 21
7514.741409317328
 31
0.0
  0
LINE
  5
9ED
330
1E
100
AcDbEntity
  8
図面
100
AcDbLine
 10
15727.91723816815
 20
7514.741409317328
 30
0.0
 11
15857.91723816815
 21
7514.741409317328
 31
0.0
  0
LINE
  5
9EE
330
1E
100
AcDbEntity
  8
図面
100
AcDbLine
 10
15857.91723816815
 20
7514.741409317328
 30
0.0
 11
15857.91723816815
 21
7759.741409317328
 31
0.0
  0
LINE
  5
9EF
330
1E
100
AcDbEntity
  8
図面
100
AcDbLine
 10
15857.91723816815
 20
7759.741409317328
 30
0.0
 11
15727.91723816815
 21
7759.741409317328
 31
0.0
  0
CIRCLE
  5
9F7
330
1E
100
AcDbEntity
  8
図面
100
AcDbCircle
 10
15792.91723816815
 20
7689.741409317328
 30
0.0
 40
8.0
  0
CIRCLE
  5
9F8
330
1E
100
AcDbEntity
  8
図面
100
AcDbCircle
 10
15792.91723816815
 20
7689.741409317328
 30
0.0
 40
8.5
  0
CIRCLE
  5
9FB
330
1E
100
AcDbEntity
  8
図面
100
AcDbCircle
 10
15792.91723816815
 20
7689.741409317328
 30
0.0
 40
25.0
  0
CIRCLE
  5
9FC
330
1E
100
AcDbEntity
  8
図面
100
AcDbCircle
 10
15792.91723816815
 20
7689.741409317328
 30
0.0
 40
20.0
  0
CIRCLE
  5
9FF
330
1E
100
AcDbEntity
  8
図面
100
AcDbCircle
 10
15792.91723816815
 20
7584.741409317328
 30
0.0
 40
8.5
  0
CIRCLE
  5
A00
330
1E
100
AcDbEntity
  8
図面
100
AcDbCircle
 10
15792.91723816815
 20
7584.741409317328
 30
0.0
 40
8.0
  0
MTEXT
  5
A02
330
1E
100
AcDbEntity
  8
図面
100
AcDbMText
 10
15826.56954971705
 20
7700.530861101648
 30
0.0
 40
25.0
 41
25.58336729009898
 46
0.0
 71
     1
 72
     5
  1
押
 73
     1
 44
1.0
  0
POLYLINE
  5
A05
330
1E
100
AcDbEntity
  8
ﾚｲﾔ1
 62
     7
100
AcDb2dPolyline
 66
     1
 10
0.0
 20
0.0
 30
0.0
  0
VERTEX
  5
A06
330
A05
100
AcDbEntity
  8
ﾚｲﾔ1
 62
     7
100
AcDbVertex
100
AcDb2dVertex
 10
13009.99925775742
 20
6875.775901475839
 30
0.0
  0
VERTEX
  5
A07
330
A05
100
AcDbEntity
  8
ﾚｲﾔ1
 62
     7
100
AcDbVertex
100
AcDb2dVertex
 10
13009.99925775742
 20
6461.884452965809
 30
0.0
  0
SEQEND
  5
A08
330
A05
100
AcDbEntity
  8
ﾚｲﾔ1
 62
     7
  0
POLYLINE
  5
A1B
330
1E
100
AcDbEntity
  8
ﾚｲﾔ1
 62
     7
100
AcDb2dPolyline
 66
     1
 10
0.0
 20
0.0
 30
0.0
  0
VERTEX
  5
A1C
330
A1B
100
AcDbEntity
  8
ﾚｲﾔ1
 62
     7
100
AcDbVertex
100
AcDb2dVertex
 10
13009.99925775742
 20
6461.884452965809
 30
0.0
  0
VERTEX
  5
A1D
330
A1B
100
AcDbEntity
  8
ﾚｲﾔ1
 62
     7
100
AcDbVertex
100
AcDb2dVertex
 10
13942.63465506669
 20
6461.884452965809
 30
0.0
  0
SEQEND
  5
A1E
330
A1B
100
AcDbEntity
  8
ﾚｲﾔ1
 62
     7
  0
MTEXT
  5
AA7
330
1E
100
AcDbEntity
  8
図面枠
370
    30
100
AcDbMText
 10
16146.53036002493
 20
6423.868430298922
 30
0.0
 40
44.0
 41
726.1927711417042
 46
0.0
 71
     1
 72
     5
  1
株式会社　関東油機サービス
 73
     1
 44
1.0
  0
LINE
  5
AAD
330
1E
100
AcDbEntity
  8
図面枠
  6
Continuous
100
AcDbLine
 10
16799.99925775742
 20
6461.884452965809
 30
0.0
 11
13009.99925775742
 21
6461.884452965809
 31
0.0
  0
LINE
  5
AAE
330
1E
100
AcDbEntity
  8
図面枠
  6
Continuous
100
AcDbLine
 10
15549.99925775742
 20
6461.884452965809
 30
0.0
 11
15649.99925775742
 21
6461.884452965809
 31
0.0
  0
LINE
  5
AAF
330
1E
100
AcDbEntity
  8
図面枠
  6
Continuous
100
AcDbLine
 10
16799.99925775742
 20
9121.884452965809
 30
0.0
 11
16799.99925775742
 21
6461.884452965809
 31
0.0
  0
LINE
  5
AB0
330
1E
100
AcDbEntity
  8
図面枠
  6
Continuous
100
AcDbLine
 10
13009.99925775742
 20
6461.884452965809
 30
0.0
 11
13009.99925775742
 21
9121.884452965809
 31
0.0
  0
LINE
  5
AB1
330
1E
100
AcDbEntity
  8
図面枠
  6
Continuous
100
AcDbLine
 10
13009.99925775742
 20
9121.884452965809
 30
0.0
 11
16799.99925775742
 21
9121.884452965809
 31
0.0
  0
LINE
  5
AB5
330
1E
100
AcDbEntity
  8
図面枠
  6
Continuous
100
AcDbLine
 10
16799.99925775742
 20
6911.884452965809
 30
0.0
 11
16799.99925775742
 21
6711.884452965809
 31
0.0
  0
LINE
  5
AB7
330
1E
100
AcDbEntity
  8
図面枠
  6
Continuous
100
AcDbLine
 10
16799.99925775742
 20
6711.884452965809
 30
0.0
 11
16799.99925775742
 21
6561.884452965809
 31
0.0
  0
LINE
  5
AC2
330
1E
100
AcDbEntity
  8
図面枠
  6
Continuous
100
AcDbLine
 10
16799.99925775742
 20
6461.884452965809
 30
0.0
 11
16799.99925775742
 21
6561.884452965809
 31
0.0
  0
LINE
  5
AC3
330
1E
100
AcDbEntity
  8
図面枠
  6
Continuous
100
AcDbLine
 10
16379.99925775742
 20
6461.884452965809
 30
0.0
 11
16799.99925775742
 21
6461.884452965809
 31
0.0
  0
LINE
  5
AC7
330
1E
100
AcDbEntity
  8
図面枠
  6
Continuous
100
AcDbLine
 10
16339.99925775742
 20
6461.884452965809
 30
0.0
 11
16379.99925775742
 21
6461.884452965809
 31
0.0
  0
LINE
  5
ACB
330
1E
100
AcDbEntity
  8
図面枠
  6
Continuous
100
AcDbLine
 10
16229.99925775742
 20
6461.884452965809
 30
0.0
 11
16339.99925775742
 21
6461.884452965809
 31
0.0
  0
LINE
  5
ACF
330
1E
100
AcDbEntity
  8
図面枠
  6
Continuous
100
AcDbLine
 10
16089.99925775742
 20
6461.884452965809
 30
0.0
 11
16229.99925775742
 21
6461.884452965809
 31
0.0
  0
LINE
  5
AD2
330
1E
100
AcDbEntity
  8
図面枠
  6
Continuous
100
AcDbLine
 10
15949.99925775742
 20
6461.884452965809
 30
0.0
 11
16089.99925775742
 21
6461.884452965809
 31
0.0
  0
LINE
  5
AD3
330
1E
100
AcDbEntity
  8
図面枠
  6
Continuous
100
AcDbLine
 10
15849.99925775742
 20
6461.884452965809
 30
0.0
 11
15949.99925775742
 21
6461.884452965809
 31
0.0
  0
LINE
  5
AD4
330
1E
100
AcDbEntity
  8
図面枠
  6
Continuous
100
AcDbLine
 10
15749.99925775742
 20
6461.884452965809
 30
0.0
 11
15849.99925775742
 21
6461.884452965809
 31
0.0
  0
LINE
  5
AD5
330
1E
100
AcDbEntity
  8
図面枠
  6
Continuous
100
AcDbLine
 10
15649.99925775742
 20
6461.884452965809
 30
0.0
 11
15749.99925775742
 21
6461.884452965809
 31
0.0
  0
LINE
  5
AD6
330
1E
100
AcDbEntity
  8
図面枠
  6
Continuous
100
AcDbLine
 10
16829.99925775742
 20
9151.884452965809
 30
0.0
 11
16829.99925775742
 21
6431.884452965809
 31
0.0
  0
LINE
  5
AD7
330
1E
100
AcDbEntity
  8
図面枠
  6
Continuous
100
AcDbLine
 10
16829.99925775742
 20
6431.884452965809
 30
0.0
 11
12979.99925775742
 21
6431.884452965809
 31
0.0
  0
LINE
  5
AD8
330
1E
100
AcDbEntity
  8
図面枠
  6
Continuous
100
AcDbLine
 10
12979.99925775742
 20
9151.884452965809
 30
0.0
 11
12979.99925775742
 21
6431.884452965809
 31
0.0
  0
LINE
  5
AD9
330
1E
100
AcDbEntity
  8
図面枠
  6
Continuous
100
AcDbLine
 10
16829.99925775742
 20
9151.884452965809
 30
0.0
 11
12979.99925775742
 21
9151.884452965809
 31
0.0
  0
LWPOLYLINE
  5
ADA
330
1E
100
AcDbEntity
  8
図面枠
  6
Continuous
 62
   254
100
AcDbPolyline
 90
        4
 70
     1
 43
0.0
 10
12779.99925775742
 20
6281.884452965809
 10
16979.99925775742
 20
6281.884452965809
 10
16979.99925775742
 20
9251.884452965809
 10
12779.99925775742
 20
9251.884452965809
  0
MTEXT
  5
16C8
330
1E
100
AcDbEntity
  8
図面
100
AcDbMText
 10
16133.31502569824
 20
8514.477739700089
 30
0.0
 40
25.0
 41
511.5303897769663
 46
0.0
 71
     1
 72
     5
  1
400Kg
 73
     1
 44
1.0
  0
MTEXT
  5
16C9
330
1E
100
AcDbEntity
  8
図面
100
AcDbMText
 10
16133.31502569824
 20
8565.04254350509
 30
0.0
 40
25.0
 41
511.5303897769663
 46
0.0
 71
     1
 72
     5
  1
ISO-VG46
 73
     1
 44
1.0
  0
MTEXT
  5
16CA
330
1E
100
AcDbEntity
  8
図面
100
AcDbMText
 10
16133.31502569824
 20
8615.607347310082
 30
0.0
 40
25.0
 41
511.5303897769663
 46
0.0
 71
     1
 72
     5
  1
150L
 73
     1
 44
1.0
  0
MTEXT
  5
16CB
330
1E
100
AcDbEntity
  8
図面
100
AcDbMText
 10
16133.31502569824
 20
8666.172151115075
 30
0.0
 40
25.0
 41
511.5303897769663
 46
0.0
 71
     1
 72
     5
  1
2.2kw,4P,200V,50/60Hz
 73
     1
 44
1.0
  0
MTEXT
  5
16CC
330
1E
100
AcDbEntity
  8
文字
100
AcDbMText
 10
15860.73948903259
 20
8518.710803263015
 30
0.0
 40
25.0
 41
266.0671349732474
 46
66.66666666666667
 71
     1
 72
     5
  1
{\W0.9;重　　　　量　　：\W1;　　}
 73
     1
 44
1.0
  0
MTEXT
  5
16CD
330
1E
100
AcDbEntity
  8
文字
100
AcDbMText
 10
15860.73948903259
 20
8569.275607068015
 30
0.0
 40
25.0
 41
266.0671349732474
 46
66.66666666666667
 71
     1
 72
     5
  1
{\W0.9;作　　動　　油　：\W1;　　}
 73
     1
 44
1.0
  0
MTEXT
  5
16CE
330
1E
100
AcDbEntity
  8
文字
100
AcDbMText
 10
15860.73948903259
 20
8619.840410873008
 30
0.0
 40
25.0
 41
266.0671349732474
 46
66.66666666666667
 71
     1
 72
     5
  1
{\W0.9;タ ン ク 容 量  ：\W1;　　}
 73
     1
 44
1.0
  0
MTEXT
  5
16CF
330
1E
100
AcDbEntity
  8
文字
100
AcDbMText
 10
15860.73948903259
 20
8670.405214678001
 30
0.0
 40
25.0
 41
266.0671349732474
 46
66.66666666666667
 71
     1
 72
     5
  1
{\W0.9;電　　動　　機　：\W1;　　}
 73
     1
 44
1.0
  0
MTEXT
  5
16D0
330
1E
100
AcDbEntity
  8
図面
100
AcDbMText
 10
16133.31502569824
 20
8716.736954920068
 30
0.0
 40
25.0
 41
511.5303897769663
 46
0.0
 71
     1
 72
     5
  1
7MPa
 73
     1
 44
1.0
  0
MTEXT
  5
16D1
330
1E
100
AcDbEntity
  8
図面
100
AcDbMText
 10
16133.31502569824
 20
8767.301758725062
 30
0.0
 40
25.0
 41
511.5303897769663
 46
0.0
 71
     1
 72
     5
  1
70MPa
 73
     1
 44
1.0
  0
MTEXT
  5
16D2
330
1E
100
AcDbEntity
  8
図面
100
AcDbMText
 10
16133.31502569824
 20
8817.866562530055
 30
0.0
 40
25.0
 41
511.5303897769663
 46
0.0
 71
     1
 72
     5
  1
5.8/7.0 L/min (50/60Hz)
 73
     1
 44
1.0
  0
MTEXT
  5
16D3
330
1E
100
AcDbEntity
  8
図面
100
AcDbMText
 10
16133.31502569824
 20
8868.431366335048
 30
0.0
 40
25.0
 41
511.5303897769663
 46
0.0
 71
     1
 72
     5
  1
2.2/2.7 L/min (50/60Hz)
 73
     1
 44
1.0
  0
MTEXT
  5
16D4
330
1E
100
AcDbEntity
  8
文字
100
AcDbMText
 10
15860.73948903259
 20
8720.970018482994
 30
0.0
 40
25.0
 41
266.0671349732474
 46
66.66666666666667
 71
     1
 72
     5
  1
{\W0.9;設定圧力（低圧）：\W1;　　}
 73
     1
 44
1.0
  0
MTEXT
  5
16D5
330
1E
100
AcDbEntity
  8
文字
100
AcDbMText
 10
15860.73948903259
 20
8771.534822287987
 30
0.0
 40
25.0
 41
266.0671349732474
 46
66.66666666666667
 71
     1
 72
     5
  1
{\W0.9;設定圧力（高圧）：\W1;　　}
 73
     1
 44
1.0
  0
MTEXT
  5
16D6
330
1E
100
AcDbEntity
  8
文字
100
AcDbMText
 10
15860.73948903259
 20
8822.09962609298
 30
0.0
 40
25.0
 41
266.0671349732474
 46
66.66666666666667
 71
     1
 72
     5
  1
{\W0.9;設定流量（低圧）：\W1;　　}
 73
     1
 44
1.0
  0
MTEXT
  5
16D7
330
1E
100
AcDbEntity
  8
文字
100
AcDbMText
 10
15860.73948903259
 20
8872.664429897974
 30
0.0
 40
25.0
 41
266.0671349732474
 46
66.66666666666667
 71
     1
 72
     5
  1
{\W0.9;設定流量（高圧）：\W1;　　}
 73
     1
 44
1.0
  0
MTEXT
  5
16D8
330
1E
100
AcDbEntity
  8
文字
100
AcDbMText
 10
16173.57389289499
 20
9054.49132879534
 30
0.0
 40
35.0
 41
157.7024286512242
 46
0.0
 71
     1
 72
     5
  1
仕　様
 73
     1
 44
1.0
  0
LINE
  5
16D9
330
1E
100
AcDbEntity
  8
0
100
AcDbLine
 10
15860.73948903259
 20
8484.53749858759
 30
0.0
 11
16637.99446934409
 21
8484.53749858759
 31
0.0
  0
LINE
  5
16DA
330
1E
100
AcDbEntity
  8
0
100
AcDbLine
 10
15860.73948903259
 20
8585.667106197583
 30
0.0
 11
16637.99446934409
 21
8585.667106197583
 31
0.0
  0
LINE
  5
16DB
330
1E
100
AcDbEntity
  8
0
100
AcDbLine
 10
15860.73948903259
 20
8636.231910002576
 30
0.0
 11
16637.99446934409
 21
8636.231910002576
 31
0.0
  0
LINE
  5
16DC
330
1E
100
AcDbEntity
  8
0
100
AcDbLine
 10
15860.73948903259
 20
8686.79671380757
 30
0.0
 11
16637.99446934409
 21
8686.79671380757
 31
0.0
  0
LINE
  5
16DD
330
1E
100
AcDbEntity
  8
0
100
AcDbLine
 10
15860.73948903259
 20
8737.361517612562
 30
0.0
 11
16637.99446934409
 21
8737.361517612562
 31
0.0
  0
LINE
  5
16DE
330
1E
100
AcDbEntity
  8
0
100
AcDbLine
 10
15860.73948903259
 20
8787.926321417555
 30
0.0
 11
16637.99446934409
 21
8787.926321417555
 31
0.0
  0
LINE
  5
16DF
330
1E
100
AcDbEntity
  8
0
100
AcDbLine
 10
15860.73948903259
 20
8535.10230239259
 30
0.0
 11
16637.99446934409
 21
8535.10230239259
 31
0.0
  0
LINE
  5
16E0
330
1E
100
AcDbEntity
  8
0
100
AcDbLine
 10
15860.73948903259
 20
8838.491125222548
 30
0.0
 11
16637.99446934409
 21
8838.491125222548
 31
0.0
  0
MTEXT
  5
16E2
330
1E
100
AcDbEntity
  8
文字
100
AcDbMText
 10
15860.73948903259
 20
8973.79403750796
 30
0.0
 40
25.0
 41
266.0671349732474
 46
66.66666666666667
 71
     1
 72
     5
  1
{\W0.9;名　　　 　 称　：\W1;　　}
 73
     1
 44
1.0
  0
LINE
  5
16E3
330
1E
100
AcDbEntity
  8
0
100
AcDbLine
 10
15860.73948903259
 20
8939.620732832534
 30
0.0
 11
16637.99446934409
 21
8939.620732832534
 31
0.0
  0
MTEXT
  5
16E4
330
1E
100
AcDbEntity
  8
文字
100
AcDbMText
 10
15860.73948903259
 20
8923.229233702967
 30
0.0
 40
25.0
 41
266.0671349732474
 46
66.66666666666667
 71
     1
 72
     5
  1
{\W0.9;形　　　　  式　：\W1;　　}
 73
     1
 44
1.0
  0
LINE
  5
16E5
330
1E
100
AcDbEntity
  8
0
100
AcDbLine
 10
15860.73948903259
 20
8889.055929027541
 30
0.0
 11
16637.99446934409
 21
8889.055929027541
 31
0.0
  0
MTEXT
  5
16E6
330
1E
100
AcDbEntity
  8
図面
100
AcDbMText
 10
16133.31502569824
 20
8969.560973945034
 30
0.0
 40
25.0
 41
511.5303897769663
 46
25.0
 71
     1
 72
     5
  1
{自動制御油圧ポンプユニット}
 73
     1
 44
1.0
  0
MTEXT
  5
16E7
330
1E
100
AcDbEntity
  8
図面
100
AcDbMText
 10
16133.31502569824
 20
8918.99617014004
 30
0.0
 40
25.0
 41
511.5303897769663
 46
25.0
 71
     1
 72
     5
  1
{AIP-2.2}
 73
     1
 44
1.0
  0
DIMENSION
  5
16F8
330
1E
100
AcDbEntity
  8
図面
100
AcDbDimension
280
     0
  2
*D2
 10
13416.3388484488
 20
7824.741409317328
 30
0.0
 11
13403.3388484488
 21
7344.74140931733
 31
0.0
 70
    32
 71
     5
 42
960.0
 73
     0
 74
     0
 75
     0
  3
Standard
100
AcDbAlignedDimension
 13
13535.41723816815
 23
6864.741409317328
 33
0.0
 14
13577.91723816815
 24
7824.741409317328
 34
0.0
 50
90.0
100
AcDbRotatedDimension
1001
ACAD
1000
DSTYLE
1002
{
1070
    41
1040
20.0
1070
    44
1040
0.5
1070
    73
1070
     0
1070
    74
1070
     0
1070
    77
1070
     1
1070
   140
1040
25.0
1070
   147
1040
0.5
1070
   176
1070
     1
1070
   177
1070
     1
1070
   178
1070
     1
1070
   271
1070
     0
1070
   272
1070
     0
1070
   279
1070
     2
1070
   340
1005
23
1002
}
  0
DIMENSION
  5
1705
330
1E
100
AcDbEntity
  8
図面
100
AcDbDimension
280
     0
  2
*D3
 10
14160.41723816815
 20
6774.206353952301
 30
0.0
 11
13830.41723816815
 21
6787.206353952301
 31
0.0
 70
    32
 71
     5
 42
660.0
 73
     0
 74
     0
 75
     0
  3
Standard
100
AcDbAlignedDimension
 13
13500.41723816815
 23
6919.741409317328
 33
0.0
 14
14160.41723816815
 24
6919.741409317328
 34
0.0
100
AcDbRotatedDimension
1001
ACAD
1000
DSTYLE
1002
{
1070
    41
1040
20.0
1070
    44
1040
0.5
1070
    73
1070
     0
1070
    74
1070
     0
1070
    77
1070
     1
1070
   140
1040
25.0
1070
   147
1040
0.5
1070
   176
1070
     1
1070
   177
1070
     1
1070
   178
1070
     1
1070
   271
1070
     0
1070
   272
1070
     0
1070
   279
1070
     2
1070
   340
1005
23
1002
}
  0
DIMENSION
  5
1713
330
1E
100
AcDbEntity
  8
図面
100
AcDbDimension
280
     0
  2
*D4
 10
15367.91723816815
 20
6773.706353952301
 30
0.0
 11
14875.41723816815
 21
6786.706353952301
 31
0.0
 70
    32
 71
     5
 42
985.0
 73
     0
 74
     0
 75
     0
  3
Standard
100
AcDbAlignedDimension
 13
14382.91723816815
 23
6950.741409317328
 33
0.0
 14
15367.91723816815
 24
6950.741409317328
 34
0.0
100
AcDbRotatedDimension
1001
ACAD
1000
DSTYLE
1002
{
1070
    41
1040
20.0
1070
    44
1040
0.5
1070
    73
1070
     0
1070
    74
1070
     0
1070
    77
1070
     1
1070
   140
1040
25.0
1070
   147
1040
0.5
1070
   176
1070
     1
1070
   177
1070
     1
1070
   178
1070
     1
1070
   271
1070
     0
1070
   272
1070
     0
1070
   279
1070
     2
1070
   340
1005
23
1002
}
  0
LINE
  5
1720
330
1E
100
AcDbEntity
  8
図面
100
AcDbLine
 10
15267.91723816815
 20
6993.986962520697
 30
0.0
 11
15267.91723816815
 21
7260.741409317328
 31
0.0
  0
LINE
  5
172C
330
1E
100
AcDbEntity
  8
図面
100
AcDbLine
 10
14503.91723816815
 20
7594.74140931733
 30
0.0
 11
14503.91723816815
 21
7489.741409317328
 31
0.0
  0
LINE
  5
172D
330
1E
100
AcDbEntity
  8
図面
100
AcDbLine
 10
14508.91723816815
 20
7484.741409317328
 30
0.0
 11
14526.91723816815
 21
7484.741409317329
 31
0.0
  0
LINE
  5
172E
330
1E
100
AcDbEntity
  8
図面
100
AcDbLine
 10
14531.91723816815
 20
7489.741409317329
 30
0.0
 11
14531.91723816815
 21
7594.741409317328
 31
0.0
  0
LINE
  5
172F
330
1E
100
AcDbEntity
  8
図面
100
AcDbLine
 10
14526.91723816815
 20
7599.741409317328
 30
0.0
 11
14508.91723816815
 21
7599.74140931733
 31
0.0
  0
ARC
  5
1730
330
1E
100
AcDbEntity
  8
図面
100
AcDbCircle
 10
14508.91723816815
 20
7594.74140931733
 30
0.0
 40
5.0
100
AcDbArc
 50
89.99999999999814
 51
179.9999999999991
  0
ARC
  5
1731
330
1E
100
AcDbEntity
  8
図面
100
AcDbCircle
 10
14508.91723816815
 20
7489.741409317328
 30
0.0
 40
5.0
100
AcDbArc
 50
179.9999999999971
 51
270.0
  0
ARC
  5
1732
330
1E
100
AcDbEntity
  8
図面
100
AcDbCircle
 10
14526.91723816815
 20
7594.741409317328
 30
0.0
 40
5.0
100
AcDbArc
 50
0.0
 51
89.99999999999545
  0
ARC
  5
1733
330
1E
100
AcDbEntity
  8
図面
100
AcDbCircle
 10
14526.91723816815
 20
7489.741409317329
 30
0.0
 40
5.0
100
AcDbArc
 50
270.0
 51
0.0000000000009414
  0
LINE
  5
1734
330
1E
100
AcDbEntity
  8
図面
100
AcDbLine
 10
14508.91723816815
 20
7557.467755795042
 30
0.0
 11
14508.91723816815
 21
7489.741409317328
 31
0.0
  0
LINE
  5
1735
330
1E
100
AcDbEntity
  8
図面
100
AcDbLine
 10
14526.91723816815
 20
7489.741409317329
 30
0.0
 11
14526.91723816815
 21
7557.467755795042
 31
0.0
  0
LINE
  5
1736
330
1E
100
AcDbEntity
  8
図面
100
AcDbLine
 10
14508.91723816815
 20
7489.741409317328
 30
0.0
 11
14526.91723816815
 21
7489.741409317329
 31
0.0
  0
LINE
  5
1739
330
1E
100
AcDbEntity
  8
図面
100
AcDbLine
 10
14508.91723816815
 20
7557.467755795042
 30
0.0
 11
14526.91723816815
 21
7557.467755795042
 31
0.0
  0
LINE
  5
173E
330
1E
100
AcDbEntity
  8
図面
100
AcDbLine
 10
14508.91723816815
 20
7585.031768753899
 30
0.0
 11
14508.91723816815
 21
7570.031768753899
 31
0.0
  0
LINE
  5
173F
330
1E
100
AcDbEntity
  8
図面
100
AcDbLine
 10
14508.91723816815
 20
7570.031768753899
 30
0.0
 11
14526.91723816815
 21
7570.031768753899
 31
0.0
  0
LINE
  5
1740
330
1E
100
AcDbEntity
  8
図面
100
AcDbLine
 10
14526.91723816815
 20
7570.031768753899
 30
0.0
 11
14526.91723816815
 21
7585.031768753899
 31
0.0
  0
LINE
  5
1741
330
1E
100
AcDbEntity
  8
図面
100
AcDbLine
 10
14526.91723816815
 20
7585.031768753899
 30
0.0
 11
14508.91723816815
 21
7585.031768753899
 31
0.0
  0
CIRCLE
  5
1756
330
1E
100
AcDbEntity
  8
図面
100
AcDbCircle
 10
15242.91723816815
 20
6980.741409317328
 30
0.0
 40
11.0
  0
LWPOLYLINE
  5
1758
330
1E
100
AcDbEntity
  8
図面
100
AcDbPolyline
 90
        6
 70
     1
 43
0.0
 10
15242.91723816815
 20
6990.241409317328
 10
15234.6899968322
 20
6985.491409317328
 10
15234.6899968322
 20
6975.991409317328
 10
15242.91723816815
 20
6971.241409317328
 10
15251.1444795041
 20
6975.991409317328
 10
15251.1444795041
 20
6985.491409317328
  0
CIRCLE
  5
1759
330
1E
100
AcDbEntity
  8
図面
100
AcDbCircle
 10
15242.91723816815
 20
6980.741409317328
 30
0.0
 40
6.0
  0
CIRCLE
  5
175A
330
1E
100
AcDbEntity
  8
図面
100
AcDbCircle
 10
15242.91723816815
 20
6980.741409317328
 30
0.0
 40
5.5
  0
CIRCLE
  5
175B
330
1E
100
AcDbEntity
  8
図面
100
AcDbCircle
 10
15242.91723816815
 20
7045.741409317328
 30
0.0
 40
5.5
  0
CIRCLE
  5
175C
330
1E
100
AcDbEntity
  8
図面
100
AcDbCircle
 10
15242.91723816815
 20
7045.741409317328
 30
0.0
 40
6.0
  0
LWPOLYLINE
  5
175D
330
1E
100
AcDbEntity
  8
図面
100
AcDbPolyline
 90
        6
 70
     1
 43
0.0
 10
15242.91723816815
 20
7055.241409317328
 10
15234.6899968322
 20
7050.491409317328
 10
15234.6899968322
 20
7040.991409317328
 10
15242.91723816815
 20
7036.241409317328
 10
15251.1444795041
 20
7040.991409317328
 10
15251.1444795041
 20
7050.491409317328
  0
CIRCLE
  5
175E
330
1E
100
AcDbEntity
  8
図面
100
AcDbCircle
 10
15242.91723816815
 20
7045.741409317328
 30
0.0
 40
11.0
  0
CIRCLE
  5
175F
330
1E
100
AcDbEntity
  8
図面
100
AcDbCircle
 10
15242.91723816815
 20
7110.741409317328
 30
0.0
 40
5.5
  0
CIRCLE
  5
1760
330
1E
100
AcDbEntity
  8
図面
100
AcDbCircle
 10
15242.91723816815
 20
7110.741409317328
 30
0.0
 40
6.0
  0
LWPOLYLINE
  5
1761
330
1E
100
AcDbEntity
  8
図面
100
AcDbPolyline
 90
        6
 70
     1
 43
0.0
 10
15242.91723816815
 20
7120.241409317328
 10
15234.6899968322
 20
7115.491409317328
 10
15234.6899968322
 20
7105.991409317328
 10
15242.91723816815
 20
7101.241409317328
 10
15251.1444795041
 20
7105.991409317328
 10
15251.1444795041
 20
7115.491409317328
  0
CIRCLE
  5
1762
330
1E
100
AcDbEntity
  8
図面
100
AcDbCircle
 10
15242.91723816815
 20
7110.741409317328
 30
0.0
 40
11.0
  0
CIRCLE
  5
1763
330
1E
100
AcDbEntity
  8
図面
100
AcDbCircle
 10
15242.91723816815
 20
7175.741409317328
 30
0.0
 40
5.5
  0
CIRCLE
  5
1764
330
1E
100
AcDbEntity
  8
図面
100
AcDbCircle
 10
15242.91723816815
 20
7175.741409317328
 30
0.0
 40
6.0
  0
LWPOLYLINE
  5
1765
330
1E
100
AcDbEntity
  8
図面
100
AcDbPolyline
 90
        6
 70
     1
 43
0.0
 10
15242.91723816815
 20
7185.241409317328
 10
15234.6899968322
 20
7180.491409317328
 10
15234.6899968322
 20
7170.991409317328
 10
15242.91723816815
 20
7166.241409317328
 10
15251.1444795041
 20
7170.991409317328
 10
15251.1444795041
 20
7180.491409317328
  0
CIRCLE
  5
1766
330
1E
100
AcDbEntity
  8
図面
100
AcDbCircle
 10
15242.91723816815
 20
7175.741409317328
 30
0.0
 40
11.0
  0
CIRCLE
  5
1767
330
1E
100
AcDbEntity
  8
図面
100
AcDbCircle
 10
15242.91723816815
 20
7240.741409317328
 30
0.0
 40
5.5
  0
CIRCLE
  5
1768
330
1E
100
AcDbEntity
  8
図面
100
AcDbCircle
 10
15242.91723816815
 20
7240.741409317328
 30
0.0
 40
6.0
  0
LWPOLYLINE
  5
1769
330
1E
100
AcDbEntity
  8
図面
100
AcDbPolyline
 90
        6
 70
     1
 43
0.0
 10
15242.91723816815
 20
7250.241409317328
 10
15234.6899968322
 20
7245.491409317328
 10
15234.6899968322
 20
7235.991409317328
 10
15242.91723816815
 20
7231.241409317328
 10
15251.1444795041
 20
7235.991409317328
 10
15251.1444795041
 20
7245.491409317328
  0
CIRCLE
  5
176A
330
1E
100
AcDbEntity
  8
図面
100
AcDbCircle
 10
15242.91723816815
 20
7240.741409317328
 30
0.0
 40
11.0
  0
CIRCLE
  5
176B
330
1E
100
AcDbEntity
  8
図面
100
AcDbCircle
 10
14642.91723816815
 20
7240.741409317328
 30
0.0
 40
11.0
  0
LWPOLYLINE
  5
176C
330
1E
100
AcDbEntity
  8
図面
100
AcDbPolyline
 90
        6
 70
     1
 43
0.0
 10
14642.91723816815
 20
7250.241409317328
 10
14634.6899968322
 20
7245.491409317328
 10
14634.6899968322
 20
7235.991409317328
 10
14642.91723816815
 20
7231.241409317328
 10
14651.1444795041
 20
7235.991409317328
 10
14651.1444795041
 20
7245.491409317328
  0
CIRCLE
  5
176D
330
1E
100
AcDbEntity
  8
図面
100
AcDbCircle
 10
14642.91723816815
 20
7240.741409317328
 30
0.0
 40
6.0
  0
CIRCLE
  5
176E
330
1E
100
AcDbEntity
  8
図面
100
AcDbCircle
 10
14642.91723816815
 20
7240.741409317328
 30
0.0
 40
5.5
  0
CIRCLE
  5
176F
330
1E
100
AcDbEntity
  8
図面
100
AcDbCircle
 10
14642.91723816815
 20
7175.741409317328
 30
0.0
 40
11.0
  0
LWPOLYLINE
  5
1770
330
1E
100
AcDbEntity
  8
図面
100
AcDbPolyline
 90
        6
 70
     1
 43
0.0
 10
14642.91723816815
 20
7185.241409317328
 10
14634.6899968322
 20
7180.491409317328
 10
14634.6899968322
 20
7170.991409317328
 10
14642.91723816815
 20
7166.241409317328
 10
14651.1444795041
 20
7170.991409317328
 10
14651.1444795041
 20
7180.491409317328
  0
CIRCLE
  5
1771
330
1E
100
AcDbEntity
  8
図面
100
AcDbCircle
 10
14642.91723816815
 20
7175.741409317328
 30
0.0
 40
6.0
  0
CIRCLE
  5
1772
330
1E
100
AcDbEntity
  8
図面
100
AcDbCircle
 10
14642.91723816815
 20
7175.741409317328
 30
0.0
 40
5.5
  0
CIRCLE
  5
1773
330
1E
100
AcDbEntity
  8
図面
100
AcDbCircle
 10
14642.91723816815
 20
7110.741409317328
 30
0.0
 40
11.0
  0
LWPOLYLINE
  5
1774
330
1E
100
AcDbEntity
  8
図面
100
AcDbPolyline
 90
        6
 70
     1
 43
0.0
 10
14642.91723816815
 20
7120.241409317328
 10
14634.6899968322
 20
7115.491409317328
 10
14634.6899968322
 20
7105.991409317328
 10
14642.91723816815
 20
7101.241409317328
 10
14651.1444795041
 20
7105.991409317328
 10
14651.1444795041
 20
7115.491409317328
  0
CIRCLE
  5
1775
330
1E
100
AcDbEntity
  8
図面
100
AcDbCircle
 10
14642.91723816815
 20
7110.741409317328
 30
0.0
 40
6.0
  0
CIRCLE
  5
1776
330
1E
100
AcDbEntity
  8
図面
100
AcDbCircle
 10
14642.91723816815
 20
7110.741409317328
 30
0.0
 40
5.5
  0
CIRCLE
  5
1777
330
1E
100
AcDbEntity
  8
図面
100
AcDbCircle
 10
14642.91723816815
 20
7045.741409317328
 30
0.0
 40
11.0
  0
LWPOLYLINE
  5
1778
330
1E
100
AcDbEntity
  8
図面
100
AcDbPolyline
 90
        6
 70
     1
 43
0.0
 10
14642.91723816815
 20
7055.241409317328
 10
14634.6899968322
 20
7050.491409317328
 10
14634.6899968322
 20
7040.991409317328
 10
14642.91723816815
 20
7036.241409317328
 10
14651.1444795041
 20
7040.991409317328
 10
14651.1444795041
 20
7050.491409317328
  0
CIRCLE
  5
1779
330
1E
100
AcDbEntity
  8
図面
100
AcDbCircle
 10
14642.91723816815
 20
7045.741409317328
 30
0.0
 40
6.0
  0
CIRCLE
  5
177A
330
1E
100
AcDbEntity
  8
図面
100
AcDbCircle
 10
14642.91723816815
 20
7045.741409317328
 30
0.0
 40
5.5
  0
CIRCLE
  5
177B
330
1E
100
AcDbEntity
  8
図面
100
AcDbCircle
 10
14642.91723816815
 20
6980.741409317328
 30
0.0
 40
5.5
  0
CIRCLE
  5
177C
330
1E
100
AcDbEntity
  8
図面
100
AcDbCircle
 10
14642.91723816815
 20
6980.741409317328
 30
0.0
 40
6.0
  0
LWPOLYLINE
  5
177D
330
1E
100
AcDbEntity
  8
図面
100
AcDbPolyline
 90
        6
 70
     1
 43
0.0
 10
14642.91723816815
 20
6990.241409317328
 10
14634.6899968322
 20
6985.491409317328
 10
14634.6899968322
 20
6975.991409317328
 10
14642.91723816815
 20
6971.241409317328
 10
14651.1444795041
 20
6975.991409317328
 10
14651.1444795041
 20
6985.491409317328
  0
CIRCLE
  5
177E
330
1E
100
AcDbEntity
  8
図面
100
AcDbCircle
 10
14642.91723816815
 20
6980.741409317328
 30
0.0
 40
11.0
  0
CIRCLE
  5
177F
330
1E
100
AcDbEntity
  8
図面
100
AcDbCircle
 10
14642.91723816815
 20
7240.741409317328
 30
0.0
 40
5.5
  0
CIRCLE
  5
1780
330
1E
100
AcDbEntity
  8
図面
100
AcDbCircle
 10
14642.91723816815
 20
7240.741409317328
 30
0.0
 40
6.0
  0
LWPOLYLINE
  5
1781
330
1E
100
AcDbEntity
  8
図面
100
AcDbPolyline
 90
        6
 70
     1
 43
0.0
 10
14642.91723816815
 20
7250.241409317328
 10
14634.6899968322
 20
7245.491409317328
 10
14634.6899968322
 20
7235.991409317328
 10
14642.91723816815
 20
7231.241409317328
 10
14651.1444795041
 20
7235.991409317328
 10
14651.1444795041
 20
7245.491409317328
  0
CIRCLE
  5
1782
330
1E
100
AcDbEntity
  8
図面
100
AcDbCircle
 10
14642.91723816815
 20
7240.741409317328
 30
0.0
 40
11.0
  0
CIRCLE
  5
1783
330
1E
100
AcDbEntity
  8
図面
100
AcDbCircle
 10
14642.91723816815
 20
6980.741409317328
 30
0.0
 40
11.0
  0
LWPOLYLINE
  5
1784
330
1E
100
AcDbEntity
  8
図面
100
AcDbPolyline
 90
        6
 70
     1
 43
0.0
 10
14642.91723816815
 20
6990.241409317328
 10
14634.6899968322
 20
6985.491409317328
 10
14634.6899968322
 20
6975.991409317328
 10
14642.91723816815
 20
6971.241409317328
 10
14651.1444795041
 20
6975.991409317328
 10
14651.1444795041
 20
6985.491409317328
  0
CIRCLE
  5
1785
330
1E
100
AcDbEntity
  8
図面
100
AcDbCircle
 10
14642.91723816815
 20
6980.741409317328
 30
0.0
 40
6.0
  0
CIRCLE
  5
1786
330
1E
100
AcDbEntity
  8
図面
100
AcDbCircle
 10
14642.91723816815
 20
6980.741409317328
 30
0.0
 40
5.5
  0
CIRCLE
  5
1787
330
1E
100
AcDbEntity
  8
図面
100
AcDbCircle
 10
14642.91723816815
 20
7240.741409317328
 30
0.0
 40
5.5
  0
CIRCLE
  5
1788
330
1E
100
AcDbEntity
  8
図面
100
AcDbCircle
 10
14642.91723816815
 20
7240.741409317328
 30
0.0
 40
6.0
  0
LWPOLYLINE
  5
1789
330
1E
100
AcDbEntity
  8
図面
100
AcDbPolyline
 90
        6
 70
     1
 43
0.0
 10
14642.91723816815
 20
7250.241409317328
 10
14634.6899968322
 20
7245.491409317328
 10
14634.6899968322
 20
7235.991409317328
 10
14642.91723816815
 20
7231.241409317328
 10
14651.1444795041
 20
7235.991409317328
 10
14651.1444795041
 20
7245.491409317328
  0
CIRCLE
  5
178A
330
1E
100
AcDbEntity
  8
図面
100
AcDbCircle
 10
14642.91723816815
 20
7240.741409317328
 30
0.0
 40
11.0
  0
CIRCLE
  5
178B
330
1E
100
AcDbEntity
  8
図面
100
AcDbCircle
 10
14642.91723816815
 20
6980.741409317328
 30
0.0
 40
11.0
  0
LWPOLYLINE
  5
178C
330
1E
100
AcDbEntity
  8
図面
100
AcDbPolyline
 90
        6
 70
     1
 43
0.0
 10
14642.91723816815
 20
6990.241409317328
 10
14634.6899968322
 20
6985.491409317328
 10
14634.6899968322
 20
6975.991409317328
 10
14642.91723816815
 20
6971.241409317328
 10
14651.1444795041
 20
6975.991409317328
 10
14651.1444795041
 20
6985.491409317328
  0
CIRCLE
  5
178D
330
1E
100
AcDbEntity
  8
図面
100
AcDbCircle
 10
14642.91723816815
 20
6980.741409317328
 30
0.0
 40
6.0
  0
CIRCLE
  5
178E
330
1E
100
AcDbEntity
  8
図面
100
AcDbCircle
 10
14642.91723816815
 20
6980.741409317328
 30
0.0
 40
5.5
  0
CIRCLE
  5
178F
330
1E
100
AcDbEntity
  8
図面
100
AcDbCircle
 10
14642.91723816815
 20
7240.741409317328
 30
0.0
 40
5.5
  0
CIRCLE
  5
1790
330
1E
100
AcDbEntity
  8
図面
100
AcDbCircle
 10
14642.91723816815
 20
7240.741409317328
 30
0.0
 40
6.0
  0
LWPOLYLINE
  5
1791
330
1E
100
AcDbEntity
  8
図面
100
AcDbPolyline
 90
        6
 70
     1
 43
0.0
 10
14642.91723816815
 20
7250.241409317328
 10
14634.6899968322
 20
7245.491409317328
 10
14634.6899968322
 20
7235.991409317328
 10
14642.91723816815
 20
7231.241409317328
 10
14651.1444795041
 20
7235.991409317328
 10
14651.1444795041
 20
7245.491409317328
  0
CIRCLE
  5
1792
330
1E
100
AcDbEntity
  8
図面
100
AcDbCircle
 10
14642.91723816815
 20
7240.741409317328
 30
0.0
 40
11.0
  0
CIRCLE
  5
1793
330
1E
100
AcDbEntity
  8
図面
100
AcDbCircle
 10
14642.91723816815
 20
6980.741409317328
 30
0.0
 40
11.0
  0
LWPOLYLINE
  5
1794
330
1E
100
AcDbEntity
  8
図面
100
AcDbPolyline
 90
        6
 70
     1
 43
0.0
 10
14642.91723816815
 20
6990.241409317328
 10
14634.6899968322
 20
6985.491409317328
 10
14634.6899968322
 20
6975.991409317328
 10
14642.91723816815
 20
6971.241409317328
 10
14651.1444795041
 20
6975.991409317328
 10
14651.1444795041
 20
6985.491409317328
  0
CIRCLE
  5
1795
330
1E
100
AcDbEntity
  8
図面
100
AcDbCircle
 10
14642.91723816815
 20
6980.741409317328
 30
0.0
 40
6.0
  0
CIRCLE
  5
1796
330
1E
100
AcDbEntity
  8
図面
100
AcDbCircle
 10
14642.91723816815
 20
6980.741409317328
 30
0.0
 40
5.5
  0
CIRCLE
  5
1797
330
1E
100
AcDbEntity
  8
図面
100
AcDbCircle
 10
14642.91723816815
 20
7240.741409317328
 30
0.0
 40
5.5
  0
CIRCLE
  5
1798
330
1E
100
AcDbEntity
  8
図面
100
AcDbCircle
 10
14642.91723816815
 20
7240.741409317328
 30
0.0
 40
6.0
  0
LWPOLYLINE
  5
1799
330
1E
100
AcDbEntity
  8
図面
100
AcDbPolyline
 90
        6
 70
     1
 43
0.0
 10
14642.91723816815
 20
7250.241409317328
 10
14634.6899968322
 20
7245.491409317328
 10
14634.6899968322
 20
7235.991409317328
 10
14642.91723816815
 20
7231.241409317328
 10
14651.1444795041
 20
7235.991409317328
 10
14651.1444795041
 20
7245.491409317328
  0
CIRCLE
  5
179A
330
1E
100
AcDbEntity
  8
図面
100
AcDbCircle
 10
14642.91723816815
 20
7240.741409317328
 30
0.0
 40
11.0
  0
CIRCLE
  5
179B
330
1E
100
AcDbEntity
  8
図面
100
AcDbCircle
 10
14642.91723816815
 20
6980.741409317328
 30
0.0
 40
11.0
  0
LWPOLYLINE
  5
179C
330
1E
100
AcDbEntity
  8
図面
100
AcDbPolyline
 90
        6
 70
     1
 43
0.0
 10
14642.91723816815
 20
6990.241409317328
 10
14634.6899968322
 20
6985.491409317328
 10
14634.6899968322
 20
6975.991409317328
 10
14642.91723816815
 20
6971.241409317328
 10
14651.1444795041
 20
6975.991409317328
 10
14651.1444795041
 20
6985.491409317328
  0
CIRCLE
  5
179D
330
1E
100
AcDbEntity
  8
図面
100
AcDbCircle
 10
14642.91723816815
 20
6980.741409317328
 30
0.0
 40
6.0
  0
CIRCLE
  5
179E
330
1E
100
AcDbEntity
  8
図面
100
AcDbCircle
 10
14642.91723816815
 20
6980.741409317328
 30
0.0
 40
5.5
  0
CIRCLE
  5
179F
330
1E
100
AcDbEntity
  8
図面
100
AcDbCircle
 10
14642.91723816815
 20
7240.741409317328
 30
0.0
 40
5.5
  0
CIRCLE
  5
17A0
330
1E
100
AcDbEntity
  8
図面
100
AcDbCircle
 10
14642.91723816815
 20
7240.741409317328
 30
0.0
 40
6.0
  0
LWPOLYLINE
  5
17A1
330
1E
100
AcDbEntity
  8
図面
100
AcDbPolyline
 90
        6
 70
     1
 43
0.0
 10
14642.91723816815
 20
7250.241409317328
 10
14634.6899968322
 20
7245.491409317328
 10
14634.6899968322
 20
7235.991409317328
 10
14642.91723816815
 20
7231.241409317328
 10
14651.1444795041
 20
7235.991409317328
 10
14651.1444795041
 20
7245.491409317328
  0
CIRCLE
  5
17A2
330
1E
100
AcDbEntity
  8
図面
100
AcDbCircle
 10
14642.91723816815
 20
7240.741409317328
 30
0.0
 40
11.0
  0
CIRCLE
  5
17A3
330
1E
100
AcDbEntity
  8
図面
100
AcDbCircle
 10
14642.91723816815
 20
6980.741409317328
 30
0.0
 40
11.0
  0
LWPOLYLINE
  5
17A4
330
1E
100
AcDbEntity
  8
図面
100
AcDbPolyline
 90
        6
 70
     1
 43
0.0
 10
14642.91723816815
 20
6990.241409317328
 10
14634.6899968322
 20
6985.491409317328
 10
14634.6899968322
 20
6975.991409317328
 10
14642.91723816815
 20
6971.241409317328
 10
14651.1444795041
 20
6975.991409317328
 10
14651.1444795041
 20
6985.491409317328
  0
CIRCLE
  5
17A5
330
1E
100
AcDbEntity
  8
図面
100
AcDbCircle
 10
14642.91723816815
 20
6980.741409317328
 30
0.0
 40
6.0
  0
CIRCLE
  5
17A6
330
1E
100
AcDbEntity
  8
図面
100
AcDbCircle
 10
14642.91723816815
 20
6980.741409317328
 30
0.0
 40
5.5
  0
CIRCLE
  5
17A7
330
1E
100
AcDbEntity
  8
図面
100
AcDbCircle
 10
14642.91723816815
 20
7240.741409317328
 30
0.0
 40
5.5
  0
CIRCLE
  5
17A8
330
1E
100
AcDbEntity
  8
図面
100
AcDbCircle
 10
14642.91723816815
 20
7240.741409317328
 30
0.0
 40
6.0
  0
LWPOLYLINE
  5
17A9
330
1E
100
AcDbEntity
  8
図面
100
AcDbPolyline
 90
        6
 70
     1
 43
0.0
 10
14642.91723816815
 20
7250.241409317328
 10
14634.6899968322
 20
7245.491409317328
 10
14634.6899968322
 20
7235.991409317328
 10
14642.91723816815
 20
7231.241409317328
 10
14651.1444795041
 20
7235.991409317328
 10
14651.1444795041
 20
7245.491409317328
  0
CIRCLE
  5
17AA
330
1E
100
AcDbEntity
  8
図面
100
AcDbCircle
 10
14642.91723816815
 20
7240.741409317328
 30
0.0
 40
11.0
  0
CIRCLE
  5
17AB
330
1E
100
AcDbEntity
  8
図面
100
AcDbCircle
 10
14642.91723816815
 20
6980.741409317328
 30
0.0
 40
11.0
  0
LWPOLYLINE
  5
17AC
330
1E
100
AcDbEntity
  8
図面
100
AcDbPolyline
 90
        6
 70
     1
 43
0.0
 10
14642.91723816815
 20
6990.241409317328
 10
14634.6899968322
 20
6985.491409317328
 10
14634.6899968322
 20
6975.991409317328
 10
14642.91723816815
 20
6971.241409317328
 10
14651.1444795041
 20
6975.991409317328
 10
14651.1444795041
 20
6985.491409317328
  0
CIRCLE
  5
17AD
330
1E
100
AcDbEntity
  8
図面
100
AcDbCircle
 10
14642.91723816815
 20
6980.741409317328
 30
0.0
 40
6.0
  0
CIRCLE
  5
17AE
330
1E
100
AcDbEntity
  8
図面
100
AcDbCircle
 10
14642.91723816815
 20
6980.741409317328
 30
0.0
 40
5.5
  0
CIRCLE
  5
17AF
330
1E
100
AcDbEntity
  8
図面
100
AcDbCircle
 10
14642.91723816815
 20
7240.741409317328
 30
0.0
 40
5.5
  0
CIRCLE
  5
17B0
330
1E
100
AcDbEntity
  8
図面
100
AcDbCircle
 10
14642.91723816815
 20
7240.741409317328
 30
0.0
 40
6.0
  0
LWPOLYLINE
  5
17B1
330
1E
100
AcDbEntity
  8
図面
100
AcDbPolyline
 90
        6
 70
     1
 43
0.0
 10
14642.91723816815
 20
7250.241409317328
 10
14634.6899968322
 20
7245.491409317328
 10
14634.6899968322
 20
7235.991409317328
 10
14642.91723816815
 20
7231.241409317328
 10
14651.1444795041
 20
7235.991409317328
 10
14651.1444795041
 20
7245.491409317328
  0
CIRCLE
  5
17B2
330
1E
100
AcDbEntity
  8
図面
100
AcDbCircle
 10
14642.91723816815
 20
7240.741409317328
 30
0.0
 40
11.0
  0
CIRCLE
  5
17B3
330
1E
100
AcDbEntity
  8
図面
100
AcDbCircle
 10
14642.91723816815
 20
6980.741409317328
 30
0.0
 40
11.0
  0
LWPOLYLINE
  5
17B4
330
1E
100
AcDbEntity
  8
図面
100
AcDbPolyline
 90
        6
 70
     1
 43
0.0
 10
14642.91723816815
 20
6990.241409317328
 10
14634.6899968322
 20
6985.491409317328
 10
14634.6899968322
 20
6975.991409317328
 10
14642.91723816815
 20
6971.241409317328
 10
14651.1444795041
 20
6975.991409317328
 10
14651.1444795041
 20
6985.491409317328
  0
CIRCLE
  5
17B5
330
1E
100
AcDbEntity
  8
図面
100
AcDbCircle
 10
14642.91723816815
 20
6980.741409317328
 30
0.0
 40
6.0
  0
CIRCLE
  5
17B6
330
1E
100
AcDbEntity
  8
図面
100
AcDbCircle
 10
14642.91723816815
 20
6980.741409317328
 30
0.0
 40
5.5
  0
CIRCLE
  5
17B7
330
1E
100
AcDbEntity
  8
図面
100
AcDbCircle
 10
14717.91723816815
 20
7240.741409317328
 30
0.0
 40
11.0
  0
LWPOLYLINE
  5
17B8
330
1E
100
AcDbEntity
  8
図面
100
AcDbPolyline
 90
        6
 70
     1
 43
0.0
 10
14717.91723816815
 20
7250.241409317328
 10
14709.6899968322
 20
7245.491409317328
 10
14709.6899968322
 20
7235.991409317328
 10
14717.91723816815
 20
7231.241409317328
 10
14726.1444795041
 20
7235.991409317328
 10
14726.1444795041
 20
7245.491409317328
  0
CIRCLE
  5
17B9
330
1E
100
AcDbEntity
  8
図面
100
AcDbCircle
 10
14717.91723816815
 20
7240.741409317328
 30
0.0
 40
6.0
  0
CIRCLE
  5
17BA
330
1E
100
AcDbEntity
  8
図面
100
AcDbCircle
 10
14717.91723816815
 20
7240.741409317328
 30
0.0
 40
5.5
  0
CIRCLE
  5
17BB
330
1E
100
AcDbEntity
  8
図面
100
AcDbCircle
 10
14717.91723816815
 20
7240.741409317328
 30
0.0
 40
11.0
  0
LWPOLYLINE
  5
17BC
330
1E
100
AcDbEntity
  8
図面
100
AcDbPolyline
 90
        6
 70
     1
 43
0.0
 10
14717.91723816815
 20
7250.241409317328
 10
14709.6899968322
 20
7245.491409317328
 10
14709.6899968322
 20
7235.991409317328
 10
14717.91723816815
 20
7231.241409317328
 10
14726.1444795041
 20
7235.991409317328
 10
14726.1444795041
 20
7245.491409317328
  0
CIRCLE
  5
17BD
330
1E
100
AcDbEntity
  8
図面
100
AcDbCircle
 10
14717.91723816815
 20
7240.741409317328
 30
0.0
 40
6.0
  0
CIRCLE
  5
17BE
330
1E
100
AcDbEntity
  8
図面
100
AcDbCircle
 10
14717.91723816815
 20
7240.741409317328
 30
0.0
 40
5.5
  0
CIRCLE
  5
17BF
330
1E
100
AcDbEntity
  8
図面
100
AcDbCircle
 10
14717.91723816815
 20
7240.741409317328
 30
0.0
 40
11.0
  0
LWPOLYLINE
  5
17C0
330
1E
100
AcDbEntity
  8
図面
100
AcDbPolyline
 90
        6
 70
     1
 43
0.0
 10
14717.91723816815
 20
7250.241409317328
 10
14709.6899968322
 20
7245.491409317328
 10
14709.6899968322
 20
7235.991409317328
 10
14717.91723816815
 20
7231.241409317328
 10
14726.1444795041
 20
7235.991409317328
 10
14726.1444795041
 20
7245.491409317328
  0
CIRCLE
  5
17C1
330
1E
100
AcDbEntity
  8
図面
100
AcDbCircle
 10
14717.91723816815
 20
7240.741409317328
 30
0.0
 40
6.0
  0
CIRCLE
  5
17C2
330
1E
100
AcDbEntity
  8
図面
100
AcDbCircle
 10
14717.91723816815
 20
7240.741409317328
 30
0.0
 40
5.5
  0
CIRCLE
  5
17C3
330
1E
100
AcDbEntity
  8
図面
100
AcDbCircle
 10
14717.91723816815
 20
7240.741409317328
 30
0.0
 40
11.0
  0
LWPOLYLINE
  5
17C4
330
1E
100
AcDbEntity
  8
図面
100
AcDbPolyline
 90
        6
 70
     1
 43
0.0
 10
14717.91723816815
 20
7250.241409317328
 10
14709.6899968322
 20
7245.491409317328
 10
14709.6899968322
 20
7235.991409317328
 10
14717.91723816815
 20
7231.241409317328
 10
14726.1444795041
 20
7235.991409317328
 10
14726.1444795041
 20
7245.491409317328
  0
CIRCLE
  5
17C5
330
1E
100
AcDbEntity
  8
図面
100
AcDbCircle
 10
14717.91723816815
 20
7240.741409317328
 30
0.0
 40
6.0
  0
CIRCLE
  5
17C6
330
1E
100
AcDbEntity
  8
図面
100
AcDbCircle
 10
14717.91723816815
 20
7240.741409317328
 30
0.0
 40
5.5
  0
CIRCLE
  5
17C7
330
1E
100
AcDbEntity
  8
図面
100
AcDbCircle
 10
14717.91723816815
 20
7240.741409317328
 30
0.0
 40
11.0
  0
LWPOLYLINE
  5
17C8
330
1E
100
AcDbEntity
  8
図面
100
AcDbPolyline
 90
        6
 70
     1
 43
0.0
 10
14717.91723816815
 20
7250.241409317328
 10
14709.6899968322
 20
7245.491409317328
 10
14709.6899968322
 20
7235.991409317328
 10
14717.91723816815
 20
7231.241409317328
 10
14726.1444795041
 20
7235.991409317328
 10
14726.1444795041
 20
7245.491409317328
  0
CIRCLE
  5
17C9
330
1E
100
AcDbEntity
  8
図面
100
AcDbCircle
 10
14717.91723816815
 20
7240.741409317328
 30
0.0
 40
6.0
  0
CIRCLE
  5
17CA
330
1E
100
AcDbEntity
  8
図面
100
AcDbCircle
 10
14717.91723816815
 20
7240.741409317328
 30
0.0
 40
5.5
  0
CIRCLE
  5
17CB
330
1E
100
AcDbEntity
  8
図面
100
AcDbCircle
 10
14717.91723816815
 20
7240.741409317328
 30
0.0
 40
11.0
  0
LWPOLYLINE
  5
17CC
330
1E
100
AcDbEntity
  8
図面
100
AcDbPolyline
 90
        6
 70
     1
 43
0.0
 10
14717.91723816815
 20
7250.241409317328
 10
14709.6899968322
 20
7245.491409317328
 10
14709.6899968322
 20
7235.991409317328
 10
14717.91723816815
 20
7231.241409317328
 10
14726.1444795041
 20
7235.991409317328
 10
14726.1444795041
 20
7245.491409317328
  0
CIRCLE
  5
17CD
330
1E
100
AcDbEntity
  8
図面
100
AcDbCircle
 10
14717.91723816815
 20
7240.741409317328
 30
0.0
 40
6.0
  0
CIRCLE
  5
17CE
330
1E
100
AcDbEntity
  8
図面
100
AcDbCircle
 10
14717.91723816815
 20
7240.741409317328
 30
0.0
 40
5.5
  0
CIRCLE
  5
17CF
330
1E
100
AcDbEntity
  8
図面
100
AcDbCircle
 10
14717.91723816815
 20
7240.741409317328
 30
0.0
 40
11.0
  0
LWPOLYLINE
  5
17D0
330
1E
100
AcDbEntity
  8
図面
100
AcDbPolyline
 90
        6
 70
     1
 43
0.0
 10
14717.91723816815
 20
7250.241409317328
 10
14709.6899968322
 20
7245.491409317328
 10
14709.6899968322
 20
7235.991409317328
 10
14717.91723816815
 20
7231.241409317328
 10
14726.1444795041
 20
7235.991409317328
 10
14726.1444795041
 20
7245.491409317328
  0
CIRCLE
  5
17D1
330
1E
100
AcDbEntity
  8
図面
100
AcDbCircle
 10
14717.91723816815
 20
7240.741409317328
 30
0.0
 40
6.0
  0
CIRCLE
  5
17D2
330
1E
100
AcDbEntity
  8
図面
100
AcDbCircle
 10
14717.91723816815
 20
7240.741409317328
 30
0.0
 40
5.5
  0
CIRCLE
  5
17D3
330
1E
100
AcDbEntity
  8
図面
100
AcDbCircle
 10
14717.91723816815
 20
7240.741409317328
 30
0.0
 40
5.5
  0
CIRCLE
  5
17D4
330
1E
100
AcDbEntity
  8
図面
100
AcDbCircle
 10
14717.91723816815
 20
7240.741409317328
 30
0.0
 40
6.0
  0
LWPOLYLINE
  5
17D5
330
1E
100
AcDbEntity
  8
図面
100
AcDbPolyline
 90
        6
 70
     1
 43
0.0
 10
14717.91723816815
 20
7250.241409317328
 10
14709.6899968322
 20
7245.491409317328
 10
14709.6899968322
 20
7235.991409317328
 10
14717.91723816815
 20
7231.241409317328
 10
14726.1444795041
 20
7235.991409317328
 10
14726.1444795041
 20
7245.491409317328
  0
CIRCLE
  5
17D6
330
1E
100
AcDbEntity
  8
図面
100
AcDbCircle
 10
14717.91723816815
 20
7240.741409317328
 30
0.0
 40
11.0
  0
CIRCLE
  5
17D7
330
1E
100
AcDbEntity
  8
図面
100
AcDbCircle
 10
14717.91723816815
 20
6980.741409317328
 30
0.0
 40
5.5
  0
CIRCLE
  5
17D8
330
1E
100
AcDbEntity
  8
図面
100
AcDbCircle
 10
14717.91723816815
 20
6980.741409317328
 30
0.0
 40
6.0
  0
LWPOLYLINE
  5
17D9
330
1E
100
AcDbEntity
  8
図面
100
AcDbPolyline
 90
        6
 70
     1
 43
0.0
 10
14717.91723816815
 20
6990.241409317328
 10
14709.6899968322
 20
6985.491409317328
 10
14709.6899968322
 20
6975.991409317328
 10
14717.91723816815
 20
6971.241409317328
 10
14726.1444795041
 20
6975.991409317328
 10
14726.1444795041
 20
6985.491409317328
  0
CIRCLE
  5
17DA
330
1E
100
AcDbEntity
  8
図面
100
AcDbCircle
 10
14717.91723816815
 20
6980.741409317328
 30
0.0
 40
11.0
  0
CIRCLE
  5
17DB
330
1E
100
AcDbEntity
  8
図面
100
AcDbCircle
 10
14717.91723816815
 20
6980.741409317328
 30
0.0
 40
5.5
  0
CIRCLE
  5
17DC
330
1E
100
AcDbEntity
  8
図面
100
AcDbCircle
 10
14717.91723816815
 20
6980.741409317328
 30
0.0
 40
6.0
  0
LWPOLYLINE
  5
17DD
330
1E
100
AcDbEntity
  8
図面
100
AcDbPolyline
 90
        6
 70
     1
 43
0.0
 10
14717.91723816815
 20
6990.241409317328
 10
14709.6899968322
 20
6985.491409317328
 10
14709.6899968322
 20
6975.991409317328
 10
14717.91723816815
 20
6971.241409317328
 10
14726.1444795041
 20
6975.991409317328
 10
14726.1444795041
 20
6985.491409317328
  0
CIRCLE
  5
17DE
330
1E
100
AcDbEntity
  8
図面
100
AcDbCircle
 10
14717.91723816815
 20
6980.741409317328
 30
0.0
 40
11.0
  0
CIRCLE
  5
17DF
330
1E
100
AcDbEntity
  8
図面
100
AcDbCircle
 10
14717.91723816815
 20
6980.741409317328
 30
0.0
 40
5.5
  0
CIRCLE
  5
17E0
330
1E
100
AcDbEntity
  8
図面
100
AcDbCircle
 10
14717.91723816815
 20
6980.741409317328
 30
0.0
 40
6.0
  0
LWPOLYLINE
  5
17E1
330
1E
100
AcDbEntity
  8
図面
100
AcDbPolyline
 90
        6
 70
     1
 43
0.0
 10
14717.91723816815
 20
6990.241409317328
 10
14709.6899968322
 20
6985.491409317328
 10
14709.6899968322
 20
6975.991409317328
 10
14717.91723816815
 20
6971.241409317328
 10
14726.1444795041
 20
6975.991409317328
 10
14726.1444795041
 20
6985.491409317328
  0
CIRCLE
  5
17E2
330
1E
100
AcDbEntity
  8
図面
100
AcDbCircle
 10
14717.91723816815
 20
6980.741409317328
 30
0.0
 40
11.0
  0
CIRCLE
  5
17E3
330
1E
100
AcDbEntity
  8
図面
100
AcDbCircle
 10
14717.91723816815
 20
6980.741409317328
 30
0.0
 40
5.5
  0
CIRCLE
  5
17E4
330
1E
100
AcDbEntity
  8
図面
100
AcDbCircle
 10
14717.91723816815
 20
6980.741409317328
 30
0.0
 40
6.0
  0
LWPOLYLINE
  5
17E5
330
1E
100
AcDbEntity
  8
図面
100
AcDbPolyline
 90
        6
 70
     1
 43
0.0
 10
14717.91723816815
 20
6990.241409317328
 10
14709.6899968322
 20
6985.491409317328
 10
14709.6899968322
 20
6975.991409317328
 10
14717.91723816815
 20
6971.241409317328
 10
14726.1444795041
 20
6975.991409317328
 10
14726.1444795041
 20
6985.491409317328
  0
CIRCLE
  5
17E6
330
1E
100
AcDbEntity
  8
図面
100
AcDbCircle
 10
14717.91723816815
 20
6980.741409317328
 30
0.0
 40
11.0
  0
CIRCLE
  5
17E7
330
1E
100
AcDbEntity
  8
図面
100
AcDbCircle
 10
14717.91723816815
 20
6980.741409317328
 30
0.0
 40
5.5
  0
CIRCLE
  5
17E8
330
1E
100
AcDbEntity
  8
図面
100
AcDbCircle
 10
14717.91723816815
 20
6980.741409317328
 30
0.0
 40
6.0
  0
LWPOLYLINE
  5
17E9
330
1E
100
AcDbEntity
  8
図面
100
AcDbPolyline
 90
        6
 70
     1
 43
0.0
 10
14717.91723816815
 20
6990.241409317328
 10
14709.6899968322
 20
6985.491409317328
 10
14709.6899968322
 20
6975.991409317328
 10
14717.91723816815
 20
6971.241409317328
 10
14726.1444795041
 20
6975.991409317328
 10
14726.1444795041
 20
6985.491409317328
  0
CIRCLE
  5
17EA
330
1E
100
AcDbEntity
  8
図面
100
AcDbCircle
 10
14717.91723816815
 20
6980.741409317328
 30
0.0
 40
11.0
  0
CIRCLE
  5
17EB
330
1E
100
AcDbEntity
  8
図面
100
AcDbCircle
 10
14717.91723816815
 20
6980.741409317328
 30
0.0
 40
5.5
  0
CIRCLE
  5
17EC
330
1E
100
AcDbEntity
  8
図面
100
AcDbCircle
 10
14717.91723816815
 20
6980.741409317328
 30
0.0
 40
6.0
  0
LWPOLYLINE
  5
17ED
330
1E
100
AcDbEntity
  8
図面
100
AcDbPolyline
 90
        6
 70
     1
 43
0.0
 10
14717.91723816815
 20
6990.241409317328
 10
14709.6899968322
 20
6985.491409317328
 10
14709.6899968322
 20
6975.991409317328
 10
14717.91723816815
 20
6971.241409317328
 10
14726.1444795041
 20
6975.991409317328
 10
14726.1444795041
 20
6985.491409317328
  0
CIRCLE
  5
17EE
330
1E
100
AcDbEntity
  8
図面
100
AcDbCircle
 10
14717.91723816815
 20
6980.741409317328
 30
0.0
 40
11.0
  0
CIRCLE
  5
17EF
330
1E
100
AcDbEntity
  8
図面
100
AcDbCircle
 10
14717.91723816815
 20
6980.741409317328
 30
0.0
 40
5.5
  0
CIRCLE
  5
17F0
330
1E
100
AcDbEntity
  8
図面
100
AcDbCircle
 10
14717.91723816815
 20
6980.741409317328
 30
0.0
 40
6.0
  0
LWPOLYLINE
  5
17F1
330
1E
100
AcDbEntity
  8
図面
100
AcDbPolyline
 90
        6
 70
     1
 43
0.0
 10
14717.91723816815
 20
6990.241409317328
 10
14709.6899968322
 20
6985.491409317328
 10
14709.6899968322
 20
6975.991409317328
 10
14717.91723816815
 20
6971.241409317328
 10
14726.1444795041
 20
6975.991409317328
 10
14726.1444795041
 20
6985.491409317328
  0
CIRCLE
  5
17F2
330
1E
100
AcDbEntity
  8
図面
100
AcDbCircle
 10
14717.91723816815
 20
6980.741409317328
 30
0.0
 40
11.0
  0
CIRCLE
  5
17F3
330
1E
100
AcDbEntity
  8
図面
100
AcDbCircle
 10
14717.91723816815
 20
6980.741409317328
 30
0.0
 40
11.0
  0
LWPOLYLINE
  5
17F4
330
1E
100
AcDbEntity
  8
図面
100
AcDbPolyline
 90
        6
 70
     1
 43
0.0
 10
14717.91723816815
 20
6990.241409317328
 10
14709.6899968322
 20
6985.491409317328
 10
14709.6899968322
 20
6975.991409317328
 10
14717.91723816815
 20
6971.241409317328
 10
14726.1444795041
 20
6975.991409317328
 10
14726.1444795041
 20
6985.491409317328
  0
CIRCLE
  5
17F5
330
1E
100
AcDbEntity
  8
図面
100
AcDbCircle
 10
14717.91723816815
 20
6980.741409317328
 30
0.0
 40
6.0
  0
CIRCLE
  5
17F6
330
1E
100
AcDbEntity
  8
図面
100
AcDbCircle
 10
14717.91723816815
 20
6980.741409317328
 30
0.0
 40
5.5
  0
CIRCLE
  5
17F7
330
1E
100
AcDbEntity
  8
図面
100
AcDbCircle
 10
14792.91723816815
 20
7240.741409317328
 30
0.0
 40
11.0
  0
LWPOLYLINE
  5
17F8
330
1E
100
AcDbEntity
  8
図面
100
AcDbPolyline
 90
        6
 70
     1
 43
0.0
 10
14792.91723816815
 20
7250.241409317328
 10
14784.6899968322
 20
7245.491409317328
 10
14784.6899968322
 20
7235.991409317328
 10
14792.91723816815
 20
7231.241409317328
 10
14801.1444795041
 20
7235.991409317328
 10
14801.1444795041
 20
7245.491409317328
  0
CIRCLE
  5
17F9
330
1E
100
AcDbEntity
  8
図面
100
AcDbCircle
 10
14792.91723816815
 20
7240.741409317328
 30
0.0
 40
6.0
  0
CIRCLE
  5
17FA
330
1E
100
AcDbEntity
  8
図面
100
AcDbCircle
 10
14792.91723816815
 20
7240.741409317328
 30
0.0
 40
5.5
  0
CIRCLE
  5
17FB
330
1E
100
AcDbEntity
  8
図面
100
AcDbCircle
 10
14792.91723816815
 20
7240.741409317328
 30
0.0
 40
11.0
  0
LWPOLYLINE
  5
17FC
330
1E
100
AcDbEntity
  8
図面
100
AcDbPolyline
 90
        6
 70
     1
 43
0.0
 10
14792.91723816815
 20
7250.241409317328
 10
14784.6899968322
 20
7245.491409317328
 10
14784.6899968322
 20
7235.991409317328
 10
14792.91723816815
 20
7231.241409317328
 10
14801.1444795041
 20
7235.991409317328
 10
14801.1444795041
 20
7245.491409317328
  0
CIRCLE
  5
17FD
330
1E
100
AcDbEntity
  8
図面
100
AcDbCircle
 10
14792.91723816815
 20
7240.741409317328
 30
0.0
 40
6.0
  0
CIRCLE
  5
17FE
330
1E
100
AcDbEntity
  8
図面
100
AcDbCircle
 10
14792.91723816815
 20
7240.741409317328
 30
0.0
 40
5.5
  0
CIRCLE
  5
17FF
330
1E
100
AcDbEntity
  8
図面
100
AcDbCircle
 10
14792.91723816815
 20
7240.741409317328
 30
0.0
 40
11.0
  0
LWPOLYLINE
  5
1800
330
1E
100
AcDbEntity
  8
図面
100
AcDbPolyline
 90
        6
 70
     1
 43
0.0
 10
14792.91723816815
 20
7250.241409317328
 10
14784.6899968322
 20
7245.491409317328
 10
14784.6899968322
 20
7235.991409317328
 10
14792.91723816815
 20
7231.241409317328
 10
14801.1444795041
 20
7235.991409317328
 10
14801.1444795041
 20
7245.491409317328
  0
CIRCLE
  5
1801
330
1E
100
AcDbEntity
  8
図面
100
AcDbCircle
 10
14792.91723816815
 20
7240.741409317328
 30
0.0
 40
6.0
  0
CIRCLE
  5
1802
330
1E
100
AcDbEntity
  8
図面
100
AcDbCircle
 10
14792.91723816815
 20
7240.741409317328
 30
0.0
 40
5.5
  0
CIRCLE
  5
1803
330
1E
100
AcDbEntity
  8
図面
100
AcDbCircle
 10
14792.91723816815
 20
7240.741409317328
 30
0.0
 40
11.0
  0
LWPOLYLINE
  5
1804
330
1E
100
AcDbEntity
  8
図面
100
AcDbPolyline
 90
        6
 70
     1
 43
0.0
 10
14792.91723816815
 20
7250.241409317328
 10
14784.6899968322
 20
7245.491409317328
 10
14784.6899968322
 20
7235.991409317328
 10
14792.91723816815
 20
7231.241409317328
 10
14801.1444795041
 20
7235.991409317328
 10
14801.1444795041
 20
7245.491409317328
  0
CIRCLE
  5
1805
330
1E
100
AcDbEntity
  8
図面
100
AcDbCircle
 10
14792.91723816815
 20
7240.741409317328
 30
0.0
 40
6.0
  0
CIRCLE
  5
1806
330
1E
100
AcDbEntity
  8
図面
100
AcDbCircle
 10
14792.91723816815
 20
7240.741409317328
 30
0.0
 40
5.5
  0
CIRCLE
  5
1807
330
1E
100
AcDbEntity
  8
図面
100
AcDbCircle
 10
14792.91723816815
 20
7240.741409317328
 30
0.0
 40
11.0
  0
LWPOLYLINE
  5
1808
330
1E
100
AcDbEntity
  8
図面
100
AcDbPolyline
 90
        6
 70
     1
 43
0.0
 10
14792.91723816815
 20
7250.241409317328
 10
14784.6899968322
 20
7245.491409317328
 10
14784.6899968322
 20
7235.991409317328
 10
14792.91723816815
 20
7231.241409317328
 10
14801.1444795041
 20
7235.991409317328
 10
14801.1444795041
 20
7245.491409317328
  0
CIRCLE
  5
1809
330
1E
100
AcDbEntity
  8
図面
100
AcDbCircle
 10
14792.91723816815
 20
7240.741409317328
 30
0.0
 40
6.0
  0
CIRCLE
  5
180A
330
1E
100
AcDbEntity
  8
図面
100
AcDbCircle
 10
14792.91723816815
 20
7240.741409317328
 30
0.0
 40
5.5
  0
CIRCLE
  5
180B
330
1E
100
AcDbEntity
  8
図面
100
AcDbCircle
 10
14792.91723816815
 20
7240.741409317328
 30
0.0
 40
11.0
  0
LWPOLYLINE
  5
180C
330
1E
100
AcDbEntity
  8
図面
100
AcDbPolyline
 90
        6
 70
     1
 43
0.0
 10
14792.91723816815
 20
7250.241409317328
 10
14784.6899968322
 20
7245.491409317328
 10
14784.6899968322
 20
7235.991409317328
 10
14792.91723816815
 20
7231.241409317328
 10
14801.1444795041
 20
7235.991409317328
 10
14801.1444795041
 20
7245.491409317328
  0
CIRCLE
  5
180D
330
1E
100
AcDbEntity
  8
図面
100
AcDbCircle
 10
14792.91723816815
 20
7240.741409317328
 30
0.0
 40
6.0
  0
CIRCLE
  5
180E
330
1E
100
AcDbEntity
  8
図面
100
AcDbCircle
 10
14792.91723816815
 20
7240.741409317328
 30
0.0
 40
5.5
  0
CIRCLE
  5
180F
330
1E
100
AcDbEntity
  8
図面
100
AcDbCircle
 10
14792.91723816815
 20
7240.741409317328
 30
0.0
 40
11.0
  0
LWPOLYLINE
  5
1810
330
1E
100
AcDbEntity
  8
図面
100
AcDbPolyline
 90
        6
 70
     1
 43
0.0
 10
14792.91723816815
 20
7250.241409317328
 10
14784.6899968322
 20
7245.491409317328
 10
14784.6899968322
 20
7235.991409317328
 10
14792.91723816815
 20
7231.241409317328
 10
14801.1444795041
 20
7235.991409317328
 10
14801.1444795041
 20
7245.491409317328
  0
CIRCLE
  5
1811
330
1E
100
AcDbEntity
  8
図面
100
AcDbCircle
 10
14792.91723816815
 20
7240.741409317328
 30
0.0
 40
6.0
  0
CIRCLE
  5
1812
330
1E
100
AcDbEntity
  8
図面
100
AcDbCircle
 10
14792.91723816815
 20
7240.741409317328
 30
0.0
 40
5.5
  0
CIRCLE
  5
1813
330
1E
100
AcDbEntity
  8
図面
100
AcDbCircle
 10
14792.91723816815
 20
7240.741409317328
 30
0.0
 40
5.5
  0
CIRCLE
  5
1814
330
1E
100
AcDbEntity
  8
図面
100
AcDbCircle
 10
14792.91723816815
 20
7240.741409317328
 30
0.0
 40
6.0
  0
LWPOLYLINE
  5
1815
330
1E
100
AcDbEntity
  8
図面
100
AcDbPolyline
 90
        6
 70
     1
 43
0.0
 10
14792.91723816815
 20
7250.241409317328
 10
14784.6899968322
 20
7245.491409317328
 10
14784.6899968322
 20
7235.991409317328
 10
14792.91723816815
 20
7231.241409317328
 10
14801.1444795041
 20
7235.991409317328
 10
14801.1444795041
 20
7245.491409317328
  0
CIRCLE
  5
1816
330
1E
100
AcDbEntity
  8
図面
100
AcDbCircle
 10
14792.91723816815
 20
7240.741409317328
 30
0.0
 40
11.0
  0
CIRCLE
  5
1817
330
1E
100
AcDbEntity
  8
図面
100
AcDbCircle
 10
14792.91723816815
 20
6980.741409317328
 30
0.0
 40
5.5
  0
CIRCLE
  5
1818
330
1E
100
AcDbEntity
  8
図面
100
AcDbCircle
 10
14792.91723816815
 20
6980.741409317328
 30
0.0
 40
6.0
  0
LWPOLYLINE
  5
1819
330
1E
100
AcDbEntity
  8
図面
100
AcDbPolyline
 90
        6
 70
     1
 43
0.0
 10
14792.91723816815
 20
6990.241409317328
 10
14784.6899968322
 20
6985.491409317328
 10
14784.6899968322
 20
6975.991409317328
 10
14792.91723816815
 20
6971.241409317328
 10
14801.1444795041
 20
6975.991409317328
 10
14801.1444795041
 20
6985.491409317328
  0
CIRCLE
  5
181A
330
1E
100
AcDbEntity
  8
図面
100
AcDbCircle
 10
14792.91723816815
 20
6980.741409317328
 30
0.0
 40
11.0
  0
CIRCLE
  5
181B
330
1E
100
AcDbEntity
  8
図面
100
AcDbCircle
 10
14792.91723816815
 20
6980.741409317328
 30
0.0
 40
5.5
  0
CIRCLE
  5
181C
330
1E
100
AcDbEntity
  8
図面
100
AcDbCircle
 10
14792.91723816815
 20
6980.741409317328
 30
0.0
 40
6.0
  0
LWPOLYLINE
  5
181D
330
1E
100
AcDbEntity
  8
図面
100
AcDbPolyline
 90
        6
 70
     1
 43
0.0
 10
14792.91723816815
 20
6990.241409317328
 10
14784.6899968322
 20
6985.491409317328
 10
14784.6899968322
 20
6975.991409317328
 10
14792.91723816815
 20
6971.241409317328
 10
14801.1444795041
 20
6975.991409317328
 10
14801.1444795041
 20
6985.491409317328
  0
CIRCLE
  5
181E
330
1E
100
AcDbEntity
  8
図面
100
AcDbCircle
 10
14792.91723816815
 20
6980.741409317328
 30
0.0
 40
11.0
  0
CIRCLE
  5
181F
330
1E
100
AcDbEntity
  8
図面
100
AcDbCircle
 10
14792.91723816815
 20
6980.741409317328
 30
0.0
 40
5.5
  0
CIRCLE
  5
1820
330
1E
100
AcDbEntity
  8
図面
100
AcDbCircle
 10
14792.91723816815
 20
6980.741409317328
 30
0.0
 40
6.0
  0
LWPOLYLINE
  5
1821
330
1E
100
AcDbEntity
  8
図面
100
AcDbPolyline
 90
        6
 70
     1
 43
0.0
 10
14792.91723816815
 20
6990.241409317328
 10
14784.6899968322
 20
6985.491409317328
 10
14784.6899968322
 20
6975.991409317328
 10
14792.91723816815
 20
6971.241409317328
 10
14801.1444795041
 20
6975.991409317328
 10
14801.1444795041
 20
6985.491409317328
  0
CIRCLE
  5
1822
330
1E
100
AcDbEntity
  8
図面
100
AcDbCircle
 10
14792.91723816815
 20
6980.741409317328
 30
0.0
 40
11.0
  0
CIRCLE
  5
1823
330
1E
100
AcDbEntity
  8
図面
100
AcDbCircle
 10
14792.91723816815
 20
6980.741409317328
 30
0.0
 40
5.5
  0
CIRCLE
  5
1824
330
1E
100
AcDbEntity
  8
図面
100
AcDbCircle
 10
14792.91723816815
 20
6980.741409317328
 30
0.0
 40
6.0
  0
LWPOLYLINE
  5
1825
330
1E
100
AcDbEntity
  8
図面
100
AcDbPolyline
 90
        6
 70
     1
 43
0.0
 10
14792.91723816815
 20
6990.241409317328
 10
14784.6899968322
 20
6985.491409317328
 10
14784.6899968322
 20
6975.991409317328
 10
14792.91723816815
 20
6971.241409317328
 10
14801.1444795041
 20
6975.991409317328
 10
14801.1444795041
 20
6985.491409317328
  0
CIRCLE
  5
1826
330
1E
100
AcDbEntity
  8
図面
100
AcDbCircle
 10
14792.91723816815
 20
6980.741409317328
 30
0.0
 40
11.0
  0
CIRCLE
  5
1827
330
1E
100
AcDbEntity
  8
図面
100
AcDbCircle
 10
14792.91723816815
 20
6980.741409317328
 30
0.0
 40
5.5
  0
CIRCLE
  5
1828
330
1E
100
AcDbEntity
  8
図面
100
AcDbCircle
 10
14792.91723816815
 20
6980.741409317328
 30
0.0
 40
6.0
  0
LWPOLYLINE
  5
1829
330
1E
100
AcDbEntity
  8
図面
100
AcDbPolyline
 90
        6
 70
     1
 43
0.0
 10
14792.91723816815
 20
6990.241409317328
 10
14784.6899968322
 20
6985.491409317328
 10
14784.6899968322
 20
6975.991409317328
 10
14792.91723816815
 20
6971.241409317328
 10
14801.1444795041
 20
6975.991409317328
 10
14801.1444795041
 20
6985.491409317328
  0
CIRCLE
  5
182A
330
1E
100
AcDbEntity
  8
図面
100
AcDbCircle
 10
14792.91723816815
 20
6980.741409317328
 30
0.0
 40
11.0
  0
CIRCLE
  5
182B
330
1E
100
AcDbEntity
  8
図面
100
AcDbCircle
 10
14792.91723816815
 20
6980.741409317328
 30
0.0
 40
5.5
  0
CIRCLE
  5
182C
330
1E
100
AcDbEntity
  8
図面
100
AcDbCircle
 10
14792.91723816815
 20
6980.741409317328
 30
0.0
 40
6.0
  0
LWPOLYLINE
  5
182D
330
1E
100
AcDbEntity
  8
図面
100
AcDbPolyline
 90
        6
 70
     1
 43
0.0
 10
14792.91723816815
 20
6990.241409317328
 10
14784.6899968322
 20
6985.491409317328
 10
14784.6899968322
 20
6975.991409317328
 10
14792.91723816815
 20
6971.241409317328
 10
14801.1444795041
 20
6975.991409317328
 10
14801.1444795041
 20
6985.491409317328
  0
CIRCLE
  5
182E
330
1E
100
AcDbEntity
  8
図面
100
AcDbCircle
 10
14792.91723816815
 20
6980.741409317328
 30
0.0
 40
11.0
  0
CIRCLE
  5
182F
330
1E
100
AcDbEntity
  8
図面
100
AcDbCircle
 10
14792.91723816815
 20
6980.741409317328
 30
0.0
 40
5.5
  0
CIRCLE
  5
1830
330
1E
100
AcDbEntity
  8
図面
100
AcDbCircle
 10
14792.91723816815
 20
6980.741409317328
 30
0.0
 40
6.0
  0
LWPOLYLINE
  5
1831
330
1E
100
AcDbEntity
  8
図面
100
AcDbPolyline
 90
        6
 70
     1
 43
0.0
 10
14792.91723816815
 20
6990.241409317328
 10
14784.6899968322
 20
6985.491409317328
 10
14784.6899968322
 20
6975.991409317328
 10
14792.91723816815
 20
6971.241409317328
 10
14801.1444795041
 20
6975.991409317328
 10
14801.1444795041
 20
6985.491409317328
  0
CIRCLE
  5
1832
330
1E
100
AcDbEntity
  8
図面
100
AcDbCircle
 10
14792.91723816815
 20
6980.741409317328
 30
0.0
 40
11.0
  0
CIRCLE
  5
1833
330
1E
100
AcDbEntity
  8
図面
100
AcDbCircle
 10
14792.91723816815
 20
6980.741409317328
 30
0.0
 40
11.0
  0
LWPOLYLINE
  5
1834
330
1E
100
AcDbEntity
  8
図面
100
AcDbPolyline
 90
        6
 70
     1
 43
0.0
 10
14792.91723816815
 20
6990.241409317328
 10
14784.6899968322
 20
6985.491409317328
 10
14784.6899968322
 20
6975.991409317328
 10
14792.91723816815
 20
6971.241409317328
 10
14801.1444795041
 20
6975.991409317328
 10
14801.1444795041
 20
6985.491409317328
  0
CIRCLE
  5
1835
330
1E
100
AcDbEntity
  8
図面
100
AcDbCircle
 10
14792.91723816815
 20
6980.741409317328
 30
0.0
 40
6.0
  0
CIRCLE
  5
1836
330
1E
100
AcDbEntity
  8
図面
100
AcDbCircle
 10
14792.91723816815
 20
6980.741409317328
 30
0.0
 40
5.5
  0
CIRCLE
  5
1837
330
1E
100
AcDbEntity
  8
図面
100
AcDbCircle
 10
14867.91723816815
 20
7240.741409317328
 30
0.0
 40
11.0
  0
LWPOLYLINE
  5
1838
330
1E
100
AcDbEntity
  8
図面
100
AcDbPolyline
 90
        6
 70
     1
 43
0.0
 10
14867.91723816815
 20
7250.241409317328
 10
14859.6899968322
 20
7245.491409317328
 10
14859.6899968322
 20
7235.991409317328
 10
14867.91723816815
 20
7231.241409317328
 10
14876.1444795041
 20
7235.991409317328
 10
14876.1444795041
 20
7245.491409317328
  0
CIRCLE
  5
1839
330
1E
100
AcDbEntity
  8
図面
100
AcDbCircle
 10
14867.91723816815
 20
7240.741409317328
 30
0.0
 40
6.0
  0
CIRCLE
  5
183A
330
1E
100
AcDbEntity
  8
図面
100
AcDbCircle
 10
14867.91723816815
 20
7240.741409317328
 30
0.0
 40
5.5
  0
CIRCLE
  5
183B
330
1E
100
AcDbEntity
  8
図面
100
AcDbCircle
 10
14867.91723816815
 20
7240.741409317328
 30
0.0
 40
11.0
  0
LWPOLYLINE
  5
183C
330
1E
100
AcDbEntity
  8
図面
100
AcDbPolyline
 90
        6
 70
     1
 43
0.0
 10
14867.91723816815
 20
7250.241409317328
 10
14859.6899968322
 20
7245.491409317328
 10
14859.6899968322
 20
7235.991409317328
 10
14867.91723816815
 20
7231.241409317328
 10
14876.1444795041
 20
7235.991409317328
 10
14876.1444795041
 20
7245.491409317328
  0
CIRCLE
  5
183D
330
1E
100
AcDbEntity
  8
図面
100
AcDbCircle
 10
14867.91723816815
 20
7240.741409317328
 30
0.0
 40
6.0
  0
CIRCLE
  5
183E
330
1E
100
AcDbEntity
  8
図面
100
AcDbCircle
 10
14867.91723816815
 20
7240.741409317328
 30
0.0
 40
5.5
  0
CIRCLE
  5
183F
330
1E
100
AcDbEntity
  8
図面
100
AcDbCircle
 10
14867.91723816815
 20
7240.741409317328
 30
0.0
 40
11.0
  0
LWPOLYLINE
  5
1840
330
1E
100
AcDbEntity
  8
図面
100
AcDbPolyline
 90
        6
 70
     1
 43
0.0
 10
14867.91723816815
 20
7250.241409317328
 10
14859.6899968322
 20
7245.491409317328
 10
14859.6899968322
 20
7235.991409317328
 10
14867.91723816815
 20
7231.241409317328
 10
14876.1444795041
 20
7235.991409317328
 10
14876.1444795041
 20
7245.491409317328
  0
CIRCLE
  5
1841
330
1E
100
AcDbEntity
  8
図面
100
AcDbCircle
 10
14867.91723816815
 20
7240.741409317328
 30
0.0
 40
6.0
  0
CIRCLE
  5
1842
330
1E
100
AcDbEntity
  8
図面
100
AcDbCircle
 10
14867.91723816815
 20
7240.741409317328
 30
0.0
 40
5.5
  0
CIRCLE
  5
1843
330
1E
100
AcDbEntity
  8
図面
100
AcDbCircle
 10
14867.91723816815
 20
7240.741409317328
 30
0.0
 40
11.0
  0
LWPOLYLINE
  5
1844
330
1E
100
AcDbEntity
  8
図面
100
AcDbPolyline
 90
        6
 70
     1
 43
0.0
 10
14867.91723816815
 20
7250.241409317328
 10
14859.6899968322
 20
7245.491409317328
 10
14859.6899968322
 20
7235.991409317328
 10
14867.91723816815
 20
7231.241409317328
 10
14876.1444795041
 20
7235.991409317328
 10
14876.1444795041
 20
7245.491409317328
  0
CIRCLE
  5
1845
330
1E
100
AcDbEntity
  8
図面
100
AcDbCircle
 10
14867.91723816815
 20
7240.741409317328
 30
0.0
 40
6.0
  0
CIRCLE
  5
1846
330
1E
100
AcDbEntity
  8
図面
100
AcDbCircle
 10
14867.91723816815
 20
7240.741409317328
 30
0.0
 40
5.5
  0
CIRCLE
  5
1847
330
1E
100
AcDbEntity
  8
図面
100
AcDbCircle
 10
14867.91723816815
 20
7240.741409317328
 30
0.0
 40
11.0
  0
LWPOLYLINE
  5
1848
330
1E
100
AcDbEntity
  8
図面
100
AcDbPolyline
 90
        6
 70
     1
 43
0.0
 10
14867.91723816815
 20
7250.241409317328
 10
14859.6899968322
 20
7245.491409317328
 10
14859.6899968322
 20
7235.991409317328
 10
14867.91723816815
 20
7231.241409317328
 10
14876.1444795041
 20
7235.991409317328
 10
14876.1444795041
 20
7245.491409317328
  0
CIRCLE
  5
1849
330
1E
100
AcDbEntity
  8
図面
100
AcDbCircle
 10
14867.91723816815
 20
7240.741409317328
 30
0.0
 40
6.0
  0
CIRCLE
  5
184A
330
1E
100
AcDbEntity
  8
図面
100
AcDbCircle
 10
14867.91723816815
 20
7240.741409317328
 30
0.0
 40
5.5
  0
CIRCLE
  5
184B
330
1E
100
AcDbEntity
  8
図面
100
AcDbCircle
 10
14867.91723816815
 20
7240.741409317328
 30
0.0
 40
11.0
  0
LWPOLYLINE
  5
184C
330
1E
100
AcDbEntity
  8
図面
100
AcDbPolyline
 90
        6
 70
     1
 43
0.0
 10
14867.91723816815
 20
7250.241409317328
 10
14859.6899968322
 20
7245.491409317328
 10
14859.6899968322
 20
7235.991409317328
 10
14867.91723816815
 20
7231.241409317328
 10
14876.1444795041
 20
7235.991409317328
 10
14876.1444795041
 20
7245.491409317328
  0
CIRCLE
  5
184D
330
1E
100
AcDbEntity
  8
図面
100
AcDbCircle
 10
14867.91723816815
 20
7240.741409317328
 30
0.0
 40
6.0
  0
CIRCLE
  5
184E
330
1E
100
AcDbEntity
  8
図面
100
AcDbCircle
 10
14867.91723816815
 20
7240.741409317328
 30
0.0
 40
5.5
  0
CIRCLE
  5
184F
330
1E
100
AcDbEntity
  8
図面
100
AcDbCircle
 10
14867.91723816815
 20
7240.741409317328
 30
0.0
 40
11.0
  0
LWPOLYLINE
  5
1850
330
1E
100
AcDbEntity
  8
図面
100
AcDbPolyline
 90
        6
 70
     1
 43
0.0
 10
14867.91723816815
 20
7250.241409317328
 10
14859.6899968322
 20
7245.491409317328
 10
14859.6899968322
 20
7235.991409317328
 10
14867.91723816815
 20
7231.241409317328
 10
14876.1444795041
 20
7235.991409317328
 10
14876.1444795041
 20
7245.491409317328
  0
CIRCLE
  5
1851
330
1E
100
AcDbEntity
  8
図面
100
AcDbCircle
 10
14867.91723816815
 20
7240.741409317328
 30
0.0
 40
6.0
  0
CIRCLE
  5
1852
330
1E
100
AcDbEntity
  8
図面
100
AcDbCircle
 10
14867.91723816815
 20
7240.741409317328
 30
0.0
 40
5.5
  0
CIRCLE
  5
1853
330
1E
100
AcDbEntity
  8
図面
100
AcDbCircle
 10
14867.91723816815
 20
7240.741409317328
 30
0.0
 40
5.5
  0
CIRCLE
  5
1854
330
1E
100
AcDbEntity
  8
図面
100
AcDbCircle
 10
14867.91723816815
 20
7240.741409317328
 30
0.0
 40
6.0
  0
LWPOLYLINE
  5
1855
330
1E
100
AcDbEntity
  8
図面
100
AcDbPolyline
 90
        6
 70
     1
 43
0.0
 10
14867.91723816815
 20
7250.241409317328
 10
14859.6899968322
 20
7245.491409317328
 10
14859.6899968322
 20
7235.991409317328
 10
14867.91723816815
 20
7231.241409317328
 10
14876.1444795041
 20
7235.991409317328
 10
14876.1444795041
 20
7245.491409317328
  0
CIRCLE
  5
1856
330
1E
100
AcDbEntity
  8
図面
100
AcDbCircle
 10
14867.91723816815
 20
7240.741409317328
 30
0.0
 40
11.0
  0
CIRCLE
  5
1857
330
1E
100
AcDbEntity
  8
図面
100
AcDbCircle
 10
14867.91723816815
 20
6980.741409317328
 30
0.0
 40
5.5
  0
CIRCLE
  5
1858
330
1E
100
AcDbEntity
  8
図面
100
AcDbCircle
 10
14867.91723816815
 20
6980.741409317328
 30
0.0
 40
6.0
  0
LWPOLYLINE
  5
1859
330
1E
100
AcDbEntity
  8
図面
100
AcDbPolyline
 90
        6
 70
     1
 43
0.0
 10
14867.91723816815
 20
6990.241409317328
 10
14859.6899968322
 20
6985.491409317328
 10
14859.6899968322
 20
6975.991409317328
 10
14867.91723816815
 20
6971.241409317328
 10
14876.1444795041
 20
6975.991409317328
 10
14876.1444795041
 20
6985.491409317328
  0
CIRCLE
  5
185A
330
1E
100
AcDbEntity
  8
図面
100
AcDbCircle
 10
14867.91723816815
 20
6980.741409317328
 30
0.0
 40
11.0
  0
CIRCLE
  5
185B
330
1E
100
AcDbEntity
  8
図面
100
AcDbCircle
 10
14867.91723816815
 20
6980.741409317328
 30
0.0
 40
5.5
  0
CIRCLE
  5
185C
330
1E
100
AcDbEntity
  8
図面
100
AcDbCircle
 10
14867.91723816815
 20
6980.741409317328
 30
0.0
 40
6.0
  0
LWPOLYLINE
  5
185D
330
1E
100
AcDbEntity
  8
図面
100
AcDbPolyline
 90
        6
 70
     1
 43
0.0
 10
14867.91723816815
 20
6990.241409317328
 10
14859.6899968322
 20
6985.491409317328
 10
14859.6899968322
 20
6975.991409317328
 10
14867.91723816815
 20
6971.241409317328
 10
14876.1444795041
 20
6975.991409317328
 10
14876.1444795041
 20
6985.491409317328
  0
CIRCLE
  5
185E
330
1E
100
AcDbEntity
  8
図面
100
AcDbCircle
 10
14867.91723816815
 20
6980.741409317328
 30
0.0
 40
11.0
  0
CIRCLE
  5
185F
330
1E
100
AcDbEntity
  8
図面
100
AcDbCircle
 10
14867.91723816815
 20
6980.741409317328
 30
0.0
 40
5.5
  0
CIRCLE
  5
1860
330
1E
100
AcDbEntity
  8
図面
100
AcDbCircle
 10
14867.91723816815
 20
6980.741409317328
 30
0.0
 40
6.0
  0
LWPOLYLINE
  5
1861
330
1E
100
AcDbEntity
  8
図面
100
AcDbPolyline
 90
        6
 70
     1
 43
0.0
 10
14867.91723816815
 20
6990.241409317328
 10
14859.6899968322
 20
6985.491409317328
 10
14859.6899968322
 20
6975.991409317328
 10
14867.91723816815
 20
6971.241409317328
 10
14876.1444795041
 20
6975.991409317328
 10
14876.1444795041
 20
6985.491409317328
  0
CIRCLE
  5
1862
330
1E
100
AcDbEntity
  8
図面
100
AcDbCircle
 10
14867.91723816815
 20
6980.741409317328
 30
0.0
 40
11.0
  0
CIRCLE
  5
1863
330
1E
100
AcDbEntity
  8
図面
100
AcDbCircle
 10
14867.91723816815
 20
6980.741409317328
 30
0.0
 40
5.5
  0
CIRCLE
  5
1864
330
1E
100
AcDbEntity
  8
図面
100
AcDbCircle
 10
14867.91723816815
 20
6980.741409317328
 30
0.0
 40
6.0
  0
LWPOLYLINE
  5
1865
330
1E
100
AcDbEntity
  8
図面
100
AcDbPolyline
 90
        6
 70
     1
 43
0.0
 10
14867.91723816815
 20
6990.241409317328
 10
14859.6899968322
 20
6985.491409317328
 10
14859.6899968322
 20
6975.991409317328
 10
14867.91723816815
 20
6971.241409317328
 10
14876.1444795041
 20
6975.991409317328
 10
14876.1444795041
 20
6985.491409317328
  0
CIRCLE
  5
1866
330
1E
100
AcDbEntity
  8
図面
100
AcDbCircle
 10
14867.91723816815
 20
6980.741409317328
 30
0.0
 40
11.0
  0
CIRCLE
  5
1867
330
1E
100
AcDbEntity
  8
図面
100
AcDbCircle
 10
14867.91723816815
 20
6980.741409317328
 30
0.0
 40
5.5
  0
CIRCLE
  5
1868
330
1E
100
AcDbEntity
  8
図面
100
AcDbCircle
 10
14867.91723816815
 20
6980.741409317328
 30
0.0
 40
6.0
  0
LWPOLYLINE
  5
1869
330
1E
100
AcDbEntity
  8
図面
100
AcDbPolyline
 90
        6
 70
     1
 43
0.0
 10
14867.91723816815
 20
6990.241409317328
 10
14859.6899968322
 20
6985.491409317328
 10
14859.6899968322
 20
6975.991409317328
 10
14867.91723816815
 20
6971.241409317328
 10
14876.1444795041
 20
6975.991409317328
 10
14876.1444795041
 20
6985.491409317328
  0
CIRCLE
  5
186A
330
1E
100
AcDbEntity
  8
図面
100
AcDbCircle
 10
14867.91723816815
 20
6980.741409317328
 30
0.0
 40
11.0
  0
CIRCLE
  5
186B
330
1E
100
AcDbEntity
  8
図面
100
AcDbCircle
 10
14867.91723816815
 20
6980.741409317328
 30
0.0
 40
5.5
  0
CIRCLE
  5
186C
330
1E
100
AcDbEntity
  8
図面
100
AcDbCircle
 10
14867.91723816815
 20
6980.741409317328
 30
0.0
 40
6.0
  0
LWPOLYLINE
  5
186D
330
1E
100
AcDbEntity
  8
図面
100
AcDbPolyline
 90
        6
 70
     1
 43
0.0
 10
14867.91723816815
 20
6990.241409317328
 10
14859.6899968322
 20
6985.491409317328
 10
14859.6899968322
 20
6975.991409317328
 10
14867.91723816815
 20
6971.241409317328
 10
14876.1444795041
 20
6975.991409317328
 10
14876.1444795041
 20
6985.491409317328
  0
CIRCLE
  5
186E
330
1E
100
AcDbEntity
  8
図面
100
AcDbCircle
 10
14867.91723816815
 20
6980.741409317328
 30
0.0
 40
11.0
  0
CIRCLE
  5
186F
330
1E
100
AcDbEntity
  8
図面
100
AcDbCircle
 10
14867.91723816815
 20
6980.741409317328
 30
0.0
 40
5.5
  0
CIRCLE
  5
1870
330
1E
100
AcDbEntity
  8
図面
100
AcDbCircle
 10
14867.91723816815
 20
6980.741409317328
 30
0.0
 40
6.0
  0
LWPOLYLINE
  5
1871
330
1E
100
AcDbEntity
  8
図面
100
AcDbPolyline
 90
        6
 70
     1
 43
0.0
 10
14867.91723816815
 20
6990.241409317328
 10
14859.6899968322
 20
6985.491409317328
 10
14859.6899968322
 20
6975.991409317328
 10
14867.91723816815
 20
6971.241409317328
 10
14876.1444795041
 20
6975.991409317328
 10
14876.1444795041
 20
6985.491409317328
  0
CIRCLE
  5
1872
330
1E
100
AcDbEntity
  8
図面
100
AcDbCircle
 10
14867.91723816815
 20
6980.741409317328
 30
0.0
 40
11.0
  0
CIRCLE
  5
1873
330
1E
100
AcDbEntity
  8
図面
100
AcDbCircle
 10
14867.91723816815
 20
6980.741409317328
 30
0.0
 40
11.0
  0
LWPOLYLINE
  5
1874
330
1E
100
AcDbEntity
  8
図面
100
AcDbPolyline
 90
        6
 70
     1
 43
0.0
 10
14867.91723816815
 20
6990.241409317328
 10
14859.6899968322
 20
6985.491409317328
 10
14859.6899968322
 20
6975.991409317328
 10
14867.91723816815
 20
6971.241409317328
 10
14876.1444795041
 20
6975.991409317328
 10
14876.1444795041
 20
6985.491409317328
  0
CIRCLE
  5
1875
330
1E
100
AcDbEntity
  8
図面
100
AcDbCircle
 10
14867.91723816815
 20
6980.741409317328
 30
0.0
 40
6.0
  0
CIRCLE
  5
1876
330
1E
100
AcDbEntity
  8
図面
100
AcDbCircle
 10
14867.91723816815
 20
6980.741409317328
 30
0.0
 40
5.5
  0
CIRCLE
  5
1877
330
1E
100
AcDbEntity
  8
図面
100
AcDbCircle
 10
14942.91723816815
 20
7240.741409317328
 30
0.0
 40
11.0
  0
LWPOLYLINE
  5
1878
330
1E
100
AcDbEntity
  8
図面
100
AcDbPolyline
 90
        6
 70
     1
 43
0.0
 10
14942.91723816815
 20
7250.241409317328
 10
14934.6899968322
 20
7245.491409317328
 10
14934.6899968322
 20
7235.991409317328
 10
14942.91723816815
 20
7231.241409317328
 10
14951.1444795041
 20
7235.991409317328
 10
14951.1444795041
 20
7245.491409317328
  0
CIRCLE
  5
1879
330
1E
100
AcDbEntity
  8
図面
100
AcDbCircle
 10
14942.91723816815
 20
7240.741409317328
 30
0.0
 40
6.0
  0
CIRCLE
  5
187A
330
1E
100
AcDbEntity
  8
図面
100
AcDbCircle
 10
14942.91723816815
 20
7240.741409317328
 30
0.0
 40
5.5
  0
CIRCLE
  5
187B
330
1E
100
AcDbEntity
  8
図面
100
AcDbCircle
 10
14942.91723816815
 20
7240.741409317328
 30
0.0
 40
11.0
  0
LWPOLYLINE
  5
187C
330
1E
100
AcDbEntity
  8
図面
100
AcDbPolyline
 90
        6
 70
     1
 43
0.0
 10
14942.91723816815
 20
7250.241409317328
 10
14934.6899968322
 20
7245.491409317328
 10
14934.6899968322
 20
7235.991409317328
 10
14942.91723816815
 20
7231.241409317328
 10
14951.1444795041
 20
7235.991409317328
 10
14951.1444795041
 20
7245.491409317328
  0
CIRCLE
  5
187D
330
1E
100
AcDbEntity
  8
図面
100
AcDbCircle
 10
14942.91723816815
 20
7240.741409317328
 30
0.0
 40
6.0
  0
CIRCLE
  5
187E
330
1E
100
AcDbEntity
  8
図面
100
AcDbCircle
 10
14942.91723816815
 20
7240.741409317328
 30
0.0
 40
5.5
  0
CIRCLE
  5
187F
330
1E
100
AcDbEntity
  8
図面
100
AcDbCircle
 10
14942.91723816815
 20
7240.741409317328
 30
0.0
 40
11.0
  0
LWPOLYLINE
  5
1880
330
1E
100
AcDbEntity
  8
図面
100
AcDbPolyline
 90
        6
 70
     1
 43
0.0
 10
14942.91723816815
 20
7250.241409317328
 10
14934.6899968322
 20
7245.491409317328
 10
14934.6899968322
 20
7235.991409317328
 10
14942.91723816815
 20
7231.241409317328
 10
14951.1444795041
 20
7235.991409317328
 10
14951.1444795041
 20
7245.491409317328
  0
CIRCLE
  5
1881
330
1E
100
AcDbEntity
  8
図面
100
AcDbCircle
 10
14942.91723816815
 20
7240.741409317328
 30
0.0
 40
6.0
  0
CIRCLE
  5
1882
330
1E
100
AcDbEntity
  8
図面
100
AcDbCircle
 10
14942.91723816815
 20
7240.741409317328
 30
0.0
 40
5.5
  0
CIRCLE
  5
1883
330
1E
100
AcDbEntity
  8
図面
100
AcDbCircle
 10
14942.91723816815
 20
7240.741409317328
 30
0.0
 40
11.0
  0
LWPOLYLINE
  5
1884
330
1E
100
AcDbEntity
  8
図面
100
AcDbPolyline
 90
        6
 70
     1
 43
0.0
 10
14942.91723816815
 20
7250.241409317328
 10
14934.6899968322
 20
7245.491409317328
 10
14934.6899968322
 20
7235.991409317328
 10
14942.91723816815
 20
7231.241409317328
 10
14951.1444795041
 20
7235.991409317328
 10
14951.1444795041
 20
7245.491409317328
  0
CIRCLE
  5
1885
330
1E
100
AcDbEntity
  8
図面
100
AcDbCircle
 10
14942.91723816815
 20
7240.741409317328
 30
0.0
 40
6.0
  0
CIRCLE
  5
1886
330
1E
100
AcDbEntity
  8
図面
100
AcDbCircle
 10
14942.91723816815
 20
7240.741409317328
 30
0.0
 40
5.5
  0
CIRCLE
  5
1887
330
1E
100
AcDbEntity
  8
図面
100
AcDbCircle
 10
14942.91723816815
 20
7240.741409317328
 30
0.0
 40
11.0
  0
LWPOLYLINE
  5
1888
330
1E
100
AcDbEntity
  8
図面
100
AcDbPolyline
 90
        6
 70
     1
 43
0.0
 10
14942.91723816815
 20
7250.241409317328
 10
14934.6899968322
 20
7245.491409317328
 10
14934.6899968322
 20
7235.991409317328
 10
14942.91723816815
 20
7231.241409317328
 10
14951.1444795041
 20
7235.991409317328
 10
14951.1444795041
 20
7245.491409317328
  0
CIRCLE
  5
1889
330
1E
100
AcDbEntity
  8
図面
100
AcDbCircle
 10
14942.91723816815
 20
7240.741409317328
 30
0.0
 40
6.0
  0
CIRCLE
  5
188A
330
1E
100
AcDbEntity
  8
図面
100
AcDbCircle
 10
14942.91723816815
 20
7240.741409317328
 30
0.0
 40
5.5
  0
CIRCLE
  5
188B
330
1E
100
AcDbEntity
  8
図面
100
AcDbCircle
 10
14942.91723816815
 20
7240.741409317328
 30
0.0
 40
11.0
  0
LWPOLYLINE
  5
188C
330
1E
100
AcDbEntity
  8
図面
100
AcDbPolyline
 90
        6
 70
     1
 43
0.0
 10
14942.91723816815
 20
7250.241409317328
 10
14934.6899968322
 20
7245.491409317328
 10
14934.6899968322
 20
7235.991409317328
 10
14942.91723816815
 20
7231.241409317328
 10
14951.1444795041
 20
7235.991409317328
 10
14951.1444795041
 20
7245.491409317328
  0
CIRCLE
  5
188D
330
1E
100
AcDbEntity
  8
図面
100
AcDbCircle
 10
14942.91723816815
 20
7240.741409317328
 30
0.0
 40
6.0
  0
CIRCLE
  5
188E
330
1E
100
AcDbEntity
  8
図面
100
AcDbCircle
 10
14942.91723816815
 20
7240.741409317328
 30
0.0
 40
5.5
  0
CIRCLE
  5
188F
330
1E
100
AcDbEntity
  8
図面
100
AcDbCircle
 10
14942.91723816815
 20
7240.741409317328
 30
0.0
 40
11.0
  0
LWPOLYLINE
  5
1890
330
1E
100
AcDbEntity
  8
図面
100
AcDbPolyline
 90
        6
 70
     1
 43
0.0
 10
14942.91723816815
 20
7250.241409317328
 10
14934.6899968322
 20
7245.491409317328
 10
14934.6899968322
 20
7235.991409317328
 10
14942.91723816815
 20
7231.241409317328
 10
14951.1444795041
 20
7235.991409317328
 10
14951.1444795041
 20
7245.491409317328
  0
CIRCLE
  5
1891
330
1E
100
AcDbEntity
  8
図面
100
AcDbCircle
 10
14942.91723816815
 20
7240.741409317328
 30
0.0
 40
6.0
  0
CIRCLE
  5
1892
330
1E
100
AcDbEntity
  8
図面
100
AcDbCircle
 10
14942.91723816815
 20
7240.741409317328
 30
0.0
 40
5.5
  0
CIRCLE
  5
1893
330
1E
100
AcDbEntity
  8
図面
100
AcDbCircle
 10
14942.91723816815
 20
7240.741409317328
 30
0.0
 40
5.5
  0
CIRCLE
  5
1894
330
1E
100
AcDbEntity
  8
図面
100
AcDbCircle
 10
14942.91723816815
 20
7240.741409317328
 30
0.0
 40
6.0
  0
LWPOLYLINE
  5
1895
330
1E
100
AcDbEntity
  8
図面
100
AcDbPolyline
 90
        6
 70
     1
 43
0.0
 10
14942.91723816815
 20
7250.241409317328
 10
14934.6899968322
 20
7245.491409317328
 10
14934.6899968322
 20
7235.991409317328
 10
14942.91723816815
 20
7231.241409317328
 10
14951.1444795041
 20
7235.991409317328
 10
14951.1444795041
 20
7245.491409317328
  0
CIRCLE
  5
1896
330
1E
100
AcDbEntity
  8
図面
100
AcDbCircle
 10
14942.91723816815
 20
7240.741409317328
 30
0.0
 40
11.0
  0
CIRCLE
  5
1897
330
1E
100
AcDbEntity
  8
図面
100
AcDbCircle
 10
14942.91723816815
 20
6980.741409317328
 30
0.0
 40
5.5
  0
CIRCLE
  5
1898
330
1E
100
AcDbEntity
  8
図面
100
AcDbCircle
 10
14942.91723816815
 20
6980.741409317328
 30
0.0
 40
6.0
  0
LWPOLYLINE
  5
1899
330
1E
100
AcDbEntity
  8
図面
100
AcDbPolyline
 90
        6
 70
     1
 43
0.0
 10
14942.91723816815
 20
6990.241409317328
 10
14934.6899968322
 20
6985.491409317328
 10
14934.6899968322
 20
6975.991409317328
 10
14942.91723816815
 20
6971.241409317328
 10
14951.1444795041
 20
6975.991409317328
 10
14951.1444795041
 20
6985.491409317328
  0
CIRCLE
  5
189A
330
1E
100
AcDbEntity
  8
図面
100
AcDbCircle
 10
14942.91723816815
 20
6980.741409317328
 30
0.0
 40
11.0
  0
CIRCLE
  5
189B
330
1E
100
AcDbEntity
  8
図面
100
AcDbCircle
 10
14942.91723816815
 20
6980.741409317328
 30
0.0
 40
5.5
  0
CIRCLE
  5
189C
330
1E
100
AcDbEntity
  8
図面
100
AcDbCircle
 10
14942.91723816815
 20
6980.741409317328
 30
0.0
 40
6.0
  0
LWPOLYLINE
  5
189D
330
1E
100
AcDbEntity
  8
図面
100
AcDbPolyline
 90
        6
 70
     1
 43
0.0
 10
14942.91723816815
 20
6990.241409317328
 10
14934.6899968322
 20
6985.491409317328
 10
14934.6899968322
 20
6975.991409317328
 10
14942.91723816815
 20
6971.241409317328
 10
14951.1444795041
 20
6975.991409317328
 10
14951.1444795041
 20
6985.491409317328
  0
CIRCLE
  5
189E
330
1E
100
AcDbEntity
  8
図面
100
AcDbCircle
 10
14942.91723816815
 20
6980.741409317328
 30
0.0
 40
11.0
  0
CIRCLE
  5
189F
330
1E
100
AcDbEntity
  8
図面
100
AcDbCircle
 10
14942.91723816815
 20
6980.741409317328
 30
0.0
 40
5.5
  0
CIRCLE
  5
18A0
330
1E
100
AcDbEntity
  8
図面
100
AcDbCircle
 10
14942.91723816815
 20
6980.741409317328
 30
0.0
 40
6.0
  0
LWPOLYLINE
  5
18A1
330
1E
100
AcDbEntity
  8
図面
100
AcDbPolyline
 90
        6
 70
     1
 43
0.0
 10
14942.91723816815
 20
6990.241409317328
 10
14934.6899968322
 20
6985.491409317328
 10
14934.6899968322
 20
6975.991409317328
 10
14942.91723816815
 20
6971.241409317328
 10
14951.1444795041
 20
6975.991409317328
 10
14951.1444795041
 20
6985.491409317328
  0
CIRCLE
  5
18A2
330
1E
100
AcDbEntity
  8
図面
100
AcDbCircle
 10
14942.91723816815
 20
6980.741409317328
 30
0.0
 40
11.0
  0
CIRCLE
  5
18A3
330
1E
100
AcDbEntity
  8
図面
100
AcDbCircle
 10
14942.91723816815
 20
6980.741409317328
 30
0.0
 40
5.5
  0
CIRCLE
  5
18A4
330
1E
100
AcDbEntity
  8
図面
100
AcDbCircle
 10
14942.91723816815
 20
6980.741409317328
 30
0.0
 40
6.0
  0
LWPOLYLINE
  5
18A5
330
1E
100
AcDbEntity
  8
図面
100
AcDbPolyline
 90
        6
 70
     1
 43
0.0
 10
14942.91723816815
 20
6990.241409317328
 10
14934.6899968322
 20
6985.491409317328
 10
14934.6899968322
 20
6975.991409317328
 10
14942.91723816815
 20
6971.241409317328
 10
14951.1444795041
 20
6975.991409317328
 10
14951.1444795041
 20
6985.491409317328
  0
CIRCLE
  5
18A6
330
1E
100
AcDbEntity
  8
図面
100
AcDbCircle
 10
14942.91723816815
 20
6980.741409317328
 30
0.0
 40
11.0
  0
CIRCLE
  5
18A7
330
1E
100
AcDbEntity
  8
図面
100
AcDbCircle
 10
14942.91723816815
 20
6980.741409317328
 30
0.0
 40
5.5
  0
CIRCLE
  5
18A8
330
1E
100
AcDbEntity
  8
図面
100
AcDbCircle
 10
14942.91723816815
 20
6980.741409317328
 30
0.0
 40
6.0
  0
LWPOLYLINE
  5
18A9
330
1E
100
AcDbEntity
  8
図面
100
AcDbPolyline
 90
        6
 70
     1
 43
0.0
 10
14942.91723816815
 20
6990.241409317328
 10
14934.6899968322
 20
6985.491409317328
 10
14934.6899968322
 20
6975.991409317328
 10
14942.91723816815
 20
6971.241409317328
 10
14951.1444795041
 20
6975.991409317328
 10
14951.1444795041
 20
6985.491409317328
  0
CIRCLE
  5
18AA
330
1E
100
AcDbEntity
  8
図面
100
AcDbCircle
 10
14942.91723816815
 20
6980.741409317328
 30
0.0
 40
11.0
  0
CIRCLE
  5
18AB
330
1E
100
AcDbEntity
  8
図面
100
AcDbCircle
 10
14942.91723816815
 20
6980.741409317328
 30
0.0
 40
5.5
  0
CIRCLE
  5
18AC
330
1E
100
AcDbEntity
  8
図面
100
AcDbCircle
 10
14942.91723816815
 20
6980.741409317328
 30
0.0
 40
6.0
  0
LWPOLYLINE
  5
18AD
330
1E
100
AcDbEntity
  8
図面
100
AcDbPolyline
 90
        6
 70
     1
 43
0.0
 10
14942.91723816815
 20
6990.241409317328
 10
14934.6899968322
 20
6985.491409317328
 10
14934.6899968322
 20
6975.991409317328
 10
14942.91723816815
 20
6971.241409317328
 10
14951.1444795041
 20
6975.991409317328
 10
14951.1444795041
 20
6985.491409317328
  0
CIRCLE
  5
18AE
330
1E
100
AcDbEntity
  8
図面
100
AcDbCircle
 10
14942.91723816815
 20
6980.741409317328
 30
0.0
 40
11.0
  0
CIRCLE
  5
18AF
330
1E
100
AcDbEntity
  8
図面
100
AcDbCircle
 10
14942.91723816815
 20
6980.741409317328
 30
0.0
 40
5.5
  0
CIRCLE
  5
18B0
330
1E
100
AcDbEntity
  8
図面
100
AcDbCircle
 10
14942.91723816815
 20
6980.741409317328
 30
0.0
 40
6.0
  0
LWPOLYLINE
  5
18B1
330
1E
100
AcDbEntity
  8
図面
100
AcDbPolyline
 90
        6
 70
     1
 43
0.0
 10
14942.91723816815
 20
6990.241409317328
 10
14934.6899968322
 20
6985.491409317328
 10
14934.6899968322
 20
6975.991409317328
 10
14942.91723816815
 20
6971.241409317328
 10
14951.1444795041
 20
6975.991409317328
 10
14951.1444795041
 20
6985.491409317328
  0
CIRCLE
  5
18B2
330
1E
100
AcDbEntity
  8
図面
100
AcDbCircle
 10
14942.91723816815
 20
6980.741409317328
 30
0.0
 40
11.0
  0
CIRCLE
  5
18B3
330
1E
100
AcDbEntity
  8
図面
100
AcDbCircle
 10
14942.91723816815
 20
6980.741409317328
 30
0.0
 40
11.0
  0
LWPOLYLINE
  5
18B4
330
1E
100
AcDbEntity
  8
図面
100
AcDbPolyline
 90
        6
 70
     1
 43
0.0
 10
14942.91723816815
 20
6990.241409317328
 10
14934.6899968322
 20
6985.491409317328
 10
14934.6899968322
 20
6975.991409317328
 10
14942.91723816815
 20
6971.241409317328
 10
14951.1444795041
 20
6975.991409317328
 10
14951.1444795041
 20
6985.491409317328
  0
CIRCLE
  5
18B5
330
1E
100
AcDbEntity
  8
図面
100
AcDbCircle
 10
14942.91723816815
 20
6980.741409317328
 30
0.0
 40
6.0
  0
CIRCLE
  5
18B6
330
1E
100
AcDbEntity
  8
図面
100
AcDbCircle
 10
14942.91723816815
 20
6980.741409317328
 30
0.0
 40
5.5
  0
CIRCLE
  5
18B7
330
1E
100
AcDbEntity
  8
図面
100
AcDbCircle
 10
15017.91723816815
 20
7240.741409317328
 30
0.0
 40
11.0
  0
LWPOLYLINE
  5
18B8
330
1E
100
AcDbEntity
  8
図面
100
AcDbPolyline
 90
        6
 70
     1
 43
0.0
 10
15017.91723816815
 20
7250.241409317328
 10
15009.6899968322
 20
7245.491409317328
 10
15009.6899968322
 20
7235.991409317328
 10
15017.91723816815
 20
7231.241409317328
 10
15026.1444795041
 20
7235.991409317328
 10
15026.1444795041
 20
7245.491409317328
  0
CIRCLE
  5
18B9
330
1E
100
AcDbEntity
  8
図面
100
AcDbCircle
 10
15017.91723816815
 20
7240.741409317328
 30
0.0
 40
6.0
  0
CIRCLE
  5
18BA
330
1E
100
AcDbEntity
  8
図面
100
AcDbCircle
 10
15017.91723816815
 20
7240.741409317328
 30
0.0
 40
5.5
  0
CIRCLE
  5
18BB
330
1E
100
AcDbEntity
  8
図面
100
AcDbCircle
 10
15017.91723816815
 20
7240.741409317328
 30
0.0
 40
11.0
  0
LWPOLYLINE
  5
18BC
330
1E
100
AcDbEntity
  8
図面
100
AcDbPolyline
 90
        6
 70
     1
 43
0.0
 10
15017.91723816815
 20
7250.241409317328
 10
15009.6899968322
 20
7245.491409317328
 10
15009.6899968322
 20
7235.991409317328
 10
15017.91723816815
 20
7231.241409317328
 10
15026.1444795041
 20
7235.991409317328
 10
15026.1444795041
 20
7245.491409317328
  0
CIRCLE
  5
18BD
330
1E
100
AcDbEntity
  8
図面
100
AcDbCircle
 10
15017.91723816815
 20
7240.741409317328
 30
0.0
 40
6.0
  0
CIRCLE
  5
18BE
330
1E
100
AcDbEntity
  8
図面
100
AcDbCircle
 10
15017.91723816815
 20
7240.741409317328
 30
0.0
 40
5.5
  0
CIRCLE
  5
18BF
330
1E
100
AcDbEntity
  8
図面
100
AcDbCircle
 10
15017.91723816815
 20
7240.741409317328
 30
0.0
 40
11.0
  0
LWPOLYLINE
  5
18C0
330
1E
100
AcDbEntity
  8
図面
100
AcDbPolyline
 90
        6
 70
     1
 43
0.0
 10
15017.91723816815
 20
7250.241409317328
 10
15009.6899968322
 20
7245.491409317328
 10
15009.6899968322
 20
7235.991409317328
 10
15017.91723816815
 20
7231.241409317328
 10
15026.1444795041
 20
7235.991409317328
 10
15026.1444795041
 20
7245.491409317328
  0
CIRCLE
  5
18C1
330
1E
100
AcDbEntity
  8
図面
100
AcDbCircle
 10
15017.91723816815
 20
7240.741409317328
 30
0.0
 40
6.0
  0
CIRCLE
  5
18C2
330
1E
100
AcDbEntity
  8
図面
100
AcDbCircle
 10
15017.91723816815
 20
7240.741409317328
 30
0.0
 40
5.5
  0
CIRCLE
  5
18C3
330
1E
100
AcDbEntity
  8
図面
100
AcDbCircle
 10
15017.91723816815
 20
7240.741409317328
 30
0.0
 40
11.0
  0
LWPOLYLINE
  5
18C4
330
1E
100
AcDbEntity
  8
図面
100
AcDbPolyline
 90
        6
 70
     1
 43
0.0
 10
15017.91723816815
 20
7250.241409317328
 10
15009.6899968322
 20
7245.491409317328
 10
15009.6899968322
 20
7235.991409317328
 10
15017.91723816815
 20
7231.241409317328
 10
15026.1444795041
 20
7235.991409317328
 10
15026.1444795041
 20
7245.491409317328
  0
CIRCLE
  5
18C5
330
1E
100
AcDbEntity
  8
図面
100
AcDbCircle
 10
15017.91723816815
 20
7240.741409317328
 30
0.0
 40
6.0
  0
CIRCLE
  5
18C6
330
1E
100
AcDbEntity
  8
図面
100
AcDbCircle
 10
15017.91723816815
 20
7240.741409317328
 30
0.0
 40
5.5
  0
CIRCLE
  5
18C7
330
1E
100
AcDbEntity
  8
図面
100
AcDbCircle
 10
15017.91723816815
 20
7240.741409317328
 30
0.0
 40
11.0
  0
LWPOLYLINE
  5
18C8
330
1E
100
AcDbEntity
  8
図面
100
AcDbPolyline
 90
        6
 70
     1
 43
0.0
 10
15017.91723816815
 20
7250.241409317328
 10
15009.6899968322
 20
7245.491409317328
 10
15009.6899968322
 20
7235.991409317328
 10
15017.91723816815
 20
7231.241409317328
 10
15026.1444795041
 20
7235.991409317328
 10
15026.1444795041
 20
7245.491409317328
  0
CIRCLE
  5
18C9
330
1E
100
AcDbEntity
  8
図面
100
AcDbCircle
 10
15017.91723816815
 20
7240.741409317328
 30
0.0
 40
6.0
  0
CIRCLE
  5
18CA
330
1E
100
AcDbEntity
  8
図面
100
AcDbCircle
 10
15017.91723816815
 20
7240.741409317328
 30
0.0
 40
5.5
  0
CIRCLE
  5
18CB
330
1E
100
AcDbEntity
  8
図面
100
AcDbCircle
 10
15017.91723816815
 20
7240.741409317328
 30
0.0
 40
11.0
  0
LWPOLYLINE
  5
18CC
330
1E
100
AcDbEntity
  8
図面
100
AcDbPolyline
 90
        6
 70
     1
 43
0.0
 10
15017.91723816815
 20
7250.241409317328
 10
15009.6899968322
 20
7245.491409317328
 10
15009.6899968322
 20
7235.991409317328
 10
15017.91723816815
 20
7231.241409317328
 10
15026.1444795041
 20
7235.991409317328
 10
15026.1444795041
 20
7245.491409317328
  0
CIRCLE
  5
18CD
330
1E
100
AcDbEntity
  8
図面
100
AcDbCircle
 10
15017.91723816815
 20
7240.741409317328
 30
0.0
 40
6.0
  0
CIRCLE
  5
18CE
330
1E
100
AcDbEntity
  8
図面
100
AcDbCircle
 10
15017.91723816815
 20
7240.741409317328
 30
0.0
 40
5.5
  0
CIRCLE
  5
18CF
330
1E
100
AcDbEntity
  8
図面
100
AcDbCircle
 10
15017.91723816815
 20
7240.741409317328
 30
0.0
 40
11.0
  0
LWPOLYLINE
  5
18D0
330
1E
100
AcDbEntity
  8
図面
100
AcDbPolyline
 90
        6
 70
     1
 43
0.0
 10
15017.91723816815
 20
7250.241409317328
 10
15009.6899968322
 20
7245.491409317328
 10
15009.6899968322
 20
7235.991409317328
 10
15017.91723816815
 20
7231.241409317328
 10
15026.1444795041
 20
7235.991409317328
 10
15026.1444795041
 20
7245.491409317328
  0
CIRCLE
  5
18D1
330
1E
100
AcDbEntity
  8
図面
100
AcDbCircle
 10
15017.91723816815
 20
7240.741409317328
 30
0.0
 40
6.0
  0
CIRCLE
  5
18D2
330
1E
100
AcDbEntity
  8
図面
100
AcDbCircle
 10
15017.91723816815
 20
7240.741409317328
 30
0.0
 40
5.5
  0
CIRCLE
  5
18D3
330
1E
100
AcDbEntity
  8
図面
100
AcDbCircle
 10
15017.91723816815
 20
7240.741409317328
 30
0.0
 40
5.5
  0
CIRCLE
  5
18D4
330
1E
100
AcDbEntity
  8
図面
100
AcDbCircle
 10
15017.91723816815
 20
7240.741409317328
 30
0.0
 40
6.0
  0
LWPOLYLINE
  5
18D5
330
1E
100
AcDbEntity
  8
図面
100
AcDbPolyline
 90
        6
 70
     1
 43
0.0
 10
15017.91723816815
 20
7250.241409317328
 10
15009.6899968322
 20
7245.491409317328
 10
15009.6899968322
 20
7235.991409317328
 10
15017.91723816815
 20
7231.241409317328
 10
15026.1444795041
 20
7235.991409317328
 10
15026.1444795041
 20
7245.491409317328
  0
CIRCLE
  5
18D6
330
1E
100
AcDbEntity
  8
図面
100
AcDbCircle
 10
15017.91723816815
 20
7240.741409317328
 30
0.0
 40
11.0
  0
CIRCLE
  5
18D7
330
1E
100
AcDbEntity
  8
図面
100
AcDbCircle
 10
15017.91723816815
 20
6980.741409317328
 30
0.0
 40
5.5
  0
CIRCLE
  5
18D8
330
1E
100
AcDbEntity
  8
図面
100
AcDbCircle
 10
15017.91723816815
 20
6980.741409317328
 30
0.0
 40
6.0
  0
LWPOLYLINE
  5
18D9
330
1E
100
AcDbEntity
  8
図面
100
AcDbPolyline
 90
        6
 70
     1
 43
0.0
 10
15017.91723816815
 20
6990.241409317328
 10
15009.6899968322
 20
6985.491409317328
 10
15009.6899968322
 20
6975.991409317328
 10
15017.91723816815
 20
6971.241409317328
 10
15026.1444795041
 20
6975.991409317328
 10
15026.1444795041
 20
6985.491409317328
  0
CIRCLE
  5
18DA
330
1E
100
AcDbEntity
  8
図面
100
AcDbCircle
 10
15017.91723816815
 20
6980.741409317328
 30
0.0
 40
11.0
  0
CIRCLE
  5
18DB
330
1E
100
AcDbEntity
  8
図面
100
AcDbCircle
 10
15017.91723816815
 20
6980.741409317328
 30
0.0
 40
5.5
  0
CIRCLE
  5
18DC
330
1E
100
AcDbEntity
  8
図面
100
AcDbCircle
 10
15017.91723816815
 20
6980.741409317328
 30
0.0
 40
6.0
  0
LWPOLYLINE
  5
18DD
330
1E
100
AcDbEntity
  8
図面
100
AcDbPolyline
 90
        6
 70
     1
 43
0.0
 10
15017.91723816815
 20
6990.241409317328
 10
15009.6899968322
 20
6985.491409317328
 10
15009.6899968322
 20
6975.991409317328
 10
15017.91723816815
 20
6971.241409317328
 10
15026.1444795041
 20
6975.991409317328
 10
15026.1444795041
 20
6985.491409317328
  0
CIRCLE
  5
18DE
330
1E
100
AcDbEntity
  8
図面
100
AcDbCircle
 10
15017.91723816815
 20
6980.741409317328
 30
0.0
 40
11.0
  0
CIRCLE
  5
18DF
330
1E
100
AcDbEntity
  8
図面
100
AcDbCircle
 10
15017.91723816815
 20
6980.741409317328
 30
0.0
 40
5.5
  0
CIRCLE
  5
18E0
330
1E
100
AcDbEntity
  8
図面
100
AcDbCircle
 10
15017.91723816815
 20
6980.741409317328
 30
0.0
 40
6.0
  0
LWPOLYLINE
  5
18E1
330
1E
100
AcDbEntity
  8
図面
100
AcDbPolyline
 90
        6
 70
     1
 43
0.0
 10
15017.91723816815
 20
6990.241409317328
 10
15009.6899968322
 20
6985.491409317328
 10
15009.6899968322
 20
6975.991409317328
 10
15017.91723816815
 20
6971.241409317328
 10
15026.1444795041
 20
6975.991409317328
 10
15026.1444795041
 20
6985.491409317328
  0
CIRCLE
  5
18E2
330
1E
100
AcDbEntity
  8
図面
100
AcDbCircle
 10
15017.91723816815
 20
6980.741409317328
 30
0.0
 40
11.0
  0
CIRCLE
  5
18E3
330
1E
100
AcDbEntity
  8
図面
100
AcDbCircle
 10
15017.91723816815
 20
6980.741409317328
 30
0.0
 40
5.5
  0
CIRCLE
  5
18E4
330
1E
100
AcDbEntity
  8
図面
100
AcDbCircle
 10
15017.91723816815
 20
6980.741409317328
 30
0.0
 40
6.0
  0
LWPOLYLINE
  5
18E5
330
1E
100
AcDbEntity
  8
図面
100
AcDbPolyline
 90
        6
 70
     1
 43
0.0
 10
15017.91723816815
 20
6990.241409317328
 10
15009.6899968322
 20
6985.491409317328
 10
15009.6899968322
 20
6975.991409317328
 10
15017.91723816815
 20
6971.241409317328
 10
15026.1444795041
 20
6975.991409317328
 10
15026.1444795041
 20
6985.491409317328
  0
CIRCLE
  5
18E6
330
1E
100
AcDbEntity
  8
図面
100
AcDbCircle
 10
15017.91723816815
 20
6980.741409317328
 30
0.0
 40
11.0
  0
CIRCLE
  5
18E7
330
1E
100
AcDbEntity
  8
図面
100
AcDbCircle
 10
15017.91723816815
 20
6980.741409317328
 30
0.0
 40
5.5
  0
CIRCLE
  5
18E8
330
1E
100
AcDbEntity
  8
図面
100
AcDbCircle
 10
15017.91723816815
 20
6980.741409317328
 30
0.0
 40
6.0
  0
LWPOLYLINE
  5
18E9
330
1E
100
AcDbEntity
  8
図面
100
AcDbPolyline
 90
        6
 70
     1
 43
0.0
 10
15017.91723816815
 20
6990.241409317328
 10
15009.6899968322
 20
6985.491409317328
 10
15009.6899968322
 20
6975.991409317328
 10
15017.91723816815
 20
6971.241409317328
 10
15026.1444795041
 20
6975.991409317328
 10
15026.1444795041
 20
6985.491409317328
  0
CIRCLE
  5
18EA
330
1E
100
AcDbEntity
  8
図面
100
AcDbCircle
 10
15017.91723816815
 20
6980.741409317328
 30
0.0
 40
11.0
  0
CIRCLE
  5
18EB
330
1E
100
AcDbEntity
  8
図面
100
AcDbCircle
 10
15017.91723816815
 20
6980.741409317328
 30
0.0
 40
5.5
  0
CIRCLE
  5
18EC
330
1E
100
AcDbEntity
  8
図面
100
AcDbCircle
 10
15017.91723816815
 20
6980.741409317328
 30
0.0
 40
6.0
  0
LWPOLYLINE
  5
18ED
330
1E
100
AcDbEntity
  8
図面
100
AcDbPolyline
 90
        6
 70
     1
 43
0.0
 10
15017.91723816815
 20
6990.241409317328
 10
15009.6899968322
 20
6985.491409317328
 10
15009.6899968322
 20
6975.991409317328
 10
15017.91723816815
 20
6971.241409317328
 10
15026.1444795041
 20
6975.991409317328
 10
15026.1444795041
 20
6985.491409317328
  0
CIRCLE
  5
18EE
330
1E
100
AcDbEntity
  8
図面
100
AcDbCircle
 10
15017.91723816815
 20
6980.741409317328
 30
0.0
 40
11.0
  0
CIRCLE
  5
18EF
330
1E
100
AcDbEntity
  8
図面
100
AcDbCircle
 10
15017.91723816815
 20
6980.741409317328
 30
0.0
 40
5.5
  0
CIRCLE
  5
18F0
330
1E
100
AcDbEntity
  8
図面
100
AcDbCircle
 10
15017.91723816815
 20
6980.741409317328
 30
0.0
 40
6.0
  0
LWPOLYLINE
  5
18F1
330
1E
100
AcDbEntity
  8
図面
100
AcDbPolyline
 90
        6
 70
     1
 43
0.0
 10
15017.91723816815
 20
6990.241409317328
 10
15009.6899968322
 20
6985.491409317328
 10
15009.6899968322
 20
6975.991409317328
 10
15017.91723816815
 20
6971.241409317328
 10
15026.1444795041
 20
6975.991409317328
 10
15026.1444795041
 20
6985.491409317328
  0
CIRCLE
  5
18F2
330
1E
100
AcDbEntity
  8
図面
100
AcDbCircle
 10
15017.91723816815
 20
6980.741409317328
 30
0.0
 40
11.0
  0
CIRCLE
  5
18F3
330
1E
100
AcDbEntity
  8
図面
100
AcDbCircle
 10
15017.91723816815
 20
6980.741409317328
 30
0.0
 40
11.0
  0
LWPOLYLINE
  5
18F4
330
1E
100
AcDbEntity
  8
図面
100
AcDbPolyline
 90
        6
 70
     1
 43
0.0
 10
15017.91723816815
 20
6990.241409317328
 10
15009.6899968322
 20
6985.491409317328
 10
15009.6899968322
 20
6975.991409317328
 10
15017.91723816815
 20
6971.241409317328
 10
15026.1444795041
 20
6975.991409317328
 10
15026.1444795041
 20
6985.491409317328
  0
CIRCLE
  5
18F5
330
1E
100
AcDbEntity
  8
図面
100
AcDbCircle
 10
15017.91723816815
 20
6980.741409317328
 30
0.0
 40
6.0
  0
CIRCLE
  5
18F6
330
1E
100
AcDbEntity
  8
図面
100
AcDbCircle
 10
15017.91723816815
 20
6980.741409317328
 30
0.0
 40
5.5
  0
CIRCLE
  5
18F7
330
1E
100
AcDbEntity
  8
図面
100
AcDbCircle
 10
15092.91723816815
 20
7240.741409317328
 30
0.0
 40
11.0
  0
LWPOLYLINE
  5
18F8
330
1E
100
AcDbEntity
  8
図面
100
AcDbPolyline
 90
        6
 70
     1
 43
0.0
 10
15092.91723816815
 20
7250.241409317328
 10
15084.6899968322
 20
7245.491409317328
 10
15084.6899968322
 20
7235.991409317328
 10
15092.91723816815
 20
7231.241409317328
 10
15101.1444795041
 20
7235.991409317328
 10
15101.1444795041
 20
7245.491409317328
  0
CIRCLE
  5
18F9
330
1E
100
AcDbEntity
  8
図面
100
AcDbCircle
 10
15092.91723816815
 20
7240.741409317328
 30
0.0
 40
6.0
  0
CIRCLE
  5
18FA
330
1E
100
AcDbEntity
  8
図面
100
AcDbCircle
 10
15092.91723816815
 20
7240.741409317328
 30
0.0
 40
5.5
  0
CIRCLE
  5
18FB
330
1E
100
AcDbEntity
  8
図面
100
AcDbCircle
 10
15092.91723816815
 20
7240.741409317328
 30
0.0
 40
11.0
  0
LWPOLYLINE
  5
18FC
330
1E
100
AcDbEntity
  8
図面
100
AcDbPolyline
 90
        6
 70
     1
 43
0.0
 10
15092.91723816815
 20
7250.241409317328
 10
15084.6899968322
 20
7245.491409317328
 10
15084.6899968322
 20
7235.991409317328
 10
15092.91723816815
 20
7231.241409317328
 10
15101.1444795041
 20
7235.991409317328
 10
15101.1444795041
 20
7245.491409317328
  0
CIRCLE
  5
18FD
330
1E
100
AcDbEntity
  8
図面
100
AcDbCircle
 10
15092.91723816815
 20
7240.741409317328
 30
0.0
 40
6.0
  0
CIRCLE
  5
18FE
330
1E
100
AcDbEntity
  8
図面
100
AcDbCircle
 10
15092.91723816815
 20
7240.741409317328
 30
0.0
 40
5.5
  0
CIRCLE
  5
18FF
330
1E
100
AcDbEntity
  8
図面
100
AcDbCircle
 10
15092.91723816815
 20
7240.741409317328
 30
0.0
 40
11.0
  0
LWPOLYLINE
  5
1900
330
1E
100
AcDbEntity
  8
図面
100
AcDbPolyline
 90
        6
 70
     1
 43
0.0
 10
15092.91723816815
 20
7250.241409317328
 10
15084.6899968322
 20
7245.491409317328
 10
15084.6899968322
 20
7235.991409317328
 10
15092.91723816815
 20
7231.241409317328
 10
15101.1444795041
 20
7235.991409317328
 10
15101.1444795041
 20
7245.491409317328
  0
CIRCLE
  5
1901
330
1E
100
AcDbEntity
  8
図面
100
AcDbCircle
 10
15092.91723816815
 20
7240.741409317328
 30
0.0
 40
6.0
  0
CIRCLE
  5
1902
330
1E
100
AcDbEntity
  8
図面
100
AcDbCircle
 10
15092.91723816815
 20
7240.741409317328
 30
0.0
 40
5.5
  0
CIRCLE
  5
1903
330
1E
100
AcDbEntity
  8
図面
100
AcDbCircle
 10
15092.91723816815
 20
7240.741409317328
 30
0.0
 40
11.0
  0
LWPOLYLINE
  5
1904
330
1E
100
AcDbEntity
  8
図面
100
AcDbPolyline
 90
        6
 70
     1
 43
0.0
 10
15092.91723816815
 20
7250.241409317328
 10
15084.6899968322
 20
7245.491409317328
 10
15084.6899968322
 20
7235.991409317328
 10
15092.91723816815
 20
7231.241409317328
 10
15101.1444795041
 20
7235.991409317328
 10
15101.1444795041
 20
7245.491409317328
  0
CIRCLE
  5
1905
330
1E
100
AcDbEntity
  8
図面
100
AcDbCircle
 10
15092.91723816815
 20
7240.741409317328
 30
0.0
 40
6.0
  0
CIRCLE
  5
1906
330
1E
100
AcDbEntity
  8
図面
100
AcDbCircle
 10
15092.91723816815
 20
7240.741409317328
 30
0.0
 40
5.5
  0
CIRCLE
  5
1907
330
1E
100
AcDbEntity
  8
図面
100
AcDbCircle
 10
15092.91723816815
 20
7240.741409317328
 30
0.0
 40
11.0
  0
LWPOLYLINE
  5
1908
330
1E
100
AcDbEntity
  8
図面
100
AcDbPolyline
 90
        6
 70
     1
 43
0.0
 10
15092.91723816815
 20
7250.241409317328
 10
15084.6899968322
 20
7245.491409317328
 10
15084.6899968322
 20
7235.991409317328
 10
15092.91723816815
 20
7231.241409317328
 10
15101.1444795041
 20
7235.991409317328
 10
15101.1444795041
 20
7245.491409317328
  0
CIRCLE
  5
1909
330
1E
100
AcDbEntity
  8
図面
100
AcDbCircle
 10
15092.91723816815
 20
7240.741409317328
 30
0.0
 40
6.0
  0
CIRCLE
  5
190A
330
1E
100
AcDbEntity
  8
図面
100
AcDbCircle
 10
15092.91723816815
 20
7240.741409317328
 30
0.0
 40
5.5
  0
CIRCLE
  5
190B
330
1E
100
AcDbEntity
  8
図面
100
AcDbCircle
 10
15092.91723816815
 20
7240.741409317328
 30
0.0
 40
11.0
  0
LWPOLYLINE
  5
190C
330
1E
100
AcDbEntity
  8
図面
100
AcDbPolyline
 90
        6
 70
     1
 43
0.0
 10
15092.91723816815
 20
7250.241409317328
 10
15084.6899968322
 20
7245.491409317328
 10
15084.6899968322
 20
7235.991409317328
 10
15092.91723816815
 20
7231.241409317328
 10
15101.1444795041
 20
7235.991409317328
 10
15101.1444795041
 20
7245.491409317328
  0
CIRCLE
  5
190D
330
1E
100
AcDbEntity
  8
図面
100
AcDbCircle
 10
15092.91723816815
 20
7240.741409317328
 30
0.0
 40
6.0
  0
CIRCLE
  5
190E
330
1E
100
AcDbEntity
  8
図面
100
AcDbCircle
 10
15092.91723816815
 20
7240.741409317328
 30
0.0
 40
5.5
  0
CIRCLE
  5
190F
330
1E
100
AcDbEntity
  8
図面
100
AcDbCircle
 10
15092.91723816815
 20
7240.741409317328
 30
0.0
 40
11.0
  0
LWPOLYLINE
  5
1910
330
1E
100
AcDbEntity
  8
図面
100
AcDbPolyline
 90
        6
 70
     1
 43
0.0
 10
15092.91723816815
 20
7250.241409317328
 10
15084.6899968322
 20
7245.491409317328
 10
15084.6899968322
 20
7235.991409317328
 10
15092.91723816815
 20
7231.241409317328
 10
15101.1444795041
 20
7235.991409317328
 10
15101.1444795041
 20
7245.491409317328
  0
CIRCLE
  5
1911
330
1E
100
AcDbEntity
  8
図面
100
AcDbCircle
 10
15092.91723816815
 20
7240.741409317328
 30
0.0
 40
6.0
  0
CIRCLE
  5
1912
330
1E
100
AcDbEntity
  8
図面
100
AcDbCircle
 10
15092.91723816815
 20
7240.741409317328
 30
0.0
 40
5.5
  0
CIRCLE
  5
1913
330
1E
100
AcDbEntity
  8
図面
100
AcDbCircle
 10
15092.91723816815
 20
7240.741409317328
 30
0.0
 40
5.5
  0
CIRCLE
  5
1914
330
1E
100
AcDbEntity
  8
図面
100
AcDbCircle
 10
15092.91723816815
 20
7240.741409317328
 30
0.0
 40
6.0
  0
LWPOLYLINE
  5
1915
330
1E
100
AcDbEntity
  8
図面
100
AcDbPolyline
 90
        6
 70
     1
 43
0.0
 10
15092.91723816815
 20
7250.241409317328
 10
15084.6899968322
 20
7245.491409317328
 10
15084.6899968322
 20
7235.991409317328
 10
15092.91723816815
 20
7231.241409317328
 10
15101.1444795041
 20
7235.991409317328
 10
15101.1444795041
 20
7245.491409317328
  0
CIRCLE
  5
1916
330
1E
100
AcDbEntity
  8
図面
100
AcDbCircle
 10
15092.91723816815
 20
7240.741409317328
 30
0.0
 40
11.0
  0
CIRCLE
  5
1917
330
1E
100
AcDbEntity
  8
図面
100
AcDbCircle
 10
15092.91723816815
 20
6980.741409317328
 30
0.0
 40
5.5
  0
CIRCLE
  5
1918
330
1E
100
AcDbEntity
  8
図面
100
AcDbCircle
 10
15092.91723816815
 20
6980.741409317328
 30
0.0
 40
6.0
  0
LWPOLYLINE
  5
1919
330
1E
100
AcDbEntity
  8
図面
100
AcDbPolyline
 90
        6
 70
     1
 43
0.0
 10
15092.91723816815
 20
6990.241409317328
 10
15084.6899968322
 20
6985.491409317328
 10
15084.6899968322
 20
6975.991409317328
 10
15092.91723816815
 20
6971.241409317328
 10
15101.1444795041
 20
6975.991409317328
 10
15101.1444795041
 20
6985.491409317328
  0
CIRCLE
  5
191A
330
1E
100
AcDbEntity
  8
図面
100
AcDbCircle
 10
15092.91723816815
 20
6980.741409317328
 30
0.0
 40
11.0
  0
CIRCLE
  5
191B
330
1E
100
AcDbEntity
  8
図面
100
AcDbCircle
 10
15092.91723816815
 20
6980.741409317328
 30
0.0
 40
5.5
  0
CIRCLE
  5
191C
330
1E
100
AcDbEntity
  8
図面
100
AcDbCircle
 10
15092.91723816815
 20
6980.741409317328
 30
0.0
 40
6.0
  0
LWPOLYLINE
  5
191D
330
1E
100
AcDbEntity
  8
図面
100
AcDbPolyline
 90
        6
 70
     1
 43
0.0
 10
15092.91723816815
 20
6990.241409317328
 10
15084.6899968322
 20
6985.491409317328
 10
15084.6899968322
 20
6975.991409317328
 10
15092.91723816815
 20
6971.241409317328
 10
15101.1444795041
 20
6975.991409317328
 10
15101.1444795041
 20
6985.491409317328
  0
CIRCLE
  5
191E
330
1E
100
AcDbEntity
  8
図面
100
AcDbCircle
 10
15092.91723816815
 20
6980.741409317328
 30
0.0
 40
11.0
  0
CIRCLE
  5
191F
330
1E
100
AcDbEntity
  8
図面
100
AcDbCircle
 10
15092.91723816815
 20
6980.741409317328
 30
0.0
 40
5.5
  0
CIRCLE
  5
1920
330
1E
100
AcDbEntity
  8
図面
100
AcDbCircle
 10
15092.91723816815
 20
6980.741409317328
 30
0.0
 40
6.0
  0
LWPOLYLINE
  5
1921
330
1E
100
AcDbEntity
  8
図面
100
AcDbPolyline
 90
        6
 70
     1
 43
0.0
 10
15092.91723816815
 20
6990.241409317328
 10
15084.6899968322
 20
6985.491409317328
 10
15084.6899968322
 20
6975.991409317328
 10
15092.91723816815
 20
6971.241409317328
 10
15101.1444795041
 20
6975.991409317328
 10
15101.1444795041
 20
6985.491409317328
  0
CIRCLE
  5
1922
330
1E
100
AcDbEntity
  8
図面
100
AcDbCircle
 10
15092.91723816815
 20
6980.741409317328
 30
0.0
 40
11.0
  0
CIRCLE
  5
1923
330
1E
100
AcDbEntity
  8
図面
100
AcDbCircle
 10
15092.91723816815
 20
6980.741409317328
 30
0.0
 40
5.5
  0
CIRCLE
  5
1924
330
1E
100
AcDbEntity
  8
図面
100
AcDbCircle
 10
15092.91723816815
 20
6980.741409317328
 30
0.0
 40
6.0
  0
LWPOLYLINE
  5
1925
330
1E
100
AcDbEntity
  8
図面
100
AcDbPolyline
 90
        6
 70
     1
 43
0.0
 10
15092.91723816815
 20
6990.241409317328
 10
15084.6899968322
 20
6985.491409317328
 10
15084.6899968322
 20
6975.991409317328
 10
15092.91723816815
 20
6971.241409317328
 10
15101.1444795041
 20
6975.991409317328
 10
15101.1444795041
 20
6985.491409317328
  0
CIRCLE
  5
1926
330
1E
100
AcDbEntity
  8
図面
100
AcDbCircle
 10
15092.91723816815
 20
6980.741409317328
 30
0.0
 40
11.0
  0
CIRCLE
  5
1927
330
1E
100
AcDbEntity
  8
図面
100
AcDbCircle
 10
15092.91723816815
 20
6980.741409317328
 30
0.0
 40
5.5
  0
CIRCLE
  5
1928
330
1E
100
AcDbEntity
  8
図面
100
AcDbCircle
 10
15092.91723816815
 20
6980.741409317328
 30
0.0
 40
6.0
  0
LWPOLYLINE
  5
1929
330
1E
100
AcDbEntity
  8
図面
100
AcDbPolyline
 90
        6
 70
     1
 43
0.0
 10
15092.91723816815
 20
6990.241409317328
 10
15084.6899968322
 20
6985.491409317328
 10
15084.6899968322
 20
6975.991409317328
 10
15092.91723816815
 20
6971.241409317328
 10
15101.1444795041
 20
6975.991409317328
 10
15101.1444795041
 20
6985.491409317328
  0
CIRCLE
  5
192A
330
1E
100
AcDbEntity
  8
図面
100
AcDbCircle
 10
15092.91723816815
 20
6980.741409317328
 30
0.0
 40
11.0
  0
CIRCLE
  5
192B
330
1E
100
AcDbEntity
  8
図面
100
AcDbCircle
 10
15092.91723816815
 20
6980.741409317328
 30
0.0
 40
5.5
  0
CIRCLE
  5
192C
330
1E
100
AcDbEntity
  8
図面
100
AcDbCircle
 10
15092.91723816815
 20
6980.741409317328
 30
0.0
 40
6.0
  0
LWPOLYLINE
  5
192D
330
1E
100
AcDbEntity
  8
図面
100
AcDbPolyline
 90
        6
 70
     1
 43
0.0
 10
15092.91723816815
 20
6990.241409317328
 10
15084.6899968322
 20
6985.491409317328
 10
15084.6899968322
 20
6975.991409317328
 10
15092.91723816815
 20
6971.241409317328
 10
15101.1444795041
 20
6975.991409317328
 10
15101.1444795041
 20
6985.491409317328
  0
CIRCLE
  5
192E
330
1E
100
AcDbEntity
  8
図面
100
AcDbCircle
 10
15092.91723816815
 20
6980.741409317328
 30
0.0
 40
11.0
  0
CIRCLE
  5
192F
330
1E
100
AcDbEntity
  8
図面
100
AcDbCircle
 10
15092.91723816815
 20
6980.741409317328
 30
0.0
 40
5.5
  0
CIRCLE
  5
1930
330
1E
100
AcDbEntity
  8
図面
100
AcDbCircle
 10
15092.91723816815
 20
6980.741409317328
 30
0.0
 40
6.0
  0
LWPOLYLINE
  5
1931
330
1E
100
AcDbEntity
  8
図面
100
AcDbPolyline
 90
        6
 70
     1
 43
0.0
 10
15092.91723816815
 20
6990.241409317328
 10
15084.6899968322
 20
6985.491409317328
 10
15084.6899968322
 20
6975.991409317328
 10
15092.91723816815
 20
6971.241409317328
 10
15101.1444795041
 20
6975.991409317328
 10
15101.1444795041
 20
6985.491409317328
  0
CIRCLE
  5
1932
330
1E
100
AcDbEntity
  8
図面
100
AcDbCircle
 10
15092.91723816815
 20
6980.741409317328
 30
0.0
 40
11.0
  0
CIRCLE
  5
1933
330
1E
100
AcDbEntity
  8
図面
100
AcDbCircle
 10
15092.91723816815
 20
6980.741409317328
 30
0.0
 40
11.0
  0
LWPOLYLINE
  5
1934
330
1E
100
AcDbEntity
  8
図面
100
AcDbPolyline
 90
        6
 70
     1
 43
0.0
 10
15092.91723816815
 20
6990.241409317328
 10
15084.6899968322
 20
6985.491409317328
 10
15084.6899968322
 20
6975.991409317328
 10
15092.91723816815
 20
6971.241409317328
 10
15101.1444795041
 20
6975.991409317328
 10
15101.1444795041
 20
6985.491409317328
  0
CIRCLE
  5
1935
330
1E
100
AcDbEntity
  8
図面
100
AcDbCircle
 10
15092.91723816815
 20
6980.741409317328
 30
0.0
 40
6.0
  0
CIRCLE
  5
1936
330
1E
100
AcDbEntity
  8
図面
100
AcDbCircle
 10
15092.91723816815
 20
6980.741409317328
 30
0.0
 40
5.5
  0
CIRCLE
  5
1937
330
1E
100
AcDbEntity
  8
図面
100
AcDbCircle
 10
15167.91723816815
 20
7240.741409317328
 30
0.0
 40
11.0
  0
LWPOLYLINE
  5
1938
330
1E
100
AcDbEntity
  8
図面
100
AcDbPolyline
 90
        6
 70
     1
 43
0.0
 10
15167.91723816815
 20
7250.241409317328
 10
15159.6899968322
 20
7245.491409317328
 10
15159.6899968322
 20
7235.991409317328
 10
15167.91723816815
 20
7231.241409317328
 10
15176.1444795041
 20
7235.991409317328
 10
15176.1444795041
 20
7245.491409317328
  0
CIRCLE
  5
1939
330
1E
100
AcDbEntity
  8
図面
100
AcDbCircle
 10
15167.91723816815
 20
7240.741409317328
 30
0.0
 40
6.0
  0
CIRCLE
  5
193A
330
1E
100
AcDbEntity
  8
図面
100
AcDbCircle
 10
15167.91723816815
 20
7240.741409317328
 30
0.0
 40
5.5
  0
CIRCLE
  5
193B
330
1E
100
AcDbEntity
  8
図面
100
AcDbCircle
 10
15167.91723816815
 20
7240.741409317328
 30
0.0
 40
11.0
  0
LWPOLYLINE
  5
193C
330
1E
100
AcDbEntity
  8
図面
100
AcDbPolyline
 90
        6
 70
     1
 43
0.0
 10
15167.91723816815
 20
7250.241409317328
 10
15159.6899968322
 20
7245.491409317328
 10
15159.6899968322
 20
7235.991409317328
 10
15167.91723816815
 20
7231.241409317328
 10
15176.1444795041
 20
7235.991409317328
 10
15176.1444795041
 20
7245.491409317328
  0
CIRCLE
  5
193D
330
1E
100
AcDbEntity
  8
図面
100
AcDbCircle
 10
15167.91723816815
 20
7240.741409317328
 30
0.0
 40
6.0
  0
CIRCLE
  5
193E
330
1E
100
AcDbEntity
  8
図面
100
AcDbCircle
 10
15167.91723816815
 20
7240.741409317328
 30
0.0
 40
5.5
  0
CIRCLE
  5
193F
330
1E
100
AcDbEntity
  8
図面
100
AcDbCircle
 10
15167.91723816815
 20
7240.741409317328
 30
0.0
 40
11.0
  0
LWPOLYLINE
  5
1940
330
1E
100
AcDbEntity
  8
図面
100
AcDbPolyline
 90
        6
 70
     1
 43
0.0
 10
15167.91723816815
 20
7250.241409317328
 10
15159.6899968322
 20
7245.491409317328
 10
15159.6899968322
 20
7235.991409317328
 10
15167.91723816815
 20
7231.241409317328
 10
15176.1444795041
 20
7235.991409317328
 10
15176.1444795041
 20
7245.491409317328
  0
CIRCLE
  5
1941
330
1E
100
AcDbEntity
  8
図面
100
AcDbCircle
 10
15167.91723816815
 20
7240.741409317328
 30
0.0
 40
6.0
  0
CIRCLE
  5
1942
330
1E
100
AcDbEntity
  8
図面
100
AcDbCircle
 10
15167.91723816815
 20
7240.741409317328
 30
0.0
 40
5.5
  0
CIRCLE
  5
1943
330
1E
100
AcDbEntity
  8
図面
100
AcDbCircle
 10
15167.91723816815
 20
7240.741409317328
 30
0.0
 40
11.0
  0
LWPOLYLINE
  5
1944
330
1E
100
AcDbEntity
  8
図面
100
AcDbPolyline
 90
        6
 70
     1
 43
0.0
 10
15167.91723816815
 20
7250.241409317328
 10
15159.6899968322
 20
7245.491409317328
 10
15159.6899968322
 20
7235.991409317328
 10
15167.91723816815
 20
7231.241409317328
 10
15176.1444795041
 20
7235.991409317328
 10
15176.1444795041
 20
7245.491409317328
  0
CIRCLE
  5
1945
330
1E
100
AcDbEntity
  8
図面
100
AcDbCircle
 10
15167.91723816815
 20
7240.741409317328
 30
0.0
 40
6.0
  0
CIRCLE
  5
1946
330
1E
100
AcDbEntity
  8
図面
100
AcDbCircle
 10
15167.91723816815
 20
7240.741409317328
 30
0.0
 40
5.5
  0
CIRCLE
  5
1947
330
1E
100
AcDbEntity
  8
図面
100
AcDbCircle
 10
15167.91723816815
 20
7240.741409317328
 30
0.0
 40
11.0
  0
LWPOLYLINE
  5
1948
330
1E
100
AcDbEntity
  8
図面
100
AcDbPolyline
 90
        6
 70
     1
 43
0.0
 10
15167.91723816815
 20
7250.241409317328
 10
15159.6899968322
 20
7245.491409317328
 10
15159.6899968322
 20
7235.991409317328
 10
15167.91723816815
 20
7231.241409317328
 10
15176.1444795041
 20
7235.991409317328
 10
15176.1444795041
 20
7245.491409317328
  0
CIRCLE
  5
1949
330
1E
100
AcDbEntity
  8
図面
100
AcDbCircle
 10
15167.91723816815
 20
7240.741409317328
 30
0.0
 40
6.0
  0
CIRCLE
  5
194A
330
1E
100
AcDbEntity
  8
図面
100
AcDbCircle
 10
15167.91723816815
 20
7240.741409317328
 30
0.0
 40
5.5
  0
CIRCLE
  5
194B
330
1E
100
AcDbEntity
  8
図面
100
AcDbCircle
 10
15167.91723816815
 20
7240.741409317328
 30
0.0
 40
11.0
  0
LWPOLYLINE
  5
194C
330
1E
100
AcDbEntity
  8
図面
100
AcDbPolyline
 90
        6
 70
     1
 43
0.0
 10
15167.91723816815
 20
7250.241409317328
 10
15159.6899968322
 20
7245.491409317328
 10
15159.6899968322
 20
7235.991409317328
 10
15167.91723816815
 20
7231.241409317328
 10
15176.1444795041
 20
7235.991409317328
 10
15176.1444795041
 20
7245.491409317328
  0
CIRCLE
  5
194D
330
1E
100
AcDbEntity
  8
図面
100
AcDbCircle
 10
15167.91723816815
 20
7240.741409317328
 30
0.0
 40
6.0
  0
CIRCLE
  5
194E
330
1E
100
AcDbEntity
  8
図面
100
AcDbCircle
 10
15167.91723816815
 20
7240.741409317328
 30
0.0
 40
5.5
  0
CIRCLE
  5
194F
330
1E
100
AcDbEntity
  8
図面
100
AcDbCircle
 10
15167.91723816815
 20
7240.741409317328
 30
0.0
 40
11.0
  0
LWPOLYLINE
  5
1950
330
1E
100
AcDbEntity
  8
図面
100
AcDbPolyline
 90
        6
 70
     1
 43
0.0
 10
15167.91723816815
 20
7250.241409317328
 10
15159.6899968322
 20
7245.491409317328
 10
15159.6899968322
 20
7235.991409317328
 10
15167.91723816815
 20
7231.241409317328
 10
15176.1444795041
 20
7235.991409317328
 10
15176.1444795041
 20
7245.491409317328
  0
CIRCLE
  5
1951
330
1E
100
AcDbEntity
  8
図面
100
AcDbCircle
 10
15167.91723816815
 20
7240.741409317328
 30
0.0
 40
6.0
  0
CIRCLE
  5
1952
330
1E
100
AcDbEntity
  8
図面
100
AcDbCircle
 10
15167.91723816815
 20
7240.741409317328
 30
0.0
 40
5.5
  0
CIRCLE
  5
1953
330
1E
100
AcDbEntity
  8
図面
100
AcDbCircle
 10
15167.91723816815
 20
7240.741409317328
 30
0.0
 40
5.5
  0
CIRCLE
  5
1954
330
1E
100
AcDbEntity
  8
図面
100
AcDbCircle
 10
15167.91723816815
 20
7240.741409317328
 30
0.0
 40
6.0
  0
LWPOLYLINE
  5
1955
330
1E
100
AcDbEntity
  8
図面
100
AcDbPolyline
 90
        6
 70
     1
 43
0.0
 10
15167.91723816815
 20
7250.241409317328
 10
15159.6899968322
 20
7245.491409317328
 10
15159.6899968322
 20
7235.991409317328
 10
15167.91723816815
 20
7231.241409317328
 10
15176.1444795041
 20
7235.991409317328
 10
15176.1444795041
 20
7245.491409317328
  0
CIRCLE
  5
1956
330
1E
100
AcDbEntity
  8
図面
100
AcDbCircle
 10
15167.91723816815
 20
7240.741409317328
 30
0.0
 40
11.0
  0
CIRCLE
  5
1957
330
1E
100
AcDbEntity
  8
図面
100
AcDbCircle
 10
15167.91723816815
 20
6980.741409317328
 30
0.0
 40
5.5
  0
CIRCLE
  5
1958
330
1E
100
AcDbEntity
  8
図面
100
AcDbCircle
 10
15167.91723816815
 20
6980.741409317328
 30
0.0
 40
6.0
  0
LWPOLYLINE
  5
1959
330
1E
100
AcDbEntity
  8
図面
100
AcDbPolyline
 90
        6
 70
     1
 43
0.0
 10
15167.91723816815
 20
6990.241409317328
 10
15159.6899968322
 20
6985.491409317328
 10
15159.6899968322
 20
6975.991409317328
 10
15167.91723816815
 20
6971.241409317328
 10
15176.1444795041
 20
6975.991409317328
 10
15176.1444795041
 20
6985.491409317328
  0
CIRCLE
  5
195A
330
1E
100
AcDbEntity
  8
図面
100
AcDbCircle
 10
15167.91723816815
 20
6980.741409317328
 30
0.0
 40
11.0
  0
CIRCLE
  5
195B
330
1E
100
AcDbEntity
  8
図面
100
AcDbCircle
 10
15167.91723816815
 20
6980.741409317328
 30
0.0
 40
5.5
  0
CIRCLE
  5
195C
330
1E
100
AcDbEntity
  8
図面
100
AcDbCircle
 10
15167.91723816815
 20
6980.741409317328
 30
0.0
 40
6.0
  0
LWPOLYLINE
  5
195D
330
1E
100
AcDbEntity
  8
図面
100
AcDbPolyline
 90
        6
 70
     1
 43
0.0
 10
15167.91723816815
 20
6990.241409317328
 10
15159.6899968322
 20
6985.491409317328
 10
15159.6899968322
 20
6975.991409317328
 10
15167.91723816815
 20
6971.241409317328
 10
15176.1444795041
 20
6975.991409317328
 10
15176.1444795041
 20
6985.491409317328
  0
CIRCLE
  5
195E
330
1E
100
AcDbEntity
  8
図面
100
AcDbCircle
 10
15167.91723816815
 20
6980.741409317328
 30
0.0
 40
11.0
  0
CIRCLE
  5
195F
330
1E
100
AcDbEntity
  8
図面
100
AcDbCircle
 10
15167.91723816815
 20
6980.741409317328
 30
0.0
 40
5.5
  0
CIRCLE
  5
1960
330
1E
100
AcDbEntity
  8
図面
100
AcDbCircle
 10
15167.91723816815
 20
6980.741409317328
 30
0.0
 40
6.0
  0
LWPOLYLINE
  5
1961
330
1E
100
AcDbEntity
  8
図面
100
AcDbPolyline
 90
        6
 70
     1
 43
0.0
 10
15167.91723816815
 20
6990.241409317328
 10
15159.6899968322
 20
6985.491409317328
 10
15159.6899968322
 20
6975.991409317328
 10
15167.91723816815
 20
6971.241409317328
 10
15176.1444795041
 20
6975.991409317328
 10
15176.1444795041
 20
6985.491409317328
  0
CIRCLE
  5
1962
330
1E
100
AcDbEntity
  8
図面
100
AcDbCircle
 10
15167.91723816815
 20
6980.741409317328
 30
0.0
 40
11.0
  0
CIRCLE
  5
1963
330
1E
100
AcDbEntity
  8
図面
100
AcDbCircle
 10
15167.91723816815
 20
6980.741409317328
 30
0.0
 40
5.5
  0
CIRCLE
  5
1964
330
1E
100
AcDbEntity
  8
図面
100
AcDbCircle
 10
15167.91723816815
 20
6980.741409317328
 30
0.0
 40
6.0
  0
LWPOLYLINE
  5
1965
330
1E
100
AcDbEntity
  8
図面
100
AcDbPolyline
 90
        6
 70
     1
 43
0.0
 10
15167.91723816815
 20
6990.241409317328
 10
15159.6899968322
 20
6985.491409317328
 10
15159.6899968322
 20
6975.991409317328
 10
15167.91723816815
 20
6971.241409317328
 10
15176.1444795041
 20
6975.991409317328
 10
15176.1444795041
 20
6985.491409317328
  0
CIRCLE
  5
1966
330
1E
100
AcDbEntity
  8
図面
100
AcDbCircle
 10
15167.91723816815
 20
6980.741409317328
 30
0.0
 40
11.0
  0
CIRCLE
  5
1967
330
1E
100
AcDbEntity
  8
図面
100
AcDbCircle
 10
15167.91723816815
 20
6980.741409317328
 30
0.0
 40
5.5
  0
CIRCLE
  5
1968
330
1E
100
AcDbEntity
  8
図面
100
AcDbCircle
 10
15167.91723816815
 20
6980.741409317328
 30
0.0
 40
6.0
  0
LWPOLYLINE
  5
1969
330
1E
100
AcDbEntity
  8
図面
100
AcDbPolyline
 90
        6
 70
     1
 43
0.0
 10
15167.91723816815
 20
6990.241409317328
 10
15159.6899968322
 20
6985.491409317328
 10
15159.6899968322
 20
6975.991409317328
 10
15167.91723816815
 20
6971.241409317328
 10
15176.1444795041
 20
6975.991409317328
 10
15176.1444795041
 20
6985.491409317328
  0
CIRCLE
  5
196A
330
1E
100
AcDbEntity
  8
図面
100
AcDbCircle
 10
15167.91723816815
 20
6980.741409317328
 30
0.0
 40
11.0
  0
CIRCLE
  5
196B
330
1E
100
AcDbEntity
  8
図面
100
AcDbCircle
 10
15167.91723816815
 20
6980.741409317328
 30
0.0
 40
5.5
  0
CIRCLE
  5
196C
330
1E
100
AcDbEntity
  8
図面
100
AcDbCircle
 10
15167.91723816815
 20
6980.741409317328
 30
0.0
 40
6.0
  0
LWPOLYLINE
  5
196D
330
1E
100
AcDbEntity
  8
図面
100
AcDbPolyline
 90
        6
 70
     1
 43
0.0
 10
15167.91723816815
 20
6990.241409317328
 10
15159.6899968322
 20
6985.491409317328
 10
15159.6899968322
 20
6975.991409317328
 10
15167.91723816815
 20
6971.241409317328
 10
15176.1444795041
 20
6975.991409317328
 10
15176.1444795041
 20
6985.491409317328
  0
CIRCLE
  5
196E
330
1E
100
AcDbEntity
  8
図面
100
AcDbCircle
 10
15167.91723816815
 20
6980.741409317328
 30
0.0
 40
11.0
  0
CIRCLE
  5
196F
330
1E
100
AcDbEntity
  8
図面
100
AcDbCircle
 10
15167.91723816815
 20
6980.741409317328
 30
0.0
 40
5.5
  0
CIRCLE
  5
1970
330
1E
100
AcDbEntity
  8
図面
100
AcDbCircle
 10
15167.91723816815
 20
6980.741409317328
 30
0.0
 40
6.0
  0
LWPOLYLINE
  5
1971
330
1E
100
AcDbEntity
  8
図面
100
AcDbPolyline
 90
        6
 70
     1
 43
0.0
 10
15167.91723816815
 20
6990.241409317328
 10
15159.6899968322
 20
6985.491409317328
 10
15159.6899968322
 20
6975.991409317328
 10
15167.91723816815
 20
6971.241409317328
 10
15176.1444795041
 20
6975.991409317328
 10
15176.1444795041
 20
6985.491409317328
  0
CIRCLE
  5
1972
330
1E
100
AcDbEntity
  8
図面
100
AcDbCircle
 10
15167.91723816815
 20
6980.741409317328
 30
0.0
 40
11.0
  0
CIRCLE
  5
1973
330
1E
100
AcDbEntity
  8
図面
100
AcDbCircle
 10
15167.91723816815
 20
6980.741409317328
 30
0.0
 40
11.0
  0
LWPOLYLINE
  5
1974
330
1E
100
AcDbEntity
  8
図面
100
AcDbPolyline
 90
        6
 70
     1
 43
0.0
 10
15167.91723816815
 20
6990.241409317328
 10
15159.6899968322
 20
6985.491409317328
 10
15159.6899968322
 20
6975.991409317328
 10
15167.91723816815
 20
6971.241409317328
 10
15176.1444795041
 20
6975.991409317328
 10
15176.1444795041
 20
6985.491409317328
  0
CIRCLE
  5
1975
330
1E
100
AcDbEntity
  8
図面
100
AcDbCircle
 10
15167.91723816815
 20
6980.741409317328
 30
0.0
 40
6.0
  0
CIRCLE
  5
1976
330
1E
100
AcDbEntity
  8
図面
100
AcDbCircle
 10
15167.91723816815
 20
6980.741409317328
 30
0.0
 40
5.5
  0
LEADER
  5
1978
330
1E
100
AcDbEntity
  8
図面
100
AcDbLeader
  3
Standard
 73
     0
 74
     0
 40
25.0
 41
141.6666666666667
 76
     3
 10
13663.6310111405
 20
7758.157292361241
 30
0.0
 10
13745.99337093551
 20
7891.97638380326
 30
0.0
 10
13756.63010801333
 20
7891.97638380326
 30
0.0
340
1979
213
0.0
223
-12.5
233
0.0
1001
ACAD
1000
DSTYLE
1002
{
1070
    41
1040
20.0
1070
    44
1040
0.5
1070
    73
1070
     0
1070
    74
1070
     0
1070
    77
1070
     0
1070
   140
1040
25.0
1070
   147
1040
0.5
1070
   176
1070
     1
1070
   177
1070
     1
1070
   178
1070
     1
1070
   271
1070
     0
1070
   272
1070
     0
1070
   279
1070
     2
1070
   340
1005
23
1002
}
  0
MTEXT
  5
1979
102
{ACAD_REACTORS
330
1978
102
}
330
1E
100
AcDbEntity
  8
図面
 62
     1
100
AcDbMText
 10
13757.13010801333
 20
7904.47638380326
 30
0.0
 40
25.0
 41
0.0
 46
0.0
 71
     1
 72
     1
  1
電源ランプ
  7
TextStyle01
 73
     1
 44
1.0
  0
MTEXT
  5
197C
102
{ACAD_REACTORS
330
197D
102
}
330
1E
100
AcDbEntity
  8
図面
 62
     1
100
AcDbMText
 10
13954.85600571319
 20
7888.421079906317
 30
0.0
 40
25.0
 41
0.0
 46
0.0
 71
     1
 72
     1
  1
圧力計
  7
TextStyle01
 73
     1
 44
1.0
  0
LEADER
  5
197D
330
1E
100
AcDbEntity
  8
図面
100
AcDbLeader
  3
Standard
 73
     0
 74
     0
 40
25.0
 41
81.25
 76
     3
 10
13861.35690884036
 20
7742.101988464298
 30
0.0
 10
13943.71926863538
 20
7875.921079906317
 30
0.0
 10
13954.35600571319
 20
7875.921079906317
 30
0.0
340
197C
213
0.0
223
-12.5
233
0.0
1001
ACAD
1000
DSTYLE
1002
{
1070
    41
1040
20.0
1070
    44
1040
0.5
1070
    73
1070
     0
1070
    74
1070
     0
1070
    77
1070
     0
1070
   140
1040
25.0
1070
   147
1040
0.5
1070
   176
1070
     1
1070
   177
1070
     1
1070
   178
1070
     1
1070
   271
1070
     0
1070
   272
1070
     0
1070
   279
1070
     2
1070
   340
1005
23
1002
}
  0
LEADER
  5
197E
330
1E
100
AcDbEntity
  8
図面
100
AcDbLeader
  3
Standard
 73
     0
 74
     0
 40
25.0
 41
465.8333333333333
 76
     3
 10
14001.37846009154
 20
7701.752651667603
 30
0.0
 10
14074.37755696437
 20
7876.887470029565
 30
0.0
 10
14094.37755696437
 20
7876.887470029565
 30
0.0
340
197F
213
0.0
223
-12.5
233
0.0
1001
ACAD
1000
DSTYLE
1002
{
1070
    41
1040
20.0
1070
    44
1040
0.5
1070
    73
1070
     0
1070
    74
1070
     0
1070
    77
1070
     0
1070
   140
1040
25.0
1070
   147
1040
0.5
1070
   176
1070
     1
1070
   177
1070
     1
1070
   178
1070
     1
1070
   271
1070
     0
1070
   272
1070
     0
1070
   279
1070
     2
1070
   340
1005
23
1002
}
  0
MTEXT
  5
197F
102
{ACAD_REACTORS
330
197E
102
}
330
1E
100
AcDbEntity
  8
図面
 62
     1
100
AcDbMText
 10
14094.87755696437
 20
7889.387470029565
 30
0.0
 40
25.0
 41
0.0
 46
0.0
 71
     1
 72
     1
  1
通信ケーブルコネクター他　　×4
  7
TextStyle01
 73
     1
 44
1.0
  0
LEADER
  5
1980
330
1E
100
AcDbEntity
  8
図面
100
AcDbLeader
  3
Standard
 73
     0
 40
25.0
 41
80.83333333333334
 76
     3
 10
14482.91723816815
 20
7250.741409317328
 30
0.0
 10
14318.47496339595
 20
7449.875804830081
 30
0.0
 10
14291.05632851682
 20
7449.875804830081
 30
0.0
340
1981
213
0.0
223
12.5
233
0.0
1001
ACAD
1000
DSTYLE
1002
{
1070
    41
1040
20.0
1070
    44
1040
0.5
1070
    73
1070
     0
1070
    74
1070
     0
1070
    77
1070
     0
1070
   140
1040
25.0
1070
   147
1040
0.5
1070
   176
1070
     1
1070
   177
1070
     1
1070
   178
1070
     1
1070
   271
1070
     0
1070
   272
1070
     0
1070
   279
1070
     2
1070
   340
1005
23
1002
}
  0
MTEXT
  5
1981
102
{ACAD_REACTORS
330
1980
102
}
330
1E
100
AcDbEntity
  8
図面
 62
     1
100
AcDbMText
 10
14290.55632851682
 20
7437.375804830081
 30
0.0
 40
25.0
 41
0.0
 46
0.0
 71
     9
 72
     1
  1
油量計
  7
TextStyle01
 73
     1
 44
1.0
  0
LEADER
  5
1983
330
1E
100
AcDbEntity
  8
図面
100
AcDbLeader
  3
Standard
 73
     0
 74
     0
 40
25.0
 41
255.8333333333333
 76
     3
 10
15788.56913533935
 20
7714.360385774326
 30
0.0
 10
15688.33512045176
 20
7880.953042142275
 30
0.0
 10
15742.44173177017
 20
7880.953042142276
 30
0.0
340
1984
213
-13.96347889843128
223
-12.5
233
0.0
1001
ACAD
1000
DSTYLE
1002
{
1070
    41
1040
20.0
1070
    44
1040
0.5
1070
    73
1070
     0
1070
    74
1070
     0
1070
    77
1070
     0
1070
   140
1040
25.0
1070
   147
1040
0.5
1070
   176
1070
     1
1070
   177
1070
     1
1070
   178
1070
     1
1070
   271
1070
     0
1070
   272
1070
     0
1070
   279
1070
     2
1070
   340
1005
23
1002
}
  0
MTEXT
  5
1984
102
{ACAD_REACTORS
330
1983
102
}
330
1E
100
AcDbEntity
  8
図面
 62
     1
100
AcDbMText
 10
15756.9052106686
 20
7893.453042142276
 30
0.0
 40
25.0
 41
0.0
 46
0.0
 71
     1
 72
     1
  1
ホース接続ポート口
  7
TextStyle01
 73
     1
 44
1.0
  0
ARC
  5
1995
330
1E
100
AcDbEntity
  8
0
100
AcDbCircle
 10
13624.91726711251
 20
7882.741415033885
 30
0.0
 40
5.000000000000005
100
AcDbArc
 50
180.0
 51
0.0
  0
ARC
  5
1996
330
1E
100
AcDbEntity
  8
0
100
AcDbCircle
 10
13624.91726711251
 20
7897.741415017217
 30
0.0
 40
5.000000000000005
100
AcDbArc
 50
0.0
 51
180.0
  0
LINE
  5
1997
330
1E
100
AcDbEntity
  8
0
100
AcDbLine
 10
13593.91723191815
 20
7826.74139681733
 30
0.0
 11
13681.91724441815
 21
7826.74139681733
 31
0.0
  0
LINE
  5
1998
330
1E
100
AcDbEntity
  8
0
100
AcDbLine
 10
13596.91725066815
 20
7868.241396817328
 30
0.0
 11
13678.91726316815
 21
7868.241396817328
 31
0.0
  0
LINE
  5
1999
330
1E
100
AcDbEntity
  8
0
100
AcDbLine
 10
13596.91725066815
 20
7870.241421817327
 30
0.0
 11
13678.91726316815
 21
7870.241421817327
 31
0.0
  0
LINE
  5
199A
330
1E
100
AcDbEntity
  8
0
100
AcDbLine
 10
13607.91723816815
 20
7909.741409317328
 30
0.0
 11
13667.91723816815
 21
7909.741409317328
 31
0.0
  0
LINE
  5
199B
330
1E
100
AcDbEntity
  8
0
100
AcDbLine
 10
13593.91723191815
 20
7824.741409317328
 30
0.0
 11
13681.91724441815
 21
7824.741409317328
 31
0.0
  0
ARC
  5
199C
330
1E
100
AcDbEntity
  8
0
100
AcDbCircle
 10
13609.91726711251
 20
7882.741415033885
 30
0.0
 40
4.000000000000004
100
AcDbArc
 50
180.0
 51
0.0
  0
ARC
  5
199D
330
1E
100
AcDbEntity
  8
0
100
AcDbCircle
 10
13609.91726711251
 20
7897.741415017217
 30
0.0
 40
4.000000000000004
100
AcDbArc
 50
0.0
 51
180.0
  0
LINE
  5
199E
330
1E
100
AcDbEntity
  8
0
100
AcDbLine
 10
13619.91723816815
 20
7897.741409317328
 30
0.0
 11
13619.91723816815
 21
7882.741409317328
 31
0.0
  0
LINE
  5
199F
330
1E
100
AcDbEntity
  8
0
100
AcDbLine
 10
13613.91723816815
 20
7897.741409317328
 30
0.0
 11
13613.91723816815
 21
7882.741409317328
 31
0.0
  0
LINE
  5
19A0
330
1E
100
AcDbEntity
  8
0
100
AcDbLine
 10
13605.91725066815
 20
7897.741409317328
 30
0.0
 11
13605.91725066815
 21
7882.741409317328
 31
0.0
  0
LINE
  5
19A1
330
1E
100
AcDbEntity
  8
0
100
AcDbLine
 10
13607.91723816815
 20
7826.74139681733
 30
0.0
 11
13607.91723816815
 21
7868.241396817328
 31
0.0
  0
LINE
  5
19A2
330
1E
100
AcDbEntity
  8
0
100
AcDbLine
 10
13593.91723191815
 20
7824.741409317328
 30
0.0
 11
13593.91723191815
 21
7826.74139681733
 31
0.0
  0
LINE
  5
19A3
330
1E
100
AcDbEntity
  8
0
100
AcDbLine
 10
13596.91725066815
 20
7870.241421817327
 30
0.0
 11
13596.91725066815
 21
7868.241396817328
 31
0.0
  0
LINE
  5
19A4
330
1E
100
AcDbEntity
  8
0
100
AcDbLine
 10
13597.91726316815
 20
7899.741396817328
 30
0.0
 11
13597.91726316815
 21
7870.241421817327
 31
0.0
  0
LINE
  5
19A5
330
1E
100
AcDbEntity
  8
0
100
AcDbLine
 10
13597.91726316815
 20
7899.741396817328
 30
0.0
 11
13607.91723816815
 21
7909.741409317328
 31
0.0
  0
LINE
  5
19A6
330
1E
100
AcDbEntity
  8
0
100
AcDbLine
 10
13613.29226316815
 20
7899.741396817328
 30
0.0
 11
13620.29223816815
 21
7899.741396817328
 31
0.0
  0
LINE
  5
19A7
330
1E
100
AcDbEntity
  8
0
100
AcDbLine
 10
13597.91726316815
 20
7899.741396817328
 30
0.0
 11
13606.41723816815
 21
7899.741396817328
 31
0.0
  0
LINE
  5
19A8
330
1E
100
AcDbEntity
  8
HOJO_0
100
AcDbLine
 10
13637.91723816815
 20
7909.741409317328
 30
0.0
 11
13637.91723816815
 21
7858.241421817327
 31
0.0
  0
ARC
  5
19A9
330
1E
100
AcDbEntity
  8
0
100
AcDbCircle
 10
13665.9172671125
 20
7882.741415033885
 30
0.0
 40
4.000000000000004
100
AcDbArc
 50
180.0
 51
0.0
  0
ARC
  5
19AA
330
1E
100
AcDbEntity
  8
0
100
AcDbCircle
 10
13665.9172671125
 20
7897.741415017217
 30
0.0
 40
4.000000000000004
100
AcDbArc
 50
0.0
 51
180.0
  0
ARC
  5
19AB
330
1E
100
AcDbEntity
  8
0
100
AcDbCircle
 10
13650.9172671125
 20
7897.741415017217
 30
0.0
 40
5.000000000000005
100
AcDbArc
 50
0.0
 51
180.0
  0
ARC
  5
19AC
330
1E
100
AcDbEntity
  8
0
100
AcDbCircle
 10
13650.9172671125
 20
7882.741415033885
 30
0.0
 40
5.000000000000005
100
AcDbArc
 50
180.0
 51
0.0
  0
LINE
  5
19AD
330
1E
100
AcDbEntity
  8
0
100
AcDbLine
 10
13667.91723816815
 20
7826.74139681733
 30
0.0
 11
13667.91723816815
 21
7868.241396817328
 31
0.0
  0
LINE
  5
19AE
330
1E
100
AcDbEntity
  8
0
100
AcDbLine
 10
13645.91726316815
 20
7897.741409317328
 30
0.0
 11
13645.91726316815
 21
7882.741409317328
 31
0.0
  0
LINE
  5
19AF
330
1E
100
AcDbEntity
  8
0
100
AcDbLine
 10
13655.91723816815
 20
7897.741409317328
 30
0.0
 11
13655.91723816815
 21
7882.741409317328
 31
0.0
  0
LINE
  5
19B0
330
1E
100
AcDbEntity
  8
0
100
AcDbLine
 10
13661.91723816815
 20
7897.741409317328
 30
0.0
 11
13661.91723816815
 21
7882.741409317328
 31
0.0
  0
LINE
  5
19B1
330
1E
100
AcDbEntity
  8
0
100
AcDbLine
 10
13669.91726316815
 20
7897.741409317328
 30
0.0
 11
13669.91726316815
 21
7882.741409317328
 31
0.0
  0
LINE
  5
19B2
330
1E
100
AcDbEntity
  8
0
100
AcDbLine
 10
13662.54225066815
 20
7899.741396817328
 30
0.0
 11
13655.54223816815
 21
7899.741396817328
 31
0.0
  0
LINE
  5
19B3
330
1E
100
AcDbEntity
  8
0
100
AcDbLine
 10
13629.91725066815
 20
7897.741409317328
 30
0.0
 11
13629.91725066815
 21
7882.741409317328
 31
0.0
  0
LINE
  5
19B4
330
1E
100
AcDbEntity
  8
0
100
AcDbLine
 10
13681.91724441815
 20
7824.741409317328
 30
0.0
 11
13681.91724441815
 21
7826.74139681733
 31
0.0
  0
LINE
  5
19B5
330
1E
100
AcDbEntity
  8
0
100
AcDbLine
 10
13678.91726316815
 20
7870.241421817327
 30
0.0
 11
13678.91726316815
 21
7868.241396817328
 31
0.0
  0
LINE
  5
19B6
330
1E
100
AcDbEntity
  8
0
100
AcDbLine
 10
13677.91725066815
 20
7899.741396817328
 30
0.0
 11
13677.91725066815
 21
7870.241421817327
 31
0.0
  0
LINE
  5
19B7
330
1E
100
AcDbEntity
  8
0
100
AcDbLine
 10
13677.91725066815
 20
7899.741396817328
 30
0.0
 11
13667.91723816815
 21
7909.741409317328
 31
0.0
  0
LINE
  5
19B8
330
1E
100
AcDbEntity
  8
0
100
AcDbLine
 10
13669.29225066815
 20
7899.741396817328
 30
0.0
 11
13677.91725066815
 21
7899.741396817328
 31
0.0
  0
LINE
  5
19B9
330
1E
100
AcDbEntity
  8
0
100
AcDbLine
 10
13629.41726316815
 20
7899.741396817328
 30
0.0
 11
13646.29226316815
 21
7899.741396817328
 31
0.0
  0
ARC
  5
19BF
330
1E
100
AcDbEntity
  8
0
100
AcDbCircle
 10
16094.91726711251
 20
7882.741415033885
 30
0.0
 40
5.000000000000005
100
AcDbArc
 50
180.0
 51
0.0
  0
ARC
  5
19C0
330
1E
100
AcDbEntity
  8
0
100
AcDbCircle
 10
16094.91726711251
 20
7897.741415017217
 30
0.0
 40
5.000000000000005
100
AcDbArc
 50
0.0
 51
180.0
  0
LINE
  5
19C1
330
1E
100
AcDbEntity
  8
0
100
AcDbLine
 10
16063.91723191815
 20
7826.74139681733
 30
0.0
 11
16151.91724441815
 21
7826.74139681733
 31
0.0
  0
LINE
  5
19C2
330
1E
100
AcDbEntity
  8
0
100
AcDbLine
 10
16066.91725066815
 20
7868.241396817328
 30
0.0
 11
16148.91726316815
 21
7868.241396817328
 31
0.0
  0
LINE
  5
19C3
330
1E
100
AcDbEntity
  8
0
100
AcDbLine
 10
16066.91725066815
 20
7870.241421817327
 30
0.0
 11
16148.91726316815
 21
7870.241421817327
 31
0.0
  0
LINE
  5
19C4
330
1E
100
AcDbEntity
  8
0
100
AcDbLine
 10
16077.91723816815
 20
7909.741409317328
 30
0.0
 11
16137.91723816815
 21
7909.741409317328
 31
0.0
  0
LINE
  5
19C5
330
1E
100
AcDbEntity
  8
0
100
AcDbLine
 10
16063.91723191815
 20
7824.741409317328
 30
0.0
 11
16151.91724441815
 21
7824.741409317328
 31
0.0
  0
ARC
  5
19C6
330
1E
100
AcDbEntity
  8
0
100
AcDbCircle
 10
16079.91726711251
 20
7882.741415033885
 30
0.0
 40
4.000000000000004
100
AcDbArc
 50
180.0
 51
0.0
  0
ARC
  5
19C7
330
1E
100
AcDbEntity
  8
0
100
AcDbCircle
 10
16079.91726711251
 20
7897.741415017217
 30
0.0
 40
4.000000000000004
100
AcDbArc
 50
0.0
 51
180.0
  0
LINE
  5
19C8
330
1E
100
AcDbEntity
  8
0
100
AcDbLine
 10
16089.91723816815
 20
7897.741409317328
 30
0.0
 11
16089.91723816815
 21
7882.741409317328
 31
0.0
  0
LINE
  5
19C9
330
1E
100
AcDbEntity
  8
0
100
AcDbLine
 10
16083.91723816815
 20
7897.741409317328
 30
0.0
 11
16083.91723816815
 21
7882.741409317328
 31
0.0
  0
LINE
  5
19CA
330
1E
100
AcDbEntity
  8
0
100
AcDbLine
 10
16075.91725066815
 20
7897.741409317328
 30
0.0
 11
16075.91725066815
 21
7882.741409317328
 31
0.0
  0
LINE
  5
19CB
330
1E
100
AcDbEntity
  8
0
100
AcDbLine
 10
16077.91723816815
 20
7826.74139681733
 30
0.0
 11
16077.91723816815
 21
7868.241396817328
 31
0.0
  0
LINE
  5
19CC
330
1E
100
AcDbEntity
  8
0
100
AcDbLine
 10
16063.91723191815
 20
7824.741409317328
 30
0.0
 11
16063.91723191815
 21
7826.74139681733
 31
0.0
  0
LINE
  5
19CD
330
1E
100
AcDbEntity
  8
0
100
AcDbLine
 10
16066.91725066815
 20
7870.241421817327
 30
0.0
 11
16066.91725066815
 21
7868.241396817328
 31
0.0
  0
LINE
  5
19CE
330
1E
100
AcDbEntity
  8
0
100
AcDbLine
 10
16067.91726316815
 20
7899.741396817328
 30
0.0
 11
16067.91726316815
 21
7870.241421817327
 31
0.0
  0
LINE
  5
19CF
330
1E
100
AcDbEntity
  8
0
100
AcDbLine
 10
16067.91726316815
 20
7899.741396817328
 30
0.0
 11
16077.91723816815
 21
7909.741409317328
 31
0.0
  0
LINE
  5
19D0
330
1E
100
AcDbEntity
  8
0
100
AcDbLine
 10
16083.29226316815
 20
7899.741396817328
 30
0.0
 11
16090.29223816815
 21
7899.741396817328
 31
0.0
  0
LINE
  5
19D1
330
1E
100
AcDbEntity
  8
0
100
AcDbLine
 10
16067.91726316815
 20
7899.741396817328
 30
0.0
 11
16076.41723816815
 21
7899.741396817328
 31
0.0
  0
LINE
  5
19D2
330
1E
100
AcDbEntity
  8
HOJO_0
100
AcDbLine
 10
16107.91723816815
 20
7909.741409317328
 30
0.0
 11
16107.91723816815
 21
7858.241421817327
 31
0.0
  0
ARC
  5
19D3
330
1E
100
AcDbEntity
  8
0
100
AcDbCircle
 10
16135.9172671125
 20
7882.741415033885
 30
0.0
 40
4.000000000000004
100
AcDbArc
 50
180.0
 51
0.0
  0
ARC
  5
19D4
330
1E
100
AcDbEntity
  8
0
100
AcDbCircle
 10
16135.9172671125
 20
7897.741415017217
 30
0.0
 40
4.000000000000004
100
AcDbArc
 50
0.0
 51
180.0
  0
ARC
  5
19D5
330
1E
100
AcDbEntity
  8
0
100
AcDbCircle
 10
16120.9172671125
 20
7897.741415017217
 30
0.0
 40
5.000000000000005
100
AcDbArc
 50
0.0
 51
180.0
  0
ARC
  5
19D6
330
1E
100
AcDbEntity
  8
0
100
AcDbCircle
 10
16120.9172671125
 20
7882.741415033885
 30
0.0
 40
5.000000000000005
100
AcDbArc
 50
180.0
 51
0.0
  0
LINE
  5
19D7
330
1E
100
AcDbEntity
  8
0
100
AcDbLine
 10
16137.91723816815
 20
7826.74139681733
 30
0.0
 11
16137.91723816815
 21
7868.241396817328
 31
0.0
  0
LINE
  5
19D8
330
1E
100
AcDbEntity
  8
0
100
AcDbLine
 10
16115.91726316815
 20
7897.741409317328
 30
0.0
 11
16115.91726316815
 21
7882.741409317328
 31
0.0
  0
LINE
  5
19D9
330
1E
100
AcDbEntity
  8
0
100
AcDbLine
 10
16125.91723816815
 20
7897.741409317328
 30
0.0
 11
16125.91723816815
 21
7882.741409317328
 31
0.0
  0
LINE
  5
19DA
330
1E
100
AcDbEntity
  8
0
100
AcDbLine
 10
16131.91723816815
 20
7897.741409317328
 30
0.0
 11
16131.91723816815
 21
7882.741409317328
 31
0.0
  0
LINE
  5
19DB
330
1E
100
AcDbEntity
  8
0
100
AcDbLine
 10
16139.91726316815
 20
7897.741409317328
 30
0.0
 11
16139.91726316815
 21
7882.741409317328
 31
0.0
  0
LINE
  5
19DC
330
1E
100
AcDbEntity
  8
0
100
AcDbLine
 10
16132.54225066815
 20
7899.741396817328
 30
0.0
 11
16125.54223816815
 21
7899.741396817328
 31
0.0
  0
LINE
  5
19DD
330
1E
100
AcDbEntity
  8
0
100
AcDbLine
 10
16099.91725066815
 20
7897.741409317328
 30
0.0
 11
16099.91725066815
 21
7882.741409317328
 31
0.0
  0
LINE
  5
19DE
330
1E
100
AcDbEntity
  8
0
100
AcDbLine
 10
16151.91724441815
 20
7824.741409317328
 30
0.0
 11
16151.91724441815
 21
7826.74139681733
 31
0.0
  0
LINE
  5
19DF
330
1E
100
AcDbEntity
  8
0
100
AcDbLine
 10
16148.91726316815
 20
7870.241421817327
 30
0.0
 11
16148.91726316815
 21
7868.241396817328
 31
0.0
  0
LINE
  5
19E0
330
1E
100
AcDbEntity
  8
0
100
AcDbLine
 10
16147.91725066815
 20
7899.741396817328
 30
0.0
 11
16147.91725066815
 21
7870.241421817327
 31
0.0
  0
LINE
  5
19E1
330
1E
100
AcDbEntity
  8
0
100
AcDbLine
 10
16147.91725066815
 20
7899.741396817328
 30
0.0
 11
16137.91723816815
 21
7909.741409317328
 31
0.0
  0
LINE
  5
19E2
330
1E
100
AcDbEntity
  8
0
100
AcDbLine
 10
16139.29225066815
 20
7899.741396817328
 30
0.0
 11
16147.91725066815
 21
7899.741396817328
 31
0.0
  0
LINE
  5
19E3
330
1E
100
AcDbEntity
  8
0
100
AcDbLine
 10
16099.41726316815
 20
7899.741396817328
 30
0.0
 11
16116.29226316815
 21
7899.741396817328
 31
0.0
  0
LEADER
  5
19E4
330
1E
100
AcDbEntity
  8
図面
100
AcDbLeader
  3
Standard
 73
     0
 74
     0
 40
25.0
 41
76.48809523809524
 76
     3
 10
13667.91723816815
 20
7909.741409317328
 30
0.0
 10
13690.95092489891
 20
7947.269054642871
 30
0.0
 10
13716.30861391302
 20
7947.269054642871
 30
0.0
340
19E5
213
0.0
223
-12.5
233
0.0
1001
ACAD
1000
DSTYLE
1002
{
1070
    41
1040
20.0
1070
    44
1040
0.5
1070
    73
1070
     0
1070
    74
1070
     0
1070
    77
1070
     0
1070
   140
1040
25.0
1070
   147
1040
0.5
1070
   176
1070
     1
1070
   177
1070
     1
1070
   178
1070
     1
1070
   271
1070
     0
1070
   272
1070
     0
1070
   279
1070
     2
1070
   340
1005
23
1002
}
  0
MTEXT
  5
19E5
102
{ACAD_REACTORS
330
19E4
102
}
330
1E
100
AcDbEntity
  8
図面
 62
     1
100
AcDbMText
 10
13716.80861391302
 20
7959.769054642871
 30
0.0
 40
25.0
 41
0.0
 46
0.0
 71
     1
 72
     1
  1
給油口
  7
TextStyle01
 73
     1
 44
1.0
  0
DIMENSION
  5
19E6
330
1E
100
AcDbEntity
  8
図面
100
AcDbDimension
280
     0
  2
*D5
 10
13353.82924527427
 20
7909.741409317328
 30
0.0
 11
13340.82924527427
 21
7387.24140931733
 31
0.0
 70
    32
 71
     5
 42
1045.0
 73
     0
 74
     0
 75
     0
  3
Standard
100
AcDbAlignedDimension
 13
13535.35473816815
 23
6864.741409317328
 33
0.0
 14
13607.91723816815
 24
7909.741409317328
 34
0.0
 50
90.0
100
AcDbRotatedDimension
1001
ACAD
1000
DSTYLE
1002
{
1070
    41
1040
20.0
1070
    44
1040
0.5
1070
    73
1070
     0
1070
    74
1070
     0
1070
    77
1070
     1
1070
   140
1040
25.0
1070
   147
1040
0.5
1070
   176
1070
     1
1070
   177
1070
     1
1070
   178
1070
     1
1070
   271
1070
     0
1070
   272
1070
     0
1070
   279
1070
     2
1070
   340
1005
23
1002
}
  0
MTEXT
  5
1D00
330
1E
100
AcDbEntity
  8
図面
 62
     1
100
AcDbMText
 10
23532.3039714117
 20
6916.884719251888
 30
0.0
 40
25.0
 41
0.0
 46
0.0
 71
     9
 72
     1
  1
\A1;
  7
TextStyle01
 73
     1
 44
1.0
  0
MTEXT
  5
1D02
102
{ACAD_REACTORS
102
}
330
1E
100
AcDbEntity
  8
図面
 62
     1
100
AcDbMText
 10
23570.02093977929
 20
6941.884719251888
 30
0.0
 40
25.0
 41
0.0
 46
0.0
 71
     1
 72
     1
  1
\A1;
  7
TextStyle01
 73
     1
 44
1.0
  0
MTEXT
  5
1D05
102
{ACAD_REACTORS
102
}
330
1E
100
AcDbEntity
  8
図面
 62
     1
100
AcDbMText
 10
23570.02093977929
 20
6941.884719251888
 30
0.0
 40
25.0
 41
0.0
 46
0.0
 71
     1
 72
     1
  1
\A1;
  7
TextStyle01
 73
     1
 44
1.0
  0
MTEXT
  5
1D07
102
{ACAD_REACTORS
102
}
330
1E
100
AcDbEntity
  8
図面
 62
     1
100
AcDbMText
 10
23570.02093977929
 20
6941.884719251888
 30
0.0
 40
25.0
 41
0.0
 46
0.0
 71
     1
 72
     1
  1
\A1;
  7
TextStyle01
 73
     1
 44
1.0
  0
MTEXT
  5
1D9D
330
1E
100
AcDbEntity
  8
図面
100
AcDbMText
 10
16180.03611664297
 20
6579.516797073963
 30
0.0
 40
40.0
 41
630.0
 46
40.0
 71
     1
 72
     5
  1
{自動制御油圧ポンプユニット}
 73
     1
 44
1.0
  0
MTEXT
  5
1D9E
330
1E
100
AcDbEntity
  8
図面
100
AcDbMText
 10
16279.1522959124
 20
6516.257162994487
 30
0.0
 40
40.0
 41
627.9999999999982
 46
40.0
 71
     1
 72
     5
  1
{ＡＩＰ－2.2}
 73
     1
 44
1.0
  0
ENDSEC
  0
SECTION
  2
OBJECTS
  0
DICTIONARY
  5
C
330
0
100
AcDbDictionary
281
     1
  3
ACAD_COLOR
350
1F9
  3
ACAD_DETAILVIEWSTYLE
350
1FEC
  3
ACAD_GROUP
350
D
  3
ACAD_LAYOUT
350
19
  3
ACAD_MATERIAL
350
1F8
  3
ACAD_MLEADERSTYLE
350
1E9C
  3
ACAD_MLINESTYLE
350
16
  3
ACAD_PLOTSETTINGS
350
18
  3
ACAD_PLOTSTYLENAME
350
E
  3
ACAD_SCALELIST
350
1E7A
  3
ACAD_SECTIONVIEWSTYLE
350
1FED
  3
ACAD_TABLESTYLE
350
1E78
  3
ACAD_VISUALSTYLE
350
1E67
  3
AcadDim
350
1E42
  3
ACDB_RECOMPOSE_DATA
350
2002
  3
AcDbVariableDictionary
350
1FD7
  3
APPDATA
350
1FE7
  0
SUN
  5
1FE8
330
1E4D
100
AcDbSun
 90
        1
290
     0
 63
     7
421
 16777215
 40
1.0
291
     1
 91
  2455826
 92
 54000000
292
     0
 70
     2
 71
   256
280
     1
  0
DICTIONARY
  5
1FB3
330
10
100
AcDbDictionary
280
     1
281
     1
  3
ADSK_XREC_LAYER_RECONCILED
360
1FB4
  0
DICTIONARY
  5
1FB5
330
16B
100
AcDbDictionary
280
     1
281
     1
  3
ADSK_XREC_LAYER_RECONCILED
360
1FB6
  0
DICTIONARY
  5
1FB7
330
16C
100
AcDbDictionary
280
     1
281
     1
  3
ADSK_XREC_LAYER_RECONCILED
360
1FB8
  0
DICTIONARY
  5
1FB9
330
1AB
100
AcDbDictionary
280
     1
281
     1
  3
ADSK_XREC_LAYER_RECONCILED
360
1FBA
  0
DICTIONARY
  5
1FBB
330
1EB
100
AcDbDictionary
280
     1
281
     1
  3
ADSK_XREC_LAYER_RECONCILED
360
1FBC
  0
DICTIONARY
  5
1FBD
330
375
100
AcDbDictionary
280
     1
281
     1
  3
ADSK_XREC_LAYER_RECONCILED
360
1FBE
  0
DICTIONARY
  5
1FBF
330
1A35
100
AcDbDictionary
280
     1
281
     1
  3
ADSK_XREC_LAYER_RECONCILED
360
1FC0
  0
DICTIONARY
  5
1FC1
330
1C60
100
AcDbDictionary
280
     1
281
     1
  3
ADSK_XREC_LAYER_RECONCILED
360
1FC2
  0
DICTIONARY
  5
1FEE
330
1E
100
AcDbDictionary
280
     1
281
     1
  3
DIM_BOUNDING_BOXES_V1
360
1FEF
  0
DICTIONARY
  5
1F9
102
{ACAD_REACTORS
330
C
102
}
330
C
100
AcDbDictionary
281
     1
  0
DICTIONARY
  5
1FEC
102
{ACAD_REACTORS
330
C
102
}
330
C
100
AcDbDictionary
281
     1
  0
DICTIONARY
  5
D
102
{ACAD_REACTORS
330
C
102
}
330
C
100
AcDbDictionary
281
     1
  0
DICTIONARY
  5
19
102
{ACAD_REACTORS
330
C
102
}
330
C
100
AcDbDictionary
281
     1
  3
Model
350
21
  3
ﾚｲｱｳﾄ1
350
1D
  0
DICTIONARY
  5
1F8
102
{ACAD_REACTORS
330
C
102
}
330
C
100
AcDbDictionary
281
     1
  3
ByBlock
350
1E57
  3
ByLayer
350
1E4F
  3
Global
350
1E5F
  0
DICTIONARY
  5
1E9C
102
{ACAD_REACTORS
330
C
102
}
330
C
100
AcDbDictionary
281
     1
  3
Standard
350
1E9D
  0
DICTIONARY
  5
16
102
{ACAD_REACTORS
330
C
102
}
330
C
100
AcDbDictionary
281
     1
  3
Standard
350
17
  0
DICTIONARY
  5
18
102
{ACAD_REACTORS
330
C
102
}
330
C
100
AcDbDictionary
281
     1
  0
ACDBDICTIONARYWDFLT
  5
E
102
{ACAD_REACTORS
330
C
102
}
330
C
100
AcDbDictionary
281
     1
  3
Normal
350
F
100
AcDbDictionaryWithDefault
340
F
  0
DICTIONARY
  5
1E7A
102
{ACAD_REACTORS
330
C
102
}
330
C
100
AcDbDictionary
281
     1
  3
A0
350
1E7B
  3
A1
350
1E7C
  3
A2
350
1E7D
  3
A3
350
1E7E
  3
A4
350
1E7F
  3
A5
350
1E80
  3
A6
350
1E81
  3
A7
350
1E82
  3
A8
350
1E83
  3
A9
350
1E84
  3
B0
350
1E85
  3
B1
350
1E86
  3
B2
350
1E87
  3
B3
350
1E88
  3
B4
350
1E89
  3
B5
350
1E8A
  3
B6
350
1E8B
  3
B7
350
1E8C
  3
B8
350
1E8D
  3
B9
350
1E8E
  3
C0
350
1E8F
  3
C1
350
1E90
  3
C2
350
1E91
  3
C3
350
1E92
  3
C4
350
1E93
  3
C5
350
1E94
  3
C6
350
1E95
  3
C7
350
1E96
  3
C8
350
1E97
  3
C9
350
1E98
  3
D0
350
1E99
  3
D1
350
1E9A
  3
D2
350
1E9B
  0
DICTIONARY
  5
1FED
102
{ACAD_REACTORS
330
C
102
}
330
C
100
AcDbDictionary
281
     1
  0
DICTIONARY
  5
1E78
102
{ACAD_REACTORS
330
C
102
}
330
C
100
AcDbDictionary
281
     1
  3
Standard
350
1E79
  0
DICTIONARY
  5
1E67
102
{ACAD_REACTORS
330
C
102
}
330
C
100
AcDbDictionary
281
     1
  3
2dWireframe
350
1E6D
  3
3D Hidden
350
1E6F
  3
3dWireframe
350
1E6E
  3
Basic
350
1E6C
  3
Brighten
350
1E73
  3
ColorChange
350
1E77
  3
Conceptual
350
1E70
  3
Dim
350
1E72
  3
EdgeColorOff
350
1FE1
  3
Facepattern
350
1E76
  3
Flat
350
1E68
  3
FlatWithEdges
350
1E69
  3
Gouraud
350
1E6A
  3
GouraudWithEdges
350
1E6B
  3
Hidden
350
1FDE
  3
JitterOff
350
1FDF
  3
Linepattern
350
1E75
  3
OverhangOff
350
1FE0
  3
Realistic
350
1E71
  3
Shaded
350
1FE6
  3
Shaded with edges
350
1FE5
  3
Shades of Gray
350
1FE2
  3
Sketchy
350
1FE3
  3
Thicken
350
1E74
  3
Wireframe
350
1FDD
  3
X-Ray
350
1FE4
  0
XRECORD
  5
1E42
102
{ACAD_REACTORS
330
C
102
}
330
C
100
AcDbXrecord
280
     1
 90
   990106
  3

 60
     0
 61
     0
 62
     1
 63
     3
 64
     0
 65
     0
 66
     0
 67
     3
 68
     1
 69
     0
 70
     0
 71
     0
 72
     0
 40
0.0
170
     0
340
0
  0
XRECORD
  5
2002
102
{ACAD_REACTORS
330
C
102
}
330
C
100
AcDbXrecord
280
     1
 90
        1
330
1E79
  0
DICTIONARY
  5
1FD7
102
{ACAD_REACTORS
330
C
102
}
330
C
100
AcDbDictionary
281
     1
  3
CANNOSCALE
350
1FDB
  3
CMLEADERSTYLE
350
1FD9
  3
CTABLESTYLE
350
1FD8
  3
LIGHTINGUNITS
350
1FDC
  3
MSLTSCALE
350
1FDA
  3
XCLIPFRAME
350
1FEB
  0
DICTIONARY
  5
1FE7
102
{ACAD_REACTORS
330
C
102
}
330
C
100
AcDbDictionary
281
     1
  0
XRECORD
  5
1FB4
102
{ACAD_REACTORS
330
1FB3
102
}
330
1FB3
100
AcDbXrecord
280
     1
290
     1
  0
XRECORD
  5
1FB6
102
{ACAD_REACTORS
330
1FB5
102
}
330
1FB5
100
AcDbXrecord
280
     1
290
     1
  0
XRECORD
  5
1FB8
102
{ACAD_REACTORS
330
1FB7
102
}
330
1FB7
100
AcDbXrecord
280
     1
290
     1
  0
XRECORD
  5
1FBA
102
{ACAD_REACTORS
330
1FB9
102
}
330
1FB9
100
AcDbXrecord
280
     1
290
     1
  0
XRECORD
  5
1FBC
102
{ACAD_REACTORS
330
1FBB
102
}
330
1FBB
100
AcDbXrecord
280
     1
290
     1
  0
XRECORD
  5
1FBE
102
{ACAD_REACTORS
330
1FBD
102
}
330
1FBD
100
AcDbXrecord
280
     1
290
     1
  0
XRECORD
  5
1FC0
102
{ACAD_REACTORS
330
1FBF
102
}
330
1FBF
100
AcDbXrecord
280
     1
290
     1
  0
XRECORD
  5
1FC2
102
{ACAD_REACTORS
330
1FC1
102
}
330
1FC1
100
AcDbXrecord
280
     1
290
     1
  0
DICTIONARY
  5
1FEF
102
{ACAD_REACTORS
330
1FEE
102
}
330
1FEE
100
AcDbDictionary
281
     1
  0
LAYOUT
  5
21
102
{ACAD_REACTORS
330
19
102
}
330
19
100
AcDbPlotSettings
  1

  2
倉庫ﾌﾟﾘﾝﾀ.pc3
  4
A3
  6

 40
5.873749732971191
 41
5.873747825622559
 42
5.873748779296875
 43
5.873748779296875
 44
296.9259948730469
 45
419.9466552734375
 46
-5.92
 47
-5.91
 48
-210.0
 49
-148.5
140
210.0
141
148.5
142
1.0
143
1.0
 70
 11940
 72
     1
 73
     1
 74
     1
  7

 75
     0
 76
     0
 77
     2
 78
   300
147
1.0
148
210.0064041928747
149
148.5045286792472
100
AcDbLayout
  1
Model
 70
     1
 71
     0
 10
0.0
 20
0.0
 11
12.0
 21
9.0
 12
0.0
 22
0.0
 32
0.0
 14
12779.99925775742
 24
6281.884452965809
 34
0.0
 15
16979.99925775742
 25
9251.884452965809
 35
0.0
146
0.0
 13
0.0
 23
0.0
 33
0.0
 16
1.0
 26
0.0
 36
0.0
 17
0.0
 27
1.0
 37
0.0
 76
     0
330
1E
331
1E4D
  0
LAYOUT
  5
1D
102
{ACAD_REACTORS
330
19
102
}
330
19
100
AcDbPlotSettings
  1

  2
なし
  4

  6

 40
0.0
 41
0.0
 42
0.0
 43
0.0
 44
0.0
 45
0.0
 46
0.0
 47
0.0
 48
0.0
 49
0.0
140
0.0
141
0.0
142
1.0
143
1.0
 70
   688
 72
     0
 73
     0
 74
     5
  7

 75
    16
 76
     0
 77
     2
 78
   300
147
1.0
148
0.0
149
0.0
100
AcDbLayout
  1
ﾚｲｱｳﾄ1
 70
     1
 71
     1
 10
0.0
 20
0.0
 11
12.0
 21
9.0
 12
0.0
 22
0.0
 32
0.0
 14
1.000000000000000E+20
 24
1.000000000000000E+20
 34
1.000000000000000E+20
 15
-1.000000000000000E+20
 25
-1.000000000000000E+20
 35
-1.000000000000000E+20
146
0.0
 13
0.0
 23
0.0
 33
0.0
 16
1.0
 26
0.0
 36
0.0
 17
0.0
 27
1.0
 37
0.0
 76
     0
330
1A
  0
MATERIAL
  5
1E57
102
{ACAD_REACTORS
330
1F8
102
}
330
1F8
100
AcDbMaterial
  1
ByBlock
 72
     0
 73
     2
 43
0.0208333333333333
 43
0.0
 43
0.0
 43
0.0
 43
0.0
 43
0.0208333333333333
 43
0.0
 43
0.0
 43
0.0
 43
0.0
 43
1.0
 43
0.0
 43
0.0
 43
0.0
 43
0.0
 43
1.0
 77
     0
 78
     2
 47
0.0208333333333333
 47
0.0
 47
0.0
 47
0.0
 47
0.0
 47
0.0208333333333333
 47
0.0
 47
0.0
 47
0.0
 47
0.0
 47
1.0
 47
0.0
 47
0.0
 47
0.0
 47
0.0
 47
1.0
171
     0
172
     2
 49
0.0208333333333333
 49
0.0
 49
0.0
 49
0.0
 49
0.0
 49
0.0208333333333333
 49
0.0
 49
0.0
 49
0.0
 49
0.0
 49
1.0
 49
0.0
 49
0.0
 49
0.0
 49
0.0
 49
1.0
175
     0
176
     2
142
0.0208333333333333
142
0.0
142
0.0
142
0.0
142
0.0
142
0.0208333333333333
142
0.0
142
0.0
142
0.0
142
0.0
142
1.0
142
0.0
142
0.0
142
0.0
142
0.0
142
1.0
179
     0
270
     2
144
0.0208333333333333
144
0.0
144
0.0
144
0.0
144
0.0
144
0.0208333333333333
144
0.0
144
0.0
144
0.0
144
0.0
144
1.0
144
0.0
144
0.0
144
0.0
144
0.0
144
1.0
274
     2
147
0.0208333333333333
147
0.0
147
0.0
147
0.0
147
0.0
147
0.0208333333333333
147
0.0
147
0.0
147
0.0
147
0.0
147
1.0
147
0.0
147
0.0
147
0.0
147
0.0
147
1.0
 94
      127
  0
MATERIAL
  5
1E4F
102
{ACAD_REACTORS
330
1F8
102
}
330
1F8
100
AcDbMaterial
  1
ByLayer
 72
     0
 73
     2
 43
0.0208333333333333
 43
0.0
 43
0.0
 43
0.0
 43
0.0
 43
0.0208333333333333
 43
0.0
 43
0.0
 43
0.0
 43
0.0
 43
1.0
 43
0.0
 43
0.0
 43
0.0
 43
0.0
 43
1.0
 77
     0
 78
     2
 47
0.0208333333333333
 47
0.0
 47
0.0
 47
0.0
 47
0.0
 47
0.0208333333333333
 47
0.0
 47
0.0
 47
0.0
 47
0.0
 47
1.0
 47
0.0
 47
0.0
 47
0.0
 47
0.0
 47
1.0
171
     0
172
     2
 49
0.0208333333333333
 49
0.0
 49
0.0
 49
0.0
 49
0.0
 49
0.0208333333333333
 49
0.0
 49
0.0
 49
0.0
 49
0.0
 49
1.0
 49
0.0
 49
0.0
 49
0.0
 49
0.0
 49
1.0
175
     0
176
     2
142
0.0208333333333333
142
0.0
142
0.0
142
0.0
142
0.0
142
0.0208333333333333
142
0.0
142
0.0
142
0.0
142
0.0
142
1.0
142
0.0
142
0.0
142
0.0
142
0.0
142
1.0
179
     0
270
     2
144
0.0208333333333333
144
0.0
144
0.0
144
0.0
144
0.0
144
0.0208333333333333
144
0.0
144
0.0
144
0.0
144
0.0
144
1.0
144
0.0
144
0.0
144
0.0
144
0.0
144
1.0
274
     2
147
0.0208333333333333
147
0.0
147
0.0
147
0.0
147
0.0
147
0.0208333333333333
147
0.0
147
0.0
147
0.0
147
0.0
147
1.0
147
0.0
147
0.0
147
0.0
147
0.0
147
1.0
 94
      127
  0
MATERIAL
  5
1E5F
102
{ACAD_REACTORS
330
1F8
102
}
330
1F8
100
AcDbMaterial
  1
Global
 72
     0
 73
     2
 43
0.0208333333333333
 43
0.0
 43
0.0
 43
0.0
 43
0.0
 43
0.0208333333333333
 43
0.0
 43
0.0
 43
0.0
 43
0.0
 43
1.0
 43
0.0
 43
0.0
 43
0.0
 43
0.0
 43
1.0
 77
     0
 78
     2
 47
0.0208333333333333
 47
0.0
 47
0.0
 47
0.0
 47
0.0
 47
0.0208333333333333
 47
0.0
 47
0.0
 47
0.0
 47
0.0
 47
1.0
 47
0.0
 47
0.0
 47
0.0
 47
0.0
 47
1.0
171
     0
172
     2
 49
0.0208333333333333
 49
0.0
 49
0.0
 49
0.0
 49
0.0
 49
0.0208333333333333
 49
0.0
 49
0.0
 49
0.0
 49
0.0
 49
1.0
 49
0.0
 49
0.0
 49
0.0
 49
0.0
 49
1.0
175
     0
176
     2
142
0.0208333333333333
142
0.0
142
0.0
142
0.0
142
0.0
142
0.0208333333333333
142
0.0
142
0.0
142
0.0
142
0.0
142
1.0
142
0.0
142
0.0
142
0.0
142
0.0
142
1.0
179
     0
270
     2
144
0.0208333333333333
144
0.0
144
0.0
144
0.0
144
0.0
144
0.0208333333333333
144
0.0
144
0.0
144
0.0
144
0.0
144
1.0
144
0.0
144
0.0
144
0.0
144
0.0
144
1.0
274
     2
147
0.0208333333333333
147
0.0
147
0.0
147
0.0
147
0.0
147
0.0208333333333333
147
0.0
147
0.0
147
0.0
147
0.0
147
1.0
147
0.0
147
0.0
147
0.0
147
0.0
147
1.0
 94
      127
  0
MLEADERSTYLE
  5
1E9D
102
{ACAD_REACTORS
330
1E9C
102
}
330
1E9C
100
AcDbMLeaderStyle
179
     2
170
     2
171
     1
172
     0
 90
        2
 40
0.0
 41
0.0
173
     1
 91
-1056964608
340
13
 92
       -2
290
     1
 42
0.09
291
     1
 43
0.36
  3
Standard
341
0
 44
0.18
300

342
11
174
     1
178
     6
175
     1
176
     0
 93
-1056964608
 45
0.18
292
     0
297
     0
 46
0.18
343
0
 94
-1056964608
 47
1.0
 49
1.0
140
1.0
293
     1
141
0.0
294
     1
177
     0
142
1.0
295
     1
296
     0
143
0.125
271
     0
272
     9
273
     9
298
     0
  0
MLINESTYLE
  5
17
102
{ACAD_REACTORS
330
16
102
}
330
16
100
AcDbMlineStyle
  2
STANDARD
 70
     0
  3

 62
   256
 51
90.0
 52
90.0
 71
     2
 49
0.5
 62
   256
  6
BYLAYER
 49
-0.5
 62
   256
  6
BYLAYER
  0
ACDBPLACEHOLDER
  5
F
102
{ACAD_REACTORS
330
E
102
}
330
E
  0
SCALE
  5
1E7B
102
{ACAD_REACTORS
330
1E7A
102
}
330
1E7A
100
AcDbScale
 70
     0
300
1:1
140
1.0
141
1.0
290
     1
  0
SCALE
  5
1E7C
102
{ACAD_REACTORS
330
1E7A
102
}
330
1E7A
100
AcDbScale
 70
     0
300
1:2
140
1.0
141
2.0
290
     0
  0
SCALE
  5
1E7D
102
{ACAD_REACTORS
330
1E7A
102
}
330
1E7A
100
AcDbScale
 70
     0
300
1:4
140
1.0
141
4.0
290
     0
  0
SCALE
  5
1E7E
102
{ACAD_REACTORS
330
1E7A
102
}
330
1E7A
100
AcDbScale
 70
     0
300
1:5
140
1.0
141
5.0
290
     0
  0
SCALE
  5
1E7F
102
{ACAD_REACTORS
330
1E7A
102
}
330
1E7A
100
AcDbScale
 70
     0
300
1:8
140
1.0
141
8.0
290
     0
  0
SCALE
  5
1E80
102
{ACAD_REACTORS
330
1E7A
102
}
330
1E7A
100
AcDbScale
 70
     0
300
1:10
140
1.0
141
10.0
290
     0
  0
SCALE
  5
1E81
102
{ACAD_REACTORS
330
1E7A
102
}
330
1E7A
100
AcDbScale
 70
     0
300
1:16
140
1.0
141
16.0
290
     0
  0
SCALE
  5
1E82
102
{ACAD_REACTORS
330
1E7A
102
}
330
1E7A
100
AcDbScale
 70
     0
300
1:20
140
1.0
141
20.0
290
     0
  0
SCALE
  5
1E83
102
{ACAD_REACTORS
330
1E7A
102
}
330
1E7A
100
AcDbScale
 70
     0
300
1:30
140
1.0
141
30.0
290
     0
  0
SCALE
  5
1E84
102
{ACAD_REACTORS
330
1E7A
102
}
330
1E7A
100
AcDbScale
 70
     0
300
1:40
140
1.0
141
40.0
290
     0
  0
SCALE
  5
1E85
102
{ACAD_REACTORS
330
1E7A
102
}
330
1E7A
100
AcDbScale
 70
     0
300
1:50
140
1.0
141
50.0
290
     0
  0
SCALE
  5
1E86
102
{ACAD_REACTORS
330
1E7A
102
}
330
1E7A
100
AcDbScale
 70
     0
300
1:100
140
1.0
141
100.0
290
     0
  0
SCALE
  5
1E87
102
{ACAD_REACTORS
330
1E7A
102
}
330
1E7A
100
AcDbScale
 70
     0
300
2:1
140
2.0
141
1.0
290
     0
  0
SCALE
  5
1E88
102
{ACAD_REACTORS
330
1E7A
102
}
330
1E7A
100
AcDbScale
 70
     0
300
4:1
140
4.0
141
1.0
290
     0
  0
SCALE
  5
1E89
102
{ACAD_REACTORS
330
1E7A
102
}
330
1E7A
100
AcDbScale
 70
     0
300
8:1
140
8.0
141
1.0
290
     0
  0
SCALE
  5
1E8A
102
{ACAD_REACTORS
330
1E7A
102
}
330
1E7A
100
AcDbScale
 70
     0
300
10:1
140
10.0
141
1.0
290
     0
  0
SCALE
  5
1E8B
102
{ACAD_REACTORS
330
1E7A
102
}
330
1E7A
100
AcDbScale
 70
     0
300
100:1
140
100.0
141
1.0
290
     0
  0
SCALE
  5
1E8C
102
{ACAD_REACTORS
330
1E7A
102
}
330
1E7A
100
AcDbScale
 70
     0
300
1/128" = 1'-0"
140
0.0078125
141
12.0
290
     0
  0
SCALE
  5
1E8D
102
{ACAD_REACTORS
330
1E7A
102
}
330
1E7A
100
AcDbScale
 70
     0
300
1/64" = 1'-0"
140
0.015625
141
12.0
290
     0
  0
SCALE
  5
1E8E
102
{ACAD_REACTORS
330
1E7A
102
}
330
1E7A
100
AcDbScale
 70
     0
300
1/32" = 1'-0"
140
0.03125
141
12.0
290
     0
  0
SCALE
  5
1E8F
102
{ACAD_REACTORS
330
1E7A
102
}
330
1E7A
100
AcDbScale
 70
     0
300
1/16" = 1'-0"
140
0.0625
141
12.0
290
     0
  0
SCALE
  5
1E90
102
{ACAD_REACTORS
330
1E7A
102
}
330
1E7A
100
AcDbScale
 70
     0
300
3/32" = 1'-0"
140
0.09375
141
12.0
290
     0
  0
SCALE
  5
1E91
102
{ACAD_REACTORS
330
1E7A
102
}
330
1E7A
100
AcDbScale
 70
     0
300
1/8" = 1'-0"
140
0.125
141
12.0
290
     0
  0
SCALE
  5
1E92
102
{ACAD_REACTORS
330
1E7A
102
}
330
1E7A
100
AcDbScale
 70
     0
300
3/16" = 1'-0"
140
0.1875
141
12.0
290
     0
  0
SCALE
  5
1E93
102
{ACAD_REACTORS
330
1E7A
102
}
330
1E7A
100
AcDbScale
 70
     0
300
1/4" = 1'-0"
140
0.25
141
12.0
290
     0
  0
SCALE
  5
1E94
102
{ACAD_REACTORS
330
1E7A
102
}
330
1E7A
100
AcDbScale
 70
     0
300
3/8" = 1'-0"
140
0.375
141
12.0
290
     0
  0
SCALE
  5
1E95
102
{ACAD_REACTORS
330
1E7A
102
}
330
1E7A
100
AcDbScale
 70
     0
300
1/2" = 1'-0"
140
0.5
141
12.0
290
     0
  0
SCALE
  5
1E96
102
{ACAD_REACTORS
330
1E7A
102
}
330
1E7A
100
AcDbScale
 70
     0
300
3/4" = 1'-0"
140
0.75
141
12.0
290
     0
  0
SCALE
  5
1E97
102
{ACAD_REACTORS
330
1E7A
102
}
330
1E7A
100
AcDbScale
 70
     0
300
1" = 1'-0"
140
1.0
141
12.0
290
     0
  0
SCALE
  5
1E98
102
{ACAD_REACTORS
330
1E7A
102
}
330
1E7A
100
AcDbScale
 70
     0
300
1-1/2" = 1'-0"
140
1.5
141
12.0
290
     0
  0
SCALE
  5
1E99
102
{ACAD_REACTORS
330
1E7A
102
}
330
1E7A
100
AcDbScale
 70
     0
300
3" = 1'-0"
140
3.0
141
12.0
290
     0
  0
SCALE
  5
1E9A
102
{ACAD_REACTORS
330
1E7A
102
}
330
1E7A
100
AcDbScale
 70
     0
300
6" = 1'-0"
140
6.0
141
12.0
290
     0
  0
SCALE
  5
1E9B
102
{ACAD_REACTORS
330
1E7A
102
}
330
1E7A
100
AcDbScale
 70
     0
300
1'-0" = 1'-0"
140
12.0
141
12.0
290
     0
  0
TABLESTYLE
  5
1E79
102
{ACAD_REACTORS
330
1E78
102
}
102
{ACAD_XDICTIONARY
360
2000
102
}
330
1E78
100
AcDbTableStyle
  3
Standard
 70
     0
 71
     0
 40
0.06
 41
0.06
280
     0
281
     0
  7
STANDARD
140
0.18
170
     2
 62
     0
 63
   257
283
     0
 90
      512
 91
        0
  1

274
    -2
284
     1
 64
     0
275
    -2
285
     1
 65
     0
276
    -2
286
     1
 66
     0
277
    -2
287
     1
 67
     0
278
    -2
288
     1
 68
     0
279
    -2
289
     1
 69
     0
  7
STANDARD
140
0.25
170
     5
 62
     0
 63
   257
283
     0
 90
      512
 91
        0
  1

274
    -2
284
     1
 64
     0
275
    -2
285
     1
 65
     0
276
    -2
286
     1
 66
     0
277
    -2
287
     1
 67
     0
278
    -2
288
     1
 68
     0
279
    -2
289
     1
 69
     0
  7
STANDARD
140
0.18
170
     5
 62
     0
 63
   257
283
     0
 90
      512
 91
        0
  1

274
    -2
284
     1
 64
     0
275
    -2
285
     1
 65
     0
276
    -2
286
     1
 66
     0
277
    -2
287
     1
 67
     0
278
    -2
288
     1
 68
     0
279
    -2
289
     1
 69
     0
  0
VISUALSTYLE
  5
1E6D
102
{ACAD_REACTORS
330
1E67
102
}
330
1E67
100
AcDbVisualStyle
  2
2dWireframe
 70
     4
177
     3
291
     0
 70
    58
 90
        0
176
     1
 90
        2
176
     1
 90
        0
176
     1
 90
        0
176
     1
 40
-0.6
176
     1
 40
-30.0
176
     1
 62
     7
420
 16777215
176
     1
 90
        1
176
     1
 90
        4
176
     1
 62
     7
176
     1
 62
   257
176
     1
 90
        1
176
     1
 90
        1
176
     1
 40
1.0
176
     1
 90
        0
176
     1
 62
   257
176
     1
 40
1.0
176
     1
 90
        1
176
     1
 90
        6
176
     1
 90
        2
176
     1
 62
     7
176
     1
 90
        5
176
     1
 90
        0
176
     1
 90
        0
176
     1
290
     0
176
     1
 90
        1
176
     1
 40
0.0
176
     1
 90
        0
176
     1
290
     1
176
     1
290
     1
176
     1
290
     0
176
     1
290
     0
176
     1
290
     0
176
     1
290
     0
176
     1
290
     0
176
     1
290
     0
176
     1
290
     0
176
     1
 90
       50
176
     1
 40
0.0
176
     1
 40
1.0
176
     1
 90
        0
176
     1
 62
    18
420
        0
176
     1
 90
       50
176
     1
 90
        3
176
     1
 62
     5
420
      255
176
     1
290
     0
176
     1
 90
       50
176
     1
 90
       50
176
     1
 90
       50
176
     1
290
     0
176
     1
 90
       50
176
     1
 62
   256
176
     0
 40
1.0
176
     0
 90
        2
176
     1
  1
strokes_ogs.tif
176
     1
290
     0
176
     1
 40
1.0
176
     1
 40
1.0
176
     1
  0
VISUALSTYLE
  5
1E6F
102
{ACAD_REACTORS
330
1E67
102
}
330
1E67
100
AcDbVisualStyle
  2
3D Hidden
 70
     6
177
     3
291
     0
 70
    58
 90
        1
176
     1
 90
        2
176
     1
 90
        2
176
     1
 90
        0
176
     1
 40
-0.6
176
     1
 40
-30.0
176
     1
 62
     7
420
 16777215
176
     1
 90
        2
176
     1
 90
        2
176
     1
 62
     7
176
     1
 62
   257
176
     1
 90
        2
176
     1
 90
        1
176
     1
 40
40.0
176
     1
 90
        0
176
     1
 62
   257
176
     1
 40
1.0
176
     1
 90
        1
176
     1
 90
        6
176
     1
 90
        2
176
     1
 62
     7
176
     1
 90
        3
176
     1
 90
        0
176
     1
 90
        0
176
     1
290
     0
176
     1
 90
        1
176
     1
 40
0.0
176
     1
 90
        0
176
     1
290
     0
176
     1
290
     1
176
     1
290
     1
176
     1
290
     0
176
     1
290
     0
176
     1
290
     0
176
     1
290
     0
176
     1
290
     0
176
     1
290
     0
176
     1
 90
       50
176
     1
 40
0.0
176
     1
 40
1.0
176
     1
 90
        0
176
     1
 62
    18
420
        0
176
     1
 90
       50
176
     1
 90
        3
176
     1
 62
     5
420
      255
176
     1
290
     0
176
     1
 90
       50
176
     1
 90
       50
176
     1
 90
       50
176
     1
290
     0
176
     1
 90
       50
176
     1
 62
   256
176
     0
 40
1.0
176
     0
 90
        2
176
     1
  1
strokes_ogs.tif
176
     1
290
     0
176
     1
 40
1.0
176
     1
 40
1.0
176
     1
  0
VISUALSTYLE
  5
1E6E
102
{ACAD_REACTORS
330
1E67
102
}
330
1E67
100
AcDbVisualStyle
  2
3dWireframe
 70
     5
177
     3
291
     0
 70
    58
 90
        0
176
     1
 90
        2
176
     1
 90
        0
176
     1
 90
        0
176
     1
 40
-0.6
176
     1
 40
-30.0
176
     1
 62
     7
420
 16777215
176
     1
 90
        1
176
     1
 90
        4
176
     1
 62
     7
176
     1
 62
   257
176
     1
 90
        1
176
     1
 90
        1
176
     1
 40
1.0
176
     1
 90
        0
176
     1
 62
   257
176
     1
 40
1.0
176
     1
 90
        1
176
     1
 90
        6
176
     1
 90
        2
176
     1
 62
     7
176
     1
 90
        5
176
     1
 90
        0
176
     1
 90
        0
176
     1
290
     0
176
     1
 90
        1
176
     1
 40
0.0
176
     1
 90
        0
176
     1
290
     0
176
     1
290
     1
176
     1
290
     1
176
     1
290
     0
176
     1
290
     0
176
     1
290
     0
176
     1
290
     0
176
     1
290
     0
176
     1
290
     0
176
     1
 90
       50
176
     1
 40
0.0
176
     1
 40
1.0
176
     1
 90
        0
176
     1
 62
    18
420
        0
176
     1
 90
       50
176
     1
 90
        3
176
     1
 62
     5
420
      255
176
     1
290
     0
176
     1
 90
       50
176
     1
 90
       50
176
     1
 90
       50
176
     1
290
     0
176
     1
 90
       50
176
     1
 62
   256
176
     0
 40
1.0
176
     0
 90
        2
176
     1
  1
strokes_ogs.tif
176
     1
290
     0
176
     1
 40
1.0
176
     1
 40
1.0
176
     1
  0
VISUALSTYLE
  5
1E6C
102
{ACAD_REACTORS
330
1E67
102
}
330
1E67
100
AcDbVisualStyle
  2
Basic
 70
     7
177
     3
291
     1
 70
    58
 90
        1
176
     1
 90
        0
176
     1
 90
        1
176
     1
 90
        0
176
     1
 40
-0.6
176
     1
 40
-30.0
176
     1
 62
     7
420
 16777215
176
     1
 90
        0
176
     1
 90
        4
176
     1
 62
     7
176
     1
 62
   257
176
     1
 90
        1
176
     1
 90
        1
176
     1
 40
1.0
176
     1
 90
        8
176
     1
 62
     7
176
     1
 40
1.0
176
     1
 90
        1
176
     1
 90
        6
176
     1
 90
        2
176
     1
 62
     7
176
     1
 90
        5
176
     1
 90
        0
176
     1
 90
        0
176
     1
290
     0
176
     1
 90
        1
176
     1
 40
0.0
176
     1
 90
        0
176
     1
290
     0
176
     1
290
     1
176
     1
290
     1
176
     1
290
     0
176
     1
290
     0
176
     1
290
     0
176
     1
290
     0
176
     1
290
     0
176
     1
290
     0
176
     1
 90
       50
176
     1
 40
0.0
176
     1
 40
1.0
176
     1
 90
        0
176
     1
 62
    18
420
        0
176
     1
 90
       50
176
     1
 90
        3
176
     1
 62
     5
420
      255
176
     1
290
     0
176
     1
 90
       50
176
     1
 90
       50
176
     1
 90
       50
176
     1
290
     0
176
     1
 90
       50
176
     1
 62
   256
176
     0
 40
1.0
176
     0
 90
        2
176
     1
  1
strokes_ogs.tif
176
     1
290
     0
176
     1
 40
1.0
176
     1
 40
1.0
176
     1
  0
VISUALSTYLE
  5
1E73
102
{ACAD_REACTORS
330
1E67
102
}
330
1E67
100
AcDbVisualStyle
  2
Brighten
 70
    12
177
     3
291
     1
 70
    58
 90
        2
176
     1
 90
        2
176
     1
 90
        0
176
     1
 90
        0
176
     1
 40
-0.6
176
     1
 40
-30.0
176
     1
 62
     7
420
 16777215
176
     1
 90
        1
176
     1
 90
        4
176
     1
 62
     7
176
     1
 62
   257
176
     1
 90
        1
176
     1
 90
        1
176
     1
 40
1.0
176
     1
 90
        8
176
     1
 62
     7
176
     1
 40
1.0
176
     1
 90
        1
176
     1
 90
        6
176
     1
 90
        2
176
     1
 62
     7
176
     1
 90
        5
176
     1
 90
        0
176
     1
 90
        0
176
     1
290
     0
176
     1
 90
        1
176
     1
 40
50.0
176
     1
 90
        0
176
     1
290
     0
176
     1
290
     1
176
     1
290
     1
176
     1
290
     0
176
     1
290
     0
176
     1
290
     0
176
     1
290
     0
176
     1
290
     0
176
     1
290
     0
176
     1
 90
       50
176
     1
 40
0.0
176
     1
 40
1.0
176
     1
 90
        0
176
     1
 62
    18
420
        0
176
     1
 90
       50
176
     1
 90
        3
176
     1
 62
     5
420
      255
176
     1
290
     0
176
     1
 90
       50
176
     1
 90
       50
176
     1
 90
       50
176
     1
290
     0
176
     1
 90
       50
176
     1
 62
   256
176
     0
 40
1.0
176
     0
 90
        2
176
     1
  1
strokes_ogs.tif
176
     1
290
     0
176
     1
 40
1.0
176
     1
 40
1.0
176
     1
  0
VISUALSTYLE
  5
1E77
102
{ACAD_REACTORS
330
1E67
102
}
330
1E67
100
AcDbVisualStyle
  2
ColorChange
 70
    16
177
     3
291
     1
 70
    58
 90
        2
176
     1
 90
        2
176
     1
 90
        3
176
     1
 90
        0
176
     1
 40
-0.6
176
     1
 40
-30.0
176
     1
 62
     8
420
  8421504
176
     1
 90
        1
176
     1
 90
        4
176
     1
 62
     7
176
     1
 62
   257
176
     1
 90
        1
176
     1
 90
        1
176
     1
 40
1.0
176
     1
 90
        8
176
     1
 62
     8
420
  8421504
176
     1
 40
1.0
176
     1
 90
        1
176
     1
 90
        6
176
     1
 90
        2
176
     1
 62
     7
176
     1
 90
        5
176
     1
 90
        0
176
     1
 90
        0
176
     1
290
     0
176
     1
 90
        1
176
     1
 40
0.0
176
     1
 90
        0
176
     1
290
     0
176
     1
290
     1
176
     1
290
     1
176
     1
290
     0
176
     1
290
     0
176
     1
290
     0
176
     1
290
     0
176
     1
290
     0
176
     1
290
     0
176
     1
 90
       50
176
     1
 40
0.0
176
     1
 40
1.0
176
     1
 90
        0
176
     1
 62
    18
420
        0
176
     1
 90
       50
176
     1
 90
        3
176
     1
 62
     5
420
      255
176
     1
290
     0
176
     1
 90
       50
176
     1
 90
       50
176
     1
 90
       50
176
     1
290
     0
176
     1
 90
       50
176
     1
 62
   256
176
     0
 40
1.0
176
     0
 90
        2
176
     1
  1
strokes_ogs.tif
176
     1
290
     0
176
     1
 40
1.0
176
     1
 40
1.0
176
     1
  0
VISUALSTYLE
  5
1E70
102
{ACAD_REACTORS
330
1E67
102
}
330
1E67
100
AcDbVisualStyle
  2
Conceptual
 70
     9
177
     3
291
     0
 70
    58
 90
        3
176
     1
 90
        2
176
     1
 90
        0
176
     1
 90
        0
176
     1
 40
-0.6
176
     1
 40
-30.0
176
     1
 62
     7
420
 16777215
176
     1
 90
        2
176
     1
 90
        2
176
     1
 62
     7
176
     1
 62
   257
176
     1
 90
        1
176
     1
 90
        1
176
     1
 40
40.0
176
     1
 90
        8
176
     1
 62
     7
176
     1
 40
1.0
176
     1
 90
        1
176
     1
 90
        6
176
     1
 90
        2
176
     1
 62
     7
176
     1
 90
        3
176
     1
 90
        0
176
     1
 90
        0
176
     1
290
     0
176
     1
 90
        1
176
     1
 40
0.0
176
     1
 90
        0
176
     1
290
     0
176
     1
290
     1
176
     1
290
     1
176
     1
290
     0
176
     1
290
     0
176
     1
290
     0
176
     1
290
     0
176
     1
290
     0
176
     1
290
     0
176
     1
 90
       50
176
     1
 40
0.0
176
     1
 40
1.0
176
     1
 90
        0
176
     1
 62
    18
420
        0
176
     1
 90
       50
176
     1
 90
        3
176
     1
 62
     5
420
      255
176
     1
290
     0
176
     1
 90
       50
176
     1
 90
       50
176
     1
 90
       50
176
     1
290
     0
176
     1
 90
       50
176
     1
 62
   256
176
     0
 40
1.0
176
     0
 90
        2
176
     1
  1
strokes_ogs.tif
176
     1
290
     0
176
     1
 40
1.0
176
     1
 40
1.0
176
     1
  0
VISUALSTYLE
  5
1E72
102
{ACAD_REACTORS
330
1E67
102
}
330
1E67
100
AcDbVisualStyle
  2
Dim
 70
    11
177
     3
291
     1
 70
    58
 90
        2
176
     1
 90
        2
176
     1
 90
        0
176
     1
 90
        0
176
     1
 40
-0.6
176
     1
 40
-30.0
176
     1
 62
     7
420
 16777215
176
     1
 90
        1
176
     1
 90
        4
176
     1
 62
     7
176
     1
 62
   257
176
     1
 90
        1
176
     1
 90
        1
176
     1
 40
1.0
176
     1
 90
        8
176
     1
 62
     7
176
     1
 40
1.0
176
     1
 90
        1
176
     1
 90
        6
176
     1
 90
        2
176
     1
 62
     7
176
     1
 90
        5
176
     1
 90
        0
176
     1
 90
        0
176
     1
290
     0
176
     1
 90
        1
176
     1
 40
-50.0
176
     1
 90
        0
176
     1
290
     0
176
     1
290
     1
176
     1
290
     1
176
     1
290
     0
176
     1
290
     0
176
     1
290
     0
176
     1
290
     0
176
     1
290
     0
176
     1
290
     0
176
     1
 90
       50
176
     1
 40
0.0
176
     1
 40
1.0
176
     1
 90
        0
176
     1
 62
    18
420
        0
176
     1
 90
       50
176
     1
 90
        3
176
     1
 62
     5
420
      255
176
     1
290
     0
176
     1
 90
       50
176
     1
 90
       50
176
     1
 90
       50
176
     1
290
     0
176
     1
 90
       50
176
     1
 62
   256
176
     0
 40
1.0
176
     0
 90
        2
176
     1
  1
strokes_ogs.tif
176
     1
290
     0
176
     1
 40
1.0
176
     1
 40
1.0
176
     1
  0
VISUALSTYLE
  5
1FE1
102
{ACAD_REACTORS
330
1E67
102
}
330
1E67
100
AcDbVisualStyle
  2
EdgeColorOff
 70
    22
177
     3
291
     1
 70
    58
 90
        2
176
     0
 90
        2
176
     0
 90
        0
176
     0
 90
        0
176
     0
 40
0.6
176
     0
 40
30.0
176
     0
 62
     7
420
 16777215
176
     0
 90
        1
176
     0
 90
        4
176
     0
 62
     7
176
     0
 62
   257
176
     0
 90
        1
176
     0
 90
        1
176
     0
 40
1.0
176
     0
 90
        8
176
     2
 62
     7
176
     0
 40
1.0
176
     0
 90
        1
176
     0
 90
        6
176
     0
 90
        2
176
     0
 62
     7
176
     0
 90
        5
176
     0
 90
        0
176
     0
 90
        0
176
     0
290
     0
176
     0
 90
        1
176
     0
 40
0.0
176
     0
 90
        0
176
     0
290
     0
176
     0
290
     1
176
     0
290
     1
176
     0
290
     0
176
     0
290
     0
176
     0
290
     0
176
     0
290
     0
176
     0
290
     0
176
     0
290
     0
176
     0
 90
       50
176
     0
 40
0.0
176
     0
 40
1.0
176
     0
 90
        0
176
     0
 62
    18
420
        0
176
     0
 90
       50
176
     0
 90
        3
176
     0
 62
     5
420
      255
176
     0
290
     0
176
     0
 90
       50
176
     0
 90
       50
176
     0
 90
       50
176
     0
290
     0
176
     0
 90
       50
176
     0
 62
   256
176
     0
 40
1.0
176
     0
 90
        2
176
     0
  1
strokes_ogs.tif
176
     0
290
     0
176
     0
 40
1.0
176
     0
 40
1.0
176
     0
  0
VISUALSTYLE
  5
1E76
102
{ACAD_REACTORS
330
1E67
102
}
330
1E67
100
AcDbVisualStyle
  2
Facepattern
 70
    15
177
     3
291
     1
 70
    58
 90
        2
176
     1
 90
        2
176
     1
 90
        0
176
     1
 90
        0
176
     1
 40
-0.6
176
     1
 40
-30.0
176
     1
 62
     7
420
 16777215
176
     1
 90
        1
176
     1
 90
        4
176
     1
 62
     7
176
     1
 62
   257
176
     1
 90
        1
176
     1
 90
        1
176
     1
 40
1.0
176
     1
 90
        8
176
     1
 62
     7
176
     1
 40
1.0
176
     1
 90
        1
176
     1
 90
        6
176
     1
 90
        2
176
     1
 62
     7
176
     1
 90
        5
176
     1
 90
        0
176
     1
 90
        0
176
     1
290
     0
176
     1
 90
        1
176
     1
 40
0.0
176
     1
 90
        0
176
     1
290
     0
176
     1
290
     1
176
     1
290
     1
176
     1
290
     0
176
     1
290
     0
176
     1
290
     0
176
     1
290
     0
176
     1
290
     0
176
     1
290
     0
176
     1
 90
       50
176
     1
 40
0.0
176
     1
 40
1.0
176
     1
 90
        0
176
     1
 62
    18
420
        0
176
     1
 90
       50
176
     1
 90
        3
176
     1
 62
     5
420
      255
176
     1
290
     0
176
     1
 90
       50
176
     1
 90
       50
176
     1
 90
       50
176
     1
290
     0
176
     1
 90
       50
176
     1
 62
   256
176
     0
 40
1.0
176
     0
 90
        2
176
     1
  1
strokes_ogs.tif
176
     1
290
     0
176
     1
 40
1.0
176
     1
 40
1.0
176
     1
  0
VISUALSTYLE
  5
1E68
102
{ACAD_REACTORS
330
1E67
102
}
330
1E67
100
AcDbVisualStyle
  2
Flat
 70
     0
177
     3
291
     1
 70
    58
 90
        2
176
     1
 90
        1
176
     1
 90
        1
176
     1
 90
        2
176
     1
 40
-0.6
176
     1
 40
30.0
176
     1
 62
     7
420
 16777215
176
     1
 90
        0
176
     1
 90
        4
176
     1
 62
     7
176
     1
 62
   257
176
     1
 90
        1
176
     1
 90
        1
176
     1
 40
1.0
176
     1
 90
        8
176
     1
 62
     7
176
     1
 40
1.0
176
     1
 90
        1
176
     1
 90
        6
176
     1
 90
        2
176
     1
 62
     7
176
     1
 90
        5
176
     1
 90
        0
176
     1
 90
        0
176
     1
290
     0
176
     1
 90
       13
176
     1
 40
0.0
176
     1
 90
        0
176
     1
290
     0
176
     1
290
     1
176
     1
290
     1
176
     1
290
     0
176
     1
290
     0
176
     1
290
     0
176
     1
290
     0
176
     1
290
     0
176
     1
290
     0
176
     1
 90
       50
176
     1
 40
0.0
176
     1
 40
1.0
176
     1
 90
        0
176
     1
 62
    18
420
        0
176
     1
 90
       50
176
     1
 90
        3
176
     1
 62
     5
420
      255
176
     1
290
     0
176
     1
 90
       50
176
     1
 90
       50
176
     1
 90
       50
176
     1
290
     0
176
     1
 90
       50
176
     1
 62
   256
176
     0
 40
1.0
176
     0
 90
        2
176
     1
  1
strokes_ogs.tif
176
     1
290
     0
176
     1
 40
1.0
176
     1
 40
1.0
176
     1
  0
VISUALSTYLE
  5
1E69
102
{ACAD_REACTORS
330
1E67
102
}
330
1E67
100
AcDbVisualStyle
  2
FlatWithEdges
 70
     1
177
     3
291
     1
 70
    58
 90
        2
176
     1
 90
        1
176
     1
 90
        1
176
     1
 90
        2
176
     1
 40
-0.6
176
     1
 40
30.0
176
     1
 62
     7
420
 16777215
176
     1
 90
        1
176
     1
 90
        4
176
     1
 62
     7
176
     1
 62
   257
176
     1
 90
        1
176
     1
 90
        1
176
     1
 40
1.0
176
     1
 90
        0
176
     1
 62
   257
176
     1
 40
1.0
176
     1
 90
        1
176
     1
 90
        6
176
     1
 90
        2
176
     1
 62
     7
176
     1
 90
        5
176
     1
 90
        0
176
     1
 90
        0
176
     1
290
     0
176
     1
 90
       13
176
     1
 40
0.0
176
     1
 90
        0
176
     1
290
     0
176
     1
290
     1
176
     1
290
     1
176
     1
290
     0
176
     1
290
     0
176
     1
290
     0
176
     1
290
     0
176
     1
290
     0
176
     1
290
     0
176
     1
 90
       50
176
     1
 40
0.0
176
     1
 40
1.0
176
     1
 90
        0
176
     1
 62
    18
420
        0
176
     1
 90
       50
176
     1
 90
        3
176
     1
 62
     5
420
      255
176
     1
290
     0
176
     1
 90
       50
176
     1
 90
       50
176
     1
 90
       50
176
     1
290
     0
176
     1
 90
       50
176
     1
 62
   256
176
     0
 40
1.0
176
     0
 90
        2
176
     1
  1
strokes_ogs.tif
176
     1
290
     0
176
     1
 40
1.0
176
     1
 40
1.0
176
     1
  0
VISUALSTYLE
  5
1E6A
102
{ACAD_REACTORS
330
1E67
102
}
330
1E67
100
AcDbVisualStyle
  2
Gouraud
 70
     2
177
     3
291
     1
 70
    58
 90
        2
176
     1
 90
        2
176
     1
 90
        1
176
     1
 90
        2
176
     1
 40
-0.6
176
     1
 40
30.0
176
     1
 62
     7
420
 16777215
176
     1
 90
        0
176
     1
 90
        4
176
     1
 62
     7
176
     1
 62
   257
176
     1
 90
        1
176
     1
 90
        1
176
     1
 40
1.0
176
     1
 90
        0
176
     1
 62
     7
176
     1
 40
1.0
176
     1
 90
        1
176
     1
 90
        6
176
     1
 90
        2
176
     1
 62
     7
176
     1
 90
        5
176
     1
 90
        0
176
     1
 90
        0
176
     1
290
     0
176
     1
 90
       13
176
     1
 40
0.0
176
     1
 90
        0
176
     1
290
     0
176
     1
290
     1
176
     1
290
     1
176
     1
290
     0
176
     1
290
     0
176
     1
290
     0
176
     1
290
     0
176
     1
290
     0
176
     1
290
     0
176
     1
 90
       50
176
     1
 40
0.0
176
     1
 40
1.0
176
     1
 90
        0
176
     1
 62
    18
420
        0
176
     1
 90
       50
176
     1
 90
        3
176
     1
 62
     5
420
      255
176
     1
290
     0
176
     1
 90
       50
176
     1
 90
       50
176
     1
 90
       50
176
     1
290
     0
176
     1
 90
       50
176
     1
 62
   256
176
     0
 40
1.0
176
     0
 90
        2
176
     1
  1
strokes_ogs.tif
176
     1
290
     0
176
     1
 40
1.0
176
     1
 40
1.0
176
     1
  0
VISUALSTYLE
  5
1E6B
102
{ACAD_REACTORS
330
1E67
102
}
330
1E67
100
AcDbVisualStyle
  2
GouraudWithEdges
 70
     3
177
     3
291
     1
 70
    58
 90
        2
176
     1
 90
        2
176
     1
 90
        1
176
     1
 90
        2
176
     1
 40
-0.6
176
     1
 40
30.0
176
     1
 62
     7
420
 16777215
176
     1
 90
        1
176
     1
 90
        4
176
     1
 62
     7
176
     1
 62
   257
176
     1
 90
        1
176
     1
 90
        1
176
     1
 40
1.0
176
     1
 90
        0
176
     1
 62
   257
176
     1
 40
1.0
176
     1
 90
        1
176
     1
 90
        6
176
     1
 90
        2
176
     1
 62
     7
176
     1
 90
        5
176
     1
 90
        0
176
     1
 90
        0
176
     1
290
     0
176
     1
 90
       13
176
     1
 40
0.0
176
     1
 90
        0
176
     1
290
     0
176
     1
290
     1
176
     1
290
     1
176
     1
290
     0
176
     1
290
     0
176
     1
290
     0
176
     1
290
     0
176
     1
290
     0
176
     1
290
     0
176
     1
 90
       50
176
     1
 40
0.0
176
     1
 40
1.0
176
     1
 90
        0
176
     1
 62
    18
420
        0
176
     1
 90
       50
176
     1
 90
        3
176
     1
 62
     5
420
      255
176
     1
290
     0
176
     1
 90
       50
176
     1
 90
       50
176
     1
 90
       50
176
     1
290
     0
176
     1
 90
       50
176
     1
 62
   256
176
     0
 40
1.0
176
     0
 90
        2
176
     1
  1
strokes_ogs.tif
176
     1
290
     0
176
     1
 40
1.0
176
     1
 40
1.0
176
     1
  0
VISUALSTYLE
  5
1FDE
102
{ACAD_REACTORS
330
1E67
102
}
330
1E67
100
AcDbVisualStyle
  2
Hidden
 70
     6
177
     3
291
     0
 70
    58
 90
        1
176
     1
 90
        2
176
     1
 90
        2
176
     1
 90
        0
176
     1
 40
0.6
176
     1
 40
30.0
176
     1
 62
     7
420
 16777215
176
     1
 90
        2
176
     1
 90
        2
176
     1
 62
     7
176
     1
 62
   257
176
     1
 90
        2
176
     1
 90
        1
176
     1
 40
40.0
176
     1
 90
        0
176
     1
 62
   257
176
     1
 40
1.0
176
     1
 90
        1
176
     1
 90
        6
176
     1
 90
        2
176
     1
 62
     7
176
     1
 90
        3
176
     1
 90
        0
176
     1
 90
        0
176
     1
290
     0
176
     1
 90
        1
176
     1
 40
0.0
176
     1
 90
        0
176
     1
290
     0
176
     1
290
     1
176
     1
290
     1
176
     1
290
     0
176
     1
290
     0
176
     1
290
     0
176
     1
290
     0
176
     1
290
     0
176
     1
290
     0
176
     1
 90
       50
176
     1
 40
0.0
176
     1
 40
1.0
176
     1
 90
        0
176
     1
 62
    18
420
        0
176
     1
 90
       50
176
     1
 90
        3
176
     1
 62
     5
420
      255
176
     1
290
     0
176
     1
 90
       50
176
     1
 90
       50
176
     1
 90
       50
176
     1
290
     0
176
     1
 90
       50
176
     1
 62
   256
176
     0
 40
1.0
176
     0
 90
        2
176
     1
  1
strokes_ogs.tif
176
     1
290
     0
176
     1
 40
1.0
176
     1
 40
1.0
176
     1
  0
VISUALSTYLE
  5
1FDF
102
{ACAD_REACTORS
330
1E67
102
}
330
1E67
100
AcDbVisualStyle
  2
JitterOff
 70
    20
177
     3
291
     1
 70
    58
 90
        2
176
     0
 90
        2
176
     0
 90
        0
176
     0
 90
        0
176
     0
 40
0.6
176
     0
 40
30.0
176
     0
 62
     7
420
 16777215
176
     0
 90
        1
176
     0
 90
        4
176
     0
 62
     7
176
     0
 62
   257
176
     0
 90
        1
176
     0
 90
        1
176
     0
 40
1.0
176
     0
 90
       10
176
     2
 62
     7
176
     0
 40
1.0
176
     0
 90
        1
176
     0
 90
        6
176
     0
 90
        2
176
     0
 62
     7
176
     0
 90
        5
176
     0
 90
        0
176
     0
 90
        0
176
     0
290
     0
176
     0
 90
        1
176
     0
 40
0.0
176
     0
 90
        0
176
     0
290
     0
176
     0
290
     1
176
     0
290
     1
176
     0
290
     0
176
     0
290
     0
176
     0
290
     0
176
     0
290
     0
176
     0
290
     0
176
     0
290
     0
176
     0
 90
       50
176
     0
 40
0.0
176
     0
 40
1.0
176
     0
 90
        0
176
     0
 62
    18
420
        0
176
     0
 90
       50
176
     0
 90
        3
176
     0
 62
     5
420
      255
176
     0
290
     0
176
     0
 90
       50
176
     0
 90
       50
176
     0
 90
       50
176
     0
290
     0
176
     0
 90
       50
176
     0
 62
   256
176
     0
 40
1.0
176
     0
 90
        2
176
     0
  1
strokes_ogs.tif
176
     0
290
     0
176
     0
 40
1.0
176
     0
 40
1.0
176
     0
  0
VISUALSTYLE
  5
1E75
102
{ACAD_REACTORS
330
1E67
102
}
330
1E67
100
AcDbVisualStyle
  2
Linepattern
 70
    14
177
     3
291
     1
 70
    58
 90
        2
176
     1
 90
        2
176
     1
 90
        0
176
     1
 90
        0
176
     1
 40
-0.6
176
     1
 40
-30.0
176
     1
 62
     7
420
 16777215
176
     1
 90
        1
176
     1
 90
        4
176
     1
 62
     7
176
     1
 62
   257
176
     1
 90
        7
176
     1
 90
        7
176
     1
 40
1.0
176
     1
 90
        8
176
     1
 62
     7
176
     1
 40
1.0
176
     1
 90
        1
176
     1
 90
        6
176
     1
 90
        2
176
     1
 62
     7
176
     1
 90
        5
176
     1
 90
        0
176
     1
 90
        0
176
     1
290
     0
176
     1
 90
        1
176
     1
 40
0.0
176
     1
 90
        0
176
     1
290
     0
176
     1
290
     1
176
     1
290
     1
176
     1
290
     0
176
     1
290
     0
176
     1
290
     0
176
     1
290
     0
176
     1
290
     0
176
     1
290
     0
176
     1
 90
       50
176
     1
 40
0.0
176
     1
 40
1.0
176
     1
 90
        0
176
     1
 62
    18
420
        0
176
     1
 90
       50
176
     1
 90
        3
176
     1
 62
     5
420
      255
176
     1
290
     0
176
     1
 90
       50
176
     1
 90
       50
176
     1
 90
       50
176
     1
290
     0
176
     1
 90
       50
176
     1
 62
   256
176
     0
 40
1.0
176
     0
 90
        2
176
     1
  1
strokes_ogs.tif
176
     1
290
     0
176
     1
 40
1.0
176
     1
 40
1.0
176
     1
  0
VISUALSTYLE
  5
1FE0
102
{ACAD_REACTORS
330
1E67
102
}
330
1E67
100
AcDbVisualStyle
  2
OverhangOff
 70
    21
177
     3
291
     1
 70
    58
 90
        2
176
     0
 90
        2
176
     0
 90
        0
176
     0
 90
        0
176
     0
 40
0.6
176
     0
 40
30.0
176
     0
 62
     7
420
 16777215
176
     0
 90
        1
176
     0
 90
        4
176
     0
 62
     7
176
     0
 62
   257
176
     0
 90
        1
176
     0
 90
        1
176
     0
 40
1.0
176
     0
 90
        9
176
     2
 62
     7
176
     0
 40
1.0
176
     0
 90
        1
176
     0
 90
        6
176
     0
 90
        2
176
     0
 62
     7
176
     0
 90
        5
176
     0
 90
        0
176
     0
 90
        0
176
     0
290
     0
176
     0
 90
        1
176
     0
 40
0.0
176
     0
 90
        0
176
     0
290
     0
176
     0
290
     1
176
     0
290
     1
176
     0
290
     0
176
     0
290
     0
176
     0
290
     0
176
     0
290
     0
176
     0
290
     0
176
     0
290
     0
176
     0
 90
       50
176
     0
 40
0.0
176
     0
 40
1.0
176
     0
 90
        0
176
     0
 62
    18
420
        0
176
     0
 90
       50
176
     0
 90
        3
176
     0
 62
     5
420
      255
176
     0
290
     0
176
     0
 90
       50
176
     0
 90
       50
176
     0
 90
       50
176
     0
290
     0
176
     0
 90
       50
176
     0
 62
   256
176
     0
 40
1.0
176
     0
 90
        2
176
     0
  1
strokes_ogs.tif
176
     0
290
     0
176
     0
 40
1.0
176
     0
 40
1.0
176
     0
  0
VISUALSTYLE
  5
1E71
102
{ACAD_REACTORS
330
1E67
102
}
330
1E67
100
AcDbVisualStyle
  2
Realistic
 70
     8
177
     3
291
     0
 70
    58
 90
        2
176
     1
 90
        2
176
     1
 90
        0
176
     1
 90
        0
176
     1
 40
-0.6
176
     1
 40
-30.0
176
     1
 62
     7
420
 16777215
176
     1
 90
        1
176
     1
 90
        0
176
     1
 62
     7
176
     1
 62
   257
176
     1
 90
        1
176
     1
 90
        1
176
     1
 40
1.0
176
     1
 90
        8
176
     1
 62
     8
420
  7895160
176
     1
 40
1.0
176
     1
 90
        1
176
     1
 90
        6
176
     1
 90
        2
176
     1
 62
     7
176
     1
 90
        5
176
     1
 90
        0
176
     1
 90
        0
176
     1
290
     0
176
     1
 90
       13
176
     1
 40
0.0
176
     1
 90
        0
176
     1
290
     0
176
     1
290
     1
176
     1
290
     1
176
     1
290
     0
176
     1
290
     0
176
     1
290
     0
176
     1
290
     0
176
     1
290
     0
176
     1
290
     0
176
     1
 90
       50
176
     1
 40
0.0
176
     1
 40
1.0
176
     1
 90
        0
176
     1
 62
    18
420
        0
176
     1
 90
       50
176
     1
 90
        3
176
     1
 62
     5
420
      255
176
     1
290
     0
176
     1
 90
       50
176
     1
 90
       50
176
     1
 90
       50
176
     1
290
     0
176
     1
 90
       50
176
     1
 62
   256
176
     0
 40
1.0
176
     0
 90
        2
176
     1
  1
strokes_ogs.tif
176
     1
290
     0
176
     1
 40
1.0
176
     1
 40
1.0
176
     1
  0
VISUALSTYLE
  5
1FE6
102
{ACAD_REACTORS
330
1E67
102
}
330
1E67
100
AcDbVisualStyle
  2
Shaded
 70
    27
177
     3
291
     0
 70
    58
 90
        2
176
     1
 90
        2
176
     1
 90
        1
176
     1
 90
        2
176
     1
 40
0.6
176
     1
 40
30.0
176
     1
 62
     7
420
 16777215
176
     1
 90
        0
176
     1
 90
        4
176
     1
 62
     7
176
     1
 62
   257
176
     1
 90
        1
176
     1
 90
        1
176
     1
 40
1.0
176
     1
 90
        8
176
     1
 62
   257
176
     1
 40
1.0
176
     1
 90
        1
176
     1
 90
        6
176
     1
 90
        2
176
     1
 62
     8
420
  7895160
176
     1
 90
        3
176
     1
 90
        0
176
     1
 90
        0
176
     1
290
     0
176
     1
 90
        5
176
     1
 40
0.0
176
     1
 90
        0
176
     1
290
     0
176
     1
290
     1
176
     1
290
     1
176
     1
290
     0
176
     1
290
     0
176
     1
290
     0
176
     1
290
     0
176
     1
290
     0
176
     1
290
     0
176
     1
 90
       50
176
     1
 40
0.0
176
     1
 40
1.0
176
     1
 90
        0
176
     1
 62
    18
420
        0
176
     1
 90
       50
176
     1
 90
        3
176
     1
 62
     5
420
      255
176
     1
290
     0
176
     1
 90
       50
176
     1
 90
       50
176
     1
 90
       50
176
     1
290
     0
176
     1
 90
       50
176
     1
 62
   256
176
     0
 40
1.0
176
     0
 90
        2
176
     1
  1
strokes_ogs.tif
176
     1
290
     0
176
     1
 40
1.0
176
     1
 40
1.0
176
     1
  0
VISUALSTYLE
  5
1FE5
102
{ACAD_REACTORS
330
1E67
102
}
330
1E67
100
AcDbVisualStyle
  2
Shaded with edges
 70
    26
177
     3
291
     0
 70
    58
 90
        2
176
     1
 90
        2
176
     1
 90
        1
176
     1
 90
        2
176
     1
 40
0.6
176
     1
 40
30.0
176
     1
 62
     7
420
 16777215
176
     1
 90
        1
176
     1
 90
       10
176
     1
 62
     7
176
     1
 62
   257
176
     1
 90
        2
176
     1
 90
        1
176
     1
 40
1.0
176
     1
 90
        8
176
     1
 62
   257
176
     1
 40
1.0
176
     1
 90
        1
176
     1
 90
        6
176
     1
 90
        2
176
     1
 62
     7
176
     1
 90
        3
176
     1
 90
        0
176
     1
 90
        0
176
     1
290
     0
176
     1
 90
        5
176
     1
 40
0.0
176
     1
 90
        0
176
     1
290
     0
176
     1
290
     1
176
     1
290
     1
176
     1
290
     0
176
     1
290
     0
176
     1
290
     0
176
     1
290
     0
176
     1
290
     0
176
     1
290
     0
176
     1
 90
       50
176
     1
 40
0.0
176
     1
 40
1.0
176
     1
 90
        0
176
     1
 62
    18
420
        0
176
     1
 90
       50
176
     1
 90
        3
176
     1
 62
     5
420
      255
176
     1
290
     0
176
     1
 90
       50
176
     1
 90
       50
176
     1
 90
       50
176
     1
290
     0
176
     1
 90
       50
176
     1
 62
   256
176
     0
 40
1.0
176
     0
 90
        2
176
     1
  1
strokes_ogs.tif
176
     1
290
     0
176
     1
 40
1.0
176
     1
 40
1.0
176
     1
  0
VISUALSTYLE
  5
1FE2
102
{ACAD_REACTORS
330
1E67
102
}
330
1E67
100
AcDbVisualStyle
  2
Shades of Gray
 70
    23
177
     3
291
     0
 70
    58
 90
        2
176
     1
 90
        2
176
     1
 90
        3
176
     1
 90
        0
176
     1
 40
0.6
176
     1
 40
30.0
176
     1
 62
     7
420
 16777215
176
     1
 90
        2
176
     1
 90
        2
176
     1
 62
     7
176
     1
 62
     7
176
     1
 90
        1
176
     1
 90
        1
176
     1
 40
40.0
176
     1
 90
        8
176
     1
 62
     7
176
     1
 40
1.0
176
     1
 90
        1
176
     1
 90
        6
176
     1
 90
        2
176
     1
 62
     7
176
     1
 90
        3
176
     1
 90
        0
176
     1
 90
        0
176
     1
290
     0
176
     1
 90
        1
176
     1
 40
0.0
176
     1
 90
        0
176
     1
290
     0
176
     1
290
     1
176
     1
290
     1
176
     1
290
     0
176
     1
290
     0
176
     1
290
     0
176
     1
290
     0
176
     1
290
     0
176
     1
290
     0
176
     1
 90
       50
176
     1
 40
0.0
176
     1
 40
1.0
176
     1
 90
        0
176
     1
 62
    18
420
        0
176
     1
 90
       50
176
     1
 90
        3
176
     1
 62
     5
420
      255
176
     1
290
     0
176
     1
 90
       50
176
     1
 90
       50
176
     1
 90
       50
176
     1
290
     0
176
     1
 90
       50
176
     1
 62
   256
176
     0
 40
1.0
176
     0
 90
        2
176
     1
  1
strokes_ogs.tif
176
     1
290
     0
176
     1
 40
1.0
176
     1
 40
1.0
176
     1
  0
VISUALSTYLE
  5
1FE3
102
{ACAD_REACTORS
330
1E67
102
}
330
1E67
100
AcDbVisualStyle
  2
Sketchy
 70
    24
177
     3
291
     0
 70
    58
 90
        1
176
     1
 90
        2
176
     1
 90
        2
176
     1
 90
        0
176
     1
 40
0.6
176
     1
 40
30.0
176
     1
 62
     7
420
 16777215
176
     1
 90
        2
176
     1
 90
        2
176
     1
 62
     7
176
     1
 62
     7
176
     1
 90
        1
176
     1
 90
        1
176
     1
 40
40.0
176
     1
 90
       11
176
     1
 62
     7
176
     1
 40
1.0
176
     1
 90
        1
176
     1
 90
        6
176
     1
 90
        2
176
     1
 62
     7
176
     1
 90
        6
176
     1
 90
        0
176
     1
 90
        0
176
     1
290
     0
176
     1
 90
        1
176
     1
 40
0.0
176
     1
 90
        0
176
     1
290
     0
176
     1
290
     1
176
     1
290
     1
176
     1
290
     0
176
     1
290
     0
176
     1
290
     0
176
     1
290
     0
176
     1
290
     0
176
     1
290
     0
176
     1
 90
       50
176
     1
 40
0.0
176
     1
 40
1.0
176
     1
 90
        0
176
     1
 62
    18
420
        0
176
     1
 90
       50
176
     1
 90
        3
176
     1
 62
     5
420
      255
176
     1
290
     0
176
     1
 90
       50
176
     1
 90
       50
176
     1
 90
       50
176
     1
290
     0
176
     1
 90
       50
176
     1
 62
   256
176
     0
 40
1.0
176
     0
 90
        2
176
     1
  1
strokes_ogs.tif
176
     1
290
     0
176
     1
 40
1.0
176
     1
 40
1.0
176
     1
  0
VISUALSTYLE
  5
1E74
102
{ACAD_REACTORS
330
1E67
102
}
330
1E67
100
AcDbVisualStyle
  2
Thicken
 70
    13
177
     3
291
     1
 70
    58
 90
        2
176
     1
 90
        2
176
     1
 90
        0
176
     1
 90
        0
176
     1
 40
-0.6
176
     1
 40
-30.0
176
     1
 62
     7
420
 16777215
176
     1
 90
        1
176
     1
 90
        4
176
     1
 62
     7
176
     1
 62
   257
176
     1
 90
        1
176
     1
 90
        1
176
     1
 40
1.0
176
     1
 90
       12
176
     1
 62
     7
176
     1
 40
1.0
176
     1
 90
        1
176
     1
 90
        6
176
     1
 90
        2
176
     1
 62
     7
176
     1
 90
        5
176
     1
 90
        0
176
     1
 90
        0
176
     1
290
     0
176
     1
 90
        1
176
     1
 40
0.0
176
     1
 90
        0
176
     1
290
     0
176
     1
290
     1
176
     1
290
     1
176
     1
290
     0
176
     1
290
     0
176
     1
290
     0
176
     1
290
     0
176
     1
290
     0
176
     1
290
     0
176
     1
 90
       50
176
     1
 40
0.0
176
     1
 40
1.0
176
     1
 90
        0
176
     1
 62
    18
420
        0
176
     1
 90
       50
176
     1
 90
        3
176
     1
 62
     5
420
      255
176
     1
290
     0
176
     1
 90
       50
176
     1
 90
       50
176
     1
 90
       50
176
     1
290
     0
176
     1
 90
       50
176
     1
 62
   256
176
     0
 40
1.0
176
     0
 90
        2
176
     1
  1
strokes_ogs.tif
176
     1
290
     0
176
     1
 40
1.0
176
     1
 40
1.0
176
     1
  0
VISUALSTYLE
  5
1FDD
102
{ACAD_REACTORS
330
1E67
102
}
330
1E67
100
AcDbVisualStyle
  2
Wireframe
 70
     5
177
     3
291
     0
 70
    58
 90
        0
176
     1
 90
        2
176
     1
 90
        0
176
     1
 90
        0
176
     1
 40
0.6
176
     1
 40
30.0
176
     1
 62
     7
420
 16777215
176
     1
 90
        1
176
     1
 90
        4
176
     1
 62
     7
176
     1
 62
   257
176
     1
 90
        1
176
     1
 90
        1
176
     1
 40
1.0
176
     1
 90
        0
176
     1
 62
   257
176
     1
 40
1.0
176
     1
 90
        1
176
     1
 90
        6
176
     1
 90
        2
176
     1
 62
     7
176
     1
 90
        3
176
     1
 90
        0
176
     1
 90
        0
176
     1
290
     0
176
     1
 90
        1
176
     1
 40
0.0
176
     1
 90
        0
176
     1
290
     0
176
     1
290
     1
176
     1
290
     1
176
     1
290
     0
176
     1
290
     0
176
     1
290
     0
176
     1
290
     0
176
     1
290
     0
176
     1
290
     0
176
     1
 90
       50
176
     1
 40
0.0
176
     1
 40
1.0
176
     1
 90
        0
176
     1
 62
    18
420
        0
176
     1
 90
       50
176
     1
 90
        3
176
     1
 62
     5
420
      255
176
     1
290
     0
176
     1
 90
       50
176
     1
 90
       50
176
     1
 90
       50
176
     1
290
     0
176
     1
 90
       50
176
     1
 62
   256
176
     0
 40
1.0
176
     0
 90
        2
176
     1
  1
strokes_ogs.tif
176
     1
290
     0
176
     1
 40
1.0
176
     1
 40
1.0
176
     1
  0
VISUALSTYLE
  5
1FE4
102
{ACAD_REACTORS
330
1E67
102
}
330
1E67
100
AcDbVisualStyle
  2
X-Ray
 70
    25
177
     3
291
     0
 70
    58
 90
        2
176
     1
 90
        2
176
     1
 90
        1
176
     1
 90
        1
176
     1
 40
0.5
176
     1
 40
30.0
176
     1
 62
     7
420
 16777215
176
     1
 90
        1
176
     1
 90
        0
176
     1
 62
     7
176
     1
 62
   257
176
     1
 90
        1
176
     1
 90
        1
176
     1
 40
1.0
176
     1
 90
        8
176
     1
 62
     7
176
     1
 40
1.0
176
     1
 90
        1
176
     1
 90
        6
176
     1
 90
        2
176
     1
 62
     7
176
     1
 90
        3
176
     1
 90
        0
176
     1
 90
        0
176
     1
290
     0
176
     1
 90
       13
176
     1
 40
0.0
176
     1
 90
        0
176
     1
290
     0
176
     1
290
     1
176
     1
290
     1
176
     1
290
     0
176
     1
290
     0
176
     1
290
     0
176
     1
290
     0
176
     1
290
     0
176
     1
290
     0
176
     1
 90
       50
176
     1
 40
0.0
176
     1
 40
1.0
176
     1
 90
        0
176
     1
 62
    18
420
        0
176
     1
 90
       50
176
     1
 90
        3
176
     1
 62
     5
420
      255
176
     1
290
     0
176
     1
 90
       50
176
     1
 90
       50
176
     1
 90
       50
176
     1
290
     0
176
     1
 90
       50
176
     1
 62
   256
176
     0
 40
1.0
176
     0
 90
        2
176
     1
  1
strokes_ogs.tif
176
     1
290
     0
176
     1
 40
1.0
176
     1
 40
1.0
176
     1
  0
DICTIONARYVAR
  5
1FDB
102
{ACAD_REACTORS
330
1FD7
102
}
330
1FD7
100
DictionaryVariables
280
     0
  1
1:1
  0
DICTIONARYVAR
  5
1FD9
102
{ACAD_REACTORS
330
1FD7
102
}
330
1FD7
100
DictionaryVariables
280
     0
  1
Standard
  0
DICTIONARYVAR
  5
1FD8
102
{ACAD_REACTORS
330
1FD7
102
}
330
1FD7
100
DictionaryVariables
280
     0
  1
Standard
  0
DICTIONARYVAR
  5
1FDC
102
{ACAD_REACTORS
330
1FD7
102
}
330
1FD7
100
DictionaryVariables
280
     0
  1
0
  0
DICTIONARYVAR
  5
1FDA
102
{ACAD_REACTORS
330
1FD7
102
}
330
1FD7
100
DictionaryVariables
280
     0
  1
0
  0
DICTIONARYVAR
  5
1FEB
102
{ACAD_REACTORS
330
1FD7
102
}
330
1FD7
100
DictionaryVariables
280
     0
  1
0
  0
DICTIONARY
  5
2000
330
1E79
100
AcDbDictionary
280
     1
281
     1
  3
ACAD_ROUNDTRIP_2008_TABLESTYLE_CELLSTYLEMAP
360
2001
  0
CELLSTYLEMAP
  5
2001
102
{ACAD_REACTORS
330
2000
102
}
330
2000
100
AcDbCellStyleMap
 90
        3
300
CELLSTYLE
  1
TABLEFORMAT_BEGIN
 90
        5
170
     1
 91
        0
 92
    32768
 62
   257
 93
        1
300
CONTENTFORMAT
  1
CONTENTFORMAT_BEGIN
 90
        0
 91
        0
 92
      512
 93
        0
300

 40
0.0
140
1.0
 94
        5
 62
     0
340
11
144
0.25
309
CONTENTFORMAT_END
171
     0
 94
        0
309
TABLEFORMAT_END
  1
CELLSTYLE_BEGIN
 90
        1
 91
        1
300
_TITLE
309
CELLSTYLE_END
300
CELLSTYLE
  1
TABLEFORMAT_BEGIN
 90
        5
170
     1
 91
        0
 92
        0
 62
   257
 93
        1
300
CONTENTFORMAT
  1
CONTENTFORMAT_BEGIN
 90
        0
 91
        0
 92
      512
 93
        0
300

 40
0.0
140
1.0
 94
        5
 62
     0
340
11
144
0.18
309
CONTENTFORMAT_END
171
     0
 94
        0
309
TABLEFORMAT_END
  1
CELLSTYLE_BEGIN
 90
        2
 91
        1
300
_HEADER
309
CELLSTYLE_END
300
CELLSTYLE
  1
TABLEFORMAT_BEGIN
 90
        5
170
     1
 91
        0
 92
        0
 62
   257
 93
        1
300
CONTENTFORMAT
  1
CONTENTFORMAT_BEGIN
 90
        0
 91
        0
 92
      512
 93
        0
300

 40
0.0
140
1.0
 94
        2
 62
     0
340
11
144
0.18
309
CONTENTFORMAT_END
171
     0
 94
        0
309
TABLEFORMAT_END
  1
CELLSTYLE_BEGIN
 90
        3
 91
        2
300
_DATA
309
CELLSTYLE_END
  0
ENDSEC
  0
EOF
